  0
SECTION
  2
HEADER
  9
$ACADVER
  1
AC1015
  9
$ACADMAINTVER
 70
     6
  9
$DWGCODEPAGE
  3
ANSI_932
  9
$INSBASE
 10
0.0
 20
0.0
 30
0.0
  9
$EXTMIN
 10
-105.0
 20
-148.5
 30
1.000000E+20
  9
$EXTMAX
 10
105.0
 20
148.5
 30
-1.000000E+20
  9
$LIMMIN
 10
-105.0
 20
-148.5
  9
$LIMMAX
 10
105.0
 20
148.5
  9
$ORTHOMODE
 70
     0
  9
$REGENMODE
 70
     1
  9
$FILLMODE
 70
     1
  9
$QTEXTMODE
 70
     0
  9
$MIRRTEXT
 70
     1
  9
$LTSCALE
 40
1.0
  9
$ATTMODE
 70
     1
  9
$TEXTSIZE
 40
0.2
  9
$TRACEWID
 40
0.05
  9
$TEXTSTYLE
  7
STANDARD
  9
$CLAYER
  8
0
  9
$CELTYPE
  6
CONTINUOUS
  9
$CECOLOR
 62
   256
  9
$CELTSCALE
 40
1.0
  9
$DISPSILH
 70
     0
  9
$DIMSCALE
 40
1.0
  9
$DIMASZ
 40
2.0
  9
$DIMEXO
 40
0.5
  9
$DIMDLI
 40
0.38
  9
$DIMRND
 40
0.0
  9
$DIMDLE
 40
0.0
  9
$DIMEXE
 40
2.0
  9
$DIMTP
 40
0.0
  9
$DIMTM
 40
0.0
  9
$DIMTXT
 40
4.0
  9
$DIMCEN
 40
0.09
  9
$DIMTSZ
 40
0.0
  9
$DIMTOL
 70
     0
  9
$DIMLIM
 70
     0
  9
$DIMTIH
 70
     0
  9
$DIMTOH
 70
     0
  9
$DIMSE1
 70
     0
  9
$DIMSE2
 70
     0
  9
$DIMTAD
 70
     1
  9
$DIMZIN
 70
     0
  9
$DIMBLK
  1

  9
$DIMASO
 70
     1
  9
$DIMSHO
 70
     1
  9
$DIMPOST
  1

  9
$DIMAPOST
  1

  9
$DIMALT
 70
     0
  9
$DIMALTD
 70
     2
  9
$DIMALTF
 40
25.4
  9
$DIMLFAC
 40
1.0
  9
$DIMTOFL
 70
     0
  9
$DIMTVP
 40
0.0
  9
$DIMTIX
 70
     0
  9
$DIMSOXD
 70
     0
  9
$DIMSAH
 70
     0
  9
$DIMBLK1
  1

  9
$DIMBLK2
  1

  9
$DIMSTYLE
  2
Standard
  9
$DIMCLRD
 70
     0
  9
$DIMCLRE
 70
     0
  9
$DIMCLRT
 70
     0
  9
$DIMTFAC
 40
1.0
  9
$DIMGAP
 40
0.5
  9
$DIMJUST
 70
     0
  9
$DIMSD1
 70
     0
  9
$DIMSD2
 70
     0
  9
$DIMTOLJ
 70
     1
  9
$DIMTZIN
 70
     0
  9
$DIMALTZ
 70
     0
  9
$DIMALTTZ
 70
     0
  9
$DIMUPT
 70
     0
  9
$DIMDEC
 70
     2
  9
$DIMTDEC
 70
     4
  9
$DIMALTU
 70
     2
  9
$DIMALTTD
 70
     2
  9
$DIMTXSTY
  7
STANDARD
  9
$DIMAUNIT
 70
     0
  9
$DIMADEC
 70
     2
  9
$DIMALTRND
 40
0.0
  9
$DIMAZIN
 70
     0
  9
$DIMDSEP
 70
     0
  9
$DIMATFIT
 70
     3
  9
$DIMFRAC
 70
     0
  9
$DIMLDRBLK
  1

  9
$DIMLUNIT
 70
     2
  9
$DIMLWD
 70
     0
  9
$DIMLWE
 70
     0
  9
$DIMTMOVE
 70
     0
  9
$LUNITS
 70
     2
  9
$LUPREC
 70
     4
  9
$SKETCHINC
 40
0.1
  9
$FILLETRAD
 40
0.0
  9
$AUNITS
 70
     0
  9
$AUPREC
 70
     0
  9
$MENU
  1
acad
  9
$ELEVATION
 40
0.0
  9
$PELEVATION
 40
0.0
  9
$THICKNESS
 40
0.0
  9
$LIMCHECK
 70
     0
  9
$CHAMFERA
 40
0.0
  9
$CHAMFERB
 40
0.0
  9
$CHAMFERC
 40
0.0
  9
$CHAMFERD
 40
0.0
  9
$SKPOLY
 70
     0
  9
$TDCREATE
 40
2452749.000000000
  9
$TDUCREATE
 40
0.000000000
  9
$TDUPDATE
 40
0.000000000
  9
$TDUUPDATE
 40
2447892.625000000
  9
$TDINDWG
 40
0.0000000000
  9
$TDUSRTIMER
 40
0.0000000000
  9
$USRTIMER
 70
     1
  9
$ANGBASE
 50
0.0
  9
$ANGDIR
 70
     0
  9
$PDMODE
 70
     0
  9
$PDSIZE
 40
0.0
  9
$PLINEWID
 40
0.0
  9
$SPLFRAME
 70
     0
  9
$SPLINETYPE
 70
     6
  9
$SPLINESEGS
 70
     8
  9
$HANDSEED
  5
FA
  9
$SURFTAB1
 70
     6
  9
$SURFTAB2
 70
     6
  9
$SURFTYPE
 70
     6
  9
$SURFU
 70
     6
  9
$SURFV
 70
     6
  9
$UCSBASE
  2

  9
$UCSNAME
  2

  9
$UCSORG
 10
0.0
 20
0.0
 30
0.0
  9
$UCSXDIR
 10
1.0
 20
0.0
 30
0.0
  9
$UCSYDIR
 10
0.0
 20
1.0
 30
0.0
  9
$UCSORTHOREF
  2

  9
$UCSORTHOVIEW
 70
     0
  9
$UCSORGTOP
 10
0.0
 20
0.0
 30
0.0
  9
$UCSORGBOTTOM
 10
0.0
 20
0.0
 30
0.0
  9
$UCSORGLEFT
 10
0.0
 20
0.0
 30
0.0
  9
$UCSORGRIGHT
 10
0.0
 20
0.0
 30
0.0
  9
$UCSORGFRONT
 10
0.0
 20
0.0
 30
0.0
  9
$UCSORGBACK
 10
0.0
 20
0.0
 30
0.0
  9
$PUCSBASE
  2

  9
$PUCSNAME
  2

  9
$PUCSORG
 10
0.0
 20
0.0
 30
0.0
  9
$PUCSXDIR
 10
1.0
 20
0.0
 30
0.0
  9
$PUCSYDIR
 10
0.0
 20
1.0
 30
0.0
  9
$PUCSORTHOREF
  2

  9
$PUCSORTHOVIEW
 70
     0
  9
$PUCSORGTOP
 10
0.0
 20
0.0
 30
0.0
  9
$PUCSORGBOTTOM
 10
0.0
 20
0.0
 30
0.0
  9
$PUCSORGLEFT
 10
0.0
 20
0.0
 30
0.0
  9
$PUCSORGRIGHT
 10
0.0
 20
0.0
 30
0.0
  9
$PUCSORGFRONT
 10
0.0
 20
0.0
 30
0.0
  9
$PUCSORGBACK
 10
0.0
 20
0.0
 30
0.0
  9
$USERI1
 70
     0
  9
$USERI2
 70
     0
  9
$USERI3
 70
     0
  9
$USERI4
 70
     0
  9
$USERI5
 70
     0
  9
$USERR1
 40
0.0
  9
$USERR2
 40
0.0
  9
$USERR3
 40
0.0
  9
$USERR4
 40
0.0
  9
$USERR5
 40
0.0
  9
$WORLDVIEW
 70
     1
  9
$SHADEDGE
 70
     3
  9
$SHADEDIF
 70
    70
  9
$TILEMODE
 70
     1
  9
$MAXACTVP
 70
    16
  9
$PINSBASE
 10
0.0
 20
0.0
 30
0.0
  9
$PLIMCHECK
 70
     0
  9
$PEXTMIN
 10
1.000000E+20
 20
1.000000E+20
 30
1.000000E+20
  9
$PEXTMAX
 10
-1.000000E+20
 20
-1.000000E+20
 30
-1.000000E+20
  9
$PLIMMIN
 10
0.0
 20
0.0
  9
$PLIMMAX
 10
12.0
 20
9.0
  9
$UNITMODE
 70
     0
  9
$VISRETAIN
 70
     0
  9
$PLINEGEN
 70
     1
  9
$PSLTSCALE
 70
     0
  9
$TREEDEPTH
 70
  3020
  9
$CMLSTYLE
  2
Standard
  9
$CMLJUST
 70
     0
  9
$CMLSCALE
 40
1.0
  9
$PROXYGRAPHICS
 70
     0
  9
$MEASUREMENT
 70
     0
  9
$CELWEIGHT
370
     0
  9
$ENDCAPS
280
     0
  9
$JOINSTYLE
280
     0
  9
$LWDISPLAY
290
     0
  9
$INSUNITS
 70
     0
  9
$HYPERLINKBASE
  1

  9
$STYLESHEET
  1

  9
$XEDIT
290
     1
  9
$CEPSNTYPE
380
     0
  9
$PSTYLEMODE
290
     1
  9
$FINGERPRINTGUID
  2

  9
$VERSIONGUID
  2

  9
$EXTNAMES
290
     1
  9
$PSVPSCALE
 40
0.0
  0
ENDSEC
  0
SECTION
  2
CLASSES
  0
CLASS
  1
LWPOLYLINE
  2
AcDbPolyline
  3
AutoCAD 2000
 90
        0
280
     0
281
     1
  0
CLASS
  1
IMAGE
  2
AcDbRasterImage
  3
ISM
 90
      127
280
     0
281
     1
  0
CLASS
  1
OLE2FRAME
  2
AcDbOle2Frame
  3
AutoCAD 2000
 90
        0
280
     0
281
     1
  0
CLASS
  1
HATCH
  2
AcDbHatch
  3
AutoCAD 2000
 90
        0
280
     0
281
     1
  0
CLASS
  1
DICTIONARYVAR
  2
AcDbDictionaryVar
  3
AutoCAD 2000
 90
        0
280
     0
281
     0
  0
CLASS
  1
RASTERVARIABLES
  2
AcDbRasterVariables
  3
ISM
 90
        0
280
     0
281
     0
  0
CLASS
  1
IMAGEDEF
  2
AcDbRasterImageDef
  3
ISM
 90
        0
280
     0
281
     0
  0
CLASS
  1
IMAGEDEF_REACTOR
  2
AcDbRasterImageDefReactor
  3
ISM
 90
        1
280
     0
281
     0
  0
CLASS
  1
IDBUFFER
  2
AcDbIdBuffer
  3
AutoCAD 2000
 90
        0
280
     0
281
     0
  0
CLASS
  1
SPATIAL_FILTER
  2
AcDbSpatialFilter
  3
AutoCAD 2000
 90
        0
280
     0
281
     0
  0
CLASS
  1
XRECORD
  2
AcDbXrecord
  3
AutoCAD 2000
 90
        0
280
     0
281
     0
  0
CLASS
  1
SORTENTSTABLE
  2
AcDbSortentsTable
  3
AutoCAD 2000
 90
        0
280
     0
281
     0
  0
CLASS
  1
LAYER_INDEX
  2
AcDbLayerIndex
  3
AutoCAD 2000
 90
        0
280
     0
281
     0
  0
CLASS
  1
SPATIAL_INDEX
  2
AcDbSpatialIndex
  3
AutoCAD 2000
 90
        0
280
     0
281
     0
  0
CLASS
  1
OBJECT_PTR
  2
CAseDLPNTableRecord
  3
"ASE-LPNTableRecord"
 90
        1
280
     0
281
     0
  0
CLASS
  1
LAYOUT
  2
AcDbLayout
  3
AutoCAD 2000
 90
        0
280
     0
281
     0
  0
CLASS
  1
PLOTSETTINGS
  2
AcDbPlotSettings
  3
AutoCAD 2000
 90
        0
280
     0
281
     0
  0
CLASS
  1
ACDBDICTIONARYWDFLT
  2
AcDbDictionaryWithDefault
  3
AutoCAD 2000
 90
        0
280
     0
281
     0
  0
CLASS
  1
ACDBPLACEHOLDER
  2
AcDbPlaceHolder
  3
AutoCAD 2000
 90
        0
280
     0
281
     0
  0
CLASS
  1
VBA_PROJECT
  2
AcDbVbaProject
  3
acadvba
 90
        0
280
     0
281
     0
  0
CLASS
  1
WIPEOUT
  2
AcDbWipeout
  3
WipeOut|AutoCAD Express Tool|expresstools@autodesk.com
 90
      127
280
     0
281
     1
  0
CLASS
  1
WIPEOUTVARIABLES
  2
AcDbWipeoutVariables
  3
WipeOut|AutoCAD Express Tool|expresstools@autodesk.com
 90
        0
280
     0
281
     0
  0
CLASS
  1
RTEXT
  2
RText
  3
RText|AutoCAD Express Tool|expresstools@autodesk.com
 90
        0
280
     0
281
     1
  0
CLASS
  1
ARCALIGNEDTEXT
  2
AcDbArcAlignedText
  3
ATEXT|AutoCAD Express Tool|expresstools@autodesk.com
 90
        0
280
     0
281
     1
  0
ENDSEC
  0
SECTION
  2
TABLES
  0
TABLE
  2
VPORT
  5
6
100
AcDbSymbolTable
 70
     1
  0
VPORT
  5
1A
100
AcDbSymbolTableRecord
100
AcDbViewportTableRecord
  2
*ACTIVE
 70
     0
 10
0.0
 20
0.0
 11
1.0
 21
1.0
 12
0.0
 22
0.0
 13
0.0
 23
0.0
 14
1.0
 24
1.0
 15
0.0
 25
0.0
 16
0.0
 26
0.0
 36
1.0
 17
0.0
 27
0.0
 37
0.0
 40
297.0
 41
0.707071
 42
50.0
 43
0.0
 44
0.0
 50
0.0
 51
0.0
 71
     0
 72
   500
 73
     1
 74
     1
 75
     0
 76
     0
 77
     0
 78
     0
281
     0
 65
     0
110
0.0
120
0.0
130
0.0
111
1.0
121
0.0
131
0.0
112
0.0
122
1.0
132
0.0
345
0
346
0
 79
     0
146
0.0
  0
ENDTAB
  0
TABLE
  2
LTYPE
  5
3
100
AcDbSymbolTable
 70
     9
  0
LTYPE
  5
C
100
AcDbSymbolTableRecord
100
AcDbLinetypeTableRecord
  2
ByBlock
 70
    64
  3

 72
    65
 73
     0
 40
0.0
  0
LTYPE
  5
D
100
AcDbSymbolTableRecord
100
AcDbLinetypeTableRecord
  2
ByLayer
 70
    64
  3

 72
    65
 73
     0
 40
0.0
  0
LTYPE
  5
E
100
AcDbSymbolTableRecord
100
AcDbLinetypeTableRecord
  2
CONTINUOUS
 70
     0
  3
Solid line
 72
    65
 73
     0
 40
0.0
  0
LTYPE
  5
F
100
AcDbSymbolTableRecord
100
AcDbLinetypeTableRecord
  2
DASHED
 70
     0
  3
__ __ __ __ __ __ __ __ __ __ __ __ __ __ __
 72
    65
 73
     2
 40
2.0
 49
1.2
 74
     0
 49
-0.8
 74
     0
  0
LTYPE
  5
10
100
AcDbSymbolTableRecord
100
AcDbLinetypeTableRecord
  2
CENTER
 70
     0
  3
____ _ ____ _ ____ _ ____ _ ____ _ ____ _ ____
 72
    65
 73
     4
 40
12.0
 49
9.0
 74
     0
 49
-1.0
 74
     0
 49
1.0
 74
     0
 49
-1.0
 74
     0
  0
LTYPE
  5
11
100
AcDbSymbolTableRecord
100
AcDbLinetypeTableRecord
  2
HIDDEN
 70
     0
  3
_ _ _ _ _ _ _ _ _ _ _ _ _ _ _ _ _ _ _ _ _ _ _
 72
    65
 73
     2
 40
3.2
 49
1.3
 74
     0
 49
-1.9
 74
     0
  0
LTYPE
  5
12
100
AcDbSymbolTableRecord
100
AcDbLinetypeTableRecord
  2
PHANTOM
 70
     0
  3
_____ _ _ _____ _ _ _____ _ _ _____ _ _ _____
 72
    65
 73
     6
 40
12.5
 49
9.0
 74
     0
 49
-1.0
 74
     0
 49
0.5
 74
     0
 49
-0.5
 74
     0
 49
0.5
 74
     0
 49
-1.0
 74
     0
  0
LTYPE
  5
13
100
AcDbSymbolTableRecord
100
AcDbLinetypeTableRecord
  2
DOT
 70
     0
  3
...............................................
 72
    65
 73
     2
 40
1.0
 49
0.5
 74
     0
 49
-0.5
 74
     0
  0
LTYPE
  5
14
100
AcDbSymbolTableRecord
100
AcDbLinetypeTableRecord
  2
DASHDOT
 70
     0
  3
__ . __ . __ . __ . __ . __ . __ . __ . __ . __
 72
    65
 73
     4
 40
8.0
 49
5.0
 74
     0
 49
-1.0
 74
     0
 49
1.0
 74
     0
 49
-1.0
 74
     0
  0
ENDTAB
  0
TABLE
  2
LAYER
  5
1
100
AcDbSymbolTable
 70
     5
  0
LAYER
  5
15
100
AcDbSymbolTableRecord
100
AcDbLayerTableRecord
  2
0
 70
     0
 62
     8
  6
CONTINUOUS
290
     1
370
    -3
390
0
  0
LAYER
  5
16
100
AcDbSymbolTableRecord
100
AcDbLayerTableRecord
  2
1
 70
     0
 62
     2
  6
CONTINUOUS
290
     1
370
    -3
390
0
  0
LAYER
  5
17
100
AcDbSymbolTableRecord
100
AcDbLayerTableRecord
  2
2
 70
     0
 62
     3
  6
CONTINUOUS
290
     1
370
    -3
390
0
  0
LAYER
  5
18
100
AcDbSymbolTableRecord
100
AcDbLayerTableRecord
  2
3
 70
     0
 62
     4
  6
CONTINUOUS
290
     1
370
    -3
390
0
  0
LAYER
  5
19
100
AcDbSymbolTableRecord
100
AcDbLayerTableRecord
  2
4
 70
     0
 62
     1
  6
CONTINUOUS
290
     1
370
    -3
390
0
  0
ENDTAB
  0
TABLE
  2
STYLE
  5
2
100
AcDbSymbolTable
 70
     1
  0
STYLE
  5
1C
100
AcDbSymbolTableRecord
100
AcDbTextStyleTableRecord
  2
STANDARD
 70
    64
 40
0.0
 41
1.0
 50
0.0
 71
     0
 42
1.0
  3
txt
  4
BIGFONT
  0
ENDTAB
  0
TABLE
  2
VIEW
  5
4
100
AcDbSymbolTable
 70
     0
  0
ENDTAB
  0
TABLE
  2
UCS
  5
5
100
AcDbSymbolTable
 70
     0
  0
ENDTAB
  0
TABLE
  2
APPID
  5
7
100
AcDbSymbolTable
 70
     1
  0
APPID
  5
1B
100
AcDbSymbolTableRecord
100
AcDbRegAppTableRecord
  2
ACAD
 70
     0
  0
ENDTAB
  0
TABLE
  2
DIMSTYLE
  5
8
100
AcDbSymbolTable
 70
     1
100
AcDbDimStyleTable
 71
     0
  0
DIMSTYLE
105
2C
100
AcDbSymbolTableRecord
100
AcDbDimStyleTableRecord
  2
Standard
 70
     0
  3

  4

 40
1.0
 41
2.0
 42
0.5
 43
0.38
 44
2.0
 45
0.0
 46
0.0
 47
0.0
 48
0.0
 71
     0
 72
     0
 73
     0
 74
     0
 75
     0
 76
     0
 77
     1
 78
     0
 79
     0
140
4.0
141
0.09
142
0.0
143
25.4
144
1.0
145
0.0
146
1.0
147
0.5
148
0.0
170
     0
171
     2
172
     0
173
     0
174
     0
175
     0
176
     0
177
     0
178
     0
179
     0
271
     2
272
     4
273
     2
274
     2
275
     0
276
     0
277
     2
278
    46
279
     0
280
     0
281
     0
282
     0
283
     1
284
     0
285
     0
286
     0
288
     0
289
     3
340
1C
341
0
342
0
343
0
344
0
371
    -2
372
    -2
  0
ENDTAB
  0
TABLE
  2
BLOCK_RECORD
  5
27
100
AcDbSymbolTable
 70
     8
  0
BLOCK_RECORD
  5
25
100
AcDbSymbolTableRecord
100
AcDbBlockTableRecord
  2
*Model_Space
340
0
  0
BLOCK_RECORD
  5
26
100
AcDbSymbolTableRecord
100
AcDbBlockTableRecord
  2
*Paper_Space
340
0
  0
BLOCK_RECORD
  5
1D
100
AcDbSymbolTableRecord
100
AcDbBlockTableRecord
  2
*D0
340
0
  0
BLOCK_RECORD
  5
1E
100
AcDbSymbolTableRecord
100
AcDbBlockTableRecord
  2
*D1
340
0
  0
BLOCK_RECORD
  5
1F
100
AcDbSymbolTableRecord
100
AcDbBlockTableRecord
  2
*D2
340
0
  0
BLOCK_RECORD
  5
20
100
AcDbSymbolTableRecord
100
AcDbBlockTableRecord
  2
*D3
340
0
  0
BLOCK_RECORD
  5
21
100
AcDbSymbolTableRecord
100
AcDbBlockTableRecord
  2
*D4
340
0
  0
BLOCK_RECORD
  5
22
100
AcDbSymbolTableRecord
100
AcDbBlockTableRecord
  2
*D5
340
0
  0
BLOCK_RECORD
  5
23
100
AcDbSymbolTableRecord
100
AcDbBlockTableRecord
  2
*D6
340
0
  0
BLOCK_RECORD
  5
24
100
AcDbSymbolTableRecord
100
AcDbBlockTableRecord
  2
*D7
340
0
  0
ENDTAB
  0
ENDSEC
  0
SECTION
  2
BLOCKS
  0
BLOCK
  5
28
100
AcDbEntity
  8
0
390
0
100
AcDbBlockBegin
  2
*Model_Space
 70
     0
 10
0.0
 20
0.0
 30
0.0
  3
*Model_Space
  1

  0
ENDBLK
  5
29
100
AcDbEntity
  8
0
390
0
100
AcDbBlockEnd
  0
BLOCK
  5
2A
100
AcDbEntity
 67
     1
  8
0
390
0
100
AcDbBlockBegin
  2
*Paper_Space
 70
     0
 10
0.0
 20
0.0
 30
0.0
  3
*Paper_Space
  1

  0
ENDBLK
  5
2B
100
AcDbEntity
 67
     1
  8
0
390
0
100
AcDbBlockEnd
  0
BLOCK
  5
A6
100
AcDbEntity
  8
2
100
AcDbBlockBegin
  2
*D0
 70
     1
 10
0.0
 20
0.0
 30
0.0
  3
*D0
  1

  0
TEXT
  5
A7
100
AcDbEntity
  8
2
370
    25
100
AcDbText
 10
-65.332047
 20
30.811062
 30
0.0
 40
4.0
  1
φ２４
 50
90.0
 72
     5
 11
-65.332047
 21
42.011062
 31
0.0
100
AcDbText
  0
LINE
  5
A8
100
AcDbEntity
  8
2
370
    25
100
AcDbLine
 10
-44.670419
 20
48.811062
 30
0.0
 11
-65.832047
 21
48.811062
 31
0.0
  0
LINE
  5
A9
100
AcDbEntity
  8
2
370
    25
100
AcDbLine
 10
-64.832047
 20
48.811062
 30
0.0
 11
-65.349685
 21
46.879211
 31
0.0
  0
LINE
  5
AA
100
AcDbEntity
  8
2
370
    25
100
AcDbLine
 10
-64.832047
 20
48.811062
 30
0.0
 11
-64.314408
 21
46.879211
 31
0.0
  0
LINE
  5
AB
100
AcDbEntity
  8
2
370
    25
100
AcDbLine
 10
-64.832047
 20
48.811062
 30
0.0
 11
-64.832047
 21
24.811062
 31
0.0
  0
LINE
  5
AC
100
AcDbEntity
  8
2
370
    25
100
AcDbLine
 10
-64.832047
 20
24.811062
 30
0.0
 11
-64.314408
 21
26.742914
 31
0.0
  0
LINE
  5
AD
100
AcDbEntity
  8
2
370
    25
100
AcDbLine
 10
-64.832047
 20
24.811062
 30
0.0
 11
-65.349685
 21
26.742914
 31
0.0
  0
LINE
  5
AE
100
AcDbEntity
  8
2
370
    25
100
AcDbLine
 10
-44.670419
 20
24.811062
 30
0.0
 11
-65.832047
 21
24.811062
 31
0.0
  0
ENDBLK
  5
AF
100
AcDbEntity
  8
2
100
AcDbBlockEnd
  0
BLOCK
  5
B0
100
AcDbEntity
  8
2
100
AcDbBlockBegin
  2
*D1
 70
     1
 10
0.0
 20
0.0
 30
0.0
  3
*D1
  1

  0
TEXT
  5
B1
100
AcDbEntity
  8
2
370
    25
100
AcDbText
 10
-71.762444
 20
32.811062
 30
0.0
 40
4.0
  1
７０
 50
90.0
 72
     5
 11
-71.762444
 21
40.011062
 31
0.0
100
AcDbText
  0
LINE
  5
B2
100
AcDbEntity
  8
2
370
    25
100
AcDbLine
 10
-57.170419
 20
1.811062
 30
0.0
 11
-72.262444
 21
1.811062
 31
0.0
  0
LINE
  5
B3
100
AcDbEntity
  8
2
370
    25
100
AcDbLine
 10
-71.262444
 20
1.811062
 30
0.0
 11
-70.744805
 21
3.742914
 31
0.0
  0
LINE
  5
B4
100
AcDbEntity
  8
2
370
    25
100
AcDbLine
 10
-71.262444
 20
1.811062
 30
0.0
 11
-71.780082
 21
3.742914
 31
0.0
  0
LINE
  5
B5
100
AcDbEntity
  8
2
370
    25
100
AcDbLine
 10
-71.262444
 20
1.811062
 30
0.0
 11
-71.262444
 21
71.811062
 31
0.0
  0
LINE
  5
B6
100
AcDbEntity
  8
2
370
    25
100
AcDbLine
 10
-71.262444
 20
71.811062
 30
0.0
 11
-71.780082
 21
69.879211
 31
0.0
  0
LINE
  5
B7
100
AcDbEntity
  8
2
370
    25
100
AcDbLine
 10
-71.262444
 20
71.811062
 30
0.0
 11
-70.744805
 21
69.879211
 31
0.0
  0
LINE
  5
B8
100
AcDbEntity
  8
2
370
    25
100
AcDbLine
 10
-57.170419
 20
71.811062
 30
0.0
 11
-72.262444
 21
71.811062
 31
0.0
  0
ENDBLK
  5
B9
100
AcDbEntity
  8
2
100
AcDbBlockEnd
  0
BLOCK
  5
BA
100
AcDbEntity
  8
2
100
AcDbBlockBegin
  2
*D2
 70
     1
 10
0.0
 20
0.0
 30
0.0
  3
*D2
  1

  0
TEXT
  5
BB
100
AcDbEntity
  8
2
370
    25
100
AcDbText
 10
-7.404686
 20
-7.539415
 30
0.0
 40
4.0
  1
４．２
 72
     5
 11
3.795314
 21
-7.539415
 31
0.0
100
AcDbText
  0
LINE
  5
BC
100
AcDbEntity
  8
2
370
    25
100
AcDbLine
 10
-13.604686
 20
-1.503613
 30
0.0
 11
-13.604686
 21
-9.039415
 31
0.0
  0
LINE
  5
BD
100
AcDbEntity
  8
2
370
    25
100
AcDbLine
 10
-13.604686
 20
-8.039415
 30
0.0
 11
-15.536537
 21
-7.521777
 31
0.0
  0
LINE
  5
BE
100
AcDbEntity
  8
2
370
    25
100
AcDbLine
 10
-13.604686
 20
-8.039415
 30
0.0
 11
-15.536537
 21
-8.557053
 31
0.0
  0
LINE
  5
BF
100
AcDbEntity
  8
2
370
    25
100
AcDbLine
 10
-18.604686
 20
-8.039415
 30
0.0
 11
5.595314
 21
-8.039415
 31
0.0
  0
LINE
  5
C0
100
AcDbEntity
  8
2
370
    25
100
AcDbLine
 10
-9.404686
 20
-8.039415
 30
0.0
 11
-7.472834
 21
-8.557053
 31
0.0
  0
LINE
  5
C1
100
AcDbEntity
  8
2
370
    25
100
AcDbLine
 10
-9.404686
 20
-8.039415
 30
0.0
 11
-7.472834
 21
-7.521777
 31
0.0
  0
LINE
  5
C2
100
AcDbEntity
  8
2
370
    25
100
AcDbLine
 10
-9.404686
 20
1.311062
 30
0.0
 11
-9.404686
 21
-9.039415
 31
0.0
  0
ENDBLK
  5
C3
100
AcDbEntity
  8
2
100
AcDbBlockEnd
  0
BLOCK
  5
C4
100
AcDbEntity
  8
2
100
AcDbBlockBegin
  2
*D3
 70
     1
 10
0.0
 20
0.0
 30
0.0
  3
*D3
  1

  0
TEXT
  5
C5
100
AcDbEntity
  8
2
370
    25
100
AcDbText
 10
19.895314
 20
-15.187966
 30
0.0
 40
4.0
  1
５１
 72
     5
 11
27.095314
 21
-15.187966
 31
0.0
100
AcDbText
  0
LINE
  5
C6
100
AcDbEntity
  8
2
370
    25
100
AcDbLine
 10
-13.604686
 20
-1.503613
 30
0.0
 11
-13.604686
 21
-16.687966
 31
0.0
  0
LINE
  5
C7
100
AcDbEntity
  8
2
370
    25
100
AcDbLine
 10
-13.604686
 20
-15.687966
 30
0.0
 11
-11.672834
 21
-16.205604
 31
0.0
  0
LINE
  5
C8
100
AcDbEntity
  8
2
370
    25
100
AcDbLine
 10
-13.604686
 20
-15.687966
 30
0.0
 11
-11.672834
 21
-15.170328
 31
0.0
  0
LINE
  5
C9
100
AcDbEntity
  8
2
370
    25
100
AcDbLine
 10
-13.604686
 20
-15.687966
 30
0.0
 11
37.395314
 21
-15.687966
 31
0.0
  0
LINE
  5
CA
100
AcDbEntity
  8
2
370
    25
100
AcDbLine
 10
37.395314
 20
-15.687966
 30
0.0
 11
35.463463
 21
-15.170328
 31
0.0
  0
LINE
  5
CB
100
AcDbEntity
  8
2
370
    25
100
AcDbLine
 10
37.395314
 20
-15.687966
 30
0.0
 11
35.463463
 21
-16.205604
 31
0.0
  0
LINE
  5
CC
100
AcDbEntity
  8
2
370
    25
100
AcDbLine
 10
37.395314
 20
11.014878
 30
0.0
 11
37.395314
 21
-16.687966
 31
0.0
  0
ENDBLK
  5
CD
100
AcDbEntity
  8
2
100
AcDbBlockEnd
  0
BLOCK
  5
CE
100
AcDbEntity
  8
2
100
AcDbBlockBegin
  2
*D4
 70
     1
 10
0.0
 20
0.0
 30
0.0
  3
*D4
  1

  0
TEXT
  5
CF
100
AcDbEntity
  8
2
370
    25
100
AcDbText
 10
22.395314
 20
-30.825018
 30
0.0
 40
4.0
  1
８０
 72
     5
 11
29.595314
 21
-30.825018
 31
0.0
100
AcDbText
  0
LINE
  5
D0
100
AcDbEntity
  8
2
370
    25
100
AcDbLine
 10
-13.604686
 20
-1.503613
 30
0.0
 11
-13.604686
 21
-32.325018
 31
0.0
  0
LINE
  5
D1
100
AcDbEntity
  8
2
370
    25
100
AcDbLine
 10
-13.604686
 20
-31.325018
 30
0.0
 11
-11.672834
 21
-31.842656
 31
0.0
  0
LINE
  5
D2
100
AcDbEntity
  8
2
370
    25
100
AcDbLine
 10
-13.604686
 20
-31.325018
 30
0.0
 11
-11.672834
 21
-30.80738
 31
0.0
  0
LINE
  5
D3
100
AcDbEntity
  8
2
370
    25
100
AcDbLine
 10
-13.604686
 20
-31.325018
 30
0.0
 11
66.395314
 21
-31.325018
 31
0.0
  0
LINE
  5
D4
100
AcDbEntity
  8
2
370
    25
100
AcDbLine
 10
66.395314
 20
-31.325018
 30
0.0
 11
64.463463
 21
-30.80738
 31
0.0
  0
LINE
  5
D5
100
AcDbEntity
  8
2
370
    25
100
AcDbLine
 10
66.395314
 20
-31.325018
 30
0.0
 11
64.463463
 21
-31.842656
 31
0.0
  0
LINE
  5
D6
100
AcDbEntity
  8
2
370
    25
100
AcDbLine
 10
66.395314
 20
24.311062
 30
0.0
 11
66.395314
 21
-32.325018
 31
0.0
  0
ENDBLK
  5
D7
100
AcDbEntity
  8
2
100
AcDbBlockEnd
  0
BLOCK
  5
D8
100
AcDbEntity
  8
2
100
AcDbBlockBegin
  2
*D5
 70
     1
 10
0.0
 20
0.0
 30
0.0
  3
*D5
  1

  0
LINE
  5
D9
100
AcDbEntity
  8
2
370
    25
100
AcDbLine
 10
-13.604686
 20
-1.503613
 30
0.0
 11
-13.604686
 21
-24.676455
 31
0.0
  0
LINE
  5
DA
100
AcDbEntity
  8
2
370
    25
100
AcDbLine
 10
-13.604686
 20
-23.676455
 30
0.0
 11
-11.672834
 21
-24.194093
 31
0.0
  0
LINE
  5
DB
100
AcDbEntity
  8
2
370
    25
100
AcDbLine
 10
-13.604686
 20
-23.676455
 30
0.0
 11
-11.672834
 21
-23.158816
 31
0.0
  0
LINE
  5
DC
100
AcDbEntity
  8
2
370
    25
100
AcDbLine
 10
-13.604686
 20
-23.676455
 30
0.0
 11
46.395314
 21
-23.676455
 31
0.0
  0
LINE
  5
DD
100
AcDbEntity
  8
2
370
    25
100
AcDbLine
 10
46.395314
 20
-23.676455
 30
0.0
 11
44.463463
 21
-23.158816
 31
0.0
  0
LINE
  5
DE
100
AcDbEntity
  8
2
370
    25
100
AcDbLine
 10
46.395314
 20
-23.676455
 30
0.0
 11
44.463463
 21
-24.194093
 31
0.0
  0
LINE
  5
DF
100
AcDbEntity
  8
2
370
    25
100
AcDbLine
 10
46.395314
 20
11.014878
 30
0.0
 11
46.395314
 21
-24.676455
 31
0.0
  0
ENDBLK
  5
E0
100
AcDbEntity
  8
2
100
AcDbBlockEnd
  0
BLOCK
  5
E1
100
AcDbEntity
  8
2
100
AcDbBlockBegin
  2
*D6
 70
     1
 10
0.0
 20
0.0
 30
0.0
  3
*D6
  1

  0
TEXT
  5
E2
100
AcDbEntity
  8
2
370
    25
100
AcDbText
 10
23.395314
 20
-38.573517
 30
0.0
 40
4.0
  1
（９０）
 72
     5
 11
38.595314
 21
-38.573517
 31
0.0
100
AcDbText
  0
LINE
  5
E3
100
AcDbEntity
  8
2
370
    25
100
AcDbLine
 10
-13.604686
 20
-1.503613
 30
0.0
 11
-13.604686
 21
-40.073517
 31
0.0
  0
LINE
  5
E4
100
AcDbEntity
  8
2
370
    25
100
AcDbLine
 10
-13.604686
 20
-39.073517
 30
0.0
 11
-11.672834
 21
-39.591155
 31
0.0
  0
LINE
  5
E5
100
AcDbEntity
  8
2
370
    25
100
AcDbLine
 10
-13.604686
 20
-39.073517
 30
0.0
 11
-11.672834
 21
-38.555879
 31
0.0
  0
LINE
  5
E6
100
AcDbEntity
  8
2
370
    25
100
AcDbLine
 10
-13.604686
 20
-39.073517
 30
0.0
 11
76.395314
 21
-39.073517
 31
0.0
  0
LINE
  5
E7
100
AcDbEntity
  8
2
370
    25
100
AcDbLine
 10
76.395314
 20
-39.073517
 30
0.0
 11
74.463463
 21
-38.555879
 31
0.0
  0
LINE
  5
E8
100
AcDbEntity
  8
2
370
    25
100
AcDbLine
 10
76.395314
 20
-39.073517
 30
0.0
 11
74.463463
 21
-39.591155
 31
0.0
  0
LINE
  5
E9
100
AcDbEntity
  8
2
370
    25
100
AcDbLine
 10
76.395314
 20
24.311062
 30
0.0
 11
76.395314
 21
-40.073517
 31
0.0
  0
ENDBLK
  5
EA
100
AcDbEntity
  8
2
100
AcDbBlockEnd
  0
BLOCK
  5
EB
100
AcDbEntity
  8
2
100
AcDbBlockBegin
  2
*D7
 70
     1
 10
0.0
 20
0.0
 30
0.0
  3
*D7
  1

  0
TEXT
  5
EC
100
AcDbEntity
  8
2
370
    25
100
AcDbText
 10
-48.170419
 20
-7.539415
 30
0.0
 40
4.0
  1
２５
 72
     5
 11
-40.970419
 21
-7.539415
 31
0.0
100
AcDbText
  0
LINE
  5
ED
100
AcDbEntity
  8
2
370
    25
100
AcDbLine
 10
-56.670419
 20
1.311062
 30
0.0
 11
-56.670419
 21
-9.039415
 31
0.0
  0
LINE
  5
EE
100
AcDbEntity
  8
2
370
    25
100
AcDbLine
 10
-56.670419
 20
-8.039415
 30
0.0
 11
-54.738567
 21
-8.557053
 31
0.0
  0
LINE
  5
EF
100
AcDbEntity
  8
2
370
    25
100
AcDbLine
 10
-56.670419
 20
-8.039415
 30
0.0
 11
-54.738567
 21
-7.521777
 31
0.0
  0
LINE
  5
F0
100
AcDbEntity
  8
2
370
    25
100
AcDbLine
 10
-56.670419
 20
-8.039415
 30
0.0
 11
-31.670419
 21
-8.039415
 31
0.0
  0
LINE
  5
F1
100
AcDbEntity
  8
2
370
    25
100
AcDbLine
 10
-31.670419
 20
-8.039415
 30
0.0
 11
-33.60227
 21
-7.521777
 31
0.0
  0
LINE
  5
F2
100
AcDbEntity
  8
2
370
    25
100
AcDbLine
 10
-31.670419
 20
-8.039415
 30
0.0
 11
-33.60227
 21
-8.557053
 31
0.0
  0
LINE
  5
F3
100
AcDbEntity
  8
2
370
    25
100
AcDbLine
 10
-31.670419
 20
1.311062
 30
0.0
 11
-31.670419
 21
-9.039415
 31
0.0
  0
ENDBLK
  5
F4
100
AcDbEntity
  8
2
100
AcDbBlockEnd
  0
ENDSEC
  0
SECTION
  2
ENTITIES
  0
LINE
  5
2D
100
AcDbEntity
  8
1
370
   100
100
AcDbLine
 10
-56.670419
 20
71.811062
 30
0.0
 11
-56.670419
 21
1.811062
 31
0.0
  0
LINE
  5
2E
100
AcDbEntity
  8
1
370
   100
100
AcDbLine
 10
-31.670419
 20
71.811062
 30
0.0
 11
-31.670419
 21
1.811062
 31
0.0
  0
LINE
  5
2F
100
AcDbEntity
  8
1
370
    25
  6
CENTER
100
AcDbLine
 10
-60.283826
 20
36.811062
 30
0.0
 11
74.978762
 21
36.811062
 31
0.0
  0
CIRCLE
  5
30
100
AcDbEntity
  8
1
370
   100
100
AcDbCircle
 10
-44.170419
 20
36.811062
 30
0.0
 40
12.0
  0
LINE
  5
31
100
AcDbEntity
  8
1
370
    50
  6
DASHED
100
AcDbLine
 10
-9.404686
 20
71.811062
 30
0.0
 11
-9.404686
 21
1.811062
 31
0.0
  0
LINE
  5
32
100
AcDbEntity
  8
1
370
    25
  6
CENTER
100
AcDbLine
 10
37.395314
 20
62.944817
 30
0.0
 11
37.395314
 21
11.514878
 31
0.0
  0
LINE
  5
33
100
AcDbEntity
  8
1
370
    50
  6
DASHED
100
AcDbLine
 10
66.395314
 20
48.811062
 30
0.0
 11
66.395314
 21
24.811062
 31
0.0
  0
LINE
  5
34
100
AcDbEntity
  8
1
370
   100
100
AcDbLine
 10
-13.604686
 20
76.951931
 30
0.0
 11
-13.604686
 21
-1.003613
 31
0.0
  0
LINE
  5
35
100
AcDbEntity
  8
1
370
    25
  6
CENTER
100
AcDbLine
 10
-44.170419
 20
66.467872
 30
0.0
 11
-44.170419
 21
76.708923
 31
0.0
  0
LINE
  5
36
100
AcDbEntity
  8
1
370
   100
100
AcDbLine
 10
-56.670419
 20
71.811062
 30
0.0
 11
-31.670419
 21
71.811062
 31
0.0
  0
LINE
  5
37
100
AcDbEntity
  8
1
370
    50
  6
DASHED
100
AcDbLine
 10
-13.604686
 20
71.811062
 30
0.0
 11
-9.404686
 21
71.811062
 31
0.0
  0
LINE
  5
38
100
AcDbEntity
  8
1
370
   100
100
AcDbLine
 10
-56.670419
 20
1.811062
 30
0.0
 11
-31.670419
 21
1.811062
 31
0.0
  0
LINE
  5
39
100
AcDbEntity
  8
1
370
    50
  6
DASHED
100
AcDbLine
 10
-13.604686
 20
1.811062
 30
0.0
 11
-9.404686
 21
1.811062
 31
0.0
  0
CIRCLE
  5
3A
100
AcDbEntity
  8
1
370
   100
100
AcDbCircle
 10
37.395314
 20
36.811062
 30
0.0
 40
18.0
  0
LINE
  5
3B
100
AcDbEntity
  8
1
370
    50
  6
DASHED
100
AcDbLine
 10
-9.604686
 20
48.811062
 30
0.0
 11
23.978906
 21
48.811062
 31
0.0
  0
LINE
  5
3C
100
AcDbEntity
  8
1
370
    50
  6
DASHED
100
AcDbLine
 10
-9.604686
 20
24.811062
 30
0.0
 11
23.978906
 21
24.811062
 31
0.0
  0
LINE
  5
3D
100
AcDbEntity
  8
1
370
    25
  6
CENTER
100
AcDbLine
 10
-44.170419
 20
49.760517
 30
0.0
 11
-44.170419
 21
-2.347176
 31
0.0
  0
HATCH
  5
3E
100
AcDbEntity
  8
1
370
    25
100
AcDbHatch
 10
0.0
 20
0.0
 30
0.0
210
0.0
220
0.0
230
1.0
  2
_U
 70
     0
 71
     1
 91
        1
 92
        1
 93
        1
 72
     2
 10
37.395313999999999
 20
36.811062
 40
18.0
 50
0.0
 51
360.0
 73
     1
 97
        1
330
0
 75
     0
 76
     0
 52
45.0
 41
1.0
 77
     0
 78
     1
 53
45.0
 43
0.0
 44
0.0
 45
-1.4142140000000001
 46
1.4142140000000001
 79
     0
 98
        1
 10
0.0
 20
0.0
  0
LINE
  5
3F
100
AcDbEntity
  8
1
370
    25
  6
DASHED
100
AcDbLine
 10
76.395314
 20
48.811062
 30
0.0
 11
76.395314
 21
24.811062
 31
0.0
  0
CIRCLE
  5
40
100
AcDbEntity
  8
1
370
   100
100
AcDbCircle
 10
46.395314
 20
36.811062
 30
0.0
 40
18.0
  0
LINE
  5
41
100
AcDbEntity
  8
1
370
    25
  6
CENTER
100
AcDbLine
 10
46.395314
 20
62.944817
 30
0.0
 11
46.395314
 21
11.514878
 31
0.0
  0
ARC
  5
42
100
AcDbEntity
  8
1
370
   100
100
AcDbCircle
 10
-50.670419
 20
65.811062
 30
0.0
 40
6.0
100
AcDbArc
 50
90.0
 51
180.0
  0
ARC
  5
43
100
AcDbEntity
  8
1
370
   100
100
AcDbCircle
 10
-37.670419
 20
65.811062
 30
0.0
 40
6.0
100
AcDbArc
 50
0.0
 51
90.0
  0
ARC
  5
44
100
AcDbEntity
  8
1
370
   100
100
AcDbCircle
 10
-50.670419
 20
7.811062
 30
0.0
 40
6.0
100
AcDbArc
 50
180.0
 51
270.0
  0
ARC
  5
45
100
AcDbEntity
  8
1
370
   100
100
AcDbCircle
 10
-37.670419
 20
7.811062
 30
0.0
 40
6.0
100
AcDbArc
 50
270.0
 51
360.0
  0
LINE
  5
46
100
AcDbEntity
  8
1
370
    25
100
AcDbLine
 10
-35.201792
 20
71.279689
 30
0.0
 11
-34.670419
 21
71.811062
 31
0.0
  0
LINE
  5
47
100
AcDbEntity
  8
1
370
    25
100
AcDbLine
 10
-33.889927
 20
70.470234
 30
0.0
 11
-32.549098
 21
71.811062
 31
0.0
  0
LINE
  5
48
100
AcDbEntity
  8
1
370
    25
100
AcDbLine
 10
-31.670419
 20
70.568422
 30
0.0
 11
-32.852199
 21
69.386641
 31
0.0
  0
LINE
  5
49
100
AcDbEntity
  8
1
370
    25
100
AcDbLine
 10
-31.670419
 20
68.447101
 30
0.0
 11
-32.093449
 21
68.024071
 31
0.0
  0
LINE
  5
4A
100
AcDbEntity
  8
1
370
    25
100
AcDbLine
 10
-31.670419
 20
66.325781
 30
0.0
 11
-31.690816
 21
66.305384
 31
0.0
  0
LINE
  5
4B
100
AcDbEntity
  8
1
370
    25
100
AcDbLine
 10
-36.848326
 20
71.754476
 30
0.0
 11
-36.791739
 21
71.811062
 31
0.0
  0
LINE
  5
4C
100
AcDbEntity
  8
1
370
    25
100
AcDbLine
 10
-31.670419
 20
68.811062
 30
0.0
 11
-34.670419
 21
71.811062
 31
0.0
  0
LINE
  5
4D
100
AcDbEntity
  8
1
370
    25
100
AcDbLine
 10
-31.670419
 20
70.932383
 30
0.0
 11
-32.549098
 21
71.811062
 31
0.0
  0
LINE
  5
4E
100
AcDbEntity
  8
1
370
    25
100
AcDbLine
 10
-31.670419
 20
66.689742
 30
0.0
 11
-31.746941
 21
66.766264
 31
0.0
  0
LINE
  5
4F
100
AcDbEntity
  8
1
370
    25
100
AcDbLine
 10
-36.715217
 20
71.73454
 30
0.0
 11
-36.791739
 21
71.811062
 31
0.0
  0
HATCH
  5
50
100
AcDbEntity
  8
1
370
    25
100
AcDbHatch
 10
0.0
 20
0.0
 30
0.0
210
0.0
220
0.0
230
1.0
  2
_U
 70
     0
 71
     1
 91
        1
 92
        1
 93
        3
 72
     1
 10
-56.670419000000003
 20
71.811062000000007
 11
-50.670419000000003
 21
71.811062000000007
 72
     2
 10
-50.670419000000003
 20
65.811062000000007
 40
6.0
 50
90.0
 51
180.0
 73
     1
 72
     1
 10
-56.670419000000003
 20
65.811062000000007
 11
-56.670419000000003
 21
71.811062000000007
 97
        3
330
0
330
0
330
0
 75
     0
 76
     0
 52
45.0
 41
1.0
 77
     0
 78
     2
 53
45.0
 43
0.0
 44
0.0
 45
-1.0606599999999999
 46
1.0606599999999999
 79
     0
 53
135.0
 43
0.0
 44
0.0
 45
-1.0606599999999999
 46
-1.0606599999999999
 79
     0
 98
        1
 10
0.0
 20
0.0
  0
LINE
  5
51
100
AcDbEntity
  8
1
370
    25
100
AcDbLine
 10
-34.670419
 20
1.811062
 30
0.0
 11
-31.670419
 21
4.811062
 31
0.0
  0
LINE
  5
52
100
AcDbEntity
  8
1
370
    25
100
AcDbLine
 10
-32.549098
 20
1.811062
 30
0.0
 11
-31.670419
 21
2.689742
 31
0.0
  0
LINE
  5
53
100
AcDbEntity
  8
1
370
    25
100
AcDbLine
 10
-36.791739
 20
1.811062
 30
0.0
 11
-36.715217
 21
1.887585
 31
0.0
  0
LINE
  5
54
100
AcDbEntity
  8
1
370
    25
100
AcDbLine
 10
-31.746941
 20
6.85586
 30
0.0
 11
-31.670419
 21
6.932383
 31
0.0
  0
LINE
  5
55
100
AcDbEntity
  8
1
370
    25
100
AcDbLine
 10
-32.201792
 20
5.342435
 30
0.0
 11
-31.670419
 21
4.811062
 31
0.0
  0
LINE
  5
56
100
AcDbEntity
  8
1
370
    25
100
AcDbLine
 10
-31.727005
 20
6.988969
 30
0.0
 11
-31.670419
 21
6.932383
 31
0.0
  0
LINE
  5
57
100
AcDbEntity
  8
1
370
    25
100
AcDbLine
 10
-33.011247
 20
4.03057
 30
0.0
 11
-31.670419
 21
2.689742
 31
0.0
  0
LINE
  5
58
100
AcDbEntity
  8
1
370
    25
100
AcDbLine
 10
-32.913059
 20
1.811062
 30
0.0
 11
-34.09484
 21
2.992843
 31
0.0
  0
LINE
  5
59
100
AcDbEntity
  8
1
370
    25
100
AcDbLine
 10
-35.03438
 20
1.811062
 30
0.0
 11
-35.45741
 21
2.234093
 31
0.0
  0
LINE
  5
5A
100
AcDbEntity
  8
1
370
    25
100
AcDbLine
 10
-37.1557
 20
1.811062
 30
0.0
 11
-37.176097
 21
1.83146
 31
0.0
  0
LINE
  5
5B
100
AcDbEntity
  8
1
370
    25
100
AcDbLine
 10
-53.139046
 20
2.342435
 30
0.0
 11
-53.670419
 21
1.811062
 31
0.0
  0
LINE
  5
5C
100
AcDbEntity
  8
1
370
    25
100
AcDbLine
 10
-51.492512
 20
1.867649
 30
0.0
 11
-51.549098
 21
1.811062
 31
0.0
  0
LINE
  5
5D
100
AcDbEntity
  8
1
370
    25
100
AcDbLine
 10
-54.450911
 20
3.151891
 30
0.0
 11
-55.791739
 21
1.811062
 31
0.0
  0
LINE
  5
5E
100
AcDbEntity
  8
1
370
    25
100
AcDbLine
 10
-56.670419
 20
3.053703
 30
0.0
 11
-55.488638
 21
4.235484
 31
0.0
  0
LINE
  5
5F
100
AcDbEntity
  8
1
370
    25
100
AcDbLine
 10
-56.670419
 20
5.175023
 30
0.0
 11
-56.247388
 21
5.598054
 31
0.0
  0
LINE
  5
60
100
AcDbEntity
  8
1
370
    25
100
AcDbLine
 10
-56.670419
 20
7.296344
 30
0.0
 11
-56.650021
 21
7.316741
 31
0.0
  0
LINE
  5
61
100
AcDbEntity
  8
1
370
    25
100
AcDbLine
 10
-56.670419
 20
4.811062
 30
0.0
 11
-53.670419
 21
1.811062
 31
0.0
  0
LINE
  5
62
100
AcDbEntity
  8
1
370
    25
100
AcDbLine
 10
-56.670419
 20
6.932383
 30
0.0
 11
-56.593896
 21
6.85586
 31
0.0
  0
LINE
  5
63
100
AcDbEntity
  8
1
370
    25
100
AcDbLine
 10
-51.62562
 20
1.887585
 30
0.0
 11
-51.549098
 21
1.811062
 31
0.0
  0
LINE
  5
64
100
AcDbEntity
  8
1
370
    25
100
AcDbLine
 10
-56.670419
 20
2.689742
 30
0.0
 11
-55.791739
 21
1.811062
 31
0.0
  0
LINE
  5
65
100
AcDbEntity
  8
1
370
    50
  6
DASHED
100
AcDbLine
 10
50.811722
 20
48.811062
 30
0.0
 11
66.395314
 21
48.811062
 31
0.0
  0
LINE
  5
66
100
AcDbEntity
  8
1
370
    25
  6
DASHED
100
AcDbLine
 10
66.395314
 20
48.811062
 30
0.0
 11
76.395314
 21
48.811062
 31
0.0
  0
LINE
  5
67
100
AcDbEntity
  8
1
370
    50
  6
DASHED
100
AcDbLine
 10
50.811722
 20
24.811062
 30
0.0
 11
66.395314
 21
24.811062
 31
0.0
  0
LINE
  5
68
100
AcDbEntity
  8
1
370
    25
  6
DASHED
100
AcDbLine
 10
66.395314
 20
24.811062
 30
0.0
 11
76.395314
 21
24.811062
 31
0.0
  0
DIMENSION
  5
69
100
AcDbEntity
  8
2
370
    25
100
AcDbDimension
  2
*D0
 10
-64.832047
 20
24.811062
 30
0.0
 11
-71.332047
 21
34.811062
 31
0.0
 70
     1
 71
     0
 72
     0
 41
0.0
 42
0.0
  3
Standard
100
AcDbAlignedDimension
 13
-44.170419
 23
48.811062
 33
0.0
 14
-44.170419
 24
24.811062
 34
0.0
 50
90.0
  0
DIMENSION
  5
6A
100
AcDbEntity
  8
2
370
    25
100
AcDbDimension
  2
*D1
 10
-71.262444
 20
71.811062
 30
0.0
 11
-75.762444
 21
36.811062
 31
0.0
 71
     0
 72
     0
 41
0.0
 42
0.0
  3
Standard
100
AcDbAlignedDimension
 13
-56.670419
 23
1.811062
 33
0.0
 14
-56.670419
 24
71.811062
 34
0.0
 50
90.0
100
AcDbRotatedDimension
  0
TEXT
  5
6B
100
AcDbEntity
  8
2
370
    18
100
AcDbText
 10
-22.009575
 20
-59.122551
 30
0.0
 40
3.2
  1
※（　）内の寸法はバックセット６０ｍｍの場合の数値です。
 72
     5
 11
66.950426
 21
-59.122551
 31
0.0
100
AcDbText
  0
LWPOLYLINE
  5
6C
100
AcDbEntity
  8
2
370
    25
100
AcDbPolyline
 90
        3
 70
     0
 10
29.342538
 20
52.909286
 10
22.21837
 20
67.151138
 10
37.21837
 20
67.151138
  0
LINE
  5
71
100
AcDbEntity
  8
2
370
    25
100
AcDbLine
 10
28.015326
 20
54.40545
 30
0.0
 11
29.342538
 21
52.909286
 31
0.0
  0
LINE
  5
72
100
AcDbEntity
  8
2
370
    25
100
AcDbLine
 10
29.342538
 20
52.909286
 30
0.0
 11
28.941221
 21
54.868608
 31
0.0
  0
TEXT
  5
73
100
AcDbEntity
  8
2
370
    18
100
AcDbText
 10
24.21837
 20
67.651138
 30
0.0
 40
4.0
  1
φ３６
 72
     5
 11
35.41837
 21
67.651138
 31
0.0
100
AcDbText
  0
TEXT
  5
74
100
AcDbEntity
  8
2
370
    25
100
AcDbText
 10
-46.14691
 20
62.163359
 30
0.0
 40
4.0
  1
扉
 72
     5
 11
-42.94691
 21
62.163359
 31
0.0
100
AcDbText
  0
TEXT
  5
75
100
AcDbEntity
  8
2
370
    25
100
AcDbText
 10
-46.14691
 20
58.163359
 30
0.0
 40
4.0
  1
厚
 72
     5
 11
-42.94691
 21
58.163359
 31
0.0
100
AcDbText
  0
TEXT
  5
76
100
AcDbEntity
  8
2
370
    25
100
AcDbText
 10
-46.14691
 20
54.163359
 30
0.0
 40
4.0
  1
中
 72
     5
 11
-42.94691
 21
54.163359
 31
0.0
100
AcDbText
  0
TEXT
  5
77
100
AcDbEntity
  8
2
370
    25
100
AcDbText
 10
-46.14691
 20
50.163359
 30
0.0
 40
4.0
  1
心
 72
     5
 11
-42.94691
 21
50.163359
 31
0.0
100
AcDbText
  0
DIMENSION
  5
78
100
AcDbEntity
  8
2
370
    25
100
AcDbDimension
  2
*D2
 10
-9.404686
 20
-8.039415
 30
0.0
 11
-1.404686
 21
-5.539415
 31
0.0
 71
     0
 72
     0
 41
0.0
 42
0.0
  3
Standard
100
AcDbAlignedDimension
 13
-13.604686
 23
-1.003613
 33
0.0
 14
-9.404686
 24
1.811062
 34
0.0
100
AcDbRotatedDimension
  0
TEXT
  5
79
100
AcDbEntity
  8
2
370
    18
100
AcDbText
 10
-4.104686
 20
-15.187966
 30
0.0
 40
4.0
  1
バックセット
 72
     5
 11
19.095314
 21
-15.187966
 31
0.0
100
AcDbText
  0
DIMENSION
  5
7A
100
AcDbEntity
  8
2
370
    25
100
AcDbDimension
  2
*D3
 10
37.395314
 20
-15.687966
 30
0.0
 11
23.895314
 21
-13.187966
 31
0.0
 71
     0
 72
     0
 41
0.0
 42
0.0
  3
Standard
100
AcDbAlignedDimension
 13
-13.604686
 23
-1.003613
 33
0.0
 14
37.395314
 24
11.514878
 34
0.0
100
AcDbRotatedDimension
  0
DIMENSION
  5
7B
100
AcDbEntity
  8
2
370
    25
100
AcDbDimension
  2
*D4
 10
66.395314
 20
-31.325018
 30
0.0
 11
26.395314
 21
-28.825018
 31
0.0
 71
     0
 72
     0
 41
0.0
 42
0.0
  3
Standard
100
AcDbAlignedDimension
 13
-13.604686
 23
-1.003613
 33
0.0
 14
66.395314
 24
24.811062
 34
0.0
100
AcDbRotatedDimension
  0
TEXT
  5
7C
100
AcDbEntity
  8
2
370
    18
100
AcDbText
 10
24.395314
 20
-23.176455
 30
0.0
 40
4.0
  1
６０）
 72
     5
 11
35.595314
 21
-23.176455
 31
0.0
100
AcDbText
  0
TEXT
  5
7D
100
AcDbEntity
  8
2
370
    18
100
AcDbText
 10
-3.604686
 20
-23.176455
 30
0.0
 40
4.0
  1
（バックセット
 72
     5
 11
23.595314
 21
-23.176455
 31
0.0
100
AcDbText
  0
DIMENSION
  5
7E
100
AcDbEntity
  8
2
370
    25
100
AcDbDimension
  2
*D5
 10
46.395314
 20
-23.676455
 30
0.0
 11
16.395314
 21
-21.676455
 31
0.0
 71
     0
 72
     0
 41
0.0
 42
0.0
  3
Standard
100
AcDbAlignedDimension
 13
-13.604686
 23
-1.003613
 33
0.0
 14
46.395314
 24
11.514878
 34
0.0
100
AcDbRotatedDimension
  0
DIMENSION
  5
7F
100
AcDbEntity
  8
2
370
    25
100
AcDbDimension
  2
*D6
 10
76.395314
 20
-39.073517
 30
0.0
 11
31.395314
 21
-36.573517
 31
0.0
 71
     0
 72
     0
 41
0.0
 42
0.0
  3
Standard
100
AcDbAlignedDimension
 13
-13.604686
 23
-1.003613
 33
0.0
 14
76.395314
 24
24.811062
 34
0.0
100
AcDbRotatedDimension
  0
TEXT
  5
80
100
AcDbEntity
  8
2
370
    18
100
AcDbText
 10
-26.293579
 20
82.499878
 30
0.0
 40
4.0
  1
角又は６Ｒ
 72
     5
 11
-7.093579
 21
82.499878
 31
0.0
100
AcDbText
  0
LWPOLYLINE
  5
81
100
AcDbEntity
  8
2
370
    25
100
AcDbPolyline
 90
        3
 70
     0
 10
-31.670419
 20
71.811062
 10
-26.293579
 20
82.499878
 10
-6.293579
 20
82.499878
  0
LINE
  5
86
100
AcDbEntity
  8
2
370
    25
100
AcDbLine
 10
-31.264709
 20
73.76948
 30
0.0
 11
-31.670419
 21
71.811062
 31
0.0
  0
LINE
  5
87
100
AcDbEntity
  8
2
370
    25
100
AcDbLine
 10
-31.670419
 20
71.811062
 30
0.0
 11
-30.339855
 21
73.304247
 31
0.0
  0
DIMENSION
  5
88
100
AcDbEntity
  8
2
370
    25
100
AcDbDimension
  2
*D7
 10
-31.670419
 20
-8.039415
 30
0.0
 11
-44.170419
 21
-5.539415
 31
0.0
 71
     0
 72
     0
 41
0.0
 42
0.0
  3
Standard
100
AcDbAlignedDimension
 13
-56.670419
 23
1.811062
 33
0.0
 14
-31.670419
 24
1.811062
 34
0.0
100
AcDbRotatedDimension
  0
LINE
  5
89
100
AcDbEntity
  8
3
370
   100
100
AcDbLine
 10
-80.0
 20
138.0
 30
0.0
 11
-80.0
 21
-138.0
 31
0.0
  0
LINE
  5
8A
100
AcDbEntity
  8
3
370
   100
100
AcDbLine
 10
98.0
 20
-138.0
 30
0.0
 11
98.0
 21
138.0
 31
0.0
  0
LINE
  5
8B
100
AcDbEntity
  8
3
370
   100
100
AcDbLine
 10
-80.0
 20
-138.0
 30
0.0
 11
98.0
 21
-138.0
 31
0.0
  0
LINE
  5
8C
100
AcDbEntity
  8
3
370
   100
100
AcDbLine
 10
98.0
 20
138.0
 30
0.0
 11
-80.0
 21
138.0
 31
0.0
  0
LINE
  5
8D
100
AcDbEntity
  8
3
370
   100
100
AcDbLine
 10
-80.0
 20
138.3
 30
0.0
 11
98.3
 21
138.3
 31
0.0
  0
LINE
  5
8E
100
AcDbEntity
  8
3
370
   100
100
AcDbLine
 10
98.3
 20
138.3
 30
0.0
 11
98.3
 21
-138.3
 31
0.0
  0
LINE
  5
8F
100
AcDbEntity
  8
3
370
   100
100
AcDbLine
 10
98.3
 20
-138.3
 30
0.0
 11
-80.3
 21
-138.3
 31
0.0
  0
LINE
  5
90
100
AcDbEntity
  8
3
370
   100
100
AcDbLine
 10
-80.3
 20
-138.3
 30
0.0
 11
-80.3
 21
138.0
 31
0.0
  0
LINE
  5
91
100
AcDbEntity
  8
3
370
    50
100
AcDbLine
 10
-80.0
 20
-108.0
 30
0.0
 11
98.0
 21
-108.0
 31
0.0
  0
LINE
  5
92
100
AcDbEntity
  8
3
370
    50
100
AcDbLine
 10
-2.0
 20
-108.0
 30
0.0
 11
-2.0
 21
-138.0
 31
0.0
  0
TEXT
  5
93
100
AcDbEntity
  8
3
370
    25
100
AcDbText
 10
-75.0
 20
-112.5
 30
0.0
 40
4.0
  1
図  法
 72
     5
 11
-59.8
 21
-112.5
 31
0.0
100
AcDbText
  0
TEXT
  5
94
100
AcDbEntity
  8
3
370
    25
100
AcDbText
 10
-49.0
 20
-112.5
 30
0.0
 40
4.0
  1
単  位
 72
     5
 11
-33.8
 21
-112.5
 31
0.0
100
AcDbText
  0
TEXT
  5
95
100
AcDbEntity
  8
3
370
    25
100
AcDbText
 10
-23.0
 20
-112.5
 30
0.0
 40
4.0
  1
尺  度
 72
     5
 11
-7.8
 21
-112.5
 31
0.0
100
AcDbText
  0
TEXT
  5
96
100
AcDbEntity
  8
3
370
   100
100
AcDbText
 10
-69.0
 20
-135.5
 30
0.0
 40
8.0
  1
（株）川口技研
 72
     5
 11
-14.6
 21
-135.5
 31
0.0
100
AcDbText
  0
TEXT
  5
97
100
AcDbEntity
  8
3
370
    25
100
AcDbText
 10
0.0
 20
-112.5
 30
0.0
 40
4.0
  1
図面名称
 72
     5
 11
15.2
 21
-112.5
 31
0.0
100
AcDbText
  0
TEXT
  5
98
100
AcDbEntity
  8
3
370
    25
100
AcDbText
 10
0.0
 20
-129.5
 30
0.0
 40
4.0
  1
図面番号
 72
     5
 11
15.2
 21
-129.5
 31
0.0
100
AcDbText
  0
LINE
  5
99
100
AcDbEntity
  8
3
370
    25
100
AcDbLine
 10
-80.0
 20
-113.0
 30
0.0
 11
18.0
 21
-113.0
 31
0.0
  0
LINE
  5
9A
100
AcDbEntity
  8
3
370
    25
100
AcDbLine
 10
18.0
 20
-108.0
 30
0.0
 11
18.0
 21
-113.0
 31
0.0
  0
LINE
  5
9B
100
AcDbEntity
  8
3
370
    25
100
AcDbLine
 10
-2.0
 20
-130.0
 30
0.0
 11
18.0
 21
-130.0
 31
0.0
  0
LINE
  5
9C
100
AcDbEntity
  8
3
370
    25
100
AcDbLine
 10
18.0
 20
-125.0
 30
0.0
 11
18.0
 21
-130.0
 31
0.0
  0
TEXT
  5
9D
100
AcDbEntity
  8
3
370
    25
100
AcDbText
 10
-46.0
 20
-121.5
 30
0.0
 40
5.0
  1
ｍｍ
 72
     5
 11
-37.0
 21
-121.5
 31
0.0
100
AcDbText
  0
TEXT
  5
9E
100
AcDbEntity
  8
3
370
    25
100
AcDbText
 10
-21.0
 20
-121.5
 30
0.0
 40
4.0
  1
１／１
 72
     5
 11
-9.8
 21
-121.5
 31
0.0
100
AcDbText
  0
TEXT
  5
9F
100
AcDbEntity
  8
3
370
    25
100
AcDbText
 10
-73.0
 20
-121.5
 30
0.0
 40
4.0
  1
３角法
 72
     5
 11
-61.8
 21
-121.5
 31
0.0
100
AcDbText
  0
LINE
  5
A0
100
AcDbEntity
  8
3
370
    50
100
AcDbLine
 10
-80.0
 20
-125.0
 30
0.0
 11
-2.0
 21
-125.0
 31
0.0
  0
LINE
  5
A1
100
AcDbEntity
  8
3
370
    50
100
AcDbLine
 10
-2.0
 20
-125.0
 30
0.0
 11
98.0
 21
-125.0
 31
0.0
  0
LINE
  5
A2
100
AcDbEntity
  8
3
370
    50
100
AcDbLine
 10
-54.0
 20
-125.0
 30
0.0
 11
-54.0
 21
-108.0
 31
0.0
  0
LINE
  5
A3
100
AcDbEntity
  8
3
370
    50
100
AcDbLine
 10
-28.0
 20
-125.0
 30
0.0
 11
-28.0
 21
-108.0
 31
0.0
  0
TEXT
  5
A4
100
AcDbEntity
  8
3
370
   100
100
AcDbText
 10
28.421455
 20
-134.545471
 30
0.0
 40
6.0
  1
ＥＺ－１４３８－００
 72
     5
 11
87.221455
 21
-134.545471
 31
0.0
100
AcDbText
  0
TEXT
  5
A5
100
AcDbEntity
  8
3
370
    50
100
AcDbText
 10
28.235214
 20
-121.793556
 30
0.0
 40
5.0
  1
セパレート錠　切欠図
 72
     5
 11
77.235214
 21
-121.793556
 31
0.0
100
AcDbText
  0
ENDSEC
  0
SECTION
  2
OBJECTS
  0
DICTIONARY
  5
F5
100
AcDbDictionary
280
     0
281
     1
  3
ACAD_GROUP
350
F6
  3
ACAD_MLINESTYLE
350
F7
  0
DICTIONARY
  5
F6
102
{ACAD_REACTORS
330
F5
102
}
100
AcDbDictionary
280
     0
281
     1
  0
DICTIONARY
  5
F7
102
{ACAD_REACTORS
330
F5
102
}
100
AcDbDictionary
280
     0
281
     1
  3
Standard
350
F8
  0
MLINESTYLE
  5
F8
102
{ACAD_REACTORS
330
F7
102
}
100
AcDbMlineStyle
  2
Standard
 70
     0
  3

 62
     0
 51
90.0
 52
90.0
 71
     2
 49
0.5
 62
   256
  6
ByLayer
 49
-0.5
 62
   256
  6
ByLayer
  0
ENDSEC
  0
EOF
