  0
SECTION
  2
HEADER
  9
$ACADVER
  1
AC1015
  9
$ACADMAINTVER
 70
     6
  9
$DWGCODEPAGE
  3
ANSI_932
  9
$INSBASE
 10
0.0
 20
0.0
 30
0.0
  9
$EXTMIN
 10
-105.0
 20
-148.5
 30
1.000000E+20
  9
$EXTMAX
 10
105.0
 20
148.5
 30
-1.000000E+20
  9
$LIMMIN
 10
-105.0
 20
-148.5
  9
$LIMMAX
 10
105.0
 20
148.5
  9
$ORTHOMODE
 70
     0
  9
$REGENMODE
 70
     1
  9
$FILLMODE
 70
     1
  9
$QTEXTMODE
 70
     0
  9
$MIRRTEXT
 70
     1
  9
$LTSCALE
 40
1.0
  9
$ATTMODE
 70
     1
  9
$TEXTSIZE
 40
0.2
  9
$TRACEWID
 40
0.05
  9
$TEXTSTYLE
  7
STANDARD
  9
$CLAYER
  8
0
  9
$CELTYPE
  6
CONTINUOUS
  9
$CECOLOR
 62
   256
  9
$CELTSCALE
 40
1.0
  9
$DISPSILH
 70
     0
  9
$DIMSCALE
 40
1.0
  9
$DIMASZ
 40
2.0
  9
$DIMEXO
 40
0.5
  9
$DIMDLI
 40
0.38
  9
$DIMRND
 40
0.0
  9
$DIMDLE
 40
0.0
  9
$DIMEXE
 40
2.0
  9
$DIMTP
 40
0.0
  9
$DIMTM
 40
0.0
  9
$DIMTXT
 40
4.0
  9
$DIMCEN
 40
0.09
  9
$DIMTSZ
 40
0.0
  9
$DIMTOL
 70
     0
  9
$DIMLIM
 70
     0
  9
$DIMTIH
 70
     0
  9
$DIMTOH
 70
     0
  9
$DIMSE1
 70
     0
  9
$DIMSE2
 70
     0
  9
$DIMTAD
 70
     1
  9
$DIMZIN
 70
     0
  9
$DIMBLK
  1

  9
$DIMASO
 70
     1
  9
$DIMSHO
 70
     1
  9
$DIMPOST
  1

  9
$DIMAPOST
  1

  9
$DIMALT
 70
     0
  9
$DIMALTD
 70
     2
  9
$DIMALTF
 40
25.4
  9
$DIMLFAC
 40
1.0
  9
$DIMTOFL
 70
     0
  9
$DIMTVP
 40
0.0
  9
$DIMTIX
 70
     0
  9
$DIMSOXD
 70
     0
  9
$DIMSAH
 70
     0
  9
$DIMBLK1
  1

  9
$DIMBLK2
  1

  9
$DIMSTYLE
  2
Standard
  9
$DIMCLRD
 70
     0
  9
$DIMCLRE
 70
     0
  9
$DIMCLRT
 70
     0
  9
$DIMTFAC
 40
1.0
  9
$DIMGAP
 40
0.5
  9
$DIMJUST
 70
     0
  9
$DIMSD1
 70
     0
  9
$DIMSD2
 70
     0
  9
$DIMTOLJ
 70
     1
  9
$DIMTZIN
 70
     0
  9
$DIMALTZ
 70
     0
  9
$DIMALTTZ
 70
     0
  9
$DIMUPT
 70
     0
  9
$DIMDEC
 70
     2
  9
$DIMTDEC
 70
     4
  9
$DIMALTU
 70
     2
  9
$DIMALTTD
 70
     2
  9
$DIMTXSTY
  7
STANDARD
  9
$DIMAUNIT
 70
     0
  9
$DIMADEC
 70
     2
  9
$DIMALTRND
 40
0.0
  9
$DIMAZIN
 70
     0
  9
$DIMDSEP
 70
     0
  9
$DIMATFIT
 70
     3
  9
$DIMFRAC
 70
     0
  9
$DIMLDRBLK
  1

  9
$DIMLUNIT
 70
     2
  9
$DIMLWD
 70
     0
  9
$DIMLWE
 70
     0
  9
$DIMTMOVE
 70
     0
  9
$LUNITS
 70
     2
  9
$LUPREC
 70
     4
  9
$SKETCHINC
 40
0.1
  9
$FILLETRAD
 40
0.0
  9
$AUNITS
 70
     0
  9
$AUPREC
 70
     0
  9
$MENU
  1
acad
  9
$ELEVATION
 40
0.0
  9
$PELEVATION
 40
0.0
  9
$THICKNESS
 40
0.0
  9
$LIMCHECK
 70
     0
  9
$CHAMFERA
 40
0.0
  9
$CHAMFERB
 40
0.0
  9
$CHAMFERC
 40
0.0
  9
$CHAMFERD
 40
0.0
  9
$SKPOLY
 70
     0
  9
$TDCREATE
 40
2452749.000000000
  9
$TDUCREATE
 40
0.000000000
  9
$TDUPDATE
 40
0.000000000
  9
$TDUUPDATE
 40
2447892.625000000
  9
$TDINDWG
 40
0.0000000000
  9
$TDUSRTIMER
 40
0.0000000000
  9
$USRTIMER
 70
     1
  9
$ANGBASE
 50
0.0
  9
$ANGDIR
 70
     0
  9
$PDMODE
 70
     0
  9
$PDSIZE
 40
0.0
  9
$PLINEWID
 40
0.0
  9
$SPLFRAME
 70
     0
  9
$SPLINETYPE
 70
     6
  9
$SPLINESEGS
 70
     8
  9
$HANDSEED
  5
17F
  9
$SURFTAB1
 70
     6
  9
$SURFTAB2
 70
     6
  9
$SURFTYPE
 70
     6
  9
$SURFU
 70
     6
  9
$SURFV
 70
     6
  9
$UCSBASE
  2

  9
$UCSNAME
  2

  9
$UCSORG
 10
0.0
 20
0.0
 30
0.0
  9
$UCSXDIR
 10
1.0
 20
0.0
 30
0.0
  9
$UCSYDIR
 10
0.0
 20
1.0
 30
0.0
  9
$UCSORTHOREF
  2

  9
$UCSORTHOVIEW
 70
     0
  9
$UCSORGTOP
 10
0.0
 20
0.0
 30
0.0
  9
$UCSORGBOTTOM
 10
0.0
 20
0.0
 30
0.0
  9
$UCSORGLEFT
 10
0.0
 20
0.0
 30
0.0
  9
$UCSORGRIGHT
 10
0.0
 20
0.0
 30
0.0
  9
$UCSORGFRONT
 10
0.0
 20
0.0
 30
0.0
  9
$UCSORGBACK
 10
0.0
 20
0.0
 30
0.0
  9
$PUCSBASE
  2

  9
$PUCSNAME
  2

  9
$PUCSORG
 10
0.0
 20
0.0
 30
0.0
  9
$PUCSXDIR
 10
1.0
 20
0.0
 30
0.0
  9
$PUCSYDIR
 10
0.0
 20
1.0
 30
0.0
  9
$PUCSORTHOREF
  2

  9
$PUCSORTHOVIEW
 70
     0
  9
$PUCSORGTOP
 10
0.0
 20
0.0
 30
0.0
  9
$PUCSORGBOTTOM
 10
0.0
 20
0.0
 30
0.0
  9
$PUCSORGLEFT
 10
0.0
 20
0.0
 30
0.0
  9
$PUCSORGRIGHT
 10
0.0
 20
0.0
 30
0.0
  9
$PUCSORGFRONT
 10
0.0
 20
0.0
 30
0.0
  9
$PUCSORGBACK
 10
0.0
 20
0.0
 30
0.0
  9
$USERI1
 70
     0
  9
$USERI2
 70
     0
  9
$USERI3
 70
     0
  9
$USERI4
 70
     0
  9
$USERI5
 70
     0
  9
$USERR1
 40
0.0
  9
$USERR2
 40
0.0
  9
$USERR3
 40
0.0
  9
$USERR4
 40
0.0
  9
$USERR5
 40
0.0
  9
$WORLDVIEW
 70
     1
  9
$SHADEDGE
 70
     3
  9
$SHADEDIF
 70
    70
  9
$TILEMODE
 70
     1
  9
$MAXACTVP
 70
    16
  9
$PINSBASE
 10
0.0
 20
0.0
 30
0.0
  9
$PLIMCHECK
 70
     0
  9
$PEXTMIN
 10
1.000000E+20
 20
1.000000E+20
 30
1.000000E+20
  9
$PEXTMAX
 10
-1.000000E+20
 20
-1.000000E+20
 30
-1.000000E+20
  9
$PLIMMIN
 10
0.0
 20
0.0
  9
$PLIMMAX
 10
12.0
 20
9.0
  9
$UNITMODE
 70
     0
  9
$VISRETAIN
 70
     0
  9
$PLINEGEN
 70
     1
  9
$PSLTSCALE
 70
     0
  9
$TREEDEPTH
 70
  3020
  9
$CMLSTYLE
  2
Standard
  9
$CMLJUST
 70
     0
  9
$CMLSCALE
 40
1.0
  9
$PROXYGRAPHICS
 70
     0
  9
$MEASUREMENT
 70
     0
  9
$CELWEIGHT
370
     0
  9
$ENDCAPS
280
     0
  9
$JOINSTYLE
280
     0
  9
$LWDISPLAY
290
     0
  9
$INSUNITS
 70
     0
  9
$HYPERLINKBASE
  1

  9
$STYLESHEET
  1

  9
$XEDIT
290
     1
  9
$CEPSNTYPE
380
     0
  9
$PSTYLEMODE
290
     1
  9
$FINGERPRINTGUID
  2

  9
$VERSIONGUID
  2

  9
$EXTNAMES
290
     1
  9
$PSVPSCALE
 40
0.0
  0
ENDSEC
  0
SECTION
  2
CLASSES
  0
CLASS
  1
LWPOLYLINE
  2
AcDbPolyline
  3
AutoCAD 2000
 90
        0
280
     0
281
     1
  0
CLASS
  1
IMAGE
  2
AcDbRasterImage
  3
ISM
 90
      127
280
     0
281
     1
  0
CLASS
  1
OLE2FRAME
  2
AcDbOle2Frame
  3
AutoCAD 2000
 90
        0
280
     0
281
     1
  0
CLASS
  1
HATCH
  2
AcDbHatch
  3
AutoCAD 2000
 90
        0
280
     0
281
     1
  0
CLASS
  1
DICTIONARYVAR
  2
AcDbDictionaryVar
  3
AutoCAD 2000
 90
        0
280
     0
281
     0
  0
CLASS
  1
RASTERVARIABLES
  2
AcDbRasterVariables
  3
ISM
 90
        0
280
     0
281
     0
  0
CLASS
  1
IMAGEDEF
  2
AcDbRasterImageDef
  3
ISM
 90
        0
280
     0
281
     0
  0
CLASS
  1
IMAGEDEF_REACTOR
  2
AcDbRasterImageDefReactor
  3
ISM
 90
        1
280
     0
281
     0
  0
CLASS
  1
IDBUFFER
  2
AcDbIdBuffer
  3
AutoCAD 2000
 90
        0
280
     0
281
     0
  0
CLASS
  1
SPATIAL_FILTER
  2
AcDbSpatialFilter
  3
AutoCAD 2000
 90
        0
280
     0
281
     0
  0
CLASS
  1
XRECORD
  2
AcDbXrecord
  3
AutoCAD 2000
 90
        0
280
     0
281
     0
  0
CLASS
  1
SORTENTSTABLE
  2
AcDbSortentsTable
  3
AutoCAD 2000
 90
        0
280
     0
281
     0
  0
CLASS
  1
LAYER_INDEX
  2
AcDbLayerIndex
  3
AutoCAD 2000
 90
        0
280
     0
281
     0
  0
CLASS
  1
SPATIAL_INDEX
  2
AcDbSpatialIndex
  3
AutoCAD 2000
 90
        0
280
     0
281
     0
  0
CLASS
  1
OBJECT_PTR
  2
CAseDLPNTableRecord
  3
"ASE-LPNTableRecord"
 90
        1
280
     0
281
     0
  0
CLASS
  1
LAYOUT
  2
AcDbLayout
  3
AutoCAD 2000
 90
        0
280
     0
281
     0
  0
CLASS
  1
PLOTSETTINGS
  2
AcDbPlotSettings
  3
AutoCAD 2000
 90
        0
280
     0
281
     0
  0
CLASS
  1
ACDBDICTIONARYWDFLT
  2
AcDbDictionaryWithDefault
  3
AutoCAD 2000
 90
        0
280
     0
281
     0
  0
CLASS
  1
ACDBPLACEHOLDER
  2
AcDbPlaceHolder
  3
AutoCAD 2000
 90
        0
280
     0
281
     0
  0
CLASS
  1
VBA_PROJECT
  2
AcDbVbaProject
  3
acadvba
 90
        0
280
     0
281
     0
  0
CLASS
  1
WIPEOUT
  2
AcDbWipeout
  3
WipeOut|AutoCAD Express Tool|expresstools@autodesk.com
 90
      127
280
     0
281
     1
  0
CLASS
  1
WIPEOUTVARIABLES
  2
AcDbWipeoutVariables
  3
WipeOut|AutoCAD Express Tool|expresstools@autodesk.com
 90
        0
280
     0
281
     0
  0
CLASS
  1
RTEXT
  2
RText
  3
RText|AutoCAD Express Tool|expresstools@autodesk.com
 90
        0
280
     0
281
     1
  0
CLASS
  1
ARCALIGNEDTEXT
  2
AcDbArcAlignedText
  3
ATEXT|AutoCAD Express Tool|expresstools@autodesk.com
 90
        0
280
     0
281
     1
  0
ENDSEC
  0
SECTION
  2
TABLES
  0
TABLE
  2
VPORT
  5
6
100
AcDbSymbolTable
 70
     1
  0
VPORT
  5
1A
100
AcDbSymbolTableRecord
100
AcDbViewportTableRecord
  2
*ACTIVE
 70
     0
 10
0.0
 20
0.0
 11
1.0
 21
1.0
 12
0.0
 22
0.0
 13
0.0
 23
0.0
 14
1.0
 24
1.0
 15
0.0
 25
0.0
 16
0.0
 26
0.0
 36
1.0
 17
0.0
 27
0.0
 37
0.0
 40
297.0
 41
0.707071
 42
50.0
 43
0.0
 44
0.0
 50
0.0
 51
0.0
 71
     0
 72
   500
 73
     1
 74
     1
 75
     0
 76
     0
 77
     0
 78
     0
281
     0
 65
     0
110
0.0
120
0.0
130
0.0
111
1.0
121
0.0
131
0.0
112
0.0
122
1.0
132
0.0
345
0
346
0
 79
     0
146
0.0
  0
ENDTAB
  0
TABLE
  2
LTYPE
  5
3
100
AcDbSymbolTable
 70
     9
  0
LTYPE
  5
C
100
AcDbSymbolTableRecord
100
AcDbLinetypeTableRecord
  2
ByBlock
 70
    64
  3

 72
    65
 73
     0
 40
0.0
  0
LTYPE
  5
D
100
AcDbSymbolTableRecord
100
AcDbLinetypeTableRecord
  2
ByLayer
 70
    64
  3

 72
    65
 73
     0
 40
0.0
  0
LTYPE
  5
E
100
AcDbSymbolTableRecord
100
AcDbLinetypeTableRecord
  2
CONTINUOUS
 70
     0
  3
Solid line
 72
    65
 73
     0
 40
0.0
  0
LTYPE
  5
F
100
AcDbSymbolTableRecord
100
AcDbLinetypeTableRecord
  2
DASHED
 70
     0
  3
__ __ __ __ __ __ __ __ __ __ __ __ __ __ __
 72
    65
 73
     2
 40
2.0
 49
1.2
 74
     0
 49
-0.8
 74
     0
  0
LTYPE
  5
10
100
AcDbSymbolTableRecord
100
AcDbLinetypeTableRecord
  2
CENTER
 70
     0
  3
____ _ ____ _ ____ _ ____ _ ____ _ ____ _ ____
 72
    65
 73
     4
 40
12.0
 49
9.0
 74
     0
 49
-1.0
 74
     0
 49
1.0
 74
     0
 49
-1.0
 74
     0
  0
LTYPE
  5
11
100
AcDbSymbolTableRecord
100
AcDbLinetypeTableRecord
  2
HIDDEN
 70
     0
  3
_ _ _ _ _ _ _ _ _ _ _ _ _ _ _ _ _ _ _ _ _ _ _
 72
    65
 73
     2
 40
3.2
 49
1.3
 74
     0
 49
-1.9
 74
     0
  0
LTYPE
  5
12
100
AcDbSymbolTableRecord
100
AcDbLinetypeTableRecord
  2
PHANTOM
 70
     0
  3
_____ _ _ _____ _ _ _____ _ _ _____ _ _ _____
 72
    65
 73
     6
 40
12.5
 49
9.0
 74
     0
 49
-1.0
 74
     0
 49
0.5
 74
     0
 49
-0.5
 74
     0
 49
0.5
 74
     0
 49
-1.0
 74
     0
  0
LTYPE
  5
13
100
AcDbSymbolTableRecord
100
AcDbLinetypeTableRecord
  2
DOT
 70
     0
  3
...............................................
 72
    65
 73
     2
 40
1.0
 49
0.5
 74
     0
 49
-0.5
 74
     0
  0
LTYPE
  5
14
100
AcDbSymbolTableRecord
100
AcDbLinetypeTableRecord
  2
DASHDOT
 70
     0
  3
__ . __ . __ . __ . __ . __ . __ . __ . __ . __
 72
    65
 73
     4
 40
8.0
 49
5.0
 74
     0
 49
-1.0
 74
     0
 49
1.0
 74
     0
 49
-1.0
 74
     0
  0
ENDTAB
  0
TABLE
  2
LAYER
  5
1
100
AcDbSymbolTable
 70
     5
  0
LAYER
  5
15
100
AcDbSymbolTableRecord
100
AcDbLayerTableRecord
  2
0
 70
     0
 62
     8
  6
CONTINUOUS
290
     1
370
    -3
390
0
  0
LAYER
  5
16
100
AcDbSymbolTableRecord
100
AcDbLayerTableRecord
  2
1
 70
     0
 62
     2
  6
CONTINUOUS
290
     1
370
    -3
390
0
  0
LAYER
  5
17
100
AcDbSymbolTableRecord
100
AcDbLayerTableRecord
  2
2
 70
     0
 62
     3
  6
CONTINUOUS
290
     1
370
    -3
390
0
  0
LAYER
  5
18
100
AcDbSymbolTableRecord
100
AcDbLayerTableRecord
  2
3
 70
     0
 62
     4
  6
CONTINUOUS
290
     1
370
    -3
390
0
  0
LAYER
  5
19
100
AcDbSymbolTableRecord
100
AcDbLayerTableRecord
  2
4
 70
     0
 62
     1
  6
CONTINUOUS
290
     1
370
    -3
390
0
  0
ENDTAB
  0
TABLE
  2
STYLE
  5
2
100
AcDbSymbolTable
 70
     1
  0
STYLE
  5
1C
100
AcDbSymbolTableRecord
100
AcDbTextStyleTableRecord
  2
STANDARD
 70
    64
 40
0.0
 41
1.0
 50
0.0
 71
     0
 42
1.0
  3
txt
  4
BIGFONT
  0
ENDTAB
  0
TABLE
  2
VIEW
  5
4
100
AcDbSymbolTable
 70
     0
  0
ENDTAB
  0
TABLE
  2
UCS
  5
5
100
AcDbSymbolTable
 70
     0
  0
ENDTAB
  0
TABLE
  2
APPID
  5
7
100
AcDbSymbolTable
 70
     1
  0
APPID
  5
1B
100
AcDbSymbolTableRecord
100
AcDbRegAppTableRecord
  2
ACAD
 70
     0
  0
ENDTAB
  0
TABLE
  2
DIMSTYLE
  5
8
100
AcDbSymbolTable
 70
     1
100
AcDbDimStyleTable
 71
     0
  0
DIMSTYLE
105
31
100
AcDbSymbolTableRecord
100
AcDbDimStyleTableRecord
  2
Standard
 70
     0
  3

  4

 40
1.0
 41
2.0
 42
0.5
 43
0.38
 44
2.0
 45
0.0
 46
0.0
 47
0.0
 48
0.0
 71
     0
 72
     0
 73
     0
 74
     0
 75
     0
 76
     0
 77
     1
 78
     0
 79
     0
140
4.0
141
0.09
142
0.0
143
25.4
144
1.0
145
0.0
146
1.0
147
0.5
148
0.0
170
     0
171
     2
172
     0
173
     0
174
     0
175
     0
176
     0
177
     0
178
     0
179
     0
271
     2
272
     4
273
     2
274
     2
275
     0
276
     0
277
     2
278
    46
279
     0
280
     0
281
     0
282
     0
283
     1
284
     0
285
     0
286
     0
288
     0
289
     3
340
1C
341
0
342
0
343
0
344
0
371
    -2
372
    -2
  0
ENDTAB
  0
TABLE
  2
BLOCK_RECORD
  5
2C
100
AcDbSymbolTable
 70
    13
  0
BLOCK_RECORD
  5
2A
100
AcDbSymbolTableRecord
100
AcDbBlockTableRecord
  2
*Model_Space
340
0
  0
BLOCK_RECORD
  5
2B
100
AcDbSymbolTableRecord
100
AcDbBlockTableRecord
  2
*Paper_Space
340
0
  0
BLOCK_RECORD
  5
1D
100
AcDbSymbolTableRecord
100
AcDbBlockTableRecord
  2
*D0
340
0
  0
BLOCK_RECORD
  5
1E
100
AcDbSymbolTableRecord
100
AcDbBlockTableRecord
  2
*D1
340
0
  0
BLOCK_RECORD
  5
1F
100
AcDbSymbolTableRecord
100
AcDbBlockTableRecord
  2
*D2
340
0
  0
BLOCK_RECORD
  5
20
100
AcDbSymbolTableRecord
100
AcDbBlockTableRecord
  2
*D3
340
0
  0
BLOCK_RECORD
  5
21
100
AcDbSymbolTableRecord
100
AcDbBlockTableRecord
  2
*D4
340
0
  0
BLOCK_RECORD
  5
22
100
AcDbSymbolTableRecord
100
AcDbBlockTableRecord
  2
*D5
340
0
  0
BLOCK_RECORD
  5
23
100
AcDbSymbolTableRecord
100
AcDbBlockTableRecord
  2
*D6
340
0
  0
BLOCK_RECORD
  5
24
100
AcDbSymbolTableRecord
100
AcDbBlockTableRecord
  2
*D7
340
0
  0
BLOCK_RECORD
  5
25
100
AcDbSymbolTableRecord
100
AcDbBlockTableRecord
  2
*D8
340
0
  0
BLOCK_RECORD
  5
26
100
AcDbSymbolTableRecord
100
AcDbBlockTableRecord
  2
*D9
340
0
  0
BLOCK_RECORD
  5
27
100
AcDbSymbolTableRecord
100
AcDbBlockTableRecord
  2
*D10
340
0
  0
BLOCK_RECORD
  5
28
100
AcDbSymbolTableRecord
100
AcDbBlockTableRecord
  2
*D11
340
0
  0
BLOCK_RECORD
  5
29
100
AcDbSymbolTableRecord
100
AcDbBlockTableRecord
  2
*D12
340
0
  0
ENDTAB
  0
ENDSEC
  0
SECTION
  2
BLOCKS
  0
BLOCK
  5
2D
100
AcDbEntity
  8
0
390
0
100
AcDbBlockBegin
  2
*Model_Space
 70
     0
 10
0.0
 20
0.0
 30
0.0
  3
*Model_Space
  1

  0
ENDBLK
  5
2E
100
AcDbEntity
  8
0
390
0
100
AcDbBlockEnd
  0
BLOCK
  5
2F
100
AcDbEntity
 67
     1
  8
0
390
0
100
AcDbBlockBegin
  2
*Paper_Space
 70
     0
 10
0.0
 20
0.0
 30
0.0
  3
*Paper_Space
  1

  0
ENDBLK
  5
30
100
AcDbEntity
 67
     1
  8
0
390
0
100
AcDbBlockEnd
  0
BLOCK
  5
FE
100
AcDbEntity
  8
2
100
AcDbBlockBegin
  2
*D0
 70
     1
 10
0.0
 20
0.0
 30
0.0
  3
*D0
  1

  0
TEXT
  5
FF
100
AcDbEntity
  8
2
370
    25
100
AcDbText
 10
-60.3366
 20
1.664937
 30
0.0
 40
4.0
  1
19
 72
     5
 11
-53.1366
 21
1.664937
 31
0.0
100
AcDbText
  0
LINE
  5
100
100
AcDbEntity
  8
2
370
    25
100
AcDbLine
 10
-65.8366
 20
1.631682
 30
0.0
 11
-65.8366
 21
0.164937
 31
0.0
  0
LINE
  5
101
100
AcDbEntity
  8
2
370
    25
100
AcDbLine
 10
-65.8366
 20
1.164937
 30
0.0
 11
-63.904749
 21
0.647299
 31
0.0
  0
LINE
  5
102
100
AcDbEntity
  8
2
370
    25
100
AcDbLine
 10
-65.8366
 20
1.164937
 30
0.0
 11
-63.904749
 21
1.682575
 31
0.0
  0
LINE
  5
103
100
AcDbEntity
  8
2
370
    25
100
AcDbLine
 10
-65.8366
 20
1.164937
 30
0.0
 11
-46.8366
 21
1.164937
 31
0.0
  0
LINE
  5
104
100
AcDbEntity
  8
2
370
    25
100
AcDbLine
 10
-46.8366
 20
1.164937
 30
0.0
 11
-48.768452
 21
1.682575
 31
0.0
  0
LINE
  5
105
100
AcDbEntity
  8
2
370
    25
100
AcDbLine
 10
-46.8366
 20
1.164937
 30
0.0
 11
-48.768452
 21
0.647299
 31
0.0
  0
LINE
  5
106
100
AcDbEntity
  8
2
370
    25
100
AcDbLine
 10
-46.8366
 20
1.631682
 30
0.0
 11
-46.8366
 21
0.164937
 31
0.0
  0
ENDBLK
  5
107
100
AcDbEntity
  8
2
100
AcDbBlockEnd
  0
BLOCK
  5
108
100
AcDbEntity
  8
2
100
AcDbBlockBegin
  2
*D1
 70
     1
 10
0.0
 20
0.0
 30
0.0
  3
*D1
  1

  0
TEXT
  5
109
100
AcDbEntity
  8
2
370
    25
100
AcDbText
 10
49.708482
 20
-32.905613
 30
0.0
 40
4.0
  1
１８
 72
     5
 11
56.908482
 21
-32.905613
 31
0.0
100
AcDbText
  0
LINE
  5
10A
100
AcDbEntity
  8
2
370
    25
100
AcDbLine
 10
44.708482
 20
-13.152102
 30
0.0
 11
44.708482
 21
-34.405613
 31
0.0
  0
LINE
  5
10B
100
AcDbEntity
  8
2
370
    25
100
AcDbLine
 10
44.708482
 20
-33.405613
 30
0.0
 11
46.640334
 21
-33.923251
 31
0.0
  0
LINE
  5
10C
100
AcDbEntity
  8
2
370
    25
100
AcDbLine
 10
44.708482
 20
-33.405613
 30
0.0
 11
46.640334
 21
-32.887975
 31
0.0
  0
LINE
  5
10D
100
AcDbEntity
  8
2
370
    25
100
AcDbLine
 10
44.708482
 20
-33.405613
 30
0.0
 11
62.708482
 21
-33.405613
 31
0.0
  0
LINE
  5
10E
100
AcDbEntity
  8
2
370
    25
100
AcDbLine
 10
62.708482
 20
-33.405613
 30
0.0
 11
60.77663
 21
-32.887975
 31
0.0
  0
LINE
  5
10F
100
AcDbEntity
  8
2
370
    25
100
AcDbLine
 10
62.708482
 20
-33.405613
 30
0.0
 11
60.77663
 21
-33.923251
 31
0.0
  0
LINE
  5
110
100
AcDbEntity
  8
2
370
    25
100
AcDbLine
 10
62.708482
 20
-13.152102
 30
0.0
 11
62.708482
 21
-34.405613
 31
0.0
  0
ENDBLK
  5
111
100
AcDbEntity
  8
2
100
AcDbBlockEnd
  0
BLOCK
  5
112
100
AcDbEntity
  8
2
100
AcDbBlockBegin
  2
*D2
 70
     1
 10
0.0
 20
0.0
 30
0.0
  3
*D2
  1

  0
TEXT
  5
113
100
AcDbEntity
  8
2
370
    25
100
AcDbText
 10
-37.018597
 20
15.847898
 30
0.0
 40
4.0
  1
１１４
 50
90.0
 72
     5
 11
-37.018597
 21
27.047898
 31
0.0
100
AcDbText
  0
LINE
  5
114
100
AcDbEntity
  8
2
370
    25
100
AcDbLine
 10
-53.8366
 20
-35.152102
 30
0.0
 11
-35.518597
 21
-35.152102
 31
0.0
  0
LINE
  5
115
100
AcDbEntity
  8
2
370
    25
100
AcDbLine
 10
-36.518597
 20
-35.152102
 30
0.0
 11
-36.000959
 21
-33.220251
 31
0.0
  0
LINE
  5
116
100
AcDbEntity
  8
2
370
    25
100
AcDbLine
 10
-36.518597
 20
-35.152102
 30
0.0
 11
-37.036235
 21
-33.220251
 31
0.0
  0
LINE
  5
117
100
AcDbEntity
  8
2
370
    25
100
AcDbLine
 10
-36.518597
 20
-35.152102
 30
0.0
 11
-36.518597
 21
78.847898
 31
0.0
  0
LINE
  5
118
100
AcDbEntity
  8
2
370
    25
100
AcDbLine
 10
-36.518597
 20
78.847898
 30
0.0
 11
-37.036235
 21
76.916046
 31
0.0
  0
LINE
  5
119
100
AcDbEntity
  8
2
370
    25
100
AcDbLine
 10
-36.518597
 20
78.847898
 30
0.0
 11
-36.000959
 21
76.916046
 31
0.0
  0
LINE
  5
11A
100
AcDbEntity
  8
2
370
    25
100
AcDbLine
 10
-53.8366
 20
78.847898
 30
0.0
 11
-35.518597
 21
78.847898
 31
0.0
  0
ENDBLK
  5
11B
100
AcDbEntity
  8
2
100
AcDbBlockEnd
  0
BLOCK
  5
11C
100
AcDbEntity
  8
2
100
AcDbBlockBegin
  2
*D3
 70
     1
 10
0.0
 20
0.0
 30
0.0
  3
*D3
  1

  0
TEXT
  5
11D
100
AcDbEntity
  8
2
370
    25
100
AcDbText
 10
-31.218603
 20
15.847898
 30
0.0
 40
4.0
  1
１３０
 50
90.0
 72
     5
 11
-31.218603
 21
27.047898
 31
0.0
100
AcDbText
  0
LINE
  5
11E
100
AcDbEntity
  8
2
370
    25
100
AcDbLine
 10
-43.3366
 20
-43.152102
 30
0.0
 11
-29.718603
 21
-43.152102
 31
0.0
  0
LINE
  5
11F
100
AcDbEntity
  8
2
370
    25
100
AcDbLine
 10
-30.718603
 20
-43.152102
 30
0.0
 11
-30.200965
 21
-41.220251
 31
0.0
  0
LINE
  5
120
100
AcDbEntity
  8
2
370
    25
100
AcDbLine
 10
-30.718603
 20
-43.152102
 30
0.0
 11
-31.236241
 21
-41.220251
 31
0.0
  0
LINE
  5
121
100
AcDbEntity
  8
2
370
    25
100
AcDbLine
 10
-30.718603
 20
-43.152102
 30
0.0
 11
-30.718603
 21
86.847898
 31
0.0
  0
LINE
  5
122
100
AcDbEntity
  8
2
370
    25
100
AcDbLine
 10
-30.718603
 20
86.847898
 30
0.0
 11
-31.236241
 21
84.916046
 31
0.0
  0
LINE
  5
123
100
AcDbEntity
  8
2
370
    25
100
AcDbLine
 10
-30.718603
 20
86.847898
 30
0.0
 11
-30.200965
 21
84.916046
 31
0.0
  0
LINE
  5
124
100
AcDbEntity
  8
2
370
    25
100
AcDbLine
 10
-43.3366
 20
86.847898
 30
0.0
 11
-29.718603
 21
86.847898
 31
0.0
  0
ENDBLK
  5
125
100
AcDbEntity
  8
2
100
AcDbBlockEnd
  0
BLOCK
  5
126
100
AcDbEntity
  8
2
100
AcDbBlockBegin
  2
*D4
 70
     1
 10
0.0
 20
0.0
 30
0.0
  3
*D4
  1

  0
TEXT
  5
127
100
AcDbEntity
  8
2
370
    25
100
AcDbText
 10
85.455788
 20
20.597898
 30
0.0
 40
4.0
  1
５５．５
 50
90.0
 72
     5
 11
85.455788
 21
35.797898
 31
0.0
100
AcDbText
  0
LINE
  5
128
100
AcDbEntity
  8
2
370
    25
100
AcDbLine
 10
85.955788
 20
0.847898
 30
0.0
 11
86.473426
 21
2.779749
 31
0.0
  0
LINE
  5
129
100
AcDbEntity
  8
2
370
    25
100
AcDbLine
 10
85.955788
 20
0.847898
 30
0.0
 11
85.43815
 21
2.779749
 31
0.0
  0
LINE
  5
12A
100
AcDbEntity
  8
2
370
    25
100
AcDbLine
 10
85.955788
 20
0.847898
 30
0.0
 11
85.955788
 21
56.347898
 31
0.0
  0
LINE
  5
12B
100
AcDbEntity
  8
2
370
    25
100
AcDbLine
 10
85.955788
 20
56.347898
 30
0.0
 11
85.43815
 21
54.416046
 31
0.0
  0
LINE
  5
12C
100
AcDbEntity
  8
2
370
    25
100
AcDbLine
 10
85.955788
 20
56.347898
 30
0.0
 11
86.473426
 21
54.416046
 31
0.0
  0
LINE
  5
12D
100
AcDbEntity
  8
2
370
    25
100
AcDbLine
 10
75.23299
 20
56.347898
 30
0.0
 11
86.955788
 21
56.347898
 31
0.0
  0
ENDBLK
  5
12E
100
AcDbEntity
  8
2
100
AcDbBlockEnd
  0
BLOCK
  5
12F
100
AcDbEntity
  8
2
100
AcDbBlockBegin
  2
*D5
 70
     1
 10
0.0
 20
0.0
 30
0.0
  3
*D5
  1

  0
TEXT
  5
130
100
AcDbEntity
  8
2
370
    25
100
AcDbText
 10
-12.71203
 20
7.847898
 30
0.0
 40
4.0
  1
２２
 50
90.0
 72
     5
 11
-12.71203
 21
15.047898
 31
0.0
100
AcDbText
  0
LINE
  5
131
100
AcDbEntity
  8
2
370
    25
100
AcDbLine
 10
31.776554
 20
0.847898
 30
0.0
 11
-13.21203
 21
0.847898
 31
0.0
  0
LINE
  5
132
100
AcDbEntity
  8
2
370
    25
100
AcDbLine
 10
-12.21203
 20
0.847898
 30
0.0
 11
-11.694392
 21
2.779749
 31
0.0
  0
LINE
  5
133
100
AcDbEntity
  8
2
370
    25
100
AcDbLine
 10
-12.21203
 20
0.847898
 30
0.0
 11
-12.729669
 21
2.779749
 31
0.0
  0
LINE
  5
134
100
AcDbEntity
  8
2
370
    25
100
AcDbLine
 10
-12.21203
 20
0.847898
 30
0.0
 11
-12.21203
 21
22.847898
 31
0.0
  0
LINE
  5
135
100
AcDbEntity
  8
2
370
    25
100
AcDbLine
 10
-12.21203
 20
22.847898
 30
0.0
 11
-12.729669
 21
20.916046
 31
0.0
  0
LINE
  5
136
100
AcDbEntity
  8
2
370
    25
100
AcDbLine
 10
-12.21203
 20
22.847898
 30
0.0
 11
-11.694392
 21
20.916046
 31
0.0
  0
LINE
  5
137
100
AcDbEntity
  8
2
370
    25
100
AcDbLine
 10
-11.92657
 20
22.847898
 30
0.0
 11
-13.21203
 21
22.847898
 31
0.0
  0
ENDBLK
  5
138
100
AcDbEntity
  8
2
100
AcDbBlockEnd
  0
BLOCK
  5
139
100
AcDbEntity
  8
2
100
AcDbBlockBegin
  2
*D6
 70
     1
 10
0.0
 20
0.0
 30
0.0
  3
*D6
  1

  0
TEXT
  5
13A
100
AcDbEntity
  8
2
370
    25
100
AcDbText
 10
-18.763121
 20
39.847898
 30
0.0
 40
4.0
  1
８６
 50
90.0
 72
     5
 11
-18.763121
 21
47.047898
 31
0.0
100
AcDbText
  0
LINE
  5
13B
100
AcDbEntity
  8
2
370
    25
100
AcDbLine
 10
31.776554
 20
0.847898
 30
0.0
 11
-19.263121
 21
0.847898
 31
0.0
  0
LINE
  5
13C
100
AcDbEntity
  8
2
370
    25
100
AcDbLine
 10
-18.263121
 20
0.847898
 30
0.0
 11
-17.745483
 21
2.779749
 31
0.0
  0
LINE
  5
13D
100
AcDbEntity
  8
2
370
    25
100
AcDbLine
 10
-18.263121
 20
0.847898
 30
0.0
 11
-18.780759
 21
2.779749
 31
0.0
  0
LINE
  5
13E
100
AcDbEntity
  8
2
370
    25
100
AcDbLine
 10
-18.263121
 20
0.847898
 30
0.0
 11
-18.263121
 21
86.847898
 31
0.0
  0
LINE
  5
13F
100
AcDbEntity
  8
2
370
    25
100
AcDbLine
 10
-18.263121
 20
86.847898
 30
0.0
 11
-18.780759
 21
84.916046
 31
0.0
  0
LINE
  5
140
100
AcDbEntity
  8
2
370
    25
100
AcDbLine
 10
-18.263121
 20
86.847898
 30
0.0
 11
-17.745483
 21
84.916046
 31
0.0
  0
LINE
  5
141
100
AcDbEntity
  8
2
370
    25
100
AcDbLine
 10
2.208482
 20
86.847898
 30
0.0
 11
-19.263121
 21
86.847898
 31
0.0
  0
ENDBLK
  5
142
100
AcDbEntity
  8
2
100
AcDbBlockEnd
  0
BLOCK
  5
143
100
AcDbEntity
  8
2
100
AcDbBlockBegin
  2
*D7
 70
     1
 10
0.0
 20
0.0
 30
0.0
  3
*D7
  1

  0
TEXT
  5
144
100
AcDbEntity
  8
2
370
    25
100
AcDbText
 10
-18.763121
 20
-25.152102
 30
0.0
 40
4.0
  1
４４
 50
90.0
 72
     5
 11
-18.763121
 21
-17.952102
 31
0.0
100
AcDbText
  0
LINE
  5
145
100
AcDbEntity
  8
2
370
    25
100
AcDbLine
 10
2.208482
 20
-43.152102
 30
0.0
 11
-19.263121
 21
-43.152102
 31
0.0
  0
LINE
  5
146
100
AcDbEntity
  8
2
370
    25
100
AcDbLine
 10
-18.263121
 20
-43.152102
 30
0.0
 11
-17.745483
 21
-41.220251
 31
0.0
  0
LINE
  5
147
100
AcDbEntity
  8
2
370
    25
100
AcDbLine
 10
-18.263121
 20
-43.152102
 30
0.0
 11
-18.780759
 21
-41.220251
 31
0.0
  0
LINE
  5
148
100
AcDbEntity
  8
2
370
    25
100
AcDbLine
 10
-18.263121
 20
-43.152102
 30
0.0
 11
-18.263121
 21
0.847898
 31
0.0
  0
LINE
  5
149
100
AcDbEntity
  8
2
370
    25
100
AcDbLine
 10
-18.263121
 20
0.847898
 30
0.0
 11
-18.780759
 21
-1.083954
 31
0.0
  0
LINE
  5
14A
100
AcDbEntity
  8
2
370
    25
100
AcDbLine
 10
-18.263121
 20
0.847898
 30
0.0
 11
-17.745483
 21
-1.083954
 31
0.0
  0
ENDBLK
  5
14B
100
AcDbEntity
  8
2
100
AcDbBlockEnd
  0
BLOCK
  5
14C
100
AcDbEntity
  8
2
100
AcDbBlockBegin
  2
*D8
 70
     1
 10
0.0
 20
0.0
 30
0.0
  3
*D8
  1

  0
TEXT
  5
14D
100
AcDbEntity
  8
2
370
    25
100
AcDbText
 10
10.708482
 20
-50.936951
 30
0.0
 40
4.0
  1
４
 72
     5
 11
13.908482
 21
-50.936951
 31
0.0
100
AcDbText
  0
LINE
  5
14E
100
AcDbEntity
  8
2
370
    25
100
AcDbLine
 10
2.708482
 20
-51.436951
 30
0.0
 11
0.77663
 21
-50.919313
 31
0.0
  0
LINE
  5
14F
100
AcDbEntity
  8
2
370
    25
100
AcDbLine
 10
2.708482
 20
-51.436951
 30
0.0
 11
0.77663
 21
-51.954589
 31
0.0
  0
LINE
  5
150
100
AcDbEntity
  8
2
370
    25
100
AcDbLine
 10
-2.291518
 20
-51.436951
 30
0.0
 11
15.708482
 21
-51.436951
 31
0.0
  0
LINE
  5
151
100
AcDbEntity
  8
2
370
    25
100
AcDbLine
 10
6.708482
 20
-51.436951
 30
0.0
 11
8.640334
 21
-51.954589
 31
0.0
  0
LINE
  5
152
100
AcDbEntity
  8
2
370
    25
100
AcDbLine
 10
6.708482
 20
-51.436951
 30
0.0
 11
8.640334
 21
-50.919313
 31
0.0
  0
LINE
  5
153
100
AcDbEntity
  8
2
370
    25
100
AcDbLine
 10
6.708482
 20
-43.652102
 30
0.0
 11
6.708482
 21
-52.436951
 31
0.0
  0
ENDBLK
  5
154
100
AcDbEntity
  8
2
100
AcDbBlockEnd
  0
BLOCK
  5
155
100
AcDbEntity
  8
2
100
AcDbBlockBegin
  2
*D9
 70
     1
 10
0.0
 20
0.0
 30
0.0
  3
*D9
  1

  0
TEXT
  5
156
100
AcDbEntity
  8
2
370
    25
100
AcDbText
 10
36.208482
 20
-58.001839
 30
0.0
 40
4.0
  1
５１
 72
     5
 11
43.408482
 21
-58.001839
 31
0.0
100
AcDbText
  0
LINE
  5
157
100
AcDbEntity
  8
2
370
    25
100
AcDbLine
 10
2.708482
 20
-58.501839
 30
0.0
 11
4.640334
 21
-59.019477
 31
0.0
  0
LINE
  5
158
100
AcDbEntity
  8
2
370
    25
100
AcDbLine
 10
2.708482
 20
-58.501839
 30
0.0
 11
4.640334
 21
-57.984201
 31
0.0
  0
LINE
  5
159
100
AcDbEntity
  8
2
370
    25
100
AcDbLine
 10
2.708482
 20
-58.501839
 30
0.0
 11
53.708482
 21
-58.501839
 31
0.0
  0
LINE
  5
15A
100
AcDbEntity
  8
2
370
    25
100
AcDbLine
 10
53.708482
 20
-58.501839
 30
0.0
 11
51.77663
 21
-57.984201
 31
0.0
  0
LINE
  5
15B
100
AcDbEntity
  8
2
370
    25
100
AcDbLine
 10
53.708482
 20
-58.501839
 30
0.0
 11
51.77663
 21
-59.019477
 31
0.0
  0
ENDBLK
  5
15C
100
AcDbEntity
  8
2
100
AcDbBlockEnd
  0
BLOCK
  5
15D
100
AcDbEntity
  8
2
100
AcDbBlockBegin
  2
*D10
 70
     1
 10
0.0
 20
0.0
 30
0.0
  3
*D10
  1

  0
TEXT
  5
15E
100
AcDbEntity
  8
2
370
    25
100
AcDbText
 10
85.455788
 20
-14.152102
 30
0.0
 40
4.0
  1
２２
 50
90.0
 72
     5
 11
85.455788
 21
-6.952102
 31
0.0
100
AcDbText
  0
LINE
  5
15F
100
AcDbEntity
  8
2
370
    25
100
AcDbLine
 10
79.208482
 20
-21.152102
 30
0.0
 11
86.955788
 21
-21.152102
 31
0.0
  0
LINE
  5
160
100
AcDbEntity
  8
2
370
    25
100
AcDbLine
 10
85.955788
 20
-21.152102
 30
0.0
 11
86.473426
 21
-19.220251
 31
0.0
  0
LINE
  5
161
100
AcDbEntity
  8
2
370
    25
100
AcDbLine
 10
85.955788
 20
-21.152102
 30
0.0
 11
85.43815
 21
-19.220251
 31
0.0
  0
LINE
  5
162
100
AcDbEntity
  8
2
370
    25
100
AcDbLine
 10
85.955788
 20
-21.152102
 30
0.0
 11
85.955788
 21
0.847898
 31
0.0
  0
LINE
  5
163
100
AcDbEntity
  8
2
370
    25
100
AcDbLine
 10
85.955788
 20
0.847898
 30
0.0
 11
85.43815
 21
-1.083954
 31
0.0
  0
LINE
  5
164
100
AcDbEntity
  8
2
370
    25
100
AcDbLine
 10
85.955788
 20
0.847898
 30
0.0
 11
86.473426
 21
-1.083954
 31
0.0
  0
LINE
  5
165
100
AcDbEntity
  8
2
370
    25
100
AcDbLine
 10
75.23299
 20
0.847898
 30
0.0
 11
86.955788
 21
0.847898
 31
0.0
  0
ENDBLK
  5
166
100
AcDbEntity
  8
2
100
AcDbBlockEnd
  0
BLOCK
  5
167
100
AcDbEntity
  8
2
100
AcDbBlockBegin
  2
*D11
 70
     1
 10
0.0
 20
0.0
 30
0.0
  3
*D11
  1

  0
TEXT
  5
168
100
AcDbEntity
  8
2
370
    25
100
AcDbText
 10
36.708482
 20
-67.287704
 30
0.0
 40
4.0
  1
７６
 72
     5
 11
43.908482
 21
-67.287704
 31
0.0
100
AcDbText
  0
LINE
  5
169
100
AcDbEntity
  8
2
370
    25
100
AcDbLine
 10
2.708482
 20
-67.787704
 30
0.0
 11
4.640334
 21
-68.305343
 31
0.0
  0
LINE
  5
16A
100
AcDbEntity
  8
2
370
    25
100
AcDbLine
 10
2.708482
 20
-67.787704
 30
0.0
 11
4.640334
 21
-67.270066
 31
0.0
  0
LINE
  5
16B
100
AcDbEntity
  8
2
370
    25
100
AcDbLine
 10
2.708482
 20
-67.787704
 30
0.0
 11
78.708482
 21
-67.787704
 31
0.0
  0
LINE
  5
16C
100
AcDbEntity
  8
2
370
    25
100
AcDbLine
 10
78.708482
 20
-67.787704
 30
0.0
 11
76.77663
 21
-67.270066
 31
0.0
  0
LINE
  5
16D
100
AcDbEntity
  8
2
370
    25
100
AcDbLine
 10
78.708482
 20
-67.787704
 30
0.0
 11
76.77663
 21
-68.305343
 31
0.0
  0
LINE
  5
16E
100
AcDbEntity
  8
2
370
    25
100
AcDbLine
 10
78.708482
 20
-21.652102
 30
0.0
 11
78.708482
 21
-68.787704
 31
0.0
  0
ENDBLK
  5
16F
100
AcDbEntity
  8
2
100
AcDbBlockEnd
  0
BLOCK
  5
170
100
AcDbEntity
  8
2
100
AcDbBlockBegin
  2
*D12
 70
     1
 10
0.0
 20
0.0
 30
0.0
  3
*D12
  1

  0
TEXT
  5
171
100
AcDbEntity
  8
2
370
    25
100
AcDbText
 10
91.863609
 20
17.847898
 30
0.0
 40
4.0
  1
８６
 50
90.0
 72
     5
 11
91.863609
 21
25.047898
 31
0.0
100
AcDbText
  0
LINE
  5
172
100
AcDbEntity
  8
2
370
    25
100
AcDbLine
 10
79.208482
 20
-21.152102
 30
0.0
 11
93.363609
 21
-21.152102
 31
0.0
  0
LINE
  5
173
100
AcDbEntity
  8
2
370
    25
100
AcDbLine
 10
92.363609
 20
-21.152102
 30
0.0
 11
92.881247
 21
-19.220251
 31
0.0
  0
LINE
  5
174
100
AcDbEntity
  8
2
370
    25
100
AcDbLine
 10
92.363609
 20
-21.152102
 30
0.0
 11
91.845971
 21
-19.220251
 31
0.0
  0
LINE
  5
175
100
AcDbEntity
  8
2
370
    25
100
AcDbLine
 10
92.363609
 20
-21.152102
 30
0.0
 11
92.363609
 21
64.847898
 31
0.0
  0
LINE
  5
176
100
AcDbEntity
  8
2
370
    25
100
AcDbLine
 10
92.363609
 20
64.847898
 30
0.0
 11
91.845971
 21
62.916046
 31
0.0
  0
LINE
  5
177
100
AcDbEntity
  8
2
370
    25
100
AcDbLine
 10
92.363609
 20
64.847898
 30
0.0
 11
92.881247
 21
62.916046
 31
0.0
  0
LINE
  5
178
100
AcDbEntity
  8
2
370
    25
100
AcDbLine
 10
79.208482
 20
64.847898
 30
0.0
 11
93.363609
 21
64.847898
 31
0.0
  0
ENDBLK
  5
179
100
AcDbEntity
  8
2
100
AcDbBlockEnd
  0
ENDSEC
  0
SECTION
  2
ENTITIES
  0
LINE
  5
32
100
AcDbEntity
  8
1
370
   100
100
AcDbLine
 10
-68.8366
 20
86.847898
 30
0.0
 11
-68.8366
 21
-43.152102
 31
0.0
  0
LINE
  5
33
100
AcDbEntity
  8
1
370
   100
100
AcDbLine
 10
-43.8366
 20
86.847898
 30
0.0
 11
-43.8366
 21
-43.152102
 31
0.0
  0
LINE
  5
34
100
AcDbEntity
  8
1
370
   100
100
AcDbLine
 10
-68.8366
 20
-43.152102
 30
0.0
 11
-43.8366
 21
-43.152102
 31
0.0
  0
LINE
  5
35
100
AcDbEntity
  8
1
370
   100
100
AcDbLine
 10
-68.8366
 20
86.847898
 30
0.0
 11
-43.8366
 21
86.847898
 31
0.0
  0
LINE
  5
36
100
AcDbEntity
  8
1
370
    50
  6
DASHED
100
AcDbLine
 10
6.708482
 20
86.847898
 30
0.0
 11
6.708482
 21
-43.152102
 31
0.0
  0
LINE
  5
37
100
AcDbEntity
  8
1
370
    50
  6
DASHED
100
AcDbLine
 10
78.708482
 20
64.847898
 30
0.0
 11
78.708482
 21
-21.152102
 31
0.0
  0
LINE
  5
38
100
AcDbEntity
  8
1
370
    50
  6
DASHED
100
AcDbLine
 10
6.708482
 20
-21.152102
 30
0.0
 11
78.708482
 21
-21.152102
 31
0.0
  0
LINE
  5
39
100
AcDbEntity
  8
1
370
    50
  6
DASHED
100
AcDbLine
 10
6.708482
 20
64.847898
 30
0.0
 11
78.708482
 21
64.847898
 31
0.0
  0
LINE
  5
3A
100
AcDbEntity
  8
1
370
    50
  6
DASHED
100
AcDbLine
 10
2.708482
 20
86.847898
 30
0.0
 11
6.708482
 21
86.847898
 31
0.0
  0
LINE
  5
3B
100
AcDbEntity
  8
1
370
    50
  6
DASHED
100
AcDbLine
 10
2.708482
 20
-43.152102
 30
0.0
 11
6.708482
 21
-43.152102
 31
0.0
  0
LINE
  5
3C
100
AcDbEntity
  8
1
370
   100
100
AcDbLine
 10
-65.8366
 20
64.847898
 30
0.0
 11
-65.8366
 21
-21.152102
 31
0.0
  0
LINE
  5
3D
100
AcDbEntity
  8
1
370
   100
100
AcDbLine
 10
-46.8366
 20
64.847898
 30
0.0
 11
-46.8366
 21
-21.152102
 31
0.0
  0
LINE
  5
3E
100
AcDbEntity
  8
1
370
   100
100
AcDbLine
 10
-46.8366
 20
64.847898
 30
0.0
 11
-65.8366
 21
64.847898
 31
0.0
  0
LINE
  5
3F
100
AcDbEntity
  8
1
370
   100
100
AcDbLine
 10
-46.8366
 20
-21.152102
 30
0.0
 11
-65.8366
 21
-21.152102
 31
0.0
  0
LINE
  5
40
100
AcDbEntity
  8
1
370
   100
100
AcDbLine
 10
-56.3366
 20
-33.152102
 30
0.0
 11
-56.3366
 21
-37.152102
 31
0.0
  0
LINE
  5
41
100
AcDbEntity
  8
1
370
    25
  6
CENTER
100
AcDbLine
 10
-56.3366
 20
-37.152102
 30
0.0
 11
-56.3366
 21
-49.156516
 31
0.0
  0
LINE
  5
42
100
AcDbEntity
  8
1
370
    25
  6
CENTER
100
AcDbLine
 10
-56.3366
 20
91.643333
 30
0.0
 11
-56.3366
 21
80.847898
 31
0.0
  0
LINE
  5
43
100
AcDbEntity
  8
1
370
   100
100
AcDbLine
 10
-56.3366
 20
80.847898
 30
0.0
 11
-56.3366
 21
76.847898
 31
0.0
  0
LINE
  5
44
100
AcDbEntity
  8
1
370
   100
100
AcDbLine
 10
-58.3366
 20
78.847898
 30
0.0
 11
-54.3366
 21
78.847898
 31
0.0
  0
LINE
  5
45
100
AcDbEntity
  8
1
370
   100
100
AcDbLine
 10
-58.3366
 20
-35.152102
 30
0.0
 11
-54.3366
 21
-35.152102
 31
0.0
  0
LINE
  5
46
100
AcDbEntity
  8
1
370
    25
  6
CENTER
100
AcDbLine
 10
-56.3366
 20
-33.152102
 30
0.0
 11
-56.3366
 21
36.880089
 31
0.0
  0
LINE
  5
47
100
AcDbEntity
  8
1
370
    25
  6
CENTER
100
AcDbLine
 10
-56.3366
 20
55.120667
 30
0.0
 11
-56.3366
 21
76.847898
 31
0.0
  0
LINE
  5
48
100
AcDbEntity
  8
1
370
   100
100
AcDbLine
 10
2.708482
 20
110.334558
 30
0.0
 11
2.708482
 21
-67.656389
 31
0.0
  0
ARC
  5
49
100
AcDbEntity
  8
1
370
   100
100
AcDbCircle
 10
-62.8366
 20
80.847898
 30
0.0
 40
6.0
100
AcDbArc
 50
90.0
 51
180.0
  0
ARC
  5
4A
100
AcDbEntity
  8
1
370
   100
100
AcDbCircle
 10
-49.8366
 20
80.847898
 30
0.0
 40
6.0
100
AcDbArc
 50
0.0
 51
90.0
  0
ARC
  5
4B
100
AcDbEntity
  8
1
370
   100
100
AcDbCircle
 10
-49.8366
 20
-37.152102
 30
0.0
 40
6.0
100
AcDbArc
 50
270.0
 51
360.0
  0
ARC
  5
4C
100
AcDbEntity
  8
1
370
   100
100
AcDbCircle
 10
-62.8366
 20
-37.152102
 30
0.0
 40
6.0
100
AcDbArc
 50
180.0
 51
270.0
  0
LINE
  5
4D
100
AcDbEntity
  8
1
370
    25
  6
CENTER
100
AcDbLine
 10
32.276554
 20
56.347898
 30
0.0
 11
74.73299
 21
56.347898
 31
0.0
  0
LINE
  5
4E
100
AcDbEntity
  8
1
370
    25
  6
CENTER
100
AcDbLine
 10
32.276554
 20
0.847898
 30
0.0
 11
74.73299
 21
0.847898
 31
0.0
  0
LINE
  5
4F
100
AcDbEntity
  8
1
370
    25
  6
CENTER
100
AcDbLine
 10
44.708482
 20
-12.652102
 30
0.0
 11
44.708482
 21
14.347898
 31
0.0
  0
LINE
  5
50
100
AcDbEntity
  8
1
370
    25
  6
CENTER
100
AcDbLine
 10
62.708482
 20
-12.652102
 30
0.0
 11
62.708482
 21
14.347898
 31
0.0
  0
LINE
  5
51
100
AcDbEntity
  8
1
370
   100
100
AcDbLine
 10
44.708482
 20
11.347898
 30
0.0
 11
62.708482
 21
11.347898
 31
0.0
  0
LINE
  5
52
100
AcDbEntity
  8
1
370
   100
100
AcDbLine
 10
44.708482
 20
-9.652102
 30
0.0
 11
62.708482
 21
-9.652102
 31
0.0
  0
ARC
  5
53
100
AcDbEntity
  8
1
370
    25
  6
DASHED
100
AcDbCircle
 10
44.708482
 20
0.847898
 30
0.0
 40
10.5
100
AcDbArc
 50
31.002719
 51
90.0
  0
ARC
  5
54
100
AcDbEntity
  8
1
370
    25
  6
DASHED
100
AcDbCircle
 10
62.708482
 20
0.847898
 30
0.0
 40
10.5
100
AcDbArc
 50
90.0
 51
148.997281
  0
ARC
  5
55
100
AcDbEntity
  8
1
370
    25
  6
DASHED
100
AcDbCircle
 10
62.708482
 20
0.847898
 30
0.0
 40
10.5
100
AcDbArc
 50
148.997281
 51
270.0
  0
ARC
  5
56
100
AcDbEntity
  8
1
370
   100
100
AcDbCircle
 10
62.708482
 20
0.847898
 30
0.0
 40
10.5
100
AcDbArc
 50
270.0
 51
90.0
  0
ARC
  5
57
100
AcDbEntity
  8
1
370
   100
100
AcDbCircle
 10
44.708482
 20
0.847898
 30
0.0
 40
10.5
100
AcDbArc
 50
90.0
 51
270.0
  0
ARC
  5
58
100
AcDbEntity
  8
1
370
    25
  6
DASHED
100
AcDbCircle
 10
44.708482
 20
0.847898
 30
0.0
 40
10.5
100
AcDbArc
 50
270.0
 51
31.002719
  0
CIRCLE
  5
59
100
AcDbEntity
  8
1
370
   100
100
AcDbCircle
 10
53.708482
 20
56.347898
 30
0.0
 40
15.0
  0
LINE
  5
5A
100
AcDbEntity
  8
1
370
    25
  6
CENTER
100
AcDbLine
 10
53.708482
 20
-61.681728
 30
0.0
 11
53.708482
 21
-34.806749
 31
0.0
  0
LINE
  5
5B
100
AcDbEntity
  8
1
370
    25
  6
CENTER
100
AcDbLine
 10
53.708482
 20
75.627753
 30
0.0
 11
53.708482
 21
-28.237596
 31
0.0
  0
LINE
  5
5C
100
AcDbEntity
  8
1
370
    25
100
AcDbLine
 10
-47.367973
 20
86.316524
 30
0.0
 11
-46.8366
 21
86.847898
 31
0.0
  0
LINE
  5
5D
100
AcDbEntity
  8
1
370
    25
100
AcDbLine
 10
-46.056108
 20
85.507069
 30
0.0
 11
-44.71528
 21
86.847898
 31
0.0
  0
LINE
  5
5E
100
AcDbEntity
  8
1
370
    25
100
AcDbLine
 10
-43.8366
 20
85.605257
 30
0.0
 11
-45.018381
 21
84.423476
 31
0.0
  0
LINE
  5
5F
100
AcDbEntity
  8
1
370
    25
100
AcDbLine
 10
-43.8366
 20
83.483936
 30
0.0
 11
-44.25963
 21
83.060906
 31
0.0
  0
LINE
  5
60
100
AcDbEntity
  8
1
370
    25
100
AcDbLine
 10
-43.8366
 20
81.362616
 30
0.0
 11
-43.856998
 21
81.342219
 31
0.0
  0
LINE
  5
61
100
AcDbEntity
  8
1
370
    25
100
AcDbLine
 10
-49.014507
 20
86.791311
 30
0.0
 11
-48.957921
 21
86.847898
 31
0.0
  0
LINE
  5
62
100
AcDbEntity
  8
1
370
    25
100
AcDbLine
 10
-43.8366
 20
83.847898
 30
0.0
 11
-46.8366
 21
86.847898
 31
0.0
  0
LINE
  5
63
100
AcDbEntity
  8
1
370
    25
100
AcDbLine
 10
-43.8366
 20
85.969218
 30
0.0
 11
-44.71528
 21
86.847898
 31
0.0
  0
LINE
  5
64
100
AcDbEntity
  8
1
370
    25
100
AcDbLine
 10
-43.8366
 20
81.726577
 30
0.0
 11
-43.913122
 21
81.803099
 31
0.0
  0
LINE
  5
65
100
AcDbEntity
  8
1
370
    25
100
AcDbLine
 10
-48.881398
 20
86.771375
 30
0.0
 11
-48.957921
 21
86.847898
 31
0.0
  0
HATCH
  5
66
100
AcDbEntity
  8
1
370
    25
100
AcDbHatch
 10
0.0
 20
0.0
 30
0.0
210
0.0
220
0.0
230
1.0
  2
_U
 70
     0
 71
     1
 91
        1
 92
        1
 93
        3
 72
     1
 10
-43.836599999999997
 20
-43.152101999999999
 11
-49.836599999999997
 21
-43.152101999999999
 72
     2
 10
-49.836599999999997
 20
-37.152101999999999
 40
6.0
 50
270.0
 51
0.0
 73
     1
 72
     1
 10
-43.836599999999997
 20
-37.152101999999999
 11
-43.836599999999997
 21
-43.152101999999999
 97
        3
330
0
330
0
330
0
 75
     0
 76
     0
 52
45.0
 41
1.0
 77
     0
 78
     2
 53
45.0
 43
0.0
 44
0.0
 45
-1.0606599999999999
 46
1.0606599999999999
 79
     0
 53
135.0
 43
0.0
 44
0.0
 45
-1.0606599999999999
 46
-1.0606599999999999
 79
     0
 98
        1
 10
0.0
 20
0.0
  0
LINE
  5
67
100
AcDbEntity
  8
1
370
    25
100
AcDbLine
 10
-65.305227
 20
-42.620729
 30
0.0
 11
-65.8366
 21
-43.152102
 31
0.0
  0
LINE
  5
68
100
AcDbEntity
  8
1
370
    25
100
AcDbLine
 10
-63.658693
 20
-43.095516
 30
0.0
 11
-63.71528
 21
-43.152102
 31
0.0
  0
LINE
  5
69
100
AcDbEntity
  8
1
370
    25
100
AcDbLine
 10
-66.617092
 20
-41.811274
 30
0.0
 11
-67.957921
 21
-43.152102
 31
0.0
  0
LINE
  5
6A
100
AcDbEntity
  8
1
370
    25
100
AcDbLine
 10
-68.8366
 20
-41.909462
 30
0.0
 11
-67.65482
 21
-40.727681
 31
0.0
  0
LINE
  5
6B
100
AcDbEntity
  8
1
370
    25
100
AcDbLine
 10
-68.8366
 20
-39.788141
 30
0.0
 11
-68.41357
 21
-39.365111
 31
0.0
  0
LINE
  5
6C
100
AcDbEntity
  8
1
370
    25
100
AcDbLine
 10
-68.8366
 20
-37.666821
 30
0.0
 11
-68.816203
 21
-37.646424
 31
0.0
  0
LINE
  5
6D
100
AcDbEntity
  8
1
370
    25
100
AcDbLine
 10
-68.8366
 20
-40.152102
 30
0.0
 11
-65.8366
 21
-43.152102
 31
0.0
  0
LINE
  5
6E
100
AcDbEntity
  8
1
370
    25
100
AcDbLine
 10
-68.8366
 20
-38.030782
 30
0.0
 11
-68.760078
 21
-38.107304
 31
0.0
  0
LINE
  5
6F
100
AcDbEntity
  8
1
370
    25
100
AcDbLine
 10
-63.791802
 20
-43.07558
 30
0.0
 11
-63.71528
 21
-43.152102
 31
0.0
  0
LINE
  5
70
100
AcDbEntity
  8
1
370
    25
100
AcDbLine
 10
-68.8366
 20
-42.273423
 30
0.0
 11
-67.957921
 21
-43.152102
 31
0.0
  0
HATCH
  5
71
100
AcDbEntity
  8
1
370
    25
100
AcDbHatch
 10
0.0
 20
0.0
 30
0.0
210
0.0
220
0.0
230
1.0
  2
_U
 70
     0
 71
     1
 91
        1
 92
        1
 93
        3
 72
     1
 10
-68.836600000000004
 20
86.847898000000001
 11
-62.836599999999997
 21
86.847898000000001
 72
     2
 10
-62.836599999999997
 20
80.847898000000001
 40
6.0
 50
90.0
 51
180.0
 73
     1
 72
     1
 10
-68.836600000000004
 20
80.847898000000001
 11
-68.836600000000004
 21
86.847898000000001
 97
        3
330
0
330
0
330
0
 75
     0
 76
     0
 52
45.0
 41
1.0
 77
     0
 78
     2
 53
45.0
 43
0.0
 44
0.0
 45
-1.0606599999999999
 46
1.0606599999999999
 79
     0
 53
135.0
 43
0.0
 44
0.0
 45
-1.0606599999999999
 46
-1.0606599999999999
 79
     0
 98
        1
 10
0.0
 20
0.0
  0
LINE
  5
72
100
AcDbEntity
  8
1
370
    18
  6
CENTER
100
AcDbLine
 10
-11.42657
 20
22.847898
 30
0.0
 11
11.89617
 21
22.847898
 31
0.0
  0
ARC
  5
73
100
AcDbEntity
  8
1
370
    25
  6
DASHED
100
AcDbCircle
 10
-4.256704
 20
19.343152
 30
0.0
 40
6.495254
100
AcDbArc
 50
262.877226
 51
270.0
  0
ARC
  5
74
100
AcDbEntity
  8
1
370
    25
  6
DASHED
100
AcDbCircle
 10
-4.441036
 20
17.868022
 30
0.0
 40
5.008652
100
AcDbArc
 50
254.144152
 51
262.877226
  0
ARC
  5
75
100
AcDbEntity
  8
1
370
    25
  6
DASHED
100
AcDbCircle
 10
-4.543017
 20
17.508966
 30
0.0
 40
4.635394
100
AcDbArc
 50
244.981479
 51
254.144152
  0
ARC
  5
76
100
AcDbEntity
  8
1
370
    25
  6
DASHED
100
AcDbCircle
 10
-4.744632
 20
17.076967
 30
0.0
 40
4.158664
100
AcDbArc
 50
234.704258
 51
244.981479
  0
ARC
  5
77
100
AcDbEntity
  8
1
370
    25
  6
DASHED
100
AcDbCircle
 10
-4.552687
 20
17.348102
 30
0.0
 40
4.490864
100
AcDbArc
 50
224.728879
 51
234.704258
  0
ARC
  5
78
100
AcDbEntity
  8
1
370
    25
  6
DASHED
100
AcDbCircle
 10
-7.624038
 20
14.305682
 30
0.0
 40
0.167727
100
AcDbArc
 50
183.190791
 51
224.728879
  0
LINE
  5
79
100
AcDbEntity
  8
1
370
    25
  6
DASHED
100
AcDbLine
 10
-4.256704
 20
32.847898
 30
0.0
 11
2.708482
 21
32.847898
 31
0.0
  0
LINE
  5
7A
100
AcDbEntity
  8
1
370
    25
  6
DASHED
100
AcDbLine
 10
-7.791505
 20
31.399449
 30
0.0
 11
-7.791505
 21
14.296346
 31
0.0
  0
ARC
  5
7B
100
AcDbEntity
  8
1
370
    25
  6
DASHED
100
AcDbCircle
 10
-4.256704
 20
26.352643
 30
0.0
 40
6.495254
100
AcDbArc
 50
90.0
 51
97.122774
  0
ARC
  5
7C
100
AcDbEntity
  8
1
370
    25
  6
DASHED
100
AcDbCircle
 10
-4.441036
 20
27.827773
 30
0.0
 40
5.008652
100
AcDbArc
 50
97.122774
 51
105.855848
  0
ARC
  5
7D
100
AcDbEntity
  8
1
370
    25
  6
DASHED
100
AcDbCircle
 10
-4.543017
 20
28.186829
 30
0.0
 40
4.635394
100
AcDbArc
 50
105.855848
 51
115.018521
  0
ARC
  5
7E
100
AcDbEntity
  8
1
370
    25
  6
DASHED
100
AcDbCircle
 10
-4.744632
 20
28.618829
 30
0.0
 40
4.158664
100
AcDbArc
 50
115.018521
 51
125.295742
  0
ARC
  5
7F
100
AcDbEntity
  8
1
370
    25
  6
DASHED
100
AcDbCircle
 10
-4.552687
 20
28.347693
 30
0.0
 40
4.490864
100
AcDbArc
 50
125.295742
 51
135.271121
  0
ARC
  5
80
100
AcDbEntity
  8
1
370
    25
  6
DASHED
100
AcDbCircle
 10
-7.624038
 20
31.390113
 30
0.0
 40
0.167727
100
AcDbArc
 50
135.271121
 51
176.809209
  0
LINE
  5
81
100
AcDbEntity
  8
1
370
    25
  6
DASHED
100
AcDbLine
 10
-4.256704
 20
12.847898
 30
0.0
 11
2.708482
 21
12.847898
 31
0.0
  0
ARC
  5
82
100
AcDbEntity
  8
1
370
   100
100
AcDbCircle
 10
-59.8366
 20
58.847898
 30
0.0
 40
6.0
100
AcDbArc
 50
90.0
 51
180.0
  0
ARC
  5
83
100
AcDbEntity
  8
1
370
   100
100
AcDbCircle
 10
-52.8366
 20
58.847898
 30
0.0
 40
6.0
100
AcDbArc
 50
0.0
 51
90.0
  0
ARC
  5
84
100
AcDbEntity
  8
1
370
   100
100
AcDbCircle
 10
-59.8366
 20
-15.152102
 30
0.0
 40
6.0
100
AcDbArc
 50
180.0
 51
270.0
  0
ARC
  5
85
100
AcDbEntity
  8
1
370
   100
100
AcDbCircle
 10
-52.8366
 20
-15.152102
 30
0.0
 40
6.0
100
AcDbArc
 50
270.0
 51
360.0
  0
LINE
  5
86
100
AcDbEntity
  8
1
370
    25
100
AcDbLine
 10
-50.367973
 20
64.316524
 30
0.0
 11
-49.8366
 21
64.847898
 31
0.0
  0
LINE
  5
87
100
AcDbEntity
  8
1
370
    25
100
AcDbLine
 10
-49.056108
 20
63.507069
 30
0.0
 11
-47.71528
 21
64.847898
 31
0.0
  0
LINE
  5
88
100
AcDbEntity
  8
1
370
    25
100
AcDbLine
 10
-46.8366
 20
63.605257
 30
0.0
 11
-48.018381
 21
62.423476
 31
0.0
  0
LINE
  5
89
100
AcDbEntity
  8
1
370
    25
100
AcDbLine
 10
-46.8366
 20
61.483936
 30
0.0
 11
-47.25963
 21
61.060906
 31
0.0
  0
LINE
  5
8A
100
AcDbEntity
  8
1
370
    25
100
AcDbLine
 10
-46.8366
 20
59.362616
 30
0.0
 11
-46.856998
 21
59.342219
 31
0.0
  0
LINE
  5
8B
100
AcDbEntity
  8
1
370
    25
100
AcDbLine
 10
-52.014507
 20
64.791311
 30
0.0
 11
-51.957921
 21
64.847898
 31
0.0
  0
LINE
  5
8C
100
AcDbEntity
  8
1
370
    25
100
AcDbLine
 10
-46.8366
 20
61.847898
 30
0.0
 11
-49.8366
 21
64.847898
 31
0.0
  0
LINE
  5
8D
100
AcDbEntity
  8
1
370
    25
100
AcDbLine
 10
-46.8366
 20
63.969218
 30
0.0
 11
-47.71528
 21
64.847898
 31
0.0
  0
LINE
  5
8E
100
AcDbEntity
  8
1
370
    25
100
AcDbLine
 10
-46.8366
 20
59.726577
 30
0.0
 11
-46.913122
 21
59.803099
 31
0.0
  0
LINE
  5
8F
100
AcDbEntity
  8
1
370
    25
100
AcDbLine
 10
-51.881398
 20
64.771375
 30
0.0
 11
-51.957921
 21
64.847898
 31
0.0
  0
HATCH
  5
90
100
AcDbEntity
  8
1
370
    25
100
AcDbHatch
 10
0.0
 20
0.0
 30
0.0
210
0.0
220
0.0
230
1.0
  2
_U
 70
     0
 71
     1
 91
        1
 92
        1
 93
        3
 72
     1
 10
-65.836600000000004
 20
64.847898000000001
 11
-59.836599999999997
 21
64.847898000000001
 72
     2
 10
-59.836599999999997
 20
58.847898000000001
 40
6.0
 50
90.0
 51
180.0
 73
     1
 72
     1
 10
-65.836600000000004
 20
58.847898000000001
 11
-65.836600000000004
 21
64.847898000000001
 97
        3
330
0
330
0
330
0
 75
     0
 76
     0
 52
45.0
 41
1.0
 77
     0
 78
     2
 53
45.0
 43
0.0
 44
0.0
 45
-1.0606599999999999
 46
1.0606599999999999
 79
     0
 53
135.0
 43
0.0
 44
0.0
 45
-1.0606599999999999
 46
-1.0606599999999999
 79
     0
 98
        1
 10
0.0
 20
0.0
  0
HATCH
  5
91
100
AcDbEntity
  8
1
370
    25
100
AcDbHatch
 10
0.0
 20
0.0
 30
0.0
210
0.0
220
0.0
230
1.0
  2
_U
 70
     0
 71
     1
 91
        1
 92
        1
 93
        3
 72
     1
 10
-46.836599999999997
 20
-21.152101999999999
 11
-52.836599999999997
 21
-21.152101999999999
 72
     2
 10
-52.836599999999997
 20
-15.152101999999999
 40
6.0
 50
270.0
 51
0.0
 73
     1
 72
     1
 10
-46.836599999999997
 20
-15.152101999999999
 11
-46.836599999999997
 21
-21.152101999999999
 97
        3
330
0
330
0
330
0
 75
     0
 76
     0
 52
45.0
 41
1.0
 77
     0
 78
     2
 53
45.0
 43
0.0
 44
0.0
 45
-1.0606599999999999
 46
1.0606599999999999
 79
     0
 53
135.0
 43
0.0
 44
0.0
 45
-1.0606599999999999
 46
-1.0606599999999999
 79
     0
 98
        1
 10
0.0
 20
0.0
  0
LINE
  5
92
100
AcDbEntity
  8
1
370
    25
100
AcDbLine
 10
-62.305227
 20
-20.620729
 30
0.0
 11
-62.8366
 21
-21.152102
 31
0.0
  0
LINE
  5
93
100
AcDbEntity
  8
1
370
    25
100
AcDbLine
 10
-60.658693
 20
-21.095516
 30
0.0
 11
-60.71528
 21
-21.152102
 31
0.0
  0
LINE
  5
94
100
AcDbEntity
  8
1
370
    25
100
AcDbLine
 10
-63.617092
 20
-19.811274
 30
0.0
 11
-64.957921
 21
-21.152102
 31
0.0
  0
LINE
  5
95
100
AcDbEntity
  8
1
370
    25
100
AcDbLine
 10
-65.8366
 20
-19.909462
 30
0.0
 11
-64.65482
 21
-18.727681
 31
0.0
  0
LINE
  5
96
100
AcDbEntity
  8
1
370
    25
100
AcDbLine
 10
-65.8366
 20
-17.788141
 30
0.0
 11
-65.41357
 21
-17.365111
 31
0.0
  0
LINE
  5
97
100
AcDbEntity
  8
1
370
    25
100
AcDbLine
 10
-65.8366
 20
-15.666821
 30
0.0
 11
-65.816203
 21
-15.646424
 31
0.0
  0
LINE
  5
98
100
AcDbEntity
  8
1
370
    25
100
AcDbLine
 10
-65.8366
 20
-18.152102
 30
0.0
 11
-62.8366
 21
-21.152102
 31
0.0
  0
LINE
  5
99
100
AcDbEntity
  8
1
370
    25
100
AcDbLine
 10
-65.8366
 20
-16.030782
 30
0.0
 11
-65.760078
 21
-16.107304
 31
0.0
  0
LINE
  5
9A
100
AcDbEntity
  8
1
370
    25
100
AcDbLine
 10
-60.791802
 20
-21.07558
 30
0.0
 11
-60.71528
 21
-21.152102
 31
0.0
  0
LINE
  5
9B
100
AcDbEntity
  8
1
370
    25
100
AcDbLine
 10
-65.8366
 20
-20.273423
 30
0.0
 11
-64.957921
 21
-21.152102
 31
0.0
  0
HATCH
  5
9C
100
AcDbEntity
  8
1
370
    25
100
AcDbHatch
 10
0.0
 20
0.0
 30
0.0
210
0.0
220
0.0
230
1.0
  2
_U
 70
     0
 71
     1
 91
        1
 92
        1
 93
        4
 72
     2
 10
44.708481999999997
 20
0.847898
 40
10.5
 50
90.0
 51
270.0
 73
     1
 72
     1
 10
44.708481999999997
 20
-9.6521019999999993
 11
62.708481999999997
 21
-9.6521019999999993
 72
     2
 10
62.708481999999997
 20
0.847898
 40
10.5
 50
270.0
 51
90.0
 73
     1
 72
     1
 10
62.708481999999997
 20
11.347898000000001
 11
44.708481999999997
 21
11.347898000000001
 97
        4
330
0
330
0
330
0
330
0
 75
     0
 76
     0
 52
45.0
 41
1.0
 77
     0
 78
     1
 53
45.0
 43
0.0
 44
0.0
 45
-0.707107
 46
0.707107
 79
     0
 98
        1
 10
0.0
 20
0.0
  0
HATCH
  5
9D
100
AcDbEntity
  8
1
370
    25
100
AcDbHatch
 10
0.0
 20
0.0
 30
0.0
210
0.0
220
0.0
230
1.0
  2
_U
 70
     0
 71
     1
 91
        1
 92
        1
 93
        1
 72
     2
 10
53.708481999999997
 20
56.347898000000001
 40
15.0
 50
0.0
 51
360.0
 73
     1
 97
        1
330
0
 75
     0
 76
     0
 52
45.0
 41
1.0
 77
     0
 78
     2
 53
45.0
 43
0.0
 44
0.0
 45
-1.0606599999999999
 46
1.0606599999999999
 79
     0
 53
135.0
 43
0.0
 44
0.0
 45
-1.0606599999999999
 46
-1.0606599999999999
 79
     0
 98
        1
 10
0.0
 20
0.0
  0
TEXT
  5
9E
100
AcDbEntity
  8
2
370
    25
100
AcDbText
 10
-58.290737
 20
50.195276
 30
0.0
 40
4.0
  1
扉
 72
     5
 11
-55.090737
 21
50.195276
 31
0.0
100
AcDbText
  0
TEXT
  5
9F
100
AcDbEntity
  8
2
370
    25
100
AcDbText
 10
-58.290737
 20
46.195276
 30
0.0
 40
4.0
  1
厚
 72
     5
 11
-55.090737
 21
46.195276
 31
0.0
100
AcDbText
  0
TEXT
  5
A0
100
AcDbEntity
  8
2
370
    25
100
AcDbText
 10
-58.290737
 20
42.195276
 30
0.0
 40
4.0
  1
中
 72
     5
 11
-55.090737
 21
42.195276
 31
0.0
100
AcDbText
  0
TEXT
  5
A1
100
AcDbEntity
  8
2
370
    25
100
AcDbText
 10
-58.290737
 20
38.195276
 30
0.0
 40
4.0
  1
心
 72
     5
 11
-55.090737
 21
38.195276
 31
0.0
100
AcDbText
  0
LWPOLYLINE
  5
A2
100
AcDbEntity
  8
2
370
    25
100
AcDbPolyline
 90
        3
 70
     0
 10
43.285693
 20
45.560614
 10
38.175865
 20
40.272091
 10
23.370517
 20
40.272091
  0
LINE
  5
A7
100
AcDbEntity
  8
2
370
    25
100
AcDbLine
 10
42.315602
 20
43.811637
 30
0.0
 11
43.285693
 21
45.560614
 31
0.0
  0
LINE
  5
A8
100
AcDbEntity
  8
2
370
    25
100
AcDbLine
 10
43.285693
 20
45.560614
 30
0.0
 11
41.571081
 21
44.531001
 31
0.0
  0
TEXT
  5
A9
100
AcDbEntity
  8
2
370
    25
100
AcDbText
 10
24.42264
 20
41.035305
 30
0.0
 40
4.0
  1
%%c30
 41
2.0
 72
     5
 11
34.82264
 21
41.035305
 31
0.0
100
AcDbText
  0
DIMENSION
  5
AA
100
AcDbEntity
  8
2
370
    25
100
AcDbDimension
  2
*D0
 10
-46.8366
 20
1.164937
 30
0.0
 11
-58.3366
 21
3.664937
 31
0.0
 71
     0
 72
     0
 41
0.0
 42
0.0
  3
Standard
100
AcDbAlignedDimension
 13
-65.8366
 23
2.131682
 33
0.0
 14
-46.8366
 24
2.131682
 34
0.0
100
AcDbRotatedDimension
  0
LWPOLYLINE
  5
AB
100
AcDbEntity
  8
2
370
    25
100
AcDbPolyline
 90
        3
 70
     0
 10
44.132397
 20
67.893398
 10
34.413025
 20
83.059073
 10
91.361244
 20
83.059073
  0
LINE
  5
B0
100
AcDbEntity
  8
2
370
    25
100
AcDbLine
 10
42.654193
 20
69.240585
 30
0.0
 11
44.132397
 21
67.893398
 31
0.0
  0
LINE
  5
B1
100
AcDbEntity
  8
2
370
    25
100
AcDbLine
 10
44.132397
 20
67.893398
 30
0.0
 11
43.525828
 21
69.799199
 31
0.0
  0
TEXT
  5
B2
100
AcDbEntity
  8
2
370
    25
100
AcDbText
 10
38.238258
 20
83.559073
 30
0.0
 40
4.0
  1
空錠の時は必要ありません。
 72
     5
 11
89.438258
 21
83.559073
 31
0.0
100
AcDbText
  0
TEXT
  5
B3
100
AcDbEntity
  8
2
370
    18
100
AcDbText
 10
-36.600605
 20
103.441757
 30
0.0
 40
4.0
  1
角又は６Ｒ
 72
     5
 11
-17.400605
 21
103.441757
 31
0.0
100
AcDbText
  0
TEXT
  5
B4
100
AcDbEntity
  8
2
370
    18
100
AcDbText
 10
-61.043858
 20
-62.930515
 30
0.0
 40
4.0
  1
木ネジ位置
 72
     5
 11
-41.843858
 21
-62.930515
 31
0.0
100
AcDbText
  0
DIMENSION
  5
B5
100
AcDbEntity
  8
2
370
    25
100
AcDbDimension
  2
*D1
 10
62.708482
 20
-33.405613
 30
0.0
 11
53.708482
 21
-30.905613
 31
0.0
 71
     0
 72
     0
 41
0.0
 42
0.0
  3
Standard
100
AcDbAlignedDimension
 13
44.708482
 23
-12.652102
 33
0.0
 14
62.708482
 24
-12.652102
 34
0.0
100
AcDbRotatedDimension
  0
DIMENSION
  5
B6
100
AcDbEntity
  8
2
370
    25
100
AcDbDimension
  2
*D2
 10
-36.518597
 20
78.847898
 30
0.0
 11
-43.018597
 21
19.847898
 31
0.0
 71
     0
 72
     0
 41
0.0
 42
0.0
  3
Standard
100
AcDbAlignedDimension
 13
-54.3366
 23
-35.152102
 33
0.0
 14
-54.3366
 24
78.847898
 34
0.0
 50
90.0
100
AcDbRotatedDimension
  0
DIMENSION
  5
B7
100
AcDbEntity
  8
2
370
    25
100
AcDbDimension
  2
*D3
 10
-30.718603
 20
86.847898
 30
0.0
 11
-37.218603
 21
19.847898
 31
0.0
 71
     0
 72
     0
 41
0.0
 42
0.0
  3
Standard
100
AcDbAlignedDimension
 13
-43.8366
 23
-43.152102
 33
0.0
 14
-43.8366
 24
86.847898
 34
0.0
 50
90.0
100
AcDbRotatedDimension
  0
DIMENSION
  5
B8
100
AcDbEntity
  8
2
370
    25
100
AcDbDimension
  2
*D4
 10
85.955788
 20
56.347898
 30
0.0
 11
77.455788
 21
24.597898
 31
0.0
 71
     0
 72
     0
 41
0.0
 42
0.0
  3
Standard
100
AcDbAlignedDimension
 13
85.955788
 23
0.847898
 33
0.0
 14
74.73299
 24
56.347898
 34
0.0
 50
90.0
100
AcDbRotatedDimension
  0
DIMENSION
  5
B9
100
AcDbEntity
  8
2
370
    25
100
AcDbDimension
  2
*D5
 10
-12.21203
 20
22.847898
 30
0.0
 11
-16.71203
 21
11.847898
 31
0.0
 71
     0
 72
     0
 41
0.0
 42
0.0
  3
Standard
100
AcDbAlignedDimension
 13
32.276554
 23
0.847898
 33
0.0
 14
-11.42657
 24
22.847898
 34
0.0
 50
90.0
100
AcDbRotatedDimension
  0
DIMENSION
  5
BA
100
AcDbEntity
  8
2
370
    25
100
AcDbDimension
  2
*D6
 10
-18.263121
 20
86.847898
 30
0.0
 11
-22.763121
 21
43.847898
 31
0.0
 71
     0
 72
     0
 41
0.0
 42
0.0
  3
Standard
100
AcDbAlignedDimension
 13
32.276554
 23
0.847898
 33
0.0
 14
2.708482
 24
86.847898
 34
0.0
 50
90.0
100
AcDbRotatedDimension
  0
DIMENSION
  5
BB
100
AcDbEntity
  8
2
370
    25
100
AcDbDimension
  2
*D7
 10
-18.263121
 20
0.847898
 30
0.0
 11
-22.763121
 21
-21.152102
 31
0.0
 71
     0
 72
     0
 41
0.0
 42
0.0
  3
Standard
100
AcDbAlignedDimension
 13
2.708482
 23
-43.152102
 33
0.0
 14
-18.263121
 24
0.847898
 34
0.0
 50
90.0
100
AcDbRotatedDimension
  0
DIMENSION
  5
BC
100
AcDbEntity
  8
2
370
    25
100
AcDbDimension
  2
*D8
 10
6.708482
 20
-51.436951
 30
0.0
 11
12.708482
 21
-48.936951
 31
0.0
 71
     0
 72
     0
 41
0.0
 42
0.0
  3
Standard
100
AcDbAlignedDimension
 13
2.708482
 23
-51.436951
 33
0.0
 14
6.708482
 24
-43.152102
 34
0.0
100
AcDbRotatedDimension
  0
TEXT
  5
BD
100
AcDbEntity
  8
2
370
    18
100
AcDbText
 10
12.208482
 20
-58.001839
 30
0.0
 40
4.0
  1
バックセット
 72
     5
 11
35.408482
 21
-58.001839
 31
0.0
100
AcDbText
  0
DIMENSION
  5
BE
100
AcDbEntity
  8
2
370
    25
100
AcDbDimension
  2
*D9
 10
53.708482
 20
-58.501839
 30
0.0
 11
40.208482
 21
-56.001839
 31
0.0
 71
     0
 72
     0
 41
0.0
 42
0.0
  3
Standard
100
AcDbAlignedDimension
 13
2.708482
 23
-58.422028
 33
0.0
 14
53.708482
 24
-58.422028
 34
0.0
100
AcDbRotatedDimension
  0
LWPOLYLINE
  5
BF
100
AcDbEntity
  8
2
370
    25
100
AcDbPolyline
 90
        3
 70
     0
 10
-43.8366
 20
86.847898
 10
-38.234043
 20
102.941757
 10
-16.35874
 20
102.941757
  0
LINE
  5
C4
100
AcDbEntity
  8
2
370
    25
100
AcDbLine
 10
-43.690336
 20
88.842542
 30
0.0
 11
-43.8366
 21
86.847898
 31
0.0
  0
LINE
  5
C5
100
AcDbEntity
  8
2
370
    25
100
AcDbLine
 10
-43.8366
 20
86.847898
 30
0.0
 11
-42.712609
 21
88.502178
 31
0.0
  0
LWPOLYLINE
  5
C6
100
AcDbEntity
  8
2
370
    25
100
AcDbPolyline
 90
        3
 70
     0
 10
-56.3366
 20
-35.152102
 10
-64.666031
 20
-63.430515
 10
-39.552322
 20
-63.430515
  0
LINE
  5
CB
100
AcDbEntity
  8
2
370
    25
100
AcDbLine
 10
-56.385897
 20
-37.151495
 30
0.0
 11
-56.3366
 21
-35.152102
 31
0.0
  0
LINE
  5
CC
100
AcDbEntity
  8
2
370
    25
100
AcDbLine
 10
-56.3366
 20
-35.152102
 30
0.0
 11
-57.378988
 21
-36.858979
 31
0.0
  0
DIMENSION
  5
CD
100
AcDbEntity
  8
2
370
    25
100
AcDbDimension
  2
*D10
 10
85.955788
 20
0.847898
 30
0.0
 11
81.455788
 21
-10.152102
 31
0.0
 71
     0
 72
     0
 41
0.0
 42
0.0
  3
Standard
100
AcDbAlignedDimension
 13
78.708482
 23
-21.152102
 33
0.0
 14
74.73299
 24
0.847898
 34
0.0
 50
90.0
100
AcDbRotatedDimension
  0
DIMENSION
  5
CE
100
AcDbEntity
  8
2
370
    25
100
AcDbDimension
  2
*D11
 10
78.708482
 20
-67.787704
 30
0.0
 11
40.708482
 21
-65.287704
 31
0.0
 71
     0
 72
     0
 41
0.0
 42
0.0
  3
Standard
100
AcDbAlignedDimension
 13
2.708482
 23
-67.656389
 33
0.0
 14
78.708482
 24
-21.152102
 34
0.0
100
AcDbRotatedDimension
  0
DIMENSION
  5
CF
100
AcDbEntity
  8
2
370
    25
100
AcDbDimension
  2
*D12
 10
92.363609
 20
64.847898
 30
0.0
 11
87.863609
 21
21.847898
 31
0.0
 71
     0
 72
     0
 41
0.0
 42
0.0
  3
Standard
100
AcDbAlignedDimension
 13
78.708482
 23
-21.152102
 33
0.0
 14
78.708482
 24
64.847898
 34
0.0
 50
90.0
100
AcDbRotatedDimension
  0
LWPOLYLINE
  5
D0
100
AcDbEntity
  8
2
370
    25
100
AcDbPolyline
 90
        3
 70
     0
 10
-46.8366
 20
64.847898
 10
-40.357113
 20
72.081993
 10
-38.234043
 20
102.941757
  0
LINE
  5
D5
100
AcDbEntity
  8
2
370
    25
100
AcDbLine
 10
-45.933275
 20
66.632275
 30
0.0
 11
-46.8366
 21
64.847898
 31
0.0
  0
LINE
  5
D6
100
AcDbEntity
  8
2
370
    25
100
AcDbLine
 10
-46.8366
 20
64.847898
 30
0.0
 11
-45.162109
 21
65.941551
 31
0.0
  0
LWPOLYLINE
  5
D7
100
AcDbEntity
  8
2
370
    25
100
AcDbPolyline
 90
        3
 70
     0
 10
37.48695
 20
8.470199
 10
24.040794
 20
22.662567
 10
49.040794
 20
22.662567
  0
LINE
  5
DC
100
AcDbEntity
  8
2
370
    25
100
AcDbLine
 10
35.782519
 20
9.516581
 30
0.0
 11
37.48695
 21
8.470199
 31
0.0
  0
LINE
  5
DD
100
AcDbEntity
  8
2
370
    25
100
AcDbLine
 10
37.48695
 20
8.470199
 30
0.0
 11
36.534061
 21
10.228608
 31
0.0
  0
TEXT
  5
DE
100
AcDbEntity
  8
2
370
    18
100
AcDbText
 10
36.040794
 20
23.162567
 30
0.0
 40
4.0
  1
φ２１
 72
     5
 11
47.240794
 21
23.162567
 31
0.0
100
AcDbText
  0
TEXT
  5
DF
100
AcDbEntity
  8
2
370
    18
100
AcDbText
 10
28.040794
 20
23.162567
 30
0.0
 40
4.0
  1
２－
 72
     5
 11
35.240794
 21
23.162567
 31
0.0
100
AcDbText
  0
LINE
  5
E0
100
AcDbEntity
  8
3
370
   100
100
AcDbLine
 10
-80.0
 20
138.0
 30
0.0
 11
-80.0
 21
-138.0
 31
0.0
  0
LINE
  5
E1
100
AcDbEntity
  8
3
370
   100
100
AcDbLine
 10
98.0
 20
-138.0
 30
0.0
 11
98.0
 21
138.0
 31
0.0
  0
LINE
  5
E2
100
AcDbEntity
  8
3
370
   100
100
AcDbLine
 10
-80.0
 20
-138.0
 30
0.0
 11
98.0
 21
-138.0
 31
0.0
  0
LINE
  5
E3
100
AcDbEntity
  8
3
370
   100
100
AcDbLine
 10
98.0
 20
138.0
 30
0.0
 11
-80.0
 21
138.0
 31
0.0
  0
LINE
  5
E4
100
AcDbEntity
  8
3
370
   100
100
AcDbLine
 10
-80.0
 20
138.3
 30
0.0
 11
98.3
 21
138.3
 31
0.0
  0
LINE
  5
E5
100
AcDbEntity
  8
3
370
   100
100
AcDbLine
 10
98.3
 20
138.3
 30
0.0
 11
98.3
 21
-138.3
 31
0.0
  0
LINE
  5
E6
100
AcDbEntity
  8
3
370
   100
100
AcDbLine
 10
98.3
 20
-138.3
 30
0.0
 11
-80.3
 21
-138.3
 31
0.0
  0
LINE
  5
E7
100
AcDbEntity
  8
3
370
   100
100
AcDbLine
 10
-80.3
 20
-138.3
 30
0.0
 11
-80.3
 21
138.0
 31
0.0
  0
LINE
  5
E8
100
AcDbEntity
  8
3
370
    50
100
AcDbLine
 10
-80.0
 20
-108.0
 30
0.0
 11
98.0
 21
-108.0
 31
0.0
  0
LINE
  5
E9
100
AcDbEntity
  8
3
370
    50
100
AcDbLine
 10
-2.0
 20
-108.0
 30
0.0
 11
-2.0
 21
-138.0
 31
0.0
  0
TEXT
  5
EA
100
AcDbEntity
  8
3
370
    25
100
AcDbText
 10
-75.0
 20
-112.5
 30
0.0
 40
4.0
  1
図  法
 72
     5
 11
-59.8
 21
-112.5
 31
0.0
100
AcDbText
  0
TEXT
  5
EB
100
AcDbEntity
  8
3
370
    25
100
AcDbText
 10
-49.0
 20
-112.5
 30
0.0
 40
4.0
  1
単  位
 72
     5
 11
-33.8
 21
-112.5
 31
0.0
100
AcDbText
  0
TEXT
  5
EC
100
AcDbEntity
  8
3
370
    25
100
AcDbText
 10
-23.0
 20
-112.5
 30
0.0
 40
4.0
  1
尺  度
 72
     5
 11
-7.8
 21
-112.5
 31
0.0
100
AcDbText
  0
TEXT
  5
ED
100
AcDbEntity
  8
3
370
   100
100
AcDbText
 10
-69.0
 20
-135.5
 30
0.0
 40
8.0
  1
（株）川口技研
 72
     5
 11
-14.6
 21
-135.5
 31
0.0
100
AcDbText
  0
TEXT
  5
EE
100
AcDbEntity
  8
3
370
    25
100
AcDbText
 10
0.0
 20
-112.5
 30
0.0
 40
4.0
  1
図面名称
 72
     5
 11
15.2
 21
-112.5
 31
0.0
100
AcDbText
  0
TEXT
  5
EF
100
AcDbEntity
  8
3
370
    25
100
AcDbText
 10
0.0
 20
-129.5
 30
0.0
 40
4.0
  1
図面番号
 72
     5
 11
15.2
 21
-129.5
 31
0.0
100
AcDbText
  0
LINE
  5
F0
100
AcDbEntity
  8
3
370
    25
100
AcDbLine
 10
-80.0
 20
-113.0
 30
0.0
 11
18.0
 21
-113.0
 31
0.0
  0
LINE
  5
F1
100
AcDbEntity
  8
3
370
    25
100
AcDbLine
 10
18.0
 20
-108.0
 30
0.0
 11
18.0
 21
-113.0
 31
0.0
  0
LINE
  5
F2
100
AcDbEntity
  8
3
370
    25
100
AcDbLine
 10
-2.0
 20
-130.0
 30
0.0
 11
18.0
 21
-130.0
 31
0.0
  0
LINE
  5
F3
100
AcDbEntity
  8
3
370
    25
100
AcDbLine
 10
18.0
 20
-125.0
 30
0.0
 11
18.0
 21
-130.0
 31
0.0
  0
TEXT
  5
F4
100
AcDbEntity
  8
3
370
    25
100
AcDbText
 10
-46.0
 20
-121.5
 30
0.0
 40
5.0
  1
ｍｍ
 72
     5
 11
-37.0
 21
-121.5
 31
0.0
100
AcDbText
  0
TEXT
  5
F5
100
AcDbEntity
  8
3
370
    25
100
AcDbText
 10
-21.0
 20
-121.5
 30
0.0
 40
4.0
  1
１／１
 72
     5
 11
-9.8
 21
-121.5
 31
0.0
100
AcDbText
  0
TEXT
  5
F6
100
AcDbEntity
  8
3
370
    25
100
AcDbText
 10
-73.0
 20
-121.5
 30
0.0
 40
4.0
  1
３角法
 72
     5
 11
-61.8
 21
-121.5
 31
0.0
100
AcDbText
  0
LINE
  5
F7
100
AcDbEntity
  8
3
370
    50
100
AcDbLine
 10
-80.0
 20
-125.0
 30
0.0
 11
-2.0
 21
-125.0
 31
0.0
  0
LINE
  5
F8
100
AcDbEntity
  8
3
370
    50
100
AcDbLine
 10
-2.0
 20
-125.0
 30
0.0
 11
98.0
 21
-125.0
 31
0.0
  0
LINE
  5
F9
100
AcDbEntity
  8
3
370
    50
100
AcDbLine
 10
-54.0
 20
-125.0
 30
0.0
 11
-54.0
 21
-108.0
 31
0.0
  0
LINE
  5
FA
100
AcDbEntity
  8
3
370
    50
100
AcDbLine
 10
-28.0
 20
-125.0
 30
0.0
 11
-28.0
 21
-108.0
 31
0.0
  0
TEXT
  5
FB
100
AcDbEntity
  8
3
370
    50
100
AcDbText
 10
30.285025
 20
-114.775894
 30
0.0
 40
5.0
  1
ＬＶＳケース錠
 72
     5
 11
64.285025
 21
-114.775894
 31
0.0
100
AcDbText
  0
TEXT
  5
FC
100
AcDbEntity
  8
3
370
    50
100
AcDbText
 10
13.235214
 20
-121.793556
 30
0.0
 40
5.0
  1
丸座・ＳＱ座・ＹＢ座　切欠図
 72
     5
 11
82.235214
 21
-121.793556
 31
0.0
100
AcDbText
  0
TEXT
  5
FD
100
AcDbEntity
  8
3
370
   100
100
AcDbText
 10
28.421455
 20
-134.545471
 30
0.0
 40
6.0
  1
ＥＺ－１４３１－００
 72
     5
 11
87.221455
 21
-134.545471
 31
0.0
100
AcDbText
  0
ENDSEC
  0
SECTION
  2
OBJECTS
  0
DICTIONARY
  5
17A
100
AcDbDictionary
280
     0
281
     1
  3
ACAD_GROUP
350
17B
  3
ACAD_MLINESTYLE
350
17C
  0
DICTIONARY
  5
17B
102
{ACAD_REACTORS
330
17A
102
}
100
AcDbDictionary
280
     0
281
     1
  0
DICTIONARY
  5
17C
102
{ACAD_REACTORS
330
17A
102
}
100
AcDbDictionary
280
     0
281
     1
  3
Standard
350
17D
  0
MLINESTYLE
  5
17D
102
{ACAD_REACTORS
330
17C
102
}
100
AcDbMlineStyle
  2
Standard
 70
     0
  3

 62
     0
 51
90.0
 52
90.0
 71
     2
 49
0.5
 62
   256
  6
ByLayer
 49
-0.5
 62
   256
  6
ByLayer
  0
ENDSEC
  0
EOF
