  0
SECTION
  2
HEADER
  9
$ACADVER
  1
AC1015
  9
$ACADMAINTVER
 70
     6
  9
$DWGCODEPAGE
  3
ANSI_932
  9
$INSBASE
 10
0.0
 20
0.0
 30
0.0
  9
$EXTMIN
 10
-105.0
 20
-148.5
 30
1.000000E+20
  9
$EXTMAX
 10
105.0
 20
148.5
 30
-1.000000E+20
  9
$LIMMIN
 10
-105.0
 20
-148.5
  9
$LIMMAX
 10
105.0
 20
148.5
  9
$ORTHOMODE
 70
     0
  9
$REGENMODE
 70
     1
  9
$FILLMODE
 70
     1
  9
$QTEXTMODE
 70
     0
  9
$MIRRTEXT
 70
     1
  9
$LTSCALE
 40
1.0
  9
$ATTMODE
 70
     1
  9
$TEXTSIZE
 40
0.2
  9
$TRACEWID
 40
0.05
  9
$TEXTSTYLE
  7
STANDARD
  9
$CLAYER
  8
0
  9
$CELTYPE
  6
CONTINUOUS
  9
$CECOLOR
 62
   256
  9
$CELTSCALE
 40
1.0
  9
$DISPSILH
 70
     0
  9
$DIMSCALE
 40
1.0
  9
$DIMASZ
 40
2.0
  9
$DIMEXO
 40
0.5
  9
$DIMDLI
 40
0.38
  9
$DIMRND
 40
0.0
  9
$DIMDLE
 40
0.0
  9
$DIMEXE
 40
2.0
  9
$DIMTP
 40
0.0
  9
$DIMTM
 40
0.0
  9
$DIMTXT
 40
4.0
  9
$DIMCEN
 40
0.09
  9
$DIMTSZ
 40
0.0
  9
$DIMTOL
 70
     0
  9
$DIMLIM
 70
     0
  9
$DIMTIH
 70
     0
  9
$DIMTOH
 70
     0
  9
$DIMSE1
 70
     0
  9
$DIMSE2
 70
     0
  9
$DIMTAD
 70
     1
  9
$DIMZIN
 70
     0
  9
$DIMBLK
  1

  9
$DIMASO
 70
     1
  9
$DIMSHO
 70
     1
  9
$DIMPOST
  1

  9
$DIMAPOST
  1

  9
$DIMALT
 70
     0
  9
$DIMALTD
 70
     2
  9
$DIMALTF
 40
25.4
  9
$DIMLFAC
 40
1.0
  9
$DIMTOFL
 70
     0
  9
$DIMTVP
 40
0.0
  9
$DIMTIX
 70
     0
  9
$DIMSOXD
 70
     0
  9
$DIMSAH
 70
     0
  9
$DIMBLK1
  1

  9
$DIMBLK2
  1

  9
$DIMSTYLE
  2
Standard
  9
$DIMCLRD
 70
     0
  9
$DIMCLRE
 70
     0
  9
$DIMCLRT
 70
     0
  9
$DIMTFAC
 40
1.0
  9
$DIMGAP
 40
0.5
  9
$DIMJUST
 70
     0
  9
$DIMSD1
 70
     0
  9
$DIMSD2
 70
     0
  9
$DIMTOLJ
 70
     1
  9
$DIMTZIN
 70
     0
  9
$DIMALTZ
 70
     0
  9
$DIMALTTZ
 70
     0
  9
$DIMUPT
 70
     0
  9
$DIMDEC
 70
     2
  9
$DIMTDEC
 70
     4
  9
$DIMALTU
 70
     2
  9
$DIMALTTD
 70
     2
  9
$DIMTXSTY
  7
STANDARD
  9
$DIMAUNIT
 70
     0
  9
$DIMADEC
 70
     2
  9
$DIMALTRND
 40
0.0
  9
$DIMAZIN
 70
     0
  9
$DIMDSEP
 70
     0
  9
$DIMATFIT
 70
     3
  9
$DIMFRAC
 70
     0
  9
$DIMLDRBLK
  1

  9
$DIMLUNIT
 70
     2
  9
$DIMLWD
 70
     0
  9
$DIMLWE
 70
     0
  9
$DIMTMOVE
 70
     0
  9
$LUNITS
 70
     2
  9
$LUPREC
 70
     4
  9
$SKETCHINC
 40
0.1
  9
$FILLETRAD
 40
0.0
  9
$AUNITS
 70
     0
  9
$AUPREC
 70
     0
  9
$MENU
  1
acad
  9
$ELEVATION
 40
0.0
  9
$PELEVATION
 40
0.0
  9
$THICKNESS
 40
0.0
  9
$LIMCHECK
 70
     0
  9
$CHAMFERA
 40
0.0
  9
$CHAMFERB
 40
0.0
  9
$CHAMFERC
 40
0.0
  9
$CHAMFERD
 40
0.0
  9
$SKPOLY
 70
     0
  9
$TDCREATE
 40
2452749.000000000
  9
$TDUCREATE
 40
0.000000000
  9
$TDUPDATE
 40
0.000000000
  9
$TDUUPDATE
 40
2447892.625000000
  9
$TDINDWG
 40
0.0000000000
  9
$TDUSRTIMER
 40
0.0000000000
  9
$USRTIMER
 70
     1
  9
$ANGBASE
 50
0.0
  9
$ANGDIR
 70
     0
  9
$PDMODE
 70
     0
  9
$PDSIZE
 40
0.0
  9
$PLINEWID
 40
0.0
  9
$SPLFRAME
 70
     0
  9
$SPLINETYPE
 70
     6
  9
$SPLINESEGS
 70
     8
  9
$HANDSEED
  5
1A2
  9
$SURFTAB1
 70
     6
  9
$SURFTAB2
 70
     6
  9
$SURFTYPE
 70
     6
  9
$SURFU
 70
     6
  9
$SURFV
 70
     6
  9
$UCSBASE
  2

  9
$UCSNAME
  2

  9
$UCSORG
 10
0.0
 20
0.0
 30
0.0
  9
$UCSXDIR
 10
1.0
 20
0.0
 30
0.0
  9
$UCSYDIR
 10
0.0
 20
1.0
 30
0.0
  9
$UCSORTHOREF
  2

  9
$UCSORTHOVIEW
 70
     0
  9
$UCSORGTOP
 10
0.0
 20
0.0
 30
0.0
  9
$UCSORGBOTTOM
 10
0.0
 20
0.0
 30
0.0
  9
$UCSORGLEFT
 10
0.0
 20
0.0
 30
0.0
  9
$UCSORGRIGHT
 10
0.0
 20
0.0
 30
0.0
  9
$UCSORGFRONT
 10
0.0
 20
0.0
 30
0.0
  9
$UCSORGBACK
 10
0.0
 20
0.0
 30
0.0
  9
$PUCSBASE
  2

  9
$PUCSNAME
  2

  9
$PUCSORG
 10
0.0
 20
0.0
 30
0.0
  9
$PUCSXDIR
 10
1.0
 20
0.0
 30
0.0
  9
$PUCSYDIR
 10
0.0
 20
1.0
 30
0.0
  9
$PUCSORTHOREF
  2

  9
$PUCSORTHOVIEW
 70
     0
  9
$PUCSORGTOP
 10
0.0
 20
0.0
 30
0.0
  9
$PUCSORGBOTTOM
 10
0.0
 20
0.0
 30
0.0
  9
$PUCSORGLEFT
 10
0.0
 20
0.0
 30
0.0
  9
$PUCSORGRIGHT
 10
0.0
 20
0.0
 30
0.0
  9
$PUCSORGFRONT
 10
0.0
 20
0.0
 30
0.0
  9
$PUCSORGBACK
 10
0.0
 20
0.0
 30
0.0
  9
$USERI1
 70
     0
  9
$USERI2
 70
     0
  9
$USERI3
 70
     0
  9
$USERI4
 70
     0
  9
$USERI5
 70
     0
  9
$USERR1
 40
0.0
  9
$USERR2
 40
0.0
  9
$USERR3
 40
0.0
  9
$USERR4
 40
0.0
  9
$USERR5
 40
0.0
  9
$WORLDVIEW
 70
     1
  9
$SHADEDGE
 70
     3
  9
$SHADEDIF
 70
    70
  9
$TILEMODE
 70
     1
  9
$MAXACTVP
 70
    16
  9
$PINSBASE
 10
0.0
 20
0.0
 30
0.0
  9
$PLIMCHECK
 70
     0
  9
$PEXTMIN
 10
1.000000E+20
 20
1.000000E+20
 30
1.000000E+20
  9
$PEXTMAX
 10
-1.000000E+20
 20
-1.000000E+20
 30
-1.000000E+20
  9
$PLIMMIN
 10
0.0
 20
0.0
  9
$PLIMMAX
 10
12.0
 20
9.0
  9
$UNITMODE
 70
     0
  9
$VISRETAIN
 70
     0
  9
$PLINEGEN
 70
     1
  9
$PSLTSCALE
 70
     0
  9
$TREEDEPTH
 70
  3020
  9
$CMLSTYLE
  2
Standard
  9
$CMLJUST
 70
     0
  9
$CMLSCALE
 40
1.0
  9
$PROXYGRAPHICS
 70
     0
  9
$MEASUREMENT
 70
     0
  9
$CELWEIGHT
370
     0
  9
$ENDCAPS
280
     0
  9
$JOINSTYLE
280
     0
  9
$LWDISPLAY
290
     0
  9
$INSUNITS
 70
     0
  9
$HYPERLINKBASE
  1

  9
$STYLESHEET
  1

  9
$XEDIT
290
     1
  9
$CEPSNTYPE
380
     0
  9
$PSTYLEMODE
290
     1
  9
$FINGERPRINTGUID
  2

  9
$VERSIONGUID
  2

  9
$EXTNAMES
290
     1
  9
$PSVPSCALE
 40
0.0
  0
ENDSEC
  0
SECTION
  2
CLASSES
  0
CLASS
  1
LWPOLYLINE
  2
AcDbPolyline
  3
AutoCAD 2000
 90
        0
280
     0
281
     1
  0
CLASS
  1
IMAGE
  2
AcDbRasterImage
  3
ISM
 90
      127
280
     0
281
     1
  0
CLASS
  1
OLE2FRAME
  2
AcDbOle2Frame
  3
AutoCAD 2000
 90
        0
280
     0
281
     1
  0
CLASS
  1
HATCH
  2
AcDbHatch
  3
AutoCAD 2000
 90
        0
280
     0
281
     1
  0
CLASS
  1
DICTIONARYVAR
  2
AcDbDictionaryVar
  3
AutoCAD 2000
 90
        0
280
     0
281
     0
  0
CLASS
  1
RASTERVARIABLES
  2
AcDbRasterVariables
  3
ISM
 90
        0
280
     0
281
     0
  0
CLASS
  1
IMAGEDEF
  2
AcDbRasterImageDef
  3
ISM
 90
        0
280
     0
281
     0
  0
CLASS
  1
IMAGEDEF_REACTOR
  2
AcDbRasterImageDefReactor
  3
ISM
 90
        1
280
     0
281
     0
  0
CLASS
  1
IDBUFFER
  2
AcDbIdBuffer
  3
AutoCAD 2000
 90
        0
280
     0
281
     0
  0
CLASS
  1
SPATIAL_FILTER
  2
AcDbSpatialFilter
  3
AutoCAD 2000
 90
        0
280
     0
281
     0
  0
CLASS
  1
XRECORD
  2
AcDbXrecord
  3
AutoCAD 2000
 90
        0
280
     0
281
     0
  0
CLASS
  1
SORTENTSTABLE
  2
AcDbSortentsTable
  3
AutoCAD 2000
 90
        0
280
     0
281
     0
  0
CLASS
  1
LAYER_INDEX
  2
AcDbLayerIndex
  3
AutoCAD 2000
 90
        0
280
     0
281
     0
  0
CLASS
  1
SPATIAL_INDEX
  2
AcDbSpatialIndex
  3
AutoCAD 2000
 90
        0
280
     0
281
     0
  0
CLASS
  1
OBJECT_PTR
  2
CAseDLPNTableRecord
  3
"ASE-LPNTableRecord"
 90
        1
280
     0
281
     0
  0
CLASS
  1
LAYOUT
  2
AcDbLayout
  3
AutoCAD 2000
 90
        0
280
     0
281
     0
  0
CLASS
  1
PLOTSETTINGS
  2
AcDbPlotSettings
  3
AutoCAD 2000
 90
        0
280
     0
281
     0
  0
CLASS
  1
ACDBDICTIONARYWDFLT
  2
AcDbDictionaryWithDefault
  3
AutoCAD 2000
 90
        0
280
     0
281
     0
  0
CLASS
  1
ACDBPLACEHOLDER
  2
AcDbPlaceHolder
  3
AutoCAD 2000
 90
        0
280
     0
281
     0
  0
CLASS
  1
VBA_PROJECT
  2
AcDbVbaProject
  3
acadvba
 90
        0
280
     0
281
     0
  0
CLASS
  1
WIPEOUT
  2
AcDbWipeout
  3
WipeOut|AutoCAD Express Tool|expresstools@autodesk.com
 90
      127
280
     0
281
     1
  0
CLASS
  1
WIPEOUTVARIABLES
  2
AcDbWipeoutVariables
  3
WipeOut|AutoCAD Express Tool|expresstools@autodesk.com
 90
        0
280
     0
281
     0
  0
CLASS
  1
RTEXT
  2
RText
  3
RText|AutoCAD Express Tool|expresstools@autodesk.com
 90
        0
280
     0
281
     1
  0
CLASS
  1
ARCALIGNEDTEXT
  2
AcDbArcAlignedText
  3
ATEXT|AutoCAD Express Tool|expresstools@autodesk.com
 90
        0
280
     0
281
     1
  0
ENDSEC
  0
SECTION
  2
TABLES
  0
TABLE
  2
VPORT
  5
6
100
AcDbSymbolTable
 70
     1
  0
VPORT
  5
19
100
AcDbSymbolTableRecord
100
AcDbViewportTableRecord
  2
*ACTIVE
 70
     0
 10
0.0
 20
0.0
 11
1.0
 21
1.0
 12
0.0
 22
0.0
 13
0.0
 23
0.0
 14
1.0
 24
1.0
 15
0.0
 25
0.0
 16
0.0
 26
0.0
 36
1.0
 17
0.0
 27
0.0
 37
0.0
 40
297.0
 41
0.707071
 42
50.0
 43
0.0
 44
0.0
 50
0.0
 51
0.0
 71
     0
 72
   500
 73
     1
 74
     1
 75
     0
 76
     0
 77
     0
 78
     0
281
     0
 65
     0
110
0.0
120
0.0
130
0.0
111
1.0
121
0.0
131
0.0
112
0.0
122
1.0
132
0.0
345
0
346
0
 79
     0
146
0.0
  0
ENDTAB
  0
TABLE
  2
LTYPE
  5
3
100
AcDbSymbolTable
 70
     9
  0
LTYPE
  5
C
100
AcDbSymbolTableRecord
100
AcDbLinetypeTableRecord
  2
ByBlock
 70
    64
  3

 72
    65
 73
     0
 40
0.0
  0
LTYPE
  5
D
100
AcDbSymbolTableRecord
100
AcDbLinetypeTableRecord
  2
ByLayer
 70
    64
  3

 72
    65
 73
     0
 40
0.0
  0
LTYPE
  5
E
100
AcDbSymbolTableRecord
100
AcDbLinetypeTableRecord
  2
CONTINUOUS
 70
     0
  3
Solid line
 72
    65
 73
     0
 40
0.0
  0
LTYPE
  5
F
100
AcDbSymbolTableRecord
100
AcDbLinetypeTableRecord
  2
DASHED
 70
     0
  3
__ __ __ __ __ __ __ __ __ __ __ __ __ __ __
 72
    65
 73
     2
 40
2.0
 49
1.2
 74
     0
 49
-0.8
 74
     0
  0
LTYPE
  5
10
100
AcDbSymbolTableRecord
100
AcDbLinetypeTableRecord
  2
CENTER
 70
     0
  3
____ _ ____ _ ____ _ ____ _ ____ _ ____ _ ____
 72
    65
 73
     4
 40
12.0
 49
9.0
 74
     0
 49
-1.0
 74
     0
 49
1.0
 74
     0
 49
-1.0
 74
     0
  0
LTYPE
  5
11
100
AcDbSymbolTableRecord
100
AcDbLinetypeTableRecord
  2
HIDDEN
 70
     0
  3
_ _ _ _ _ _ _ _ _ _ _ _ _ _ _ _ _ _ _ _ _ _ _
 72
    65
 73
     2
 40
3.2
 49
1.3
 74
     0
 49
-1.9
 74
     0
  0
LTYPE
  5
12
100
AcDbSymbolTableRecord
100
AcDbLinetypeTableRecord
  2
PHANTOM
 70
     0
  3
_____ _ _ _____ _ _ _____ _ _ _____ _ _ _____
 72
    65
 73
     6
 40
12.5
 49
9.0
 74
     0
 49
-1.0
 74
     0
 49
0.5
 74
     0
 49
-0.5
 74
     0
 49
0.5
 74
     0
 49
-1.0
 74
     0
  0
LTYPE
  5
13
100
AcDbSymbolTableRecord
100
AcDbLinetypeTableRecord
  2
DOT
 70
     0
  3
...............................................
 72
    65
 73
     2
 40
1.0
 49
0.5
 74
     0
 49
-0.5
 74
     0
  0
LTYPE
  5
14
100
AcDbSymbolTableRecord
100
AcDbLinetypeTableRecord
  2
DASHDOT
 70
     0
  3
__ . __ . __ . __ . __ . __ . __ . __ . __ . __
 72
    65
 73
     4
 40
8.0
 49
5.0
 74
     0
 49
-1.0
 74
     0
 49
1.0
 74
     0
 49
-1.0
 74
     0
  0
ENDTAB
  0
TABLE
  2
LAYER
  5
1
100
AcDbSymbolTable
 70
     4
  0
LAYER
  5
15
100
AcDbSymbolTableRecord
100
AcDbLayerTableRecord
  2
0
 70
     0
 62
     8
  6
CONTINUOUS
290
     1
370
    -3
390
0
  0
LAYER
  5
16
100
AcDbSymbolTableRecord
100
AcDbLayerTableRecord
  2
1
 70
     0
 62
     2
  6
CONTINUOUS
290
     1
370
    -3
390
0
  0
LAYER
  5
17
100
AcDbSymbolTableRecord
100
AcDbLayerTableRecord
  2
2
 70
     0
 62
     3
  6
CONTINUOUS
290
     1
370
    -3
390
0
  0
LAYER
  5
18
100
AcDbSymbolTableRecord
100
AcDbLayerTableRecord
  2
3
 70
     0
 62
     4
  6
CONTINUOUS
290
     1
370
    -3
390
0
  0
ENDTAB
  0
TABLE
  2
STYLE
  5
2
100
AcDbSymbolTable
 70
     1
  0
STYLE
  5
1B
100
AcDbSymbolTableRecord
100
AcDbTextStyleTableRecord
  2
STANDARD
 70
    64
 40
0.0
 41
1.0
 50
0.0
 71
     0
 42
1.0
  3
txt
  4
BIGFONT
  0
ENDTAB
  0
TABLE
  2
VIEW
  5
4
100
AcDbSymbolTable
 70
     0
  0
ENDTAB
  0
TABLE
  2
UCS
  5
5
100
AcDbSymbolTable
 70
     0
  0
ENDTAB
  0
TABLE
  2
APPID
  5
7
100
AcDbSymbolTable
 70
     1
  0
APPID
  5
1A
100
AcDbSymbolTableRecord
100
AcDbRegAppTableRecord
  2
ACAD
 70
     0
  0
ENDTAB
  0
TABLE
  2
DIMSTYLE
  5
8
100
AcDbSymbolTable
 70
     1
100
AcDbDimStyleTable
 71
     0
  0
DIMSTYLE
105
2C
100
AcDbSymbolTableRecord
100
AcDbDimStyleTableRecord
  2
Standard
 70
     0
  3

  4

 40
1.0
 41
2.0
 42
0.5
 43
0.38
 44
2.0
 45
0.0
 46
0.0
 47
0.0
 48
0.0
 71
     0
 72
     0
 73
     0
 74
     0
 75
     0
 76
     0
 77
     1
 78
     0
 79
     0
140
4.0
141
0.09
142
0.0
143
25.4
144
1.0
145
0.0
146
1.0
147
0.5
148
0.0
170
     0
171
     2
172
     0
173
     0
174
     0
175
     0
176
     0
177
     0
178
     0
179
     0
271
     2
272
     4
273
     2
274
     2
275
     0
276
     0
277
     2
278
    46
279
     0
280
     0
281
     0
282
     0
283
     1
284
     0
285
     0
286
     0
288
     0
289
     3
340
1B
341
0
342
0
343
0
344
0
371
    -2
372
    -2
  0
ENDTAB
  0
TABLE
  2
BLOCK_RECORD
  5
27
100
AcDbSymbolTable
 70
     9
  0
BLOCK_RECORD
  5
25
100
AcDbSymbolTableRecord
100
AcDbBlockTableRecord
  2
*Model_Space
340
0
  0
BLOCK_RECORD
  5
26
100
AcDbSymbolTableRecord
100
AcDbBlockTableRecord
  2
*Paper_Space
340
0
  0
BLOCK_RECORD
  5
1C
100
AcDbSymbolTableRecord
100
AcDbBlockTableRecord
  2
*D0
340
0
  0
BLOCK_RECORD
  5
1D
100
AcDbSymbolTableRecord
100
AcDbBlockTableRecord
  2
*D1
340
0
  0
BLOCK_RECORD
  5
1E
100
AcDbSymbolTableRecord
100
AcDbBlockTableRecord
  2
*D2
340
0
  0
BLOCK_RECORD
  5
1F
100
AcDbSymbolTableRecord
100
AcDbBlockTableRecord
  2
*D3
340
0
  0
BLOCK_RECORD
  5
20
100
AcDbSymbolTableRecord
100
AcDbBlockTableRecord
  2
*D4
340
0
  0
BLOCK_RECORD
  5
21
100
AcDbSymbolTableRecord
100
AcDbBlockTableRecord
  2
*D5
340
0
  0
BLOCK_RECORD
  5
22
100
AcDbSymbolTableRecord
100
AcDbBlockTableRecord
  2
*D6
340
0
  0
BLOCK_RECORD
  5
23
100
AcDbSymbolTableRecord
100
AcDbBlockTableRecord
  2
*D7
340
0
  0
BLOCK_RECORD
  5
24
100
AcDbSymbolTableRecord
100
AcDbBlockTableRecord
  2
*D8
340
0
  0
ENDTAB
  0
ENDSEC
  0
SECTION
  2
BLOCKS
  0
BLOCK
  5
28
100
AcDbEntity
  8
0
390
0
100
AcDbBlockBegin
  2
*Model_Space
 70
     0
 10
0.0
 20
0.0
 30
0.0
  3
*Model_Space
  1

  0
ENDBLK
  5
29
100
AcDbEntity
  8
0
390
0
100
AcDbBlockEnd
  0
BLOCK
  5
2A
100
AcDbEntity
 67
     1
  8
0
390
0
100
AcDbBlockBegin
  2
*Paper_Space
 70
     0
 10
0.0
 20
0.0
 30
0.0
  3
*Paper_Space
  1

  0
ENDBLK
  5
2B
100
AcDbEntity
 67
     1
  8
0
390
0
100
AcDbBlockEnd
  0
BLOCK
  5
148
100
AcDbEntity
  8
2
100
AcDbBlockBegin
  2
*D0
 70
     1
 10
0.0
 20
0.0
 30
0.0
  3
*D0
  1

  0
TEXT
  5
149
100
AcDbEntity
  8
2
370
    25
100
AcDbText
 10
-70.428795
 20
11.767212
 30
0.0
 40
4.0
  1
８０
 50
90.0
 72
     5
 11
-70.428795
 21
18.967212
 31
0.0
100
AcDbText
  0
LINE
  5
14A
100
AcDbEntity
  8
2
370
    25
100
AcDbLine
 10
-58.206591
 20
-24.232788
 30
0.0
 11
-70.928795
 21
-24.232788
 31
0.0
  0
LINE
  5
14B
100
AcDbEntity
  8
2
370
    25
100
AcDbLine
 10
-69.928795
 20
-24.232788
 30
0.0
 11
-69.411157
 21
-22.300936
 31
0.0
  0
LINE
  5
14C
100
AcDbEntity
  8
2
370
    25
100
AcDbLine
 10
-69.928795
 20
-24.232788
 30
0.0
 11
-70.446433
 21
-22.300936
 31
0.0
  0
LINE
  5
14D
100
AcDbEntity
  8
2
370
    25
100
AcDbLine
 10
-69.928795
 20
-24.232788
 30
0.0
 11
-69.928795
 21
55.767212
 31
0.0
  0
LINE
  5
14E
100
AcDbEntity
  8
2
370
    25
100
AcDbLine
 10
-69.928795
 20
55.767212
 30
0.0
 11
-70.446433
 21
53.835361
 31
0.0
  0
LINE
  5
14F
100
AcDbEntity
  8
2
370
    25
100
AcDbLine
 10
-69.928795
 20
55.767212
 30
0.0
 11
-69.411157
 21
53.835361
 31
0.0
  0
LINE
  5
150
100
AcDbEntity
  8
2
370
    25
100
AcDbLine
 10
-58.206591
 20
55.767212
 30
0.0
 11
-70.928795
 21
55.767212
 31
0.0
  0
ENDBLK
  5
151
100
AcDbEntity
  8
2
100
AcDbBlockEnd
  0
BLOCK
  5
152
100
AcDbEntity
  8
2
100
AcDbBlockBegin
  2
*D1
 70
     1
 10
0.0
 20
0.0
 30
0.0
  3
*D1
  1

  0
TEXT
  5
153
100
AcDbEntity
  8
2
370
    25
100
AcDbText
 10
-63.402065
 20
11.767212
 30
0.0
 40
4.0
  1
３２
 50
90.0
 72
     5
 11
-63.402065
 21
18.967212
 31
0.0
100
AcDbText
  0
LINE
  5
154
100
AcDbEntity
  8
2
370
    25
100
AcDbLine
 10
-58.956591
 20
-0.232788
 30
0.0
 11
-63.902065
 21
-0.232788
 31
0.0
  0
LINE
  5
155
100
AcDbEntity
  8
2
370
    25
100
AcDbLine
 10
-62.902065
 20
-0.232788
 30
0.0
 11
-62.384427
 21
1.699064
 31
0.0
  0
LINE
  5
156
100
AcDbEntity
  8
2
370
    25
100
AcDbLine
 10
-62.902065
 20
-0.232788
 30
0.0
 11
-63.419703
 21
1.699064
 31
0.0
  0
LINE
  5
157
100
AcDbEntity
  8
2
370
    25
100
AcDbLine
 10
-62.902065
 20
-0.232788
 30
0.0
 11
-62.902065
 21
31.767212
 31
0.0
  0
LINE
  5
158
100
AcDbEntity
  8
2
370
    25
100
AcDbLine
 10
-62.902065
 20
31.767212
 30
0.0
 11
-63.419703
 21
29.835361
 31
0.0
  0
LINE
  5
159
100
AcDbEntity
  8
2
370
    25
100
AcDbLine
 10
-62.902065
 20
31.767212
 30
0.0
 11
-62.384427
 21
29.835361
 31
0.0
  0
LINE
  5
15A
100
AcDbEntity
  8
2
370
    25
100
AcDbLine
 10
-58.956591
 20
31.767212
 30
0.0
 11
-63.902065
 21
31.767212
 31
0.0
  0
ENDBLK
  5
15B
100
AcDbEntity
  8
2
100
AcDbBlockEnd
  0
BLOCK
  5
15C
100
AcDbEntity
  8
2
100
AcDbBlockBegin
  2
*D2
 70
     1
 10
0.0
 20
0.0
 30
0.0
  3
*D2
  1

  0
TEXT
  5
15D
100
AcDbEntity
  8
2
370
    25
100
AcDbText
 10
-16.299553
 20
19.767212
 30
0.0
 40
4.0
  1
２
 50
90.0
 72
     5
 11
-16.299553
 21
22.967212
 31
0.0
100
AcDbText
  0
LINE
  5
15E
100
AcDbEntity
  8
2
370
    25
100
AcDbLine
 10
-15.799553
 20
13.767212
 30
0.0
 11
-16.317191
 21
11.835361
 31
0.0
  0
LINE
  5
15F
100
AcDbEntity
  8
2
370
    25
100
AcDbLine
 10
-15.799553
 20
13.767212
 30
0.0
 11
-15.281915
 21
11.835361
 31
0.0
  0
LINE
  5
160
100
AcDbEntity
  8
2
370
    25
100
AcDbLine
 10
-15.799553
 20
8.767212
 30
0.0
 11
-15.799553
 21
24.767212
 31
0.0
  0
LINE
  5
161
100
AcDbEntity
  8
2
370
    25
100
AcDbLine
 10
-15.799553
 20
15.767212
 30
0.0
 11
-15.281915
 21
17.699064
 31
0.0
  0
LINE
  5
162
100
AcDbEntity
  8
2
370
    25
100
AcDbLine
 10
-15.799553
 20
15.767212
 30
0.0
 11
-16.317191
 21
17.699064
 31
0.0
  0
ENDBLK
  5
163
100
AcDbEntity
  8
2
100
AcDbBlockEnd
  0
BLOCK
  5
164
100
AcDbEntity
  8
2
100
AcDbBlockBegin
  2
*D3
 70
     1
 10
0.0
 20
0.0
 30
0.0
  3
*D3
  1

  0
TEXT
  5
165
100
AcDbEntity
  8
2
370
    25
100
AcDbText
 10
-54.456591
 20
-36.03661
 30
0.0
 40
4.0
  1
２２．５
 72
     5
 11
-39.256591
 21
-36.03661
 31
0.0
100
AcDbText
  0
LINE
  5
166
100
AcDbEntity
  8
2
370
    25
100
AcDbLine
 10
-57.706591
 20
-24.732788
 30
0.0
 11
-57.706591
 21
-37.53661
 31
0.0
  0
LINE
  5
167
100
AcDbEntity
  8
2
370
    25
100
AcDbLine
 10
-57.706591
 20
-36.53661
 30
0.0
 11
-55.774739
 21
-37.054248
 31
0.0
  0
LINE
  5
168
100
AcDbEntity
  8
2
370
    25
100
AcDbLine
 10
-57.706591
 20
-36.53661
 30
0.0
 11
-55.774739
 21
-36.018972
 31
0.0
  0
LINE
  5
169
100
AcDbEntity
  8
2
370
    25
100
AcDbLine
 10
-57.706591
 20
-36.53661
 30
0.0
 11
-35.206591
 21
-36.53661
 31
0.0
  0
LINE
  5
16A
100
AcDbEntity
  8
2
370
    25
100
AcDbLine
 10
-35.206591
 20
-36.53661
 30
0.0
 11
-37.138443
 21
-36.018972
 31
0.0
  0
LINE
  5
16B
100
AcDbEntity
  8
2
370
    25
100
AcDbLine
 10
-35.206591
 20
-36.53661
 30
0.0
 11
-37.138443
 21
-37.054248
 31
0.0
  0
LINE
  5
16C
100
AcDbEntity
  8
2
370
    25
100
AcDbLine
 10
-35.206591
 20
-24.732788
 30
0.0
 11
-35.206591
 21
-37.53661
 31
0.0
  0
ENDBLK
  5
16D
100
AcDbEntity
  8
2
100
AcDbBlockEnd
  0
BLOCK
  5
16E
100
AcDbEntity
  8
2
100
AcDbBlockBegin
  2
*D4
 70
     1
 10
0.0
 20
0.0
 30
0.0
  3
*D4
  1

  0
TEXT
  5
16F
100
AcDbEntity
  8
2
370
    25
100
AcDbText
 10
3.643409
 20
-29.842154
 30
0.0
 40
4.0
  1
３．６
 72
     5
 11
14.843409
 21
-29.842154
 31
0.0
100
AcDbText
  0
LINE
  5
170
100
AcDbEntity
  8
2
370
    25
100
AcDbLine
 10
-1.956591
 20
-30.342154
 30
0.0
 11
-3.888443
 21
-29.824515
 31
0.0
  0
LINE
  5
171
100
AcDbEntity
  8
2
370
    25
100
AcDbLine
 10
-1.956591
 20
-30.342154
 30
0.0
 11
-3.888443
 21
-30.859792
 31
0.0
  0
LINE
  5
172
100
AcDbEntity
  8
2
370
    25
100
AcDbLine
 10
-6.956591
 20
-30.342154
 30
0.0
 11
16.643409
 21
-30.342154
 31
0.0
  0
LINE
  5
173
100
AcDbEntity
  8
2
370
    25
100
AcDbLine
 10
1.643409
 20
-30.342154
 30
0.0
 11
3.575261
 21
-30.859792
 31
0.0
  0
LINE
  5
174
100
AcDbEntity
  8
2
370
    25
100
AcDbLine
 10
1.643409
 20
-30.342154
 30
0.0
 11
3.575261
 21
-29.824515
 31
0.0
  0
LINE
  5
175
100
AcDbEntity
  8
2
370
    25
100
AcDbLine
 10
1.643409
 20
-24.732788
 30
0.0
 11
1.643409
 21
-31.342154
 31
0.0
  0
ENDBLK
  5
176
100
AcDbEntity
  8
2
100
AcDbBlockEnd
  0
BLOCK
  5
177
100
AcDbEntity
  8
2
100
AcDbBlockBegin
  2
*D5
 70
     1
 10
0.0
 20
0.0
 30
0.0
  3
*D5
  1

  0
TEXT
  5
178
100
AcDbEntity
  8
2
370
    25
100
AcDbText
 10
31.543409
 20
-36.869221
 30
0.0
 40
4.0
  1
５１
 72
     5
 11
38.743409
 21
-36.869221
 31
0.0
100
AcDbText
  0
LINE
  5
179
100
AcDbEntity
  8
2
370
    25
100
AcDbLine
 10
-1.956591
 20
-37.369221
 30
0.0
 11
-0.024739
 21
-37.886859
 31
0.0
  0
LINE
  5
17A
100
AcDbEntity
  8
2
370
    25
100
AcDbLine
 10
-1.956591
 20
-37.369221
 30
0.0
 11
-0.024739
 21
-36.851583
 31
0.0
  0
LINE
  5
17B
100
AcDbEntity
  8
2
370
    25
100
AcDbLine
 10
-1.956591
 20
-37.369221
 30
0.0
 11
49.043409
 21
-37.369221
 31
0.0
  0
LINE
  5
17C
100
AcDbEntity
  8
2
370
    25
100
AcDbLine
 10
49.043409
 20
-37.369221
 30
0.0
 11
47.111557
 21
-36.851583
 31
0.0
  0
LINE
  5
17D
100
AcDbEntity
  8
2
370
    25
100
AcDbLine
 10
49.043409
 20
-37.369221
 30
0.0
 11
47.111557
 21
-37.886859
 31
0.0
  0
ENDBLK
  5
17E
100
AcDbEntity
  8
2
100
AcDbBlockEnd
  0
BLOCK
  5
17F
100
AcDbEntity
  8
2
100
AcDbBlockBegin
  2
*D6
 70
     1
 10
0.0
 20
0.0
 30
0.0
  3
*D6
  1

  0
TEXT
  5
180
100
AcDbEntity
  8
2
370
    25
100
AcDbText
 10
31.543409
 20
-46.034973
 30
0.0
 40
4.0
  1
７５
 72
     5
 11
38.743409
 21
-46.034973
 31
0.0
100
AcDbText
  0
LINE
  5
181
100
AcDbEntity
  8
2
370
    25
100
AcDbLine
 10
-1.956591
 20
-39.732788
 30
0.0
 11
-1.956591
 21
-47.534973
 31
0.0
  0
LINE
  5
182
100
AcDbEntity
  8
2
370
    25
100
AcDbLine
 10
-1.956591
 20
-46.534973
 30
0.0
 11
-0.024739
 21
-47.052611
 31
0.0
  0
LINE
  5
183
100
AcDbEntity
  8
2
370
    25
100
AcDbLine
 10
-1.956591
 20
-46.534973
 30
0.0
 11
-0.024739
 21
-46.017335
 31
0.0
  0
LINE
  5
184
100
AcDbEntity
  8
2
370
    25
100
AcDbLine
 10
-1.956591
 20
-46.534973
 30
0.0
 11
73.043409
 21
-46.534973
 31
0.0
  0
LINE
  5
185
100
AcDbEntity
  8
2
370
    25
100
AcDbLine
 10
73.043409
 20
-46.534973
 30
0.0
 11
71.111557
 21
-46.017335
 31
0.0
  0
LINE
  5
186
100
AcDbEntity
  8
2
370
    25
100
AcDbLine
 10
73.043409
 20
-46.534973
 30
0.0
 11
71.111557
 21
-47.052611
 31
0.0
  0
LINE
  5
187
100
AcDbEntity
  8
2
370
    25
100
AcDbLine
 10
73.043409
 20
-9.732788
 30
0.0
 11
73.043409
 21
-47.534973
 31
0.0
  0
ENDBLK
  5
188
100
AcDbEntity
  8
2
100
AcDbBlockEnd
  0
BLOCK
  5
189
100
AcDbEntity
  8
2
100
AcDbBlockBegin
  2
*D7
 70
     1
 10
0.0
 20
0.0
 30
0.0
  3
*D7
  1

  0
TEXT
  5
18A
100
AcDbEntity
  8
2
370
    25
100
AcDbText
 10
83.13414
 20
29.267212
 30
0.0
 40
4.0
  1
１３．５
 50
90.0
 72
     5
 11
83.13414
 21
44.467212
 31
0.0
100
AcDbText
  0
LINE
  5
18B
100
AcDbEntity
  8
2
370
    25
100
AcDbLine
 10
72.043409
 20
13.767212
 30
0.0
 11
84.63414
 21
13.767212
 31
0.0
  0
LINE
  5
18C
100
AcDbEntity
  8
2
370
    25
100
AcDbLine
 10
83.63414
 20
13.767212
 30
0.0
 11
83.116502
 21
11.835361
 31
0.0
  0
LINE
  5
18D
100
AcDbEntity
  8
2
370
    25
100
AcDbLine
 10
83.63414
 20
13.767212
 30
0.0
 11
84.151778
 21
11.835361
 31
0.0
  0
LINE
  5
18E
100
AcDbEntity
  8
2
370
    25
100
AcDbLine
 10
83.63414
 20
8.767212
 30
0.0
 11
83.63414
 21
46.267212
 31
0.0
  0
LINE
  5
18F
100
AcDbEntity
  8
2
370
    25
100
AcDbLine
 10
83.63414
 20
27.267212
 30
0.0
 11
84.151778
 21
29.199064
 31
0.0
  0
LINE
  5
190
100
AcDbEntity
  8
2
370
    25
100
AcDbLine
 10
83.63414
 20
27.267212
 30
0.0
 11
83.116502
 21
29.199064
 31
0.0
  0
LINE
  5
191
100
AcDbEntity
  8
2
370
    25
100
AcDbLine
 10
63.043409
 20
27.267212
 30
0.0
 11
84.63414
 21
27.267212
 31
0.0
  0
ENDBLK
  5
192
100
AcDbEntity
  8
2
100
AcDbBlockEnd
  0
BLOCK
  5
193
100
AcDbEntity
  8
2
100
AcDbBlockBegin
  2
*D8
 70
     1
 10
0.0
 20
0.0
 30
0.0
  3
*D8
  1

  0
TEXT
  5
194
100
AcDbEntity
  8
2
370
    25
100
AcDbText
 10
45.043409
 20
-22.972845
 30
0.0
 40
4.0
  1
２３
 72
     5
 11
52.243409
 21
-22.972845
 31
0.0
100
AcDbText
  0
LINE
  5
195
100
AcDbEntity
  8
2
370
    25
100
AcDbLine
 10
37.543409
 20
-1.732788
 30
0.0
 11
37.543409
 21
-24.472845
 31
0.0
  0
LINE
  5
196
100
AcDbEntity
  8
2
370
    25
100
AcDbLine
 10
37.543409
 20
-23.472845
 30
0.0
 11
39.475261
 21
-23.990483
 31
0.0
  0
LINE
  5
197
100
AcDbEntity
  8
2
370
    25
100
AcDbLine
 10
37.543409
 20
-23.472845
 30
0.0
 11
39.475261
 21
-22.955207
 31
0.0
  0
LINE
  5
198
100
AcDbEntity
  8
2
370
    25
100
AcDbLine
 10
37.543409
 20
-23.472845
 30
0.0
 11
60.543409
 21
-23.472845
 31
0.0
  0
LINE
  5
199
100
AcDbEntity
  8
2
370
    25
100
AcDbLine
 10
60.543409
 20
-23.472845
 30
0.0
 11
58.611557
 21
-22.955207
 31
0.0
  0
LINE
  5
19A
100
AcDbEntity
  8
2
370
    25
100
AcDbLine
 10
60.543409
 20
-23.472845
 30
0.0
 11
58.611557
 21
-23.990483
 31
0.0
  0
LINE
  5
19B
100
AcDbEntity
  8
2
370
    25
100
AcDbLine
 10
60.543409
 20
-1.732788
 30
0.0
 11
60.543409
 21
-24.472845
 31
0.0
  0
ENDBLK
  5
19C
100
AcDbEntity
  8
2
100
AcDbBlockEnd
  0
ENDSEC
  0
SECTION
  2
ENTITIES
  0
LINE
  5
2D
100
AcDbEntity
  8
1
370
   100
100
AcDbLine
 10
-57.706591
 20
55.767212
 30
0.0
 11
-57.706591
 21
-24.232788
 31
0.0
  0
LINE
  5
2E
100
AcDbEntity
  8
1
370
   100
100
AcDbLine
 10
-35.206591
 20
55.767212
 30
0.0
 11
-35.206591
 21
-24.232788
 31
0.0
  0
LINE
  5
2F
100
AcDbEntity
  8
1
370
   100
100
AcDbLine
 10
-57.706591
 20
-24.232788
 30
0.0
 11
-35.206591
 21
-24.232788
 31
0.0
  0
LINE
  5
30
100
AcDbEntity
  8
1
370
   100
100
AcDbLine
 10
-57.706591
 20
55.767212
 30
0.0
 11
-35.206591
 21
55.767212
 31
0.0
  0
LINE
  5
31
100
AcDbEntity
  8
1
370
   100
100
AcDbLine
 10
-37.456591
 20
31.767212
 30
0.0
 11
-37.456591
 21
-0.232788
 31
0.0
  0
LINE
  5
32
100
AcDbEntity
  8
1
370
   100
100
AcDbLine
 10
-55.456591
 20
31.767212
 30
0.0
 11
-55.456591
 21
-0.232788
 31
0.0
  0
ARC
  5
33
100
AcDbEntity
  8
1
370
   100
100
AcDbCircle
 10
-46.456591
 20
31.767212
 30
0.0
 40
9.0
100
AcDbArc
 50
0.0
 51
180.0
  0
ARC
  5
34
100
AcDbEntity
  8
1
370
   100
100
AcDbCircle
 10
-46.456591
 20
-0.232788
 30
0.0
 40
9.0
100
AcDbArc
 50
180.0
 51
360.0
  0
ARC
  5
35
100
AcDbEntity
  8
1
370
    25
  6
DASHED
100
AcDbCircle
 10
-46.456591
 20
15.767212
 30
0.0
 40
9.0
100
AcDbArc
 50
117.266044
 51
242.733956
  0
ARC
  5
36
100
AcDbEntity
  8
1
370
    25
  6
DASHED
100
AcDbCircle
 10
-46.456591
 20
15.767212
 30
0.0
 40
9.0
100
AcDbArc
 50
297.266044
 51
62.733956
  0
ARC
  5
37
100
AcDbEntity
  8
1
370
    25
  6
DASHED
100
AcDbCircle
 10
-46.456591
 20
31.767212
 30
0.0
 40
9.0
100
AcDbArc
 50
297.266044
 51
0.0
  0
ARC
  5
38
100
AcDbEntity
  8
1
370
    25
  6
DASHED
100
AcDbCircle
 10
-46.456591
 20
31.767212
 30
0.0
 40
9.0
100
AcDbArc
 50
180.0
 51
242.733956
  0
ARC
  5
39
100
AcDbEntity
  8
1
370
    25
  6
DASHED
100
AcDbCircle
 10
-46.456591
 20
-0.232788
 30
0.0
 40
9.0
100
AcDbArc
 50
117.266044
 51
180.0
  0
ARC
  5
3A
100
AcDbEntity
  8
1
370
    25
  6
DASHED
100
AcDbCircle
 10
-46.456591
 20
-0.232788
 30
0.0
 40
9.0
100
AcDbArc
 50
0.0
 51
62.733956
  0
LINE
  5
3B
100
AcDbEntity
  8
1
370
    25
  6
CENTER
100
AcDbLine
 10
-58.456591
 20
31.767212
 30
0.0
 11
-34.456591
 21
31.767212
 31
0.0
  0
LINE
  5
3C
100
AcDbEntity
  8
1
370
    25
  6
CENTER
100
AcDbLine
 10
-58.456591
 20
-0.232788
 30
0.0
 11
-34.456591
 21
-0.232788
 31
0.0
  0
LINE
  5
3D
100
AcDbEntity
  8
1
370
    25
  6
CENTER
100
AcDbLine
 10
-46.456591
 20
59.018066
 30
0.0
 11
-46.456591
 21
-29.232788
 31
0.0
  0
LINE
  5
3E
100
AcDbEntity
  8
1
370
   100
100
AcDbLine
 10
-1.956591
 20
65.767212
 30
0.0
 11
-1.956591
 21
-39.232788
 31
0.0
  0
LINE
  5
3F
100
AcDbEntity
  8
1
370
    50
  6
DASHED
100
AcDbLine
 10
-1.956591
 20
55.767212
 30
0.0
 11
1.643409
 21
55.767212
 31
0.0
  0
LINE
  5
40
100
AcDbEntity
  8
1
370
    50
  6
DASHED
100
AcDbLine
 10
-1.956591
 20
-24.232788
 30
0.0
 11
1.643409
 21
-24.232788
 31
0.0
  0
LINE
  5
41
100
AcDbEntity
  8
1
370
    50
  6
DASHED
100
AcDbLine
 10
1.643409
 20
55.767212
 30
0.0
 11
1.643409
 21
-24.232788
 31
0.0
  0
LINE
  5
42
100
AcDbEntity
  8
1
370
    50
  6
DASHED
100
AcDbLine
 10
73.043409
 20
40.767212
 30
0.0
 11
73.043409
 21
-9.232788
 31
0.0
  0
LINE
  5
43
100
AcDbEntity
  8
1
370
    50
  6
DASHED
100
AcDbLine
 10
1.643409
 20
40.767212
 30
0.0
 11
73.043409
 21
40.767212
 31
0.0
  0
LINE
  5
44
100
AcDbEntity
  8
1
370
    50
  6
DASHED
100
AcDbLine
 10
1.643409
 20
-9.232788
 30
0.0
 11
73.043409
 21
-9.232788
 31
0.0
  0
LINE
  5
45
100
AcDbEntity
  8
1
370
    25
  6
CENTER
100
AcDbLine
 10
71.543409
 20
13.767212
 30
0.0
 11
-17.956591
 21
13.767212
 31
0.0
  0
LINE
  5
46
100
AcDbEntity
  8
1
370
    25
  6
CENTER
100
AcDbLine
 10
-58.456591
 20
15.767212
 30
0.0
 11
-11.956591
 21
15.767212
 31
0.0
  0
ARC
  5
47
100
AcDbEntity
  8
1
370
    25
  6
DASHED
100
AcDbCircle
 10
-46.456591
 20
15.767212
 30
0.0
 40
9.0
100
AcDbArc
 50
62.733956
 51
117.266044
  0
ARC
  5
48
100
AcDbEntity
  8
1
370
    25
  6
DASHED
100
AcDbCircle
 10
-46.456591
 20
31.767212
 30
0.0
 40
9.0
100
AcDbArc
 50
242.733956
 51
297.266044
  0
ARC
  5
49
100
AcDbEntity
  8
1
370
    25
  6
DASHED
100
AcDbCircle
 10
-46.456591
 20
-0.232788
 30
0.0
 40
9.0
100
AcDbArc
 50
62.733956
 51
117.266044
  0
ARC
  5
4A
100
AcDbEntity
  8
1
370
    25
  6
DASHED
100
AcDbCircle
 10
-46.456591
 20
15.767212
 30
0.0
 40
9.0
100
AcDbArc
 50
242.733956
 51
297.266044
  0
LINE
  5
4B
100
AcDbEntity
  8
1
370
    25
100
AcDbLine
 10
-55.271664
 20
-2.047861
 30
0.0
 11
-37.456591
 21
15.767212
 31
0.0
  0
LINE
  5
4C
100
AcDbEntity
  8
1
370
    25
100
AcDbLine
 10
-54.967854
 20
-3.158264
 30
0.0
 11
-37.456591
 21
14.352999
 31
0.0
  0
LINE
  5
4D
100
AcDbEntity
  8
1
370
    25
100
AcDbLine
 10
-54.554822
 20
-4.159446
 30
0.0
 11
-37.456591
 21
12.938785
 31
0.0
  0
LINE
  5
4E
100
AcDbEntity
  8
1
370
    25
100
AcDbLine
 10
-54.0481
 20
-5.066937
 30
0.0
 11
-37.456591
 21
11.524572
 31
0.0
  0
LINE
  5
4F
100
AcDbEntity
  8
1
370
    25
100
AcDbLine
 10
-53.456591
 20
-5.889642
 30
0.0
 11
-37.456591
 21
10.110358
 31
0.0
  0
LINE
  5
50
100
AcDbEntity
  8
1
370
    25
100
AcDbLine
 10
-52.784919
 20
-6.632183
 30
0.0
 11
-37.456591
 21
8.696145
 31
0.0
  0
LINE
  5
51
100
AcDbEntity
  8
1
370
    25
100
AcDbLine
 10
-52.034432
 20
-7.29591
 30
0.0
 11
-37.456591
 21
7.281931
 31
0.0
  0
LINE
  5
52
100
AcDbEntity
  8
1
370
    25
100
AcDbLine
 10
-51.203474
 20
-7.879166
 30
0.0
 11
-37.456591
 21
5.867717
 31
0.0
  0
LINE
  5
53
100
AcDbEntity
  8
1
370
    25
100
AcDbLine
 10
-50.287055
 20
-8.37696
 30
0.0
 11
-37.456591
 21
4.453504
 31
0.0
  0
LINE
  5
54
100
AcDbEntity
  8
1
370
    25
100
AcDbLine
 10
-49.275739
 20
-8.779858
 30
0.0
 11
-37.456591
 21
3.03929
 31
0.0
  0
LINE
  5
55
100
AcDbEntity
  8
1
370
    25
100
AcDbLine
 10
-48.15311
 20
-9.071443
 30
0.0
 11
-37.456591
 21
1.625077
 31
0.0
  0
LINE
  5
56
100
AcDbEntity
  8
1
370
    25
100
AcDbLine
 10
-46.889809
 20
-9.222355
 30
0.0
 11
-37.456591
 21
0.210863
 31
0.0
  0
LINE
  5
57
100
AcDbEntity
  8
1
370
    25
100
AcDbLine
 10
-45.426935
 20
-9.173694
 30
0.0
 11
-37.515685
 21
-1.262444
 31
0.0
  0
LINE
  5
58
100
AcDbEntity
  8
1
370
    25
100
AcDbLine
 10
-43.609676
 20
-8.770649
 30
0.0
 11
-37.91873
 21
-3.079703
 31
0.0
  0
LINE
  5
59
100
AcDbEntity
  8
1
370
    25
100
AcDbLine
 10
-55.438659
 20
-0.800642
 30
0.0
 11
-37.456591
 21
17.181426
 31
0.0
  0
LINE
  5
5A
100
AcDbEntity
  8
1
370
    25
100
AcDbLine
 10
-55.456591
 20
0.59564
 30
0.0
 11
-37.456591
 21
18.59564
 31
0.0
  0
LINE
  5
5B
100
AcDbEntity
  8
1
370
    25
100
AcDbLine
 10
-55.456591
 20
2.009853
 30
0.0
 11
-37.456591
 21
20.009853
 31
0.0
  0
LINE
  5
5C
100
AcDbEntity
  8
1
370
    25
100
AcDbLine
 10
-55.456591
 20
3.424067
 30
0.0
 11
-37.456591
 21
21.424067
 31
0.0
  0
LINE
  5
5D
100
AcDbEntity
  8
1
370
    25
100
AcDbLine
 10
-55.456591
 20
4.83828
 30
0.0
 11
-37.456591
 21
22.83828
 31
0.0
  0
LINE
  5
5E
100
AcDbEntity
  8
1
370
    25
100
AcDbLine
 10
-55.456591
 20
6.252494
 30
0.0
 11
-37.456591
 21
24.252494
 31
0.0
  0
LINE
  5
5F
100
AcDbEntity
  8
1
370
    25
100
AcDbLine
 10
-55.456591
 20
7.666707
 30
0.0
 11
-37.456591
 21
25.666707
 31
0.0
  0
LINE
  5
60
100
AcDbEntity
  8
1
370
    25
100
AcDbLine
 10
-55.456591
 20
9.080921
 30
0.0
 11
-37.456591
 21
27.080921
 31
0.0
  0
LINE
  5
61
100
AcDbEntity
  8
1
370
    25
100
AcDbLine
 10
-55.456591
 20
10.495134
 30
0.0
 11
-37.456591
 21
28.495134
 31
0.0
  0
LINE
  5
62
100
AcDbEntity
  8
1
370
    25
100
AcDbLine
 10
-55.456591
 20
11.909348
 30
0.0
 11
-37.456591
 21
29.909348
 31
0.0
  0
LINE
  5
63
100
AcDbEntity
  8
1
370
    25
100
AcDbLine
 10
-55.456591
 20
13.323562
 30
0.0
 11
-37.456591
 21
31.323562
 31
0.0
  0
LINE
  5
64
100
AcDbEntity
  8
1
370
    25
100
AcDbLine
 10
-37.504056
 20
32.690311
 30
0.0
 11
-55.456591
 21
14.737775
 31
0.0
  0
LINE
  5
65
100
AcDbEntity
  8
1
370
    25
100
AcDbLine
 10
-37.712096
 20
33.896484
 30
0.0
 11
-55.456591
 21
16.151989
 31
0.0
  0
LINE
  5
66
100
AcDbEntity
  8
1
370
    25
100
AcDbLine
 10
-38.047698
 20
34.975096
 30
0.0
 11
-55.456591
 21
17.566202
 31
0.0
  0
LINE
  5
67
100
AcDbEntity
  8
1
370
    25
100
AcDbLine
 10
-38.487418
 20
35.949589
 30
0.0
 11
-55.456591
 21
18.980416
 31
0.0
  0
LINE
  5
68
100
AcDbEntity
  8
1
370
    25
100
AcDbLine
 10
-39.017883
 20
36.833337
 30
0.0
 11
-55.456591
 21
20.394629
 31
0.0
  0
LINE
  5
69
100
AcDbEntity
  8
1
370
    25
100
AcDbLine
 10
-39.631511
 20
37.633923
 30
0.0
 11
-55.456591
 21
21.808843
 31
0.0
  0
LINE
  5
6A
100
AcDbEntity
  8
1
370
    25
100
AcDbLine
 10
-40.324635
 20
38.355013
 30
0.0
 11
-55.456591
 21
23.223057
 31
0.0
  0
LINE
  5
6B
100
AcDbEntity
  8
1
370
    25
100
AcDbLine
 10
-41.096723
 20
38.997138
 30
0.0
 11
-55.456591
 21
24.63727
 31
0.0
  0
LINE
  5
6C
100
AcDbEntity
  8
1
370
    25
100
AcDbLine
 10
-41.95028
 20
39.557794
 30
0.0
 11
-55.456591
 21
26.051484
 31
0.0
  0
LINE
  5
6D
100
AcDbEntity
  8
1
370
    25
100
AcDbLine
 10
-42.891355
 20
40.030934
 30
0.0
 11
-55.456591
 21
27.465697
 31
0.0
  0
LINE
  5
6E
100
AcDbEntity
  8
1
370
    25
100
AcDbLine
 10
-43.93094
 20
40.405562
 30
0.0
 11
-55.456591
 21
28.879911
 31
0.0
  0
LINE
  5
6F
100
AcDbEntity
  8
1
370
    25
100
AcDbLine
 10
-45.088147
 20
40.662569
 30
0.0
 11
-55.456591
 21
30.294124
 31
0.0
  0
LINE
  5
70
100
AcDbEntity
  8
1
370
    25
100
AcDbLine
 10
-46.397908
 20
40.767021
 30
0.0
 11
-55.456591
 21
31.708338
 31
0.0
  0
LINE
  5
71
100
AcDbEntity
  8
1
370
    25
100
AcDbLine
 10
-55.334495
 20
33.244647
 30
0.0
 11
-47.934026
 21
40.645117
 31
0.0
  0
LINE
  5
72
100
AcDbEntity
  8
1
370
    25
100
AcDbLine
 10
-54.764053
 20
35.229303
 30
0.0
 11
-49.918681
 21
40.074675
 31
0.0
  0
ARC
  5
73
100
AcDbEntity
  8
1
370
   100
100
AcDbCircle
 10
-51.706591
 20
49.767212
 30
0.0
 40
6.0
100
AcDbArc
 50
90.0
 51
180.0
  0
ARC
  5
74
100
AcDbEntity
  8
1
370
   100
100
AcDbCircle
 10
-41.206591
 20
49.767212
 30
0.0
 40
6.0
100
AcDbArc
 50
0.0
 51
90.0
  0
ARC
  5
75
100
AcDbEntity
  8
1
370
   100
100
AcDbCircle
 10
-51.706591
 20
-18.232788
 30
0.0
 40
6.0
100
AcDbArc
 50
180.0
 51
270.0
  0
ARC
  5
76
100
AcDbEntity
  8
1
370
   100
100
AcDbCircle
 10
-41.206591
 20
-18.232788
 30
0.0
 40
6.0
100
AcDbArc
 50
270.0
 51
360.0
  0
LINE
  5
77
100
AcDbEntity
  8
1
370
    25
100
AcDbLine
 10
-38.737964
 20
55.235839
 30
0.0
 11
-38.206591
 21
55.767212
 31
0.0
  0
LINE
  5
78
100
AcDbEntity
  8
1
370
    25
100
AcDbLine
 10
-37.426099
 20
54.426384
 30
0.0
 11
-36.085271
 21
55.767212
 31
0.0
  0
LINE
  5
79
100
AcDbEntity
  8
1
370
    25
100
AcDbLine
 10
-35.206591
 20
54.524572
 30
0.0
 11
-36.388372
 21
53.342791
 31
0.0
  0
LINE
  5
7A
100
AcDbEntity
  8
1
370
    25
100
AcDbLine
 10
-35.206591
 20
52.403251
 30
0.0
 11
-35.629621
 21
51.980221
 31
0.0
  0
LINE
  5
7B
100
AcDbEntity
  8
1
370
    25
100
AcDbLine
 10
-35.206591
 20
50.281931
 30
0.0
 11
-35.226988
 21
50.261534
 31
0.0
  0
LINE
  5
7C
100
AcDbEntity
  8
1
370
    25
100
AcDbLine
 10
-40.384498
 20
55.710626
 30
0.0
 11
-40.327911
 21
55.767212
 31
0.0
  0
LINE
  5
7D
100
AcDbEntity
  8
1
370
    25
100
AcDbLine
 10
-35.206591
 20
52.767212
 30
0.0
 11
-38.206591
 21
55.767212
 31
0.0
  0
LINE
  5
7E
100
AcDbEntity
  8
1
370
    25
100
AcDbLine
 10
-35.206591
 20
54.888533
 30
0.0
 11
-36.085271
 21
55.767212
 31
0.0
  0
LINE
  5
7F
100
AcDbEntity
  8
1
370
    25
100
AcDbLine
 10
-35.206591
 20
50.645892
 30
0.0
 11
-35.283113
 21
50.722414
 31
0.0
  0
LINE
  5
80
100
AcDbEntity
  8
1
370
    25
100
AcDbLine
 10
-40.251389
 20
55.69069
 30
0.0
 11
-40.327911
 21
55.767212
 31
0.0
  0
HATCH
  5
81
100
AcDbEntity
  8
1
370
    25
100
AcDbHatch
 10
0.0
 20
0.0
 30
0.0
210
0.0
220
0.0
230
1.0
  2
_U
 70
     0
 71
     1
 91
        1
 92
        1
 93
        3
 72
     1
 10
-57.706591000000003
 20
55.767212000000001
 11
-51.706591000000003
 21
55.767212000000001
 72
     2
 10
-51.706591000000003
 20
49.767212000000001
 40
6.0
 50
90.0
 51
180.0
 73
     1
 72
     1
 10
-57.706591000000003
 20
49.767212000000001
 11
-57.706591000000003
 21
55.767212000000001
 97
        3
330
0
330
0
330
0
 75
     0
 76
     0
 52
45.0
 41
1.0
 77
     0
 78
     2
 53
45.0
 43
0.0
 44
0.0
 45
-1.0606599999999999
 46
1.0606599999999999
 79
     0
 53
135.0
 43
0.0
 44
0.0
 45
-1.0606599999999999
 46
-1.0606599999999999
 79
     0
 98
        1
 10
0.0
 20
0.0
  0
LINE
  5
82
100
AcDbEntity
  8
1
370
    25
100
AcDbLine
 10
-38.206591
 20
-24.232788
 30
0.0
 11
-35.206591
 21
-21.232788
 31
0.0
  0
LINE
  5
83
100
AcDbEntity
  8
1
370
    25
100
AcDbLine
 10
-36.085271
 20
-24.232788
 30
0.0
 11
-35.206591
 21
-23.354108
 31
0.0
  0
LINE
  5
84
100
AcDbEntity
  8
1
370
    25
100
AcDbLine
 10
-40.327911
 20
-24.232788
 30
0.0
 11
-40.251389
 21
-24.156265
 31
0.0
  0
LINE
  5
85
100
AcDbEntity
  8
1
370
    25
100
AcDbLine
 10
-35.283113
 20
-19.187989
 30
0.0
 11
-35.206591
 21
-19.111467
 31
0.0
  0
LINE
  5
86
100
AcDbEntity
  8
1
370
    25
100
AcDbLine
 10
-35.737964
 20
-20.701415
 30
0.0
 11
-35.206591
 21
-21.232788
 31
0.0
  0
LINE
  5
87
100
AcDbEntity
  8
1
370
    25
100
AcDbLine
 10
-35.263178
 20
-19.054881
 30
0.0
 11
-35.206591
 21
-19.111467
 31
0.0
  0
LINE
  5
88
100
AcDbEntity
  8
1
370
    25
100
AcDbLine
 10
-36.547419
 20
-22.01328
 30
0.0
 11
-35.206591
 21
-23.354108
 31
0.0
  0
LINE
  5
89
100
AcDbEntity
  8
1
370
    25
100
AcDbLine
 10
-36.449232
 20
-24.232788
 30
0.0
 11
-37.631012
 21
-23.051007
 31
0.0
  0
LINE
  5
8A
100
AcDbEntity
  8
1
370
    25
100
AcDbLine
 10
-38.570552
 20
-24.232788
 30
0.0
 11
-38.993582
 21
-23.809757
 31
0.0
  0
LINE
  5
8B
100
AcDbEntity
  8
1
370
    25
100
AcDbLine
 10
-40.691872
 20
-24.232788
 30
0.0
 11
-40.71227
 21
-24.21239
 31
0.0
  0
HATCH
  5
8C
100
AcDbEntity
  8
1
370
    25
100
AcDbHatch
 10
0.0
 20
0.0
 30
0.0
210
0.0
220
0.0
230
1.0
  2
_U
 70
     0
 71
     1
 91
        1
 92
        1
 93
        3
 72
     1
 10
-57.706591000000003
 20
-24.232787999999999
 11
-57.706591000000003
 21
-18.232787999999999
 72
     2
 10
-51.706591000000003
 20
-18.232787999999999
 40
6.0
 50
180.0
 51
270.0
 73
     1
 72
     1
 10
-51.706591000000003
 20
-24.232787999999999
 11
-57.706591000000003
 21
-24.232787999999999
 97
        3
330
0
330
0
330
0
 75
     0
 76
     0
 52
45.0
 41
1.0
 77
     0
 78
     2
 53
45.0
 43
0.0
 44
0.0
 45
-1.0606599999999999
 46
1.0606599999999999
 79
     0
 53
135.0
 43
0.0
 44
0.0
 45
-1.0606599999999999
 46
-1.0606599999999999
 79
     0
 98
        1
 10
0.0
 20
0.0
  0
LINE
  5
8D
100
AcDbEntity
  8
1
370
    25
  6
CENTER
100
AcDbLine
 10
49.043409
 20
47.339703
 30
0.0
 11
49.043409
 21
-40.839134
 31
0.0
  0
LINE
  5
8E
100
AcDbEntity
  8
1
370
    25
  6
CENTER
100
AcDbLine
 10
60.543409
 20
-1.232788
 30
0.0
 11
60.543409
 21
28.767212
 31
0.0
  0
LINE
  5
8F
100
AcDbEntity
  8
1
370
    25
  6
CENTER
100
AcDbLine
 10
37.543409
 20
-1.232788
 30
0.0
 11
37.543409
 21
28.767212
 31
0.0
  0
LINE
  5
90
100
AcDbEntity
  8
1
370
    25
  6
CENTER
100
AcDbLine
 10
35.543409
 20
27.267212
 30
0.0
 11
62.543409
 21
27.267212
 31
0.0
  0
LINE
  5
91
100
AcDbEntity
  8
1
370
   100
100
AcDbLine
 10
37.543409
 20
3.267212
 30
0.0
 11
60.543409
 21
3.267212
 31
0.0
  0
LINE
  5
92
100
AcDbEntity
  8
1
370
    25
100
AcDbLine
 10
52.635643
 20
6.859446
 30
0.0
 11
49.043409
 21
3.267212
 31
0.0
  0
LINE
  5
93
100
AcDbEntity
  8
1
370
    25
100
AcDbLine
 10
49.043409
 20
3.267212
 30
0.0
 11
49.043409
 21
3.267212
 31
0.0
  0
LINE
  5
94
100
AcDbEntity
  8
1
370
    25
100
AcDbLine
 10
53.328784
 20
6.138374
 30
0.0
 11
50.457623
 21
3.267212
 31
0.0
  0
LINE
  5
95
100
AcDbEntity
  8
1
370
    25
100
AcDbLine
 10
50.457623
 20
3.267212
 30
0.0
 11
50.457623
 21
3.267212
 31
0.0
  0
LINE
  5
96
100
AcDbEntity
  8
1
370
    25
100
AcDbLine
 10
54.089501
 20
5.484877
 30
0.0
 11
51.871836
 21
3.267212
 31
0.0
  0
LINE
  5
97
100
AcDbEntity
  8
1
370
    25
100
AcDbLine
 10
51.871836
 20
3.267212
 30
0.0
 11
51.871836
 21
3.267212
 31
0.0
  0
LINE
  5
98
100
AcDbEntity
  8
1
370
    25
100
AcDbLine
 10
54.919295
 20
4.900458
 30
0.0
 11
53.28605
 21
3.267212
 31
0.0
  0
LINE
  5
99
100
AcDbEntity
  8
1
370
    25
100
AcDbLine
 10
53.28605
 20
3.267212
 30
0.0
 11
53.28605
 21
3.267212
 31
0.0
  0
LINE
  5
9A
100
AcDbEntity
  8
1
370
    25
100
AcDbLine
 10
55.82177
 20
4.38872
 30
0.0
 11
54.700263
 21
3.267212
 31
0.0
  0
LINE
  5
9B
100
AcDbEntity
  8
1
370
    25
100
AcDbLine
 10
54.700263
 20
3.267212
 30
0.0
 11
54.700263
 21
3.267212
 31
0.0
  0
LINE
  5
9C
100
AcDbEntity
  8
1
370
    25
100
AcDbLine
 10
56.803212
 20
3.955947
 30
0.0
 11
56.114477
 21
3.267212
 31
0.0
  0
LINE
  5
9D
100
AcDbEntity
  8
1
370
    25
100
AcDbLine
 10
56.114477
 20
3.267212
 30
0.0
 11
56.114477
 21
3.267212
 31
0.0
  0
LINE
  5
9E
100
AcDbEntity
  8
1
370
    25
100
AcDbLine
 10
57.873746
 20
3.612268
 30
0.0
 11
57.52869
 21
3.267212
 31
0.0
  0
LINE
  5
9F
100
AcDbEntity
  8
1
370
    25
100
AcDbLine
 10
57.52869
 20
3.267212
 30
0.0
 11
57.52869
 21
3.267212
 31
0.0
  0
LINE
  5
A0
100
AcDbEntity
  8
1
370
    25
100
AcDbLine
 10
59.049694
 20
3.374002
 30
0.0
 11
58.942904
 21
3.267212
 31
0.0
  0
LINE
  5
A1
100
AcDbEntity
  8
1
370
    25
100
AcDbLine
 10
58.942904
 20
3.267212
 30
0.0
 11
58.942904
 21
3.267212
 31
0.0
  0
LINE
  5
A2
100
AcDbEntity
  8
1
370
    25
100
AcDbLine
 10
60.358742
 20
3.268836
 30
0.0
 11
60.357117
 21
3.267212
 31
0.0
  0
LINE
  5
A3
100
AcDbEntity
  8
1
370
    25
100
AcDbLine
 10
60.357117
 20
3.267212
 30
0.0
 11
60.357117
 21
3.267212
 31
0.0
  0
LINE
  5
A4
100
AcDbEntity
  8
1
370
    25
100
AcDbLine
 10
52.010465
 20
7.648482
 30
0.0
 11
47.629195
 21
3.267212
 31
0.0
  0
LINE
  5
A5
100
AcDbEntity
  8
1
370
    25
100
AcDbLine
 10
47.629195
 20
3.267212
 30
0.0
 11
47.629195
 21
3.267212
 31
0.0
  0
LINE
  5
A6
100
AcDbEntity
  8
1
370
    25
100
AcDbLine
 10
51.455578
 20
8.507809
 30
0.0
 11
46.214982
 21
3.267212
 31
0.0
  0
LINE
  5
A7
100
AcDbEntity
  8
1
370
    25
100
AcDbLine
 10
46.214982
 20
3.267212
 30
0.0
 11
46.214982
 21
3.267212
 31
0.0
  0
LINE
  5
A8
100
AcDbEntity
  8
1
370
    25
100
AcDbLine
 10
50.975602
 20
9.442046
 30
0.0
 11
44.800768
 21
3.267212
 31
0.0
  0
LINE
  5
A9
100
AcDbEntity
  8
1
370
    25
100
AcDbLine
 10
44.800768
 20
3.267212
 30
0.0
 11
44.800768
 21
3.267212
 31
0.0
  0
LINE
  5
AA
100
AcDbEntity
  8
1
370
    25
100
AcDbLine
 10
50.578223
 20
10.45888
 30
0.0
 11
43.386555
 21
3.267212
 31
0.0
  0
LINE
  5
AB
100
AcDbEntity
  8
1
370
    25
100
AcDbLine
 10
43.386555
 20
3.267212
 30
0.0
 11
43.386555
 21
3.267212
 31
0.0
  0
LINE
  5
AC
100
AcDbEntity
  8
1
370
    25
100
AcDbLine
 10
50.275743
 20
11.570615
 30
0.0
 11
41.972341
 21
3.267212
 31
0.0
  0
LINE
  5
AD
100
AcDbEntity
  8
1
370
    25
100
AcDbLine
 10
41.972341
 20
3.267212
 30
0.0
 11
41.972341
 21
3.267212
 31
0.0
  0
LINE
  5
AE
100
AcDbEntity
  8
1
370
    25
100
AcDbLine
 10
50.088294
 20
12.797379
 30
0.0
 11
47.376983
 21
10.086067
 31
0.0
  0
LINE
  5
AF
100
AcDbEntity
  8
1
370
    25
100
AcDbLine
 10
41.224554
 20
3.933639
 30
0.0
 11
40.558128
 21
3.267212
 31
0.0
  0
LINE
  5
B0
100
AcDbEntity
  8
1
370
    25
100
AcDbLine
 10
40.558128
 20
3.267212
 30
0.0
 11
40.558128
 21
3.267212
 31
0.0
  0
LINE
  5
B1
100
AcDbEntity
  8
1
370
    25
100
AcDbLine
 10
50.051316
 20
14.174614
 30
0.0
 11
47.897084
 21
12.020382
 31
0.0
  0
LINE
  5
B2
100
AcDbEntity
  8
1
370
    25
100
AcDbLine
 10
39.290239
 20
3.413537
 30
0.0
 11
39.143914
 21
3.267212
 31
0.0
  0
LINE
  5
B3
100
AcDbEntity
  8
1
370
    25
100
AcDbLine
 10
39.143914
 20
3.267212
 30
0.0
 11
39.143914
 21
3.267212
 31
0.0
  0
LINE
  5
B4
100
AcDbEntity
  8
1
370
    25
100
AcDbLine
 10
50.237079
 20
15.774591
 30
0.0
 11
48.041726
 21
13.579238
 31
0.0
  0
LINE
  5
B5
100
AcDbEntity
  8
1
370
    25
100
AcDbLine
 10
37.731383
 20
3.268895
 30
0.0
 11
37.7297
 21
3.267212
 31
0.0
  0
LINE
  5
B6
100
AcDbEntity
  8
1
370
    25
100
AcDbLine
 10
37.7297
 20
3.267212
 30
0.0
 11
37.7297
 21
3.267212
 31
0.0
  0
LINE
  5
B7
100
AcDbEntity
  8
1
370
    25
100
AcDbLine
 10
47.978771
 20
14.930496
 30
0.0
 11
49.846223
 21
16.797948
 31
0.0
  0
LINE
  5
B8
100
AcDbEntity
  8
1
370
    25
100
AcDbLine
 10
47.772221
 20
16.138161
 30
0.0
 11
48.419808
 21
16.785747
 31
0.0
  0
ARC
  5
B9
100
AcDbEntity
  8
1
370
   100
100
AcDbCircle
 10
49.043409
 20
27.267212
 30
0.0
 40
10.5
100
AcDbArc
 50
197.190532
 51
261.957311
  0
ARC
  5
BA
100
AcDbEntity
  8
1
370
   100
100
AcDbCircle
 10
37.543409
 20
13.767212
 30
0.0
 40
10.5
100
AcDbArc
 50
81.957311
 51
17.190532
  0
ARC
  5
BB
100
AcDbEntity
  8
1
370
   100
100
AcDbCircle
 10
37.543409
 20
13.767212
 30
0.0
 40
10.5
100
AcDbArc
 50
17.190532
 51
81.957311
  0
ARC
  5
BC
100
AcDbEntity
  8
1
370
   100
100
AcDbCircle
 10
49.043409
 20
27.267212
 30
0.0
 40
10.5
100
AcDbArc
 50
261.957311
 51
278.042689
  0
ARC
  5
BD
100
AcDbEntity
  8
1
370
   100
100
AcDbCircle
 10
60.543409
 20
13.767212
 30
0.0
 40
10.5
100
AcDbArc
 50
162.809468
 51
98.042689
  0
ARC
  5
BE
100
AcDbEntity
  8
1
370
   100
100
AcDbCircle
 10
60.543409
 20
13.767212
 30
0.0
 40
10.5
100
AcDbArc
 50
98.042689
 51
162.809468
  0
ARC
  5
BF
100
AcDbEntity
  8
1
370
   100
100
AcDbCircle
 10
49.043409
 20
27.267212
 30
0.0
 40
10.5
100
AcDbArc
 50
278.042689
 51
342.809468
  0
ARC
  5
C0
100
AcDbEntity
  8
1
370
   100
100
AcDbCircle
 10
49.043409
 20
27.267212
 30
0.0
 40
10.5
100
AcDbArc
 50
342.809468
 51
197.190532
  0
LINE
  5
C1
100
AcDbEntity
  8
1
370
    25
100
AcDbLine
 10
40.199415
 20
32.92705
 30
0.0
 11
67.352307
 21
5.774158
 31
0.0
  0
LINE
  5
C2
100
AcDbEntity
  8
1
370
    25
100
AcDbLine
 10
40.786747
 20
33.753932
 30
0.0
 11
68.082168
 21
6.458511
 31
0.0
  0
LINE
  5
C3
100
AcDbEntity
  8
1
370
    25
100
AcDbLine
 10
41.443054
 20
34.511838
 30
0.0
 11
68.744507
 21
7.210385
 31
0.0
  0
LINE
  5
C4
100
AcDbEntity
  8
1
370
    25
100
AcDbLine
 10
42.166917
 20
35.202189
 30
0.0
 11
69.338077
 21
8.031028
 31
0.0
  0
LINE
  5
C5
100
AcDbEntity
  8
1
370
    25
100
AcDbLine
 10
42.958799
 20
35.82452
 30
0.0
 11
69.85957
 21
8.923749
 31
0.0
  0
LINE
  5
C6
100
AcDbEntity
  8
1
370
    25
100
AcDbLine
 10
43.821114
 20
36.376419
 30
0.0
 11
70.3031
 21
9.894433
 31
0.0
  0
LINE
  5
C7
100
AcDbEntity
  8
1
370
    25
100
AcDbLine
 10
44.75859
 20
36.853157
 30
0.0
 11
70.659139
 21
10.952607
 31
0.0
  0
LINE
  5
C8
100
AcDbEntity
  8
1
370
    25
100
AcDbLine
 10
45.779065
 20
37.246895
 30
0.0
 11
70.912378
 21
12.113583
 31
0.0
  0
LINE
  5
C9
100
AcDbEntity
  8
1
370
    25
100
AcDbLine
 10
46.895087
 20
37.545087
 30
0.0
 11
59.321284
 21
25.11889
 31
0.0
  0
LINE
  5
CA
100
AcDbEntity
  8
1
370
    25
100
AcDbLine
 10
60.179277
 20
24.260897
 30
0.0
 11
71.037093
 21
13.403081
 31
0.0
  0
LINE
  5
CB
100
AcDbEntity
  8
1
370
    25
100
AcDbLine
 10
48.127223
 20
37.727165
 30
0.0
 11
59.503361
 21
26.351026
 31
0.0
  0
LINE
  5
CC
100
AcDbEntity
  8
1
370
    25
100
AcDbLine
 10
61.645135
 20
24.209252
 30
0.0
 11
70.985449
 21
14.868938
 31
0.0
  0
LINE
  5
CD
100
AcDbEntity
  8
1
370
    25
100
AcDbLine
 10
49.511843
 20
37.756758
 30
0.0
 11
59.532955
 21
27.735646
 31
0.0
  0
LINE
  5
CE
100
AcDbEntity
  8
1
370
    25
100
AcDbLine
 10
63.396424
 20
23.872177
 30
0.0
 11
70.648373
 21
16.620228
 31
0.0
  0
LINE
  5
CF
100
AcDbEntity
  8
1
370
    25
100
AcDbLine
 10
51.123752
 20
37.559062
 30
0.0
 11
59.335259
 21
29.347556
 31
0.0
  0
LINE
  5
D0
100
AcDbEntity
  8
1
370
    25
100
AcDbLine
 10
65.862686
 20
22.820129
 30
0.0
 11
69.596325
 21
19.086489
 31
0.0
  0
LINE
  5
D1
100
AcDbEntity
  8
1
370
    25
100
AcDbLine
 10
53.178216
 20
36.918812
 30
0.0
 11
58.695008
 21
31.40202
 31
0.0
  0
LINE
  5
D2
100
AcDbEntity
  8
1
370
    25
100
AcDbLine
 10
39.684568
 20
32.027684
 30
0.0
 11
66.554294
 21
5.157958
 31
0.0
  0
LINE
  5
D3
100
AcDbEntity
  8
1
370
    25
100
AcDbLine
 10
39.248361
 20
31.049677
 30
0.0
 11
65.685529
 21
4.612509
 31
0.0
  0
LINE
  5
D4
100
AcDbEntity
  8
1
370
    25
100
AcDbLine
 10
38.900728
 20
29.983096
 30
0.0
 11
64.74105
 21
4.142774
 31
0.0
  0
LINE
  5
D5
100
AcDbEntity
  8
1
370
    25
100
AcDbLine
 10
38.65766
 20
28.811951
 30
0.0
 11
63.71268
 21
3.756931
 31
0.0
  0
LINE
  5
D6
100
AcDbEntity
  8
1
370
    25
100
AcDbLine
 10
38.546198
 20
27.5092
 30
0.0
 11
49.285396
 21
16.770001
 31
0.0
  0
LINE
  5
D7
100
AcDbEntity
  8
1
370
    25
100
AcDbLine
 10
50.244264
 20
15.811133
 30
0.0
 11
62.58733
 21
3.468067
 31
0.0
  0
LINE
  5
D8
100
AcDbEntity
  8
1
370
    25
100
AcDbLine
 10
38.617279
 20
26.023905
 30
0.0
 11
47.800101
 21
16.841082
 31
0.0
  0
LINE
  5
D9
100
AcDbEntity
  8
1
370
    25
100
AcDbLine
 10
50.073933
 20
14.567251
 30
0.0
 11
61.343448
 21
3.297736
 31
0.0
  0
LINE
  5
DA
100
AcDbEntity
  8
1
370
    25
100
AcDbLine
 10
38.990242
 20
24.236728
 30
0.0
 11
47.931612
 21
15.295358
 31
0.0
  0
LINE
  5
DB
100
AcDbEntity
  8
1
370
    25
100
AcDbLine
 10
50.060615
 20
13.166355
 30
0.0
 11
59.942552
 21
3.284418
 31
0.0
  0
LINE
  5
DC
100
AcDbEntity
  8
1
370
    25
100
AcDbLine
 10
37.545545
 20
24.267212
 30
0.0
 11
48.043409
 21
13.769348
 31
0.0
  0
LINE
  5
DD
100
AcDbEntity
  8
1
370
    25
100
AcDbLine
 10
50.285007
 20
11.527749
 30
0.0
 11
58.303946
 21
3.508811
 31
0.0
  0
LINE
  5
DE
100
AcDbEntity
  8
1
370
    25
100
AcDbLine
 10
36.215622
 20
24.182921
 30
0.0
 11
47.959117
 21
12.439426
 31
0.0
  0
LINE
  5
DF
100
AcDbEntity
  8
1
370
    25
100
AcDbLine
 10
50.991504
 20
9.407039
 30
0.0
 11
56.183236
 21
4.215307
 31
0.0
  0
LINE
  5
E0
100
AcDbEntity
  8
1
370
    25
100
AcDbLine
 10
35.023884
 20
23.960445
 30
0.0
 11
47.736642
 21
11.247688
 31
0.0
  0
LINE
  5
E1
100
AcDbEntity
  8
1
370
    25
100
AcDbLine
 10
33.940424
 20
23.629692
 30
0.0
 11
47.405888
 21
10.164228
 31
0.0
  0
LINE
  5
E2
100
AcDbEntity
  8
1
370
    25
100
AcDbLine
 10
32.947801
 20
23.208102
 30
0.0
 11
46.984298
 21
9.171604
 31
0.0
  0
LINE
  5
E3
100
AcDbEntity
  8
1
370
    25
100
AcDbLine
 10
32.035236
 20
22.706453
 30
0.0
 11
46.48265
 21
8.259039
 31
0.0
  0
LINE
  5
E4
100
AcDbEntity
  8
1
370
    25
100
AcDbLine
 10
31.196017
 20
22.131459
 30
0.0
 11
45.907655
 21
7.41982
 31
0.0
  0
LINE
  5
E5
100
AcDbEntity
  8
1
370
    25
100
AcDbLine
 10
30.426225
 20
21.487037
 30
0.0
 11
45.263234
 21
6.650028
 31
0.0
  0
LINE
  5
E6
100
AcDbEntity
  8
1
370
    25
100
AcDbLine
 10
29.724098
 20
20.77495
 30
0.0
 11
44.551146
 21
5.947902
 31
0.0
  0
LINE
  5
E7
100
AcDbEntity
  8
1
370
    25
100
AcDbLine
 10
29.089775
 20
19.995059
 30
0.0
 11
43.771256
 21
5.313579
 31
0.0
  0
LINE
  5
E8
100
AcDbEntity
  8
1
370
    25
100
AcDbLine
 10
28.525312
 20
19.145309
 30
0.0
 11
42.921506
 21
4.749115
 31
0.0
  0
LINE
  5
E9
100
AcDbEntity
  8
1
370
    25
100
AcDbLine
 10
28.034989
 20
18.221418
 30
0.0
 11
41.997615
 21
4.258793
 31
0.0
  0
LINE
  5
EA
100
AcDbEntity
  8
1
370
    25
100
AcDbLine
 10
27.626018
 20
17.216176
 30
0.0
 11
40.992373
 21
3.849821
 31
0.0
  0
LINE
  5
EB
100
AcDbEntity
  8
1
370
    25
100
AcDbLine
 10
27.309951
 20
16.118029
 30
0.0
 11
39.894226
 21
3.533755
 31
0.0
  0
LINE
  5
EC
100
AcDbEntity
  8
1
370
    25
100
AcDbLine
 10
27.105584
 20
14.908183
 30
0.0
 11
38.684379
 21
3.329388
 31
0.0
  0
LINE
  5
ED
100
AcDbEntity
  8
1
370
    25
100
AcDbLine
 10
27.045574
 20
13.553979
 30
0.0
 11
37.330176
 21
3.269378
 31
0.0
  0
LINE
  5
EE
100
AcDbEntity
  8
1
370
    25
100
AcDbLine
 10
27.194816
 20
11.990524
 30
0.0
 11
35.76672
 21
3.418619
 31
0.0
  0
LINE
  5
EF
100
AcDbEntity
  8
1
370
    25
100
AcDbLine
 10
27.724806
 20
10.04632
 30
0.0
 11
33.822516
 21
3.94861
 31
0.0
  0
CIRCLE
  5
F0
100
AcDbEntity
  8
1
370
    25
  6
PHANTOM
100
AcDbCircle
 10
49.043409
 20
13.767212
 30
0.0
 40
28.0
  0
TEXT
  5
F1
100
AcDbEntity
  8
2
370
    18
100
AcDbText
 10
-47.906066
 20
71.940629
 30
0.0
 40
3.2
  1
扉
 72
     5
 11
-45.346066
 21
71.940629
 31
0.0
100
AcDbText
  0
TEXT
  5
F2
100
AcDbEntity
  8
2
370
    18
100
AcDbText
 10
-47.906066
 20
68.240629
 30
0.0
 40
3.2
  1
厚
 72
     5
 11
-45.346066
 21
68.240629
 31
0.0
100
AcDbText
  0
TEXT
  5
F3
100
AcDbEntity
  8
2
370
    18
100
AcDbText
 10
-47.906066
 20
64.540628
 30
0.0
 40
3.2
  1
中
 72
     5
 11
-45.346066
 21
64.540628
 31
0.0
100
AcDbText
  0
TEXT
  5
F4
100
AcDbEntity
  8
2
370
    18
100
AcDbText
 10
-47.906066
 20
60.840628
 30
0.0
 40
3.2
  1
心
 72
     5
 11
-45.346066
 21
60.840628
 31
0.0
100
AcDbText
  0
DIMENSION
  5
F5
100
AcDbEntity
  8
2
370
    25
100
AcDbDimension
  2
*D0
 10
-69.928795
 20
55.767212
 30
0.0
 11
-74.428795
 21
15.767212
 31
0.0
 71
     0
 72
     0
 41
0.0
 42
0.0
  3
Standard
100
AcDbAlignedDimension
 13
-57.706591
 23
-24.232788
 33
0.0
 14
-57.706591
 24
55.767212
 34
0.0
 50
90.0
100
AcDbRotatedDimension
  0
DIMENSION
  5
F6
100
AcDbEntity
  8
2
370
    25
100
AcDbDimension
  2
*D1
 10
-62.902065
 20
31.767212
 30
0.0
 11
-67.402065
 21
15.767212
 31
0.0
 71
     0
 72
     0
 41
0.0
 42
0.0
  3
Standard
100
AcDbAlignedDimension
 13
-58.456591
 23
-0.232788
 33
0.0
 14
-58.456591
 24
31.767212
 34
0.0
 50
90.0
100
AcDbRotatedDimension
  0
DIMENSION
  5
F7
100
AcDbEntity
  8
2
370
    25
100
AcDbDimension
  2
*D2
 10
-15.799553
 20
15.767212
 30
0.0
 11
-18.299553
 21
23.767212
 31
0.0
 71
     0
 72
     0
 41
0.0
 42
0.0
  3
Standard
100
AcDbAlignedDimension
 13
-15.799553
 23
13.767212
 33
0.0
 14
-15.799553
 24
15.767212
 34
0.0
 50
90.0
100
AcDbRotatedDimension
  0
DIMENSION
  5
F8
100
AcDbEntity
  8
2
370
    25
100
AcDbDimension
  2
*D3
 10
-35.206591
 20
-36.53661
 30
0.0
 11
-46.456591
 21
-34.03661
 31
0.0
 71
     0
 72
     0
 41
0.0
 42
0.0
  3
Standard
100
AcDbAlignedDimension
 13
-57.706591
 23
-24.232788
 33
0.0
 14
-35.206591
 24
-24.232788
 34
0.0
100
AcDbRotatedDimension
  0
LWPOLYLINE
  5
F9
100
AcDbEntity
  8
2
370
    25
100
AcDbPolyline
 90
        3
 70
     0
 10
-39.946436
 20
37.981541
 10
-30.014347
 20
47.462307
 10
-7.014347
 20
47.462307
  0
LINE
  5
FE
100
AcDbEntity
  8
2
370
    25
100
AcDbLine
 10
-38.906449
 20
39.689881
 30
0.0
 11
-39.946436
 21
37.981541
 31
0.0
  0
LINE
  5
FF
100
AcDbEntity
  8
2
370
    25
100
AcDbLine
 10
-39.946436
 20
37.981541
 30
0.0
 11
-38.19161
 21
38.941014
 31
0.0
  0
TEXT
  5
100
100
AcDbEntity
  8
2
370
    18
100
AcDbText
 10
-20.014347
 20
47.962307
 30
0.0
 40
4.0
  1
φ１８
 72
     5
 11
-8.814347
 21
47.962307
 31
0.0
100
AcDbText
  0
TEXT
  5
101
100
AcDbEntity
  8
2
370
    18
100
AcDbText
 10
-28.014347
 20
47.962307
 30
0.0
 40
4.0
  1
３－
 72
     5
 11
-20.814347
 21
47.962307
 31
0.0
100
AcDbText
  0
DIMENSION
  5
102
100
AcDbEntity
  8
2
370
    25
100
AcDbDimension
  2
*D4
 10
1.643409
 20
-30.342154
 30
0.0
 11
9.643409
 21
-27.842154
 31
0.0
 71
     0
 72
     0
 41
0.0
 42
0.0
  3
Standard
100
AcDbAlignedDimension
 13
-1.956591
 23
-30.342154
 33
0.0
 14
1.643409
 24
-24.232788
 34
0.0
100
AcDbRotatedDimension
  0
TEXT
  5
103
100
AcDbEntity
  8
2
370
    18
100
AcDbText
 10
7.543409
 20
-36.869221
 30
0.0
 40
4.0
  1
バックセット
 72
     5
 11
30.743409
 21
-36.869221
 31
0.0
100
AcDbText
  0
DIMENSION
  5
104
100
AcDbEntity
  8
2
370
    25
100
AcDbDimension
  2
*D5
 10
49.043409
 20
-37.369221
 30
0.0
 11
35.543409
 21
-34.869221
 31
0.0
 71
     0
 72
     0
 41
0.0
 42
0.0
  3
Standard
100
AcDbAlignedDimension
 13
-1.956591
 23
-37.369221
 33
0.0
 14
49.043409
 24
-37.369221
 34
0.0
100
AcDbRotatedDimension
  0
DIMENSION
  5
105
100
AcDbEntity
  8
2
370
    25
100
AcDbDimension
  2
*D6
 10
73.043409
 20
-46.534973
 30
0.0
 11
35.543409
 21
-44.034973
 31
0.0
 71
     0
 72
     0
 41
0.0
 42
0.0
  3
Standard
100
AcDbAlignedDimension
 13
-1.956591
 23
-39.232788
 33
0.0
 14
73.043409
 24
-9.232788
 34
0.0
100
AcDbRotatedDimension
  0
TEXT
  5
106
100
AcDbEntity
  8
2
370
    18
100
AcDbText
 10
-29.585056
 20
64.817047
 30
0.0
 40
4.0
  1
角又は６Ｒ
 72
     5
 11
-10.385056
 21
64.817047
 31
0.0
100
AcDbText
  0
LWPOLYLINE
  5
107
100
AcDbEntity
  8
2
370
    25
100
AcDbPolyline
 90
        3
 70
     0
 10
-35.206591
 20
55.767212
 10
-29.585056
 20
64.817047
 10
-9.585056
 20
64.817047
  0
LINE
  5
10C
100
AcDbEntity
  8
2
370
    25
100
AcDbLine
 10
-34.626939
 20
57.681371
 30
0.0
 11
-35.206591
 21
55.767212
 31
0.0
  0
LINE
  5
10D
100
AcDbEntity
  8
2
370
    25
100
AcDbLine
 10
-35.206591
 20
55.767212
 30
0.0
 11
-33.747518
 21
57.135097
 31
0.0
  0
TEXT
  5
10E
100
AcDbEntity
  8
2
370
    18
100
AcDbText
 10
16.846788
 20
-16.632091
 30
0.0
 40
3.2
  1
ノミ加工
 72
     5
 11
29.006788
 21
-16.632091
 31
0.0
100
AcDbText
  0
LWPOLYLINE
  5
10F
100
AcDbEntity
  8
2
370
    25
100
AcDbPolyline
 90
        3
 70
     0
 10
47.038164
 20
4.722946
 10
29.729036
 20
-17.181274
 10
15.650499
 20
-17.181274
  0
LINE
  5
114
100
AcDbEntity
  8
2
370
    25
100
AcDbLine
 10
46.246545
 20
2.886281
 30
0.0
 11
47.038164
 21
4.722946
 31
0.0
  0
LINE
  5
115
100
AcDbEntity
  8
2
370
    25
100
AcDbLine
 10
47.038164
 20
4.722946
 30
0.0
 11
45.434269
 21
3.528156
 31
0.0
  0
POINT
  5
116
100
AcDbEntity
  8
2
370
    50
100
AcDbPoint
 10
32.9259
 20
56.260735
 30
0.0
  0
LWPOLYLINE
  5
117
100
AcDbEntity
  8
2
370
    25
100
AcDbPolyline
 90
        3
 70
     0
 10
43.941741
 20
36.44452
 10
32.9259
 20
56.260735
 10
77.19455
 20
56.260735
  0
LINE
  5
11C
100
AcDbEntity
  8
2
370
    25
100
AcDbLine
 10
42.550675
 20
37.881509
 30
0.0
 11
43.941741
 21
36.44452
 31
0.0
  0
LINE
  5
11D
100
AcDbEntity
  8
2
370
    25
100
AcDbLine
 10
43.941741
 20
36.44452
 30
0.0
 11
43.455536
 21
38.384522
 31
0.0
  0
DIMENSION
  5
11E
100
AcDbEntity
  8
2
370
    25
100
AcDbDimension
  2
*D7
 10
83.63414
 20
27.267212
 30
0.0
 11
75.13414
 21
33.267212
 31
0.0
 71
     0
 72
     0
 41
0.0
 42
0.0
  3
Standard
100
AcDbAlignedDimension
 13
71.543409
 23
13.767212
 33
0.0
 14
62.543409
 24
27.267212
 34
0.0
 50
90.0
100
AcDbRotatedDimension
  0
DIMENSION
  5
11F
100
AcDbEntity
  8
2
370
    25
100
AcDbDimension
  2
*D8
 10
60.543409
 20
-23.472845
 30
0.0
 11
49.043409
 21
-20.972845
 31
0.0
 71
     0
 72
     0
 41
0.0
 42
0.0
  3
Standard
100
AcDbAlignedDimension
 13
37.543409
 23
-1.232788
 33
0.0
 14
60.543409
 24
-1.232788
 34
0.0
100
AcDbRotatedDimension
  0
LWPOLYLINE
  5
120
100
AcDbEntity
  8
2
370
    25
100
AcDbPolyline
 90
        3
 70
     0
 10
34.723817
 20
23.881554
 10
27.474857
 20
49.884773
 10
4.474857
 20
49.884773
  0
LINE
  5
125
100
AcDbEntity
  8
2
370
    25
100
AcDbLine
 10
33.706427
 20
25.603447
 30
0.0
 11
34.723817
 21
23.881554
 31
0.0
  0
LINE
  5
126
100
AcDbEntity
  8
2
370
    25
100
AcDbLine
 10
34.723817
 20
23.881554
 30
0.0
 11
34.703678
 21
25.881452
 31
0.0
  0
TEXT
  5
127
100
AcDbEntity
  8
2
370
    18
100
AcDbText
 10
13.474857
 20
50.384773
 30
0.0
 40
4.0
  1
φ２１
 72
     5
 11
24.674857
 21
50.384773
 31
0.0
100
AcDbText
  0
TEXT
  5
128
100
AcDbEntity
  8
2
370
    18
100
AcDbText
 10
5.474857
 20
50.384773
 30
0.0
 40
4.0
  1
３－
 72
     5
 11
12.674857
 21
50.384773
 31
0.0
100
AcDbText
  0
TEXT
  5
129
100
AcDbEntity
  8
2
370
    25
100
AcDbText
 10
32.9259
 20
56.760735
 30
0.0
 40
3.5
  1
空錠の時は必要ありません。
 72
     5
 11
77.7259
 21
56.760735
 31
0.0
100
AcDbText
  0
LINE
  5
12A
100
AcDbEntity
  8
3
370
   100
100
AcDbLine
 10
-80.0
 20
138.0
 30
0.0
 11
-80.0
 21
-138.0
 31
0.0
  0
LINE
  5
12B
100
AcDbEntity
  8
3
370
   100
100
AcDbLine
 10
98.0
 20
-138.0
 30
0.0
 11
98.0
 21
138.0
 31
0.0
  0
LINE
  5
12C
100
AcDbEntity
  8
3
370
   100
100
AcDbLine
 10
-80.0
 20
-138.0
 30
0.0
 11
98.0
 21
-138.0
 31
0.0
  0
LINE
  5
12D
100
AcDbEntity
  8
3
370
   100
100
AcDbLine
 10
98.0
 20
138.0
 30
0.0
 11
-80.0
 21
138.0
 31
0.0
  0
LINE
  5
12E
100
AcDbEntity
  8
3
370
   100
100
AcDbLine
 10
-80.0
 20
138.3
 30
0.0
 11
98.3
 21
138.3
 31
0.0
  0
LINE
  5
12F
100
AcDbEntity
  8
3
370
   100
100
AcDbLine
 10
98.3
 20
138.3
 30
0.0
 11
98.3
 21
-138.3
 31
0.0
  0
LINE
  5
130
100
AcDbEntity
  8
3
370
   100
100
AcDbLine
 10
98.3
 20
-138.3
 30
0.0
 11
-80.3
 21
-138.3
 31
0.0
  0
LINE
  5
131
100
AcDbEntity
  8
3
370
   100
100
AcDbLine
 10
-80.3
 20
-138.3
 30
0.0
 11
-80.3
 21
138.0
 31
0.0
  0
LINE
  5
132
100
AcDbEntity
  8
3
370
    50
100
AcDbLine
 10
-80.0
 20
-108.0
 30
0.0
 11
98.0
 21
-108.0
 31
0.0
  0
LINE
  5
133
100
AcDbEntity
  8
3
370
    50
100
AcDbLine
 10
-2.0
 20
-108.0
 30
0.0
 11
-2.0
 21
-138.0
 31
0.0
  0
TEXT
  5
134
100
AcDbEntity
  8
3
370
    25
100
AcDbText
 10
-75.0
 20
-112.5
 30
0.0
 40
4.0
  1
図  法
 72
     5
 11
-59.8
 21
-112.5
 31
0.0
100
AcDbText
  0
TEXT
  5
135
100
AcDbEntity
  8
3
370
    25
100
AcDbText
 10
-49.0
 20
-112.5
 30
0.0
 40
4.0
  1
単  位
 72
     5
 11
-33.8
 21
-112.5
 31
0.0
100
AcDbText
  0
TEXT
  5
136
100
AcDbEntity
  8
3
370
    25
100
AcDbText
 10
-23.0
 20
-112.5
 30
0.0
 40
4.0
  1
尺  度
 72
     5
 11
-7.8
 21
-112.5
 31
0.0
100
AcDbText
  0
TEXT
  5
137
100
AcDbEntity
  8
3
370
   100
100
AcDbText
 10
-69.0
 20
-135.5
 30
0.0
 40
8.0
  1
（株）川口技研
 72
     5
 11
-14.6
 21
-135.5
 31
0.0
100
AcDbText
  0
TEXT
  5
138
100
AcDbEntity
  8
3
370
    25
100
AcDbText
 10
0.0
 20
-112.5
 30
0.0
 40
4.0
  1
図面名称
 72
     5
 11
15.2
 21
-112.5
 31
0.0
100
AcDbText
  0
TEXT
  5
139
100
AcDbEntity
  8
3
370
    25
100
AcDbText
 10
0.0
 20
-129.5
 30
0.0
 40
4.0
  1
図面番号
 72
     5
 11
15.2
 21
-129.5
 31
0.0
100
AcDbText
  0
LINE
  5
13A
100
AcDbEntity
  8
3
370
    25
100
AcDbLine
 10
-80.0
 20
-113.0
 30
0.0
 11
18.0
 21
-113.0
 31
0.0
  0
LINE
  5
13B
100
AcDbEntity
  8
3
370
    25
100
AcDbLine
 10
18.0
 20
-108.0
 30
0.0
 11
18.0
 21
-113.0
 31
0.0
  0
LINE
  5
13C
100
AcDbEntity
  8
3
370
    25
100
AcDbLine
 10
-2.0
 20
-130.0
 30
0.0
 11
18.0
 21
-130.0
 31
0.0
  0
LINE
  5
13D
100
AcDbEntity
  8
3
370
    25
100
AcDbLine
 10
18.0
 20
-125.0
 30
0.0
 11
18.0
 21
-130.0
 31
0.0
  0
TEXT
  5
13E
100
AcDbEntity
  8
3
370
    25
100
AcDbText
 10
-46.0
 20
-121.5
 30
0.0
 40
5.0
  1
ｍｍ
 72
     5
 11
-37.0
 21
-121.5
 31
0.0
100
AcDbText
  0
TEXT
  5
13F
100
AcDbEntity
  8
3
370
    25
100
AcDbText
 10
-21.0
 20
-121.5
 30
0.0
 40
4.0
  1
１／１
 72
     5
 11
-9.8
 21
-121.5
 31
0.0
100
AcDbText
  0
TEXT
  5
140
100
AcDbEntity
  8
3
370
    25
100
AcDbText
 10
-73.0
 20
-121.5
 30
0.0
 40
4.0
  1
３角法
 72
     5
 11
-61.8
 21
-121.5
 31
0.0
100
AcDbText
  0
LINE
  5
141
100
AcDbEntity
  8
3
370
    50
100
AcDbLine
 10
-80.0
 20
-125.0
 30
0.0
 11
-2.0
 21
-125.0
 31
0.0
  0
LINE
  5
142
100
AcDbEntity
  8
3
370
    50
100
AcDbLine
 10
-2.0
 20
-125.0
 30
0.0
 11
98.0
 21
-125.0
 31
0.0
  0
LINE
  5
143
100
AcDbEntity
  8
3
370
    50
100
AcDbLine
 10
-54.0
 20
-125.0
 30
0.0
 11
-54.0
 21
-108.0
 31
0.0
  0
LINE
  5
144
100
AcDbEntity
  8
3
370
    50
100
AcDbLine
 10
-28.0
 20
-125.0
 30
0.0
 11
-28.0
 21
-108.0
 31
0.0
  0
TEXT
  5
145
100
AcDbEntity
  8
3
370
    50
100
AcDbText
 10
30.285025
 20
-114.775894
 30
0.0
 40
5.0
  1
ＬＳミニケース錠
 72
     5
 11
69.285025
 21
-114.775894
 31
0.0
100
AcDbText
  0
TEXT
  5
146
100
AcDbEntity
  8
3
370
    50
100
AcDbText
 10
30.235214
 20
-121.793556
 30
0.0
 40
5.0
  1
Ｋレバー　切欠図
 72
     5
 11
69.235214
 21
-121.793556
 31
0.0
100
AcDbText
  0
TEXT
  5
147
100
AcDbEntity
  8
3
370
   100
100
AcDbText
 10
28.421455
 20
-134.545471
 30
0.0
 40
6.0
  1
ＥＺ－１４３５－００
 72
     5
 11
87.221455
 21
-134.545471
 31
0.0
100
AcDbText
  0
ENDSEC
  0
SECTION
  2
OBJECTS
  0
DICTIONARY
  5
19D
100
AcDbDictionary
280
     0
281
     1
  3
ACAD_GROUP
350
19E
  3
ACAD_MLINESTYLE
350
19F
  0
DICTIONARY
  5
19E
102
{ACAD_REACTORS
330
19D
102
}
100
AcDbDictionary
280
     0
281
     1
  0
DICTIONARY
  5
19F
102
{ACAD_REACTORS
330
19D
102
}
100
AcDbDictionary
280
     0
281
     1
  3
Standard
350
1A0
  0
MLINESTYLE
  5
1A0
102
{ACAD_REACTORS
330
19F
102
}
100
AcDbMlineStyle
  2
Standard
 70
     0
  3

 62
     0
 51
90.0
 52
90.0
 71
     2
 49
0.5
 62
   256
  6
ByLayer
 49
-0.5
 62
   256
  6
ByLayer
  0
ENDSEC
  0
EOF
