  0
SECTION
  2
HEADER
  9
$ACADVER
  1
AC1015
  9
$ACADMAINTVER
 70
     6
  9
$DWGCODEPAGE
  3
ANSI_932
  9
$INSBASE
 10
0.0
 20
0.0
 30
0.0
  9
$EXTMIN
 10
-210.0
 20
-148.5
 30
1.000000E+20
  9
$EXTMAX
 10
210.0
 20
148.5
 30
-1.000000E+20
  9
$LIMMIN
 10
-210.0
 20
-148.5
  9
$LIMMAX
 10
210.0
 20
148.5
  9
$ORTHOMODE
 70
     0
  9
$REGENMODE
 70
     1
  9
$FILLMODE
 70
     1
  9
$QTEXTMODE
 70
     0
  9
$MIRRTEXT
 70
     1
  9
$LTSCALE
 40
1.0
  9
$ATTMODE
 70
     1
  9
$TEXTSIZE
 40
0.2
  9
$TRACEWID
 40
0.05
  9
$TEXTSTYLE
  7
STANDARD
  9
$CLAYER
  8
0
  9
$CELTYPE
  6
CONTINUOUS
  9
$CECOLOR
 62
   256
  9
$CELTSCALE
 40
1.0
  9
$DISPSILH
 70
     0
  9
$DIMSCALE
 40
1.0
  9
$DIMASZ
 40
2.0
  9
$DIMEXO
 40
0.5
  9
$DIMDLI
 40
0.38
  9
$DIMRND
 40
0.0
  9
$DIMDLE
 40
0.0
  9
$DIMEXE
 40
2.0
  9
$DIMTP
 40
0.0
  9
$DIMTM
 40
0.0
  9
$DIMTXT
 40
2.5
  9
$DIMCEN
 40
0.09
  9
$DIMTSZ
 40
0.0
  9
$DIMTOL
 70
     0
  9
$DIMLIM
 70
     0
  9
$DIMTIH
 70
     0
  9
$DIMTOH
 70
     0
  9
$DIMSE1
 70
     0
  9
$DIMSE2
 70
     0
  9
$DIMTAD
 70
     1
  9
$DIMZIN
 70
     0
  9
$DIMBLK
  1

  9
$DIMASO
 70
     1
  9
$DIMSHO
 70
     1
  9
$DIMPOST
  1

  9
$DIMAPOST
  1

  9
$DIMALT
 70
     0
  9
$DIMALTD
 70
     2
  9
$DIMALTF
 40
25.4
  9
$DIMLFAC
 40
1.0
  9
$DIMTOFL
 70
     0
  9
$DIMTVP
 40
0.0
  9
$DIMTIX
 70
     0
  9
$DIMSOXD
 70
     0
  9
$DIMSAH
 70
     0
  9
$DIMBLK1
  1

  9
$DIMBLK2
  1

  9
$DIMSTYLE
  2
Standard
  9
$DIMCLRD
 70
     0
  9
$DIMCLRE
 70
     0
  9
$DIMCLRT
 70
     0
  9
$DIMTFAC
 40
1.0
  9
$DIMGAP
 40
0.5
  9
$DIMJUST
 70
     0
  9
$DIMSD1
 70
     0
  9
$DIMSD2
 70
     0
  9
$DIMTOLJ
 70
     1
  9
$DIMTZIN
 70
     0
  9
$DIMALTZ
 70
     0
  9
$DIMALTTZ
 70
     0
  9
$DIMUPT
 70
     0
  9
$DIMDEC
 70
     2
  9
$DIMTDEC
 70
     4
  9
$DIMALTU
 70
     2
  9
$DIMALTTD
 70
     2
  9
$DIMTXSTY
  7
STANDARD
  9
$DIMAUNIT
 70
     0
  9
$DIMADEC
 70
     0
  9
$DIMALTRND
 40
0.0
  9
$DIMAZIN
 70
     0
  9
$DIMDSEP
 70
     0
  9
$DIMATFIT
 70
     3
  9
$DIMFRAC
 70
     0
  9
$DIMLDRBLK
  1

  9
$DIMLUNIT
 70
     2
  9
$DIMLWD
 70
     0
  9
$DIMLWE
 70
     0
  9
$DIMTMOVE
 70
     0
  9
$LUNITS
 70
     2
  9
$LUPREC
 70
     4
  9
$SKETCHINC
 40
0.1
  9
$FILLETRAD
 40
0.0
  9
$AUNITS
 70
     0
  9
$AUPREC
 70
     0
  9
$MENU
  1
acad
  9
$ELEVATION
 40
0.0
  9
$PELEVATION
 40
0.0
  9
$THICKNESS
 40
0.0
  9
$LIMCHECK
 70
     0
  9
$CHAMFERA
 40
0.0
  9
$CHAMFERB
 40
0.0
  9
$CHAMFERC
 40
0.0
  9
$CHAMFERD
 40
0.0
  9
$SKPOLY
 70
     0
  9
$TDCREATE
 40
2451501.000000000
  9
$TDUCREATE
 40
0.000000000
  9
$TDUPDATE
 40
0.000000000
  9
$TDUUPDATE
 40
2447892.625000000
  9
$TDINDWG
 40
0.0000000000
  9
$TDUSRTIMER
 40
0.0000000000
  9
$USRTIMER
 70
     1
  9
$ANGBASE
 50
0.0
  9
$ANGDIR
 70
     0
  9
$PDMODE
 70
     0
  9
$PDSIZE
 40
0.0
  9
$PLINEWID
 40
0.0
  9
$SPLFRAME
 70
     0
  9
$SPLINETYPE
 70
     6
  9
$SPLINESEGS
 70
     8
  9
$HANDSEED
  5
144
  9
$SURFTAB1
 70
     6
  9
$SURFTAB2
 70
     6
  9
$SURFTYPE
 70
     6
  9
$SURFU
 70
     6
  9
$SURFV
 70
     6
  9
$UCSBASE
  2

  9
$UCSNAME
  2

  9
$UCSORG
 10
0.0
 20
0.0
 30
0.0
  9
$UCSXDIR
 10
1.0
 20
0.0
 30
0.0
  9
$UCSYDIR
 10
0.0
 20
1.0
 30
0.0
  9
$UCSORTHOREF
  2

  9
$UCSORTHOVIEW
 70
     0
  9
$UCSORGTOP
 10
0.0
 20
0.0
 30
0.0
  9
$UCSORGBOTTOM
 10
0.0
 20
0.0
 30
0.0
  9
$UCSORGLEFT
 10
0.0
 20
0.0
 30
0.0
  9
$UCSORGRIGHT
 10
0.0
 20
0.0
 30
0.0
  9
$UCSORGFRONT
 10
0.0
 20
0.0
 30
0.0
  9
$UCSORGBACK
 10
0.0
 20
0.0
 30
0.0
  9
$PUCSBASE
  2

  9
$PUCSNAME
  2

  9
$PUCSORG
 10
0.0
 20
0.0
 30
0.0
  9
$PUCSXDIR
 10
1.0
 20
0.0
 30
0.0
  9
$PUCSYDIR
 10
0.0
 20
1.0
 30
0.0
  9
$PUCSORTHOREF
  2

  9
$PUCSORTHOVIEW
 70
     0
  9
$PUCSORGTOP
 10
0.0
 20
0.0
 30
0.0
  9
$PUCSORGBOTTOM
 10
0.0
 20
0.0
 30
0.0
  9
$PUCSORGLEFT
 10
0.0
 20
0.0
 30
0.0
  9
$PUCSORGRIGHT
 10
0.0
 20
0.0
 30
0.0
  9
$PUCSORGFRONT
 10
0.0
 20
0.0
 30
0.0
  9
$PUCSORGBACK
 10
0.0
 20
0.0
 30
0.0
  9
$USERI1
 70
     0
  9
$USERI2
 70
     0
  9
$USERI3
 70
     0
  9
$USERI4
 70
     0
  9
$USERI5
 70
     0
  9
$USERR1
 40
0.0
  9
$USERR2
 40
0.0
  9
$USERR3
 40
0.0
  9
$USERR4
 40
0.0
  9
$USERR5
 40
0.0
  9
$WORLDVIEW
 70
     1
  9
$SHADEDGE
 70
     3
  9
$SHADEDIF
 70
    70
  9
$TILEMODE
 70
     1
  9
$MAXACTVP
 70
    16
  9
$PINSBASE
 10
0.0
 20
0.0
 30
0.0
  9
$PLIMCHECK
 70
     0
  9
$PEXTMIN
 10
1.000000E+20
 20
1.000000E+20
 30
1.000000E+20
  9
$PEXTMAX
 10
-1.000000E+20
 20
-1.000000E+20
 30
-1.000000E+20
  9
$PLIMMIN
 10
0.0
 20
0.0
  9
$PLIMMAX
 10
12.0
 20
9.0
  9
$UNITMODE
 70
     0
  9
$VISRETAIN
 70
     0
  9
$PLINEGEN
 70
     1
  9
$PSLTSCALE
 70
     0
  9
$TREEDEPTH
 70
  3020
  9
$CMLSTYLE
  2
Standard
  9
$CMLJUST
 70
     0
  9
$CMLSCALE
 40
1.0
  9
$PROXYGRAPHICS
 70
     0
  9
$MEASUREMENT
 70
     0
  9
$CELWEIGHT
370
     0
  9
$ENDCAPS
280
     0
  9
$JOINSTYLE
280
     0
  9
$LWDISPLAY
290
     0
  9
$INSUNITS
 70
     0
  9
$HYPERLINKBASE
  1

  9
$STYLESHEET
  1

  9
$XEDIT
290
     1
  9
$CEPSNTYPE
380
     0
  9
$PSTYLEMODE
290
     1
  9
$FINGERPRINTGUID
  2

  9
$VERSIONGUID
  2

  9
$EXTNAMES
290
     1
  9
$PSVPSCALE
 40
0.0
  0
ENDSEC
  0
SECTION
  2
CLASSES
  0
CLASS
  1
LWPOLYLINE
  2
AcDbPolyline
  3
AutoCAD 2000
 90
        0
280
     0
281
     1
  0
CLASS
  1
IMAGE
  2
AcDbRasterImage
  3
ISM
 90
      127
280
     0
281
     1
  0
CLASS
  1
OLE2FRAME
  2
AcDbOle2Frame
  3
AutoCAD 2000
 90
        0
280
     0
281
     1
  0
CLASS
  1
HATCH
  2
AcDbHatch
  3
AutoCAD 2000
 90
        0
280
     0
281
     1
  0
CLASS
  1
DICTIONARYVAR
  2
AcDbDictionaryVar
  3
AutoCAD 2000
 90
        0
280
     0
281
     0
  0
CLASS
  1
RASTERVARIABLES
  2
AcDbRasterVariables
  3
ISM
 90
        0
280
     0
281
     0
  0
CLASS
  1
IMAGEDEF
  2
AcDbRasterImageDef
  3
ISM
 90
        0
280
     0
281
     0
  0
CLASS
  1
IMAGEDEF_REACTOR
  2
AcDbRasterImageDefReactor
  3
ISM
 90
        1
280
     0
281
     0
  0
CLASS
  1
IDBUFFER
  2
AcDbIdBuffer
  3
AutoCAD 2000
 90
        0
280
     0
281
     0
  0
CLASS
  1
SPATIAL_FILTER
  2
AcDbSpatialFilter
  3
AutoCAD 2000
 90
        0
280
     0
281
     0
  0
CLASS
  1
XRECORD
  2
AcDbXrecord
  3
AutoCAD 2000
 90
        0
280
     0
281
     0
  0
CLASS
  1
SORTENTSTABLE
  2
AcDbSortentsTable
  3
AutoCAD 2000
 90
        0
280
     0
281
     0
  0
CLASS
  1
LAYER_INDEX
  2
AcDbLayerIndex
  3
AutoCAD 2000
 90
        0
280
     0
281
     0
  0
CLASS
  1
SPATIAL_INDEX
  2
AcDbSpatialIndex
  3
AutoCAD 2000
 90
        0
280
     0
281
     0
  0
CLASS
  1
OBJECT_PTR
  2
CAseDLPNTableRecord
  3
"ASE-LPNTableRecord"
 90
        1
280
     0
281
     0
  0
CLASS
  1
LAYOUT
  2
AcDbLayout
  3
AutoCAD 2000
 90
        0
280
     0
281
     0
  0
CLASS
  1
PLOTSETTINGS
  2
AcDbPlotSettings
  3
AutoCAD 2000
 90
        0
280
     0
281
     0
  0
CLASS
  1
ACDBDICTIONARYWDFLT
  2
AcDbDictionaryWithDefault
  3
AutoCAD 2000
 90
        0
280
     0
281
     0
  0
CLASS
  1
ACDBPLACEHOLDER
  2
AcDbPlaceHolder
  3
AutoCAD 2000
 90
        0
280
     0
281
     0
  0
CLASS
  1
VBA_PROJECT
  2
AcDbVbaProject
  3
acadvba
 90
        0
280
     0
281
     0
  0
CLASS
  1
WIPEOUT
  2
AcDbWipeout
  3
WipeOut|AutoCAD Express Tool|expresstools@autodesk.com
 90
      127
280
     0
281
     1
  0
CLASS
  1
WIPEOUTVARIABLES
  2
AcDbWipeoutVariables
  3
WipeOut|AutoCAD Express Tool|expresstools@autodesk.com
 90
        0
280
     0
281
     0
  0
CLASS
  1
RTEXT
  2
RText
  3
RText|AutoCAD Express Tool|expresstools@autodesk.com
 90
        0
280
     0
281
     1
  0
CLASS
  1
ARCALIGNEDTEXT
  2
AcDbArcAlignedText
  3
ATEXT|AutoCAD Express Tool|expresstools@autodesk.com
 90
        0
280
     0
281
     1
  0
ENDSEC
  0
SECTION
  2
TABLES
  0
TABLE
  2
VPORT
  5
6
100
AcDbSymbolTable
 70
     1
  0
VPORT
  5
19
100
AcDbSymbolTableRecord
100
AcDbViewportTableRecord
  2
*ACTIVE
 70
     0
 10
0.0
 20
0.0
 11
1.0
 21
1.0
 12
0.0
 22
0.0
 13
0.0
 23
0.0
 14
1.0
 24
1.0
 15
0.0
 25
0.0
 16
0.0
 26
0.0
 36
1.0
 17
0.0
 27
0.0
 37
0.0
 40
297.0
 41
1.414141
 42
50.0
 43
0.0
 44
0.0
 50
0.0
 51
0.0
 71
     0
 72
   500
 73
     1
 74
     1
 75
     0
 76
     0
 77
     0
 78
     0
281
     0
 65
     0
110
0.0
120
0.0
130
0.0
111
1.0
121
0.0
131
0.0
112
0.0
122
1.0
132
0.0
345
0
346
0
 79
     0
146
0.0
  0
ENDTAB
  0
TABLE
  2
LTYPE
  5
3
100
AcDbSymbolTable
 70
     9
  0
LTYPE
  5
C
100
AcDbSymbolTableRecord
100
AcDbLinetypeTableRecord
  2
ByBlock
 70
    64
  3

 72
    65
 73
     0
 40
0.0
  0
LTYPE
  5
D
100
AcDbSymbolTableRecord
100
AcDbLinetypeTableRecord
  2
ByLayer
 70
    64
  3

 72
    65
 73
     0
 40
0.0
  0
LTYPE
  5
E
100
AcDbSymbolTableRecord
100
AcDbLinetypeTableRecord
  2
CONTINUOUS
 70
     0
  3
Solid line
 72
    65
 73
     0
 40
0.0
  0
LTYPE
  5
F
100
AcDbSymbolTableRecord
100
AcDbLinetypeTableRecord
  2
DASHED
 70
     0
  3
__ __ __ __ __ __ __ __ __ __ __ __ __ __ __
 72
    65
 73
     2
 40
2.0
 49
1.2
 74
     0
 49
-0.8
 74
     0
  0
LTYPE
  5
10
100
AcDbSymbolTableRecord
100
AcDbLinetypeTableRecord
  2
CENTER
 70
     0
  3
____ _ ____ _ ____ _ ____ _ ____ _ ____ _ ____
 72
    65
 73
     4
 40
12.0
 49
9.0
 74
     0
 49
-1.0
 74
     0
 49
1.0
 74
     0
 49
-1.0
 74
     0
  0
LTYPE
  5
11
100
AcDbSymbolTableRecord
100
AcDbLinetypeTableRecord
  2
HIDDEN
 70
     0
  3
_ _ _ _ _ _ _ _ _ _ _ _ _ _ _ _ _ _ _ _ _ _ _
 72
    65
 73
     2
 40
3.2
 49
1.3
 74
     0
 49
-1.9
 74
     0
  0
LTYPE
  5
12
100
AcDbSymbolTableRecord
100
AcDbLinetypeTableRecord
  2
PHANTOM
 70
     0
  3
_____ _ _ _____ _ _ _____ _ _ _____ _ _ _____
 72
    65
 73
     6
 40
12.5
 49
9.0
 74
     0
 49
-1.0
 74
     0
 49
0.5
 74
     0
 49
-0.5
 74
     0
 49
0.5
 74
     0
 49
-1.0
 74
     0
  0
LTYPE
  5
13
100
AcDbSymbolTableRecord
100
AcDbLinetypeTableRecord
  2
DOT
 70
     0
  3
...............................................
 72
    65
 73
     2
 40
1.0
 49
0.5
 74
     0
 49
-0.5
 74
     0
  0
LTYPE
  5
14
100
AcDbSymbolTableRecord
100
AcDbLinetypeTableRecord
  2
DASHDOT
 70
     0
  3
__ . __ . __ . __ . __ . __ . __ . __ . __ . __
 72
    65
 73
     4
 40
8.0
 49
5.0
 74
     0
 49
-1.0
 74
     0
 49
1.0
 74
     0
 49
-1.0
 74
     0
  0
ENDTAB
  0
TABLE
  2
LAYER
  5
1
100
AcDbSymbolTable
 70
     4
  0
LAYER
  5
15
100
AcDbSymbolTableRecord
100
AcDbLayerTableRecord
  2
0
 70
     0
 62
     8
  6
CONTINUOUS
290
     1
370
    -3
390
0
  0
LAYER
  5
16
100
AcDbSymbolTableRecord
100
AcDbLayerTableRecord
  2
1
 70
     0
 62
     2
  6
CONTINUOUS
290
     1
370
    -3
390
0
  0
LAYER
  5
17
100
AcDbSymbolTableRecord
100
AcDbLayerTableRecord
  2
2
 70
     0
 62
     3
  6
CONTINUOUS
290
     1
370
    -3
390
0
  0
LAYER
  5
18
100
AcDbSymbolTableRecord
100
AcDbLayerTableRecord
  2
3
 70
     0
 62
     4
  6
CONTINUOUS
290
     1
370
    -3
390
0
  0
ENDTAB
  0
TABLE
  2
STYLE
  5
2
100
AcDbSymbolTable
 70
     1
  0
STYLE
  5
1B
100
AcDbSymbolTableRecord
100
AcDbTextStyleTableRecord
  2
STANDARD
 70
    64
 40
0.0
 41
1.0
 50
0.0
 71
     0
 42
1.0
  3
txt
  4
BIGFONT
  0
ENDTAB
  0
TABLE
  2
VIEW
  5
4
100
AcDbSymbolTable
 70
     0
  0
ENDTAB
  0
TABLE
  2
UCS
  5
5
100
AcDbSymbolTable
 70
     0
  0
ENDTAB
  0
TABLE
  2
APPID
  5
7
100
AcDbSymbolTable
 70
     1
  0
APPID
  5
1A
100
AcDbSymbolTableRecord
100
AcDbRegAppTableRecord
  2
ACAD
 70
     0
  0
ENDTAB
  0
TABLE
  2
DIMSTYLE
  5
8
100
AcDbSymbolTable
 70
     1
100
AcDbDimStyleTable
 71
     0
  0
DIMSTYLE
105
32
100
AcDbSymbolTableRecord
100
AcDbDimStyleTableRecord
  2
Standard
 70
     0
  3

  4

 40
1.0
 41
2.0
 42
0.5
 43
0.38
 44
2.0
 45
0.0
 46
0.0
 47
0.0
 48
0.0
 71
     0
 72
     0
 73
     0
 74
     0
 75
     0
 76
     0
 77
     1
 78
     0
 79
     0
140
2.5
141
0.09
142
0.0
143
25.4
144
1.0
145
0.0
146
1.0
147
0.5
148
0.0
170
     0
171
     2
172
     0
173
     0
174
     0
175
     0
176
     0
177
     0
178
     0
179
     0
271
     2
272
     4
273
     2
274
     2
275
     0
276
     0
277
     2
278
    46
279
     0
280
     0
281
     0
282
     0
283
     1
284
     0
285
     0
286
     0
288
     0
289
     3
340
1B
341
0
342
0
343
0
344
0
371
    -2
372
    -2
  0
ENDTAB
  0
TABLE
  2
BLOCK_RECORD
  5
2D
100
AcDbSymbolTable
 70
    15
  0
BLOCK_RECORD
  5
2B
100
AcDbSymbolTableRecord
100
AcDbBlockTableRecord
  2
*Model_Space
340
0
  0
BLOCK_RECORD
  5
2C
100
AcDbSymbolTableRecord
100
AcDbBlockTableRecord
  2
*Paper_Space
340
0
  0
BLOCK_RECORD
  5
1C
100
AcDbSymbolTableRecord
100
AcDbBlockTableRecord
  2
*D0
340
0
  0
BLOCK_RECORD
  5
1D
100
AcDbSymbolTableRecord
100
AcDbBlockTableRecord
  2
*D1
340
0
  0
BLOCK_RECORD
  5
1E
100
AcDbSymbolTableRecord
100
AcDbBlockTableRecord
  2
*D2
340
0
  0
BLOCK_RECORD
  5
1F
100
AcDbSymbolTableRecord
100
AcDbBlockTableRecord
  2
*D3
340
0
  0
BLOCK_RECORD
  5
20
100
AcDbSymbolTableRecord
100
AcDbBlockTableRecord
  2
*D4
340
0
  0
BLOCK_RECORD
  5
21
100
AcDbSymbolTableRecord
100
AcDbBlockTableRecord
  2
*D5
340
0
  0
BLOCK_RECORD
  5
22
100
AcDbSymbolTableRecord
100
AcDbBlockTableRecord
  2
*D6
340
0
  0
BLOCK_RECORD
  5
23
100
AcDbSymbolTableRecord
100
AcDbBlockTableRecord
  2
*D7
340
0
  0
BLOCK_RECORD
  5
24
100
AcDbSymbolTableRecord
100
AcDbBlockTableRecord
  2
*D8
340
0
  0
BLOCK_RECORD
  5
25
100
AcDbSymbolTableRecord
100
AcDbBlockTableRecord
  2
*D9
340
0
  0
BLOCK_RECORD
  5
26
100
AcDbSymbolTableRecord
100
AcDbBlockTableRecord
  2
*D10
340
0
  0
BLOCK_RECORD
  5
27
100
AcDbSymbolTableRecord
100
AcDbBlockTableRecord
  2
*D11
340
0
  0
BLOCK_RECORD
  5
28
100
AcDbSymbolTableRecord
100
AcDbBlockTableRecord
  2
*D12
340
0
  0
BLOCK_RECORD
  5
29
100
AcDbSymbolTableRecord
100
AcDbBlockTableRecord
  2
*D13
340
0
  0
BLOCK_RECORD
  5
2A
100
AcDbSymbolTableRecord
100
AcDbBlockTableRecord
  2
*D14
340
0
  0
ENDTAB
  0
ENDSEC
  0
SECTION
  2
BLOCKS
  0
BLOCK
  5
2E
100
AcDbEntity
  8
0
390
0
100
AcDbBlockBegin
  2
*Model_Space
 70
     0
 10
0.0
 20
0.0
 30
0.0
  3
*Model_Space
  1

  0
ENDBLK
  5
2F
100
AcDbEntity
  8
0
390
0
100
AcDbBlockEnd
  0
BLOCK
  5
30
100
AcDbEntity
 67
     1
  8
0
390
0
100
AcDbBlockBegin
  2
*Paper_Space
 70
     0
 10
0.0
 20
0.0
 30
0.0
  3
*Paper_Space
  1

  0
ENDBLK
  5
31
100
AcDbEntity
 67
     1
  8
0
390
0
100
AcDbBlockEnd
  0
BLOCK
  5
AB
100
AcDbEntity
  8
2
100
AcDbBlockBegin
  2
*D0
 70
     1
 10
0.0
 20
0.0
 30
0.0
  3
*D0
  1

  0
TEXT
  5
AC
100
AcDbEntity
  8
2
370
    18
100
AcDbText
 10
-37.02146
 20
-7.146703
 30
0.0
 40
3.0
  1
102
 50
90.0
 41
2.0
 72
     5
 11
-37.02146
 21
0.653297
 31
0.0
100
AcDbText
  0
LINE
  5
AD
100
AcDbEntity
  8
2
370
    25
100
AcDbLine
 10
-54.552683
 20
-53.646703
 30
0.0
 11
-35.52146
 21
-53.646703
 31
0.0
  0
LINE
  5
AE
100
AcDbEntity
  8
2
370
    25
100
AcDbLine
 10
-36.52146
 20
-53.646703
 30
0.0
 11
-36.003821
 21
-51.714851
 31
0.0
  0
LINE
  5
AF
100
AcDbEntity
  8
2
370
    25
100
AcDbLine
 10
-36.52146
 20
-53.646703
 30
0.0
 11
-37.039098
 21
-51.714851
 31
0.0
  0
LINE
  5
B0
100
AcDbEntity
  8
2
370
    25
100
AcDbLine
 10
-36.52146
 20
-53.646703
 30
0.0
 11
-36.52146
 21
48.353297
 31
0.0
  0
LINE
  5
B1
100
AcDbEntity
  8
2
370
    25
100
AcDbLine
 10
-36.52146
 20
48.353297
 30
0.0
 11
-37.039098
 21
46.421446
 31
0.0
  0
LINE
  5
B2
100
AcDbEntity
  8
2
370
    25
100
AcDbLine
 10
-36.52146
 20
48.353297
 30
0.0
 11
-36.003821
 21
46.421446
 31
0.0
  0
LINE
  5
B3
100
AcDbEntity
  8
2
370
    25
100
AcDbLine
 10
-54.552683
 20
48.353297
 30
0.0
 11
-35.52146
 21
48.353297
 31
0.0
  0
ENDBLK
  5
B4
100
AcDbEntity
  8
2
100
AcDbBlockEnd
  0
BLOCK
  5
B5
100
AcDbEntity
  8
2
100
AcDbBlockBegin
  2
*D1
 70
     1
 10
0.0
 20
0.0
 30
0.0
  3
*D1
  1

  0
TEXT
  5
B6
100
AcDbEntity
  8
2
370
    18
100
AcDbText
 10
-30.670057
 20
-7.146703
 30
0.0
 40
3.0
  1
135
 50
90.0
 41
2.0
 72
     5
 11
-30.670057
 21
0.653297
 31
0.0
100
AcDbText
  0
LINE
  5
B7
100
AcDbEntity
  8
2
370
    25
100
AcDbLine
 10
-77.840483
 20
-70.146703
 30
0.0
 11
-29.170057
 21
-70.146703
 31
0.0
  0
LINE
  5
B8
100
AcDbEntity
  8
2
370
    25
100
AcDbLine
 10
-30.170057
 20
-70.146703
 30
0.0
 11
-29.652419
 21
-68.214851
 31
0.0
  0
LINE
  5
B9
100
AcDbEntity
  8
2
370
    25
100
AcDbLine
 10
-30.170057
 20
-70.146703
 30
0.0
 11
-30.687695
 21
-68.214851
 31
0.0
  0
LINE
  5
BA
100
AcDbEntity
  8
2
370
    25
100
AcDbLine
 10
-30.170057
 20
-70.146703
 30
0.0
 11
-30.170057
 21
64.853297
 31
0.0
  0
LINE
  5
BB
100
AcDbEntity
  8
2
370
    25
100
AcDbLine
 10
-30.170057
 20
64.853297
 30
0.0
 11
-30.687695
 21
62.921446
 31
0.0
  0
LINE
  5
BC
100
AcDbEntity
  8
2
370
    25
100
AcDbLine
 10
-30.170057
 20
64.853297
 30
0.0
 11
-29.652419
 21
62.921446
 31
0.0
  0
LINE
  5
BD
100
AcDbEntity
  8
2
370
    25
100
AcDbLine
 10
-77.840483
 20
64.853297
 30
0.0
 11
-29.170057
 21
64.853297
 31
0.0
  0
ENDBLK
  5
BE
100
AcDbEntity
  8
2
100
AcDbBlockEnd
  0
BLOCK
  5
BF
100
AcDbEntity
  8
2
100
AcDbBlockBegin
  2
*D2
 70
     1
 10
0.0
 20
0.0
 30
0.0
  3
*D2
  1

  0
TEXT
  5
C0
100
AcDbEntity
  8
2
370
    18
100
AcDbText
 10
-42.355265
 20
4.103301
 30
0.0
 40
3.0
  1
25.5
 50
90.0
 41
2.0
 72
     5
 11
-42.355265
 21
14.903301
 31
0.0
100
AcDbText
  0
LINE
  5
C1
100
AcDbEntity
  8
2
370
    25
100
AcDbLine
 10
-54.552683
 20
-2.646698
 30
0.0
 11
-40.855265
 21
-2.646698
 31
0.0
  0
LINE
  5
C2
100
AcDbEntity
  8
2
370
    25
100
AcDbLine
 10
-41.855265
 20
-2.646698
 30
0.0
 11
-41.337627
 21
-0.714846
 31
0.0
  0
LINE
  5
C3
100
AcDbEntity
  8
2
370
    25
100
AcDbLine
 10
-41.855265
 20
-2.646698
 30
0.0
 11
-42.372903
 21
-0.714846
 31
0.0
  0
LINE
  5
C4
100
AcDbEntity
  8
2
370
    25
100
AcDbLine
 10
-41.855265
 20
-2.646698
 30
0.0
 11
-41.855265
 21
22.8533
 31
0.0
  0
LINE
  5
C5
100
AcDbEntity
  8
2
370
    25
100
AcDbLine
 10
-41.855265
 20
22.8533
 30
0.0
 11
-42.372903
 21
20.921448
 31
0.0
  0
LINE
  5
C6
100
AcDbEntity
  8
2
370
    25
100
AcDbLine
 10
-41.855265
 20
22.8533
 30
0.0
 11
-41.337627
 21
20.921448
 31
0.0
  0
LINE
  5
C7
100
AcDbEntity
  8
2
370
    25
100
AcDbLine
 10
-54.552683
 20
22.8533
 30
0.0
 11
-40.855265
 21
22.8533
 31
0.0
  0
ENDBLK
  5
C8
100
AcDbEntity
  8
2
100
AcDbBlockEnd
  0
BLOCK
  5
C9
100
AcDbEntity
  8
2
100
AcDbBlockBegin
  2
*D3
 70
     1
 10
0.0
 20
0.0
 30
0.0
  3
*D3
  1

  0
TEXT
  5
CA
100
AcDbEntity
  8
2
370
    18
100
AcDbText
 10
-42.355265
 20
29.603298
 30
0.0
 40
3.0
  1
25.5
 50
90.0
 41
2.0
 72
     5
 11
-42.355265
 21
40.403298
 31
0.0
100
AcDbText
  0
LINE
  5
CB
100
AcDbEntity
  8
2
370
    25
100
AcDbLine
 10
-54.552683
 20
22.8533
 30
0.0
 11
-40.855265
 21
22.8533
 31
0.0
  0
LINE
  5
CC
100
AcDbEntity
  8
2
370
    25
100
AcDbLine
 10
-41.855265
 20
22.8533
 30
0.0
 11
-41.337627
 21
24.785151
 31
0.0
  0
LINE
  5
CD
100
AcDbEntity
  8
2
370
    25
100
AcDbLine
 10
-41.855265
 20
22.8533
 30
0.0
 11
-42.372903
 21
24.785151
 31
0.0
  0
LINE
  5
CE
100
AcDbEntity
  8
2
370
    25
100
AcDbLine
 10
-41.855265
 20
22.8533
 30
0.0
 11
-41.855265
 21
48.353297
 31
0.0
  0
LINE
  5
CF
100
AcDbEntity
  8
2
370
    25
100
AcDbLine
 10
-41.855265
 20
48.353297
 30
0.0
 11
-42.372903
 21
46.421446
 31
0.0
  0
LINE
  5
D0
100
AcDbEntity
  8
2
370
    25
100
AcDbLine
 10
-41.855265
 20
48.353297
 30
0.0
 11
-41.337627
 21
46.421446
 31
0.0
  0
LINE
  5
D1
100
AcDbEntity
  8
2
370
    25
100
AcDbLine
 10
-54.552683
 20
48.353297
 30
0.0
 11
-40.855265
 21
48.353297
 31
0.0
  0
ENDBLK
  5
D2
100
AcDbEntity
  8
2
100
AcDbBlockEnd
  0
BLOCK
  5
D3
100
AcDbEntity
  8
2
100
AcDbBlockBegin
  2
*D4
 70
     1
 10
0.0
 20
0.0
 30
0.0
  3
*D4
  1

  0
TEXT
  5
D4
100
AcDbEntity
  8
2
370
    18
100
AcDbText
 10
-42.355265
 20
-21.396699
 30
0.0
 40
3.0
  1
25.5
 50
90.0
 41
2.0
 72
     5
 11
-42.355265
 21
-10.596699
 31
0.0
100
AcDbText
  0
LINE
  5
D5
100
AcDbEntity
  8
2
370
    25
100
AcDbLine
 10
-54.552683
 20
-28.1467
 30
0.0
 11
-40.855265
 21
-28.1467
 31
0.0
  0
LINE
  5
D6
100
AcDbEntity
  8
2
370
    25
100
AcDbLine
 10
-41.855265
 20
-28.1467
 30
0.0
 11
-41.337627
 21
-26.214849
 31
0.0
  0
LINE
  5
D7
100
AcDbEntity
  8
2
370
    25
100
AcDbLine
 10
-41.855265
 20
-28.1467
 30
0.0
 11
-42.372903
 21
-26.214849
 31
0.0
  0
LINE
  5
D8
100
AcDbEntity
  8
2
370
    25
100
AcDbLine
 10
-41.855265
 20
-28.1467
 30
0.0
 11
-41.855265
 21
-2.646698
 31
0.0
  0
LINE
  5
D9
100
AcDbEntity
  8
2
370
    25
100
AcDbLine
 10
-41.855265
 20
-2.646698
 30
0.0
 11
-42.372903
 21
-4.57855
 31
0.0
  0
LINE
  5
DA
100
AcDbEntity
  8
2
370
    25
100
AcDbLine
 10
-41.855265
 20
-2.646698
 30
0.0
 11
-41.337627
 21
-4.57855
 31
0.0
  0
LINE
  5
DB
100
AcDbEntity
  8
2
370
    25
100
AcDbLine
 10
-54.552683
 20
-2.646698
 30
0.0
 11
-40.855265
 21
-2.646698
 31
0.0
  0
ENDBLK
  5
DC
100
AcDbEntity
  8
2
100
AcDbBlockEnd
  0
BLOCK
  5
DD
100
AcDbEntity
  8
2
100
AcDbBlockBegin
  2
*D5
 70
     1
 10
0.0
 20
0.0
 30
0.0
  3
*D5
  1

  0
TEXT
  5
DE
100
AcDbEntity
  8
2
370
    18
100
AcDbText
 10
-42.355265
 20
-46.896702
 30
0.0
 40
3.0
  1
25.5
 50
90.0
 41
2.0
 72
     5
 11
-42.355265
 21
-36.096702
 31
0.0
100
AcDbText
  0
LINE
  5
DF
100
AcDbEntity
  8
2
370
    25
100
AcDbLine
 10
-54.552683
 20
-53.646703
 30
0.0
 11
-40.855265
 21
-53.646703
 31
0.0
  0
LINE
  5
E0
100
AcDbEntity
  8
2
370
    25
100
AcDbLine
 10
-41.855265
 20
-53.646703
 30
0.0
 11
-41.337627
 21
-51.714851
 31
0.0
  0
LINE
  5
E1
100
AcDbEntity
  8
2
370
    25
100
AcDbLine
 10
-41.855265
 20
-53.646703
 30
0.0
 11
-42.372903
 21
-51.714851
 31
0.0
  0
LINE
  5
E2
100
AcDbEntity
  8
2
370
    25
100
AcDbLine
 10
-41.855265
 20
-53.646703
 30
0.0
 11
-41.855265
 21
-28.1467
 31
0.0
  0
LINE
  5
E3
100
AcDbEntity
  8
2
370
    25
100
AcDbLine
 10
-41.855265
 20
-28.1467
 30
0.0
 11
-42.372903
 21
-30.078552
 31
0.0
  0
LINE
  5
E4
100
AcDbEntity
  8
2
370
    25
100
AcDbLine
 10
-41.855265
 20
-28.1467
 30
0.0
 11
-41.337627
 21
-30.078552
 31
0.0
  0
LINE
  5
E5
100
AcDbEntity
  8
2
370
    25
100
AcDbLine
 10
-54.552683
 20
-28.1467
 30
0.0
 11
-40.855265
 21
-28.1467
 31
0.0
  0
ENDBLK
  5
E6
100
AcDbEntity
  8
2
100
AcDbBlockEnd
  0
BLOCK
  5
E7
100
AcDbEntity
  8
2
100
AcDbBlockBegin
  2
*D6
 70
     1
 10
0.0
 20
0.0
 30
0.0
  3
*D6
  1

  0
TEXT
  5
E8
100
AcDbEntity
  8
2
370
    18
100
AcDbText
 10
62.211493
 20
99.879128
 30
0.0
 40
3.0
  1
15
 41
2.0
 72
     5
 11
67.011493
 21
99.879128
 31
0.0
100
AcDbText
  0
LINE
  5
E9
100
AcDbEntity
  8
2
370
    25
100
AcDbLine
 10
57.711493
 20
65.353307
 30
0.0
 11
57.711493
 21
100.379128
 31
0.0
  0
LINE
  5
EA
100
AcDbEntity
  8
2
370
    25
100
AcDbLine
 10
57.711493
 20
99.379128
 30
0.0
 11
59.643344
 21
98.861489
 31
0.0
  0
LINE
  5
EB
100
AcDbEntity
  8
2
370
    25
100
AcDbLine
 10
57.711493
 20
99.379128
 30
0.0
 11
59.643344
 21
99.896766
 31
0.0
  0
LINE
  5
EC
100
AcDbEntity
  8
2
370
    25
100
AcDbLine
 10
57.711493
 20
99.379128
 30
0.0
 11
72.711493
 21
99.379128
 31
0.0
  0
LINE
  5
ED
100
AcDbEntity
  8
2
370
    25
100
AcDbLine
 10
72.711493
 20
99.379128
 30
0.0
 11
70.779641
 21
99.896766
 31
0.0
  0
LINE
  5
EE
100
AcDbEntity
  8
2
370
    25
100
AcDbLine
 10
72.711493
 20
99.379128
 30
0.0
 11
70.779641
 21
98.861489
 31
0.0
  0
LINE
  5
EF
100
AcDbEntity
  8
2
370
    25
100
AcDbLine
 10
72.711493
 20
91.765266
 30
0.0
 11
72.711493
 21
100.379128
 31
0.0
  0
ENDBLK
  5
F0
100
AcDbEntity
  8
2
100
AcDbBlockEnd
  0
BLOCK
  5
F1
100
AcDbEntity
  8
2
100
AcDbBlockBegin
  2
*D7
 70
     1
 10
0.0
 20
0.0
 30
0.0
  3
*D7
  1

  0
TEXT
  5
F2
100
AcDbEntity
  8
2
370
    18
100
AcDbText
 10
166.457703
 20
-7.146703
 30
0.0
 40
3.0
  1
102
 50
90.0
 41
2.0
 72
     5
 11
166.457703
 21
0.653297
 31
0.0
100
AcDbText
  0
LINE
  5
F3
100
AcDbEntity
  8
2
370
    25
100
AcDbLine
 10
148.926479
 20
-53.646703
 30
0.0
 11
167.957703
 21
-53.646703
 31
0.0
  0
LINE
  5
F4
100
AcDbEntity
  8
2
370
    25
100
AcDbLine
 10
166.957703
 20
-53.646703
 30
0.0
 11
167.475341
 21
-51.714851
 31
0.0
  0
LINE
  5
F5
100
AcDbEntity
  8
2
370
    25
100
AcDbLine
 10
166.957703
 20
-53.646703
 30
0.0
 11
166.440065
 21
-51.714851
 31
0.0
  0
LINE
  5
F6
100
AcDbEntity
  8
2
370
    25
100
AcDbLine
 10
166.957703
 20
-53.646703
 30
0.0
 11
166.957703
 21
48.353297
 31
0.0
  0
LINE
  5
F7
100
AcDbEntity
  8
2
370
    25
100
AcDbLine
 10
166.957703
 20
48.353297
 30
0.0
 11
166.440065
 21
46.421446
 31
0.0
  0
LINE
  5
F8
100
AcDbEntity
  8
2
370
    25
100
AcDbLine
 10
166.957703
 20
48.353297
 30
0.0
 11
167.475341
 21
46.421446
 31
0.0
  0
LINE
  5
F9
100
AcDbEntity
  8
2
370
    25
100
AcDbLine
 10
148.926479
 20
48.353297
 30
0.0
 11
167.957703
 21
48.353297
 31
0.0
  0
ENDBLK
  5
FA
100
AcDbEntity
  8
2
100
AcDbBlockEnd
  0
BLOCK
  5
FB
100
AcDbEntity
  8
2
100
AcDbBlockBegin
  2
*D8
 70
     1
 10
0.0
 20
0.0
 30
0.0
  3
*D8
  1

  0
TEXT
  5
FC
100
AcDbEntity
  8
2
370
    18
100
AcDbText
 10
172.809105
 20
-7.146703
 30
0.0
 40
3.0
  1
135
 50
90.0
 41
2.0
 72
     5
 11
172.809105
 21
0.653297
 31
0.0
100
AcDbText
  0
LINE
  5
FD
100
AcDbEntity
  8
2
370
    25
100
AcDbLine
 10
125.63868
 20
-70.146703
 30
0.0
 11
174.309105
 21
-70.146703
 31
0.0
  0
LINE
  5
FE
100
AcDbEntity
  8
2
370
    25
100
AcDbLine
 10
173.309105
 20
-70.146703
 30
0.0
 11
173.826743
 21
-68.214851
 31
0.0
  0
LINE
  5
FF
100
AcDbEntity
  8
2
370
    25
100
AcDbLine
 10
173.309105
 20
-70.146703
 30
0.0
 11
172.791467
 21
-68.214851
 31
0.0
  0
LINE
  5
100
100
AcDbEntity
  8
2
370
    25
100
AcDbLine
 10
173.309105
 20
-70.146703
 30
0.0
 11
173.309105
 21
64.853297
 31
0.0
  0
LINE
  5
101
100
AcDbEntity
  8
2
370
    25
100
AcDbLine
 10
173.309105
 20
64.853297
 30
0.0
 11
172.791467
 21
62.921446
 31
0.0
  0
LINE
  5
102
100
AcDbEntity
  8
2
370
    25
100
AcDbLine
 10
173.309105
 20
64.853297
 30
0.0
 11
173.826743
 21
62.921446
 31
0.0
  0
LINE
  5
103
100
AcDbEntity
  8
2
370
    25
100
AcDbLine
 10
125.63868
 20
64.853297
 30
0.0
 11
174.309105
 21
64.853297
 31
0.0
  0
ENDBLK
  5
104
100
AcDbEntity
  8
2
100
AcDbBlockEnd
  0
BLOCK
  5
105
100
AcDbEntity
  8
2
100
AcDbBlockBegin
  2
*D9
 70
     1
 10
0.0
 20
0.0
 30
0.0
  3
*D9
  1

  0
TEXT
  5
106
100
AcDbEntity
  8
2
370
    18
100
AcDbText
 10
161.123898
 20
4.103301
 30
0.0
 40
3.0
  1
25.5
 50
90.0
 41
2.0
 72
     5
 11
161.123898
 21
14.903301
 31
0.0
100
AcDbText
  0
LINE
  5
107
100
AcDbEntity
  8
2
370
    25
100
AcDbLine
 10
148.926479
 20
-2.646698
 30
0.0
 11
162.623898
 21
-2.646698
 31
0.0
  0
LINE
  5
108
100
AcDbEntity
  8
2
370
    25
100
AcDbLine
 10
161.623898
 20
-2.646698
 30
0.0
 11
162.141536
 21
-0.714846
 31
0.0
  0
LINE
  5
109
100
AcDbEntity
  8
2
370
    25
100
AcDbLine
 10
161.623898
 20
-2.646698
 30
0.0
 11
161.106259
 21
-0.714846
 31
0.0
  0
LINE
  5
10A
100
AcDbEntity
  8
2
370
    25
100
AcDbLine
 10
161.623898
 20
-2.646698
 30
0.0
 11
161.623898
 21
22.8533
 31
0.0
  0
LINE
  5
10B
100
AcDbEntity
  8
2
370
    25
100
AcDbLine
 10
161.623898
 20
22.8533
 30
0.0
 11
161.106259
 21
20.921448
 31
0.0
  0
LINE
  5
10C
100
AcDbEntity
  8
2
370
    25
100
AcDbLine
 10
161.623898
 20
22.8533
 30
0.0
 11
162.141536
 21
20.921448
 31
0.0
  0
LINE
  5
10D
100
AcDbEntity
  8
2
370
    25
100
AcDbLine
 10
148.926479
 20
22.8533
 30
0.0
 11
162.623898
 21
22.8533
 31
0.0
  0
ENDBLK
  5
10E
100
AcDbEntity
  8
2
100
AcDbBlockEnd
  0
BLOCK
  5
10F
100
AcDbEntity
  8
2
100
AcDbBlockBegin
  2
*D10
 70
     1
 10
0.0
 20
0.0
 30
0.0
  3
*D10
  1

  0
TEXT
  5
110
100
AcDbEntity
  8
2
370
    18
100
AcDbText
 10
161.123898
 20
29.603298
 30
0.0
 40
3.0
  1
25.5
 50
90.0
 41
2.0
 72
     5
 11
161.123898
 21
40.403298
 31
0.0
100
AcDbText
  0
LINE
  5
111
100
AcDbEntity
  8
2
370
    25
100
AcDbLine
 10
148.926479
 20
22.8533
 30
0.0
 11
162.623898
 21
22.8533
 31
0.0
  0
LINE
  5
112
100
AcDbEntity
  8
2
370
    25
100
AcDbLine
 10
161.623898
 20
22.8533
 30
0.0
 11
162.141536
 21
24.785151
 31
0.0
  0
LINE
  5
113
100
AcDbEntity
  8
2
370
    25
100
AcDbLine
 10
161.623898
 20
22.8533
 30
0.0
 11
161.106259
 21
24.785151
 31
0.0
  0
LINE
  5
114
100
AcDbEntity
  8
2
370
    25
100
AcDbLine
 10
161.623898
 20
22.8533
 30
0.0
 11
161.623898
 21
48.353297
 31
0.0
  0
LINE
  5
115
100
AcDbEntity
  8
2
370
    25
100
AcDbLine
 10
161.623898
 20
48.353297
 30
0.0
 11
161.106259
 21
46.421446
 31
0.0
  0
LINE
  5
116
100
AcDbEntity
  8
2
370
    25
100
AcDbLine
 10
161.623898
 20
48.353297
 30
0.0
 11
162.141536
 21
46.421446
 31
0.0
  0
LINE
  5
117
100
AcDbEntity
  8
2
370
    25
100
AcDbLine
 10
148.926479
 20
48.353297
 30
0.0
 11
162.623898
 21
48.353297
 31
0.0
  0
ENDBLK
  5
118
100
AcDbEntity
  8
2
100
AcDbBlockEnd
  0
BLOCK
  5
119
100
AcDbEntity
  8
2
100
AcDbBlockBegin
  2
*D11
 70
     1
 10
0.0
 20
0.0
 30
0.0
  3
*D11
  1

  0
TEXT
  5
11A
100
AcDbEntity
  8
2
370
    18
100
AcDbText
 10
161.123898
 20
-21.396699
 30
0.0
 40
3.0
  1
25.5
 50
90.0
 41
2.0
 72
     5
 11
161.123898
 21
-10.596699
 31
0.0
100
AcDbText
  0
LINE
  5
11B
100
AcDbEntity
  8
2
370
    25
100
AcDbLine
 10
148.926479
 20
-28.1467
 30
0.0
 11
162.623898
 21
-28.1467
 31
0.0
  0
LINE
  5
11C
100
AcDbEntity
  8
2
370
    25
100
AcDbLine
 10
161.623898
 20
-28.1467
 30
0.0
 11
162.141536
 21
-26.214849
 31
0.0
  0
LINE
  5
11D
100
AcDbEntity
  8
2
370
    25
100
AcDbLine
 10
161.623898
 20
-28.1467
 30
0.0
 11
161.106259
 21
-26.214849
 31
0.0
  0
LINE
  5
11E
100
AcDbEntity
  8
2
370
    25
100
AcDbLine
 10
161.623898
 20
-28.1467
 30
0.0
 11
161.623898
 21
-2.646698
 31
0.0
  0
LINE
  5
11F
100
AcDbEntity
  8
2
370
    25
100
AcDbLine
 10
161.623898
 20
-2.646698
 30
0.0
 11
161.106259
 21
-4.57855
 31
0.0
  0
LINE
  5
120
100
AcDbEntity
  8
2
370
    25
100
AcDbLine
 10
161.623898
 20
-2.646698
 30
0.0
 11
162.141536
 21
-4.57855
 31
0.0
  0
LINE
  5
121
100
AcDbEntity
  8
2
370
    25
100
AcDbLine
 10
148.926479
 20
-2.646698
 30
0.0
 11
162.623898
 21
-2.646698
 31
0.0
  0
ENDBLK
  5
122
100
AcDbEntity
  8
2
100
AcDbBlockEnd
  0
BLOCK
  5
123
100
AcDbEntity
  8
2
100
AcDbBlockBegin
  2
*D12
 70
     1
 10
0.0
 20
0.0
 30
0.0
  3
*D12
  1

  0
TEXT
  5
124
100
AcDbEntity
  8
2
370
    18
100
AcDbText
 10
161.123898
 20
-46.896702
 30
0.0
 40
3.0
  1
25.5
 50
90.0
 41
2.0
 72
     5
 11
161.123898
 21
-36.096702
 31
0.0
100
AcDbText
  0
LINE
  5
125
100
AcDbEntity
  8
2
370
    25
100
AcDbLine
 10
148.926479
 20
-53.646703
 30
0.0
 11
162.623898
 21
-53.646703
 31
0.0
  0
LINE
  5
126
100
AcDbEntity
  8
2
370
    25
100
AcDbLine
 10
161.623898
 20
-53.646703
 30
0.0
 11
162.141536
 21
-51.714851
 31
0.0
  0
LINE
  5
127
100
AcDbEntity
  8
2
370
    25
100
AcDbLine
 10
161.623898
 20
-53.646703
 30
0.0
 11
161.106259
 21
-51.714851
 31
0.0
  0
LINE
  5
128
100
AcDbEntity
  8
2
370
    25
100
AcDbLine
 10
161.623898
 20
-53.646703
 30
0.0
 11
161.623898
 21
-28.1467
 31
0.0
  0
LINE
  5
129
100
AcDbEntity
  8
2
370
    25
100
AcDbLine
 10
161.623898
 20
-28.1467
 30
0.0
 11
161.106259
 21
-30.078552
 31
0.0
  0
LINE
  5
12A
100
AcDbEntity
  8
2
370
    25
100
AcDbLine
 10
161.623898
 20
-28.1467
 30
0.0
 11
162.141536
 21
-30.078552
 31
0.0
  0
LINE
  5
12B
100
AcDbEntity
  8
2
370
    25
100
AcDbLine
 10
148.926479
 20
-28.1467
 30
0.0
 11
162.623898
 21
-28.1467
 31
0.0
  0
ENDBLK
  5
12C
100
AcDbEntity
  8
2
100
AcDbBlockEnd
  0
BLOCK
  5
12D
100
AcDbEntity
  8
2
100
AcDbBlockBegin
  2
*D13
 70
     1
 10
0.0
 20
0.0
 30
0.0
  3
*D13
  1

  0
LINE
  5
12E
100
AcDbEntity
  8
2
370
    25
100
AcDbLine
 10
39.711493
 20
91.765266
 30
0.0
 11
39.711493
 21
104.612289
 31
0.0
  0
LINE
  5
12F
100
AcDbEntity
  8
2
370
    25
100
AcDbLine
 10
39.711493
 20
103.612289
 30
0.0
 11
41.643344
 21
103.094651
 31
0.0
  0
LINE
  5
130
100
AcDbEntity
  8
2
370
    25
100
AcDbLine
 10
39.711493
 20
103.612289
 30
0.0
 11
41.643344
 21
104.129928
 31
0.0
  0
LINE
  5
131
100
AcDbEntity
  8
2
370
    25
100
AcDbLine
 10
39.711493
 20
103.612289
 30
0.0
 11
72.711493
 21
103.612289
 31
0.0
  0
LINE
  5
132
100
AcDbEntity
  8
2
370
    25
100
AcDbLine
 10
72.711493
 20
103.612289
 30
0.0
 11
70.779641
 21
104.129928
 31
0.0
  0
LINE
  5
133
100
AcDbEntity
  8
2
370
    25
100
AcDbLine
 10
72.711493
 20
103.612289
 30
0.0
 11
70.779641
 21
103.094651
 31
0.0
  0
LINE
  5
134
100
AcDbEntity
  8
2
370
    25
100
AcDbLine
 10
72.711493
 20
91.765266
 30
0.0
 11
72.711493
 21
104.612289
 31
0.0
  0
ENDBLK
  5
135
100
AcDbEntity
  8
2
100
AcDbBlockEnd
  0
BLOCK
  5
136
100
AcDbEntity
  8
2
100
AcDbBlockBegin
  2
*D14
 70
     1
 10
0.0
 20
0.0
 30
0.0
  3
*D14
  1

  0
LINE
  5
137
100
AcDbEntity
  8
2
370
    25
100
AcDbLine
 10
-163.76767
 20
92.765266
 30
0.0
 11
-163.76767
 21
104.10202
 31
0.0
  0
LINE
  5
138
100
AcDbEntity
  8
2
370
    25
100
AcDbLine
 10
-163.76767
 20
103.10202
 30
0.0
 11
-161.835818
 21
102.584382
 31
0.0
  0
LINE
  5
139
100
AcDbEntity
  8
2
370
    25
100
AcDbLine
 10
-163.76767
 20
103.10202
 30
0.0
 11
-161.835818
 21
103.619658
 31
0.0
  0
LINE
  5
13A
100
AcDbEntity
  8
2
370
    25
100
AcDbLine
 10
-163.76767
 20
103.10202
 30
0.0
 11
-130.76767
 21
103.10202
 31
0.0
  0
LINE
  5
13B
100
AcDbEntity
  8
2
370
    25
100
AcDbLine
 10
-130.76767
 20
103.10202
 30
0.0
 11
-132.699521
 21
103.619658
 31
0.0
  0
LINE
  5
13C
100
AcDbEntity
  8
2
370
    25
100
AcDbLine
 10
-130.76767
 20
103.10202
 30
0.0
 11
-132.699521
 21
102.584382
 31
0.0
  0
LINE
  5
13D
100
AcDbEntity
  8
2
370
    25
100
AcDbLine
 10
-130.76767
 20
92.765266
 30
0.0
 11
-130.76767
 21
104.10202
 31
0.0
  0
ENDBLK
  5
13E
100
AcDbEntity
  8
2
100
AcDbBlockEnd
  0
ENDSEC
  0
SECTION
  2
ENTITIES
  0
LINE
  5
33
100
AcDbEntity
  8
1
370
    18
  6
CENTER
100
AcDbLine
 10
-78.340483
 20
48.353297
 30
0.0
 11
-101.628283
 21
48.353297
 31
0.0
  0
LINE
  5
34
100
AcDbEntity
  8
1
370
    18
  6
CENTER
100
AcDbLine
 10
-78.340483
 20
-53.646703
 30
0.0
 11
-101.628283
 21
-53.646703
 31
0.0
  0
LINE
  5
35
100
AcDbEntity
  8
1
370
    18
  6
CENTER
100
AcDbLine
 10
-78.340483
 20
48.353297
 30
0.0
 11
-55.052683
 21
48.353297
 31
0.0
  0
LINE
  5
36
100
AcDbEntity
  8
1
370
    18
  6
CENTER
100
AcDbLine
 10
-78.340483
 20
-53.646703
 30
0.0
 11
-55.052683
 21
-53.646703
 31
0.0
  0
LINE
  5
37
100
AcDbEntity
  8
1
370
   100
100
AcDbLine
 10
-61.840483
 20
48.353297
 30
0.0
 11
-61.840483
 21
-53.646703
 31
0.0
  0
LINE
  5
38
100
AcDbEntity
  8
1
370
   100
100
AcDbLine
 10
-94.840483
 20
48.353297
 30
0.0
 11
-94.840483
 21
-53.646703
 31
0.0
  0
LINE
  5
39
100
AcDbEntity
  8
1
370
    18
  6
CENTER
100
AcDbLine
 10
-78.340483
 20
71.587708
 30
0.0
 11
-78.340483
 21
-80.682647
 31
0.0
  0
LINE
  5
3A
100
AcDbEntity
  8
1
370
    18
  6
CENTER
100
AcDbLine
 10
-101.628283
 20
-2.646698
 30
0.0
 11
-55.052683
 21
-2.646698
 31
0.0
  0
ARC
  5
3B
100
AcDbEntity
  8
1
370
   100
100
AcDbCircle
 10
-78.340483
 20
48.353297
 30
0.0
 40
16.5
100
AcDbArc
 50
0.0
 51
180.0
  0
ARC
  5
3C
100
AcDbEntity
  8
1
370
    18
  6
PHANTOM
100
AcDbCircle
 10
-78.340483
 20
48.353297
 30
0.0
 40
16.5
100
AcDbArc
 50
180.0
 51
360.0
  0
ARC
  5
3D
100
AcDbEntity
  8
1
370
    18
  6
PHANTOM
100
AcDbCircle
 10
-78.340483
 20
-53.646703
 30
0.0
 40
16.5
100
AcDbArc
 50
0.0
 51
180.0
  0
ARC
  5
3E
100
AcDbEntity
  8
1
370
   100
100
AcDbCircle
 10
-78.340483
 20
-53.646703
 30
0.0
 40
16.5
100
AcDbArc
 50
180.0
 51
360.0
  0
CIRCLE
  5
3F
100
AcDbEntity
  8
1
370
    18
  6
PHANTOM
100
AcDbCircle
 10
-78.340483
 20
-2.646698
 30
0.0
 40
16.5
  0
LINE
  5
40
100
AcDbEntity
  8
1
370
    18
  6
CENTER
100
AcDbLine
 10
-101.628283
 20
22.8533
 30
0.0
 11
-55.052683
 21
22.8533
 31
0.0
  0
LINE
  5
41
100
AcDbEntity
  8
1
370
    18
  6
CENTER
100
AcDbLine
 10
-101.628283
 20
-28.1467
 30
0.0
 11
-55.052683
 21
-28.1467
 31
0.0
  0
CIRCLE
  5
42
100
AcDbEntity
  8
1
370
    18
  6
PHANTOM
100
AcDbCircle
 10
-78.340483
 20
-28.1467
 30
0.0
 40
16.5
  0
CIRCLE
  5
43
100
AcDbEntity
  8
1
370
    18
  6
PHANTOM
100
AcDbCircle
 10
-78.340483
 20
22.8533
 30
0.0
 40
16.5
  0
POINT
  5
44
100
AcDbEntity
  8
1
370
    50
100
AcDbPoint
 10
-78.340483
 20
-2.646698
 30
0.0
  0
LINE
  5
45
100
AcDbEntity
  8
1
370
   100
100
AcDbLine
 10
-130.76767
 20
-97.558662
 30
0.0
 11
-130.76767
 21
92.265266
 31
0.0
  0
LINE
  5
46
100
AcDbEntity
  8
1
370
    18
  6
CENTER
100
AcDbLine
 10
-120.661094
 20
-2.646698
 30
0.0
 11
-171.623995
 21
-2.646698
 31
0.0
  0
LINE
  5
47
100
AcDbEntity
  8
1
370
   100
100
AcDbLine
 10
-163.76767
 20
-97.558662
 30
0.0
 11
-163.76767
 21
92.265266
 31
0.0
  0
LINE
  5
48
100
AcDbEntity
  8
1
370
    25
  6
CENTER
100
AcDbLine
 10
-147.26767
 20
-2.646698
 30
0.0
 11
-147.26767
 21
-104.656525
 31
0.0
  0
LINE
  5
49
100
AcDbEntity
  8
1
370
   100
100
AcDbLine
 10
-130.76767
 20
64.853297
 30
0.0
 11
-163.76767
 21
64.853297
 31
0.0
  0
LINE
  5
4A
100
AcDbEntity
  8
1
370
   100
100
AcDbLine
 10
-130.76767
 20
-70.146703
 30
0.0
 11
-163.76767
 21
-70.146703
 31
0.0
  0
HATCH
  5
4B
100
AcDbEntity
  8
1
370
    25
100
AcDbHatch
 10
0.0
 20
0.0
 30
0.0
210
0.0
220
0.0
230
1.0
  2
_U
 70
     0
 71
     1
 91
        1
 92
        1
 93
       12
 72
     1
 10
-130.76846599999999
 20
-97.55865
 11
-130.76767000000001
 21
-70.146703000000002
 72
     1
 10
-130.76767000000001
 20
-70.146703000000002
 11
-163.76767000000001
 21
-70.146703000000002
 72
     1
 10
-163.76767000000001
 20
-70.146703000000002
 11
-163.76767000000001
 21
-97.558661999999998
 72
     1
 10
-163.76767000000001
 20
-97.558661999999998
 11
-160.594111
 21
-98.029140999999996
 72
     1
 10
-160.594111
 20
-98.029140999999996
 11
-157.42365599999999
 21
-98.353734000000003
 72
     1
 10
-157.42365599999999
 20
-98.353734000000003
 11
-154.25940900000001
 21
-98.386559000000005
 72
     1
 10
-154.25940900000001
 20
-98.386559000000005
 11
-150.76575199999999
 21
-98.014923999999993
 72
     1
 10
-150.76575199999999
 20
-98.014923999999993
 11
-147.26767000000001
 21
-97.558663999999993
 72
     1
 10
-147.26767000000001
 20
-97.558663999999993
 11
-143.00507099999999
 21
-97.359003000000001
 72
     1
 10
-143.00507099999999
 20
-97.359003000000001
 11
-138.73147
 21
-97.416351000000006
 72
     1
 10
-138.73147
 20
-97.416351000000006
 11
-134.748277
 21
-97.492947000000001
 72
     1
 10
-134.748277
 20
-97.492947000000001
 11
-130.76846599999999
 21
-97.55865
 97
       12
330
0
330
0
330
0
330
0
330
0
330
0
330
0
330
0
330
0
330
0
330
0
330
0
 75
     0
 76
     0
 52
315.0
 41
1.0
 77
     0
 78
     1
 53
315.0
 43
0.0
 44
0.0
 45
2.1213199999999999
 46
2.1213199999999999
 79
     0
 98
        1
 10
0.0
 20
0.0
  0
HATCH
  5
4C
100
AcDbEntity
  8
1
370
    25
100
AcDbHatch
 10
0.0
 20
0.0
 30
0.0
210
0.0
220
0.0
230
1.0
  2
_U
 70
     0
 71
     1
 91
        1
 92
        1
 93
       13
 72
     1
 10
-130.76827900000001
 20
64.853296999999998
 11
-163.76767000000001
 21
64.853296999999998
 72
     1
 10
-163.76767000000001
 20
64.853296999999998
 11
-163.76767000000001
 21
92.265265999999997
 72
     1
 10
-163.76767000000001
 20
92.265265999999997
 11
-160.467545
 21
92.312640999999999
 72
     1
 10
-160.467545
 20
92.312640999999999
 11
-157.167451
 21
92.348172000000005
 72
     1
 10
-157.167451
 20
92.348172000000005
 11
-153.86742000000001
 21
92.360015000000004
 72
     1
 10
-153.86742000000001
 20
92.360015000000004
 11
-150.56748300000001
 21
92.336327999999995
 72
     1
 10
-150.56748300000001
 20
92.336327999999995
 11
-147.26767000000001
 21
92.265264999999999
 72
     1
 10
-147.26767000000001
 20
92.265264999999999
 11
-143.79726600000001
 21
92.141628999999995
 72
     1
 10
-143.79726600000001
 20
92.141628999999995
 11
-140.32738499999999
 21
92.030028999999999
 72
     1
 10
-140.32738499999999
 20
92.030028999999999
 11
-136.85838100000001
 21
92.008010999999996
 72
     1
 10
-136.85838100000001
 20
92.008010999999996
 11
-133.81309300000001
 21
92.104400999999996
 72
     1
 10
-133.81309300000001
 20
92.104400999999996
 11
-130.76827900000001
 21
92.265231999999997
 72
     1
 10
-130.76827900000001
 20
92.265231999999997
 11
-130.76827900000001
 21
64.853296999999998
 97
       13
330
0
330
0
330
0
330
0
330
0
330
0
330
0
330
0
330
0
330
0
330
0
330
0
330
0
 75
     0
 76
     0
 52
315.0
 41
1.0
 77
     0
 78
     1
 53
315.0
 43
0.0
 44
0.0
 45
2.1213199999999999
 46
2.1213199999999999
 79
     0
 98
        1
 10
0.0
 20
0.0
  0
LINE
  5
4D
100
AcDbEntity
  8
1
370
    25
  6
CENTER
100
AcDbLine
 10
-147.26767
 20
-2.646698
 30
0.0
 11
-147.26767
 21
99.363129
 31
0.0
  0
LINE
  5
4E
100
AcDbEntity
  8
1
370
    18
  6
CENTER
100
AcDbLine
 10
125.13868
 20
48.353297
 30
0.0
 11
101.85088
 21
48.353297
 31
0.0
  0
LINE
  5
4F
100
AcDbEntity
  8
1
370
    18
  6
CENTER
100
AcDbLine
 10
125.13868
 20
-53.646703
 30
0.0
 11
101.85088
 21
-53.646703
 31
0.0
  0
LINE
  5
50
100
AcDbEntity
  8
1
370
    18
  6
CENTER
100
AcDbLine
 10
125.13868
 20
48.353297
 30
0.0
 11
148.426479
 21
48.353297
 31
0.0
  0
LINE
  5
51
100
AcDbEntity
  8
1
370
    18
  6
CENTER
100
AcDbLine
 10
125.13868
 20
-53.646703
 30
0.0
 11
148.426479
 21
-53.646703
 31
0.0
  0
LINE
  5
52
100
AcDbEntity
  8
1
370
   100
100
AcDbLine
 10
141.63868
 20
48.353297
 30
0.0
 11
141.63868
 21
-53.646703
 31
0.0
  0
LINE
  5
53
100
AcDbEntity
  8
1
370
   100
100
AcDbLine
 10
108.63868
 20
48.353297
 30
0.0
 11
108.63868
 21
-53.646703
 31
0.0
  0
LINE
  5
54
100
AcDbEntity
  8
1
370
    18
  6
CENTER
100
AcDbLine
 10
125.13868
 20
71.587708
 30
0.0
 11
125.13868
 21
-80.682647
 31
0.0
  0
LINE
  5
55
100
AcDbEntity
  8
1
370
    18
  6
CENTER
100
AcDbLine
 10
101.85088
 20
-2.646698
 30
0.0
 11
148.426479
 21
-2.646698
 31
0.0
  0
ARC
  5
56
100
AcDbEntity
  8
1
370
   100
100
AcDbCircle
 10
125.13868
 20
48.353297
 30
0.0
 40
16.5
100
AcDbArc
 50
0.0
 51
180.0
  0
ARC
  5
57
100
AcDbEntity
  8
1
370
    18
  6
PHANTOM
100
AcDbCircle
 10
125.13868
 20
48.353297
 30
0.0
 40
16.5
100
AcDbArc
 50
180.0
 51
360.0
  0
ARC
  5
58
100
AcDbEntity
  8
1
370
    18
  6
PHANTOM
100
AcDbCircle
 10
125.13868
 20
-53.646703
 30
0.0
 40
16.5
100
AcDbArc
 50
0.0
 51
180.0
  0
ARC
  5
59
100
AcDbEntity
  8
1
370
   100
100
AcDbCircle
 10
125.13868
 20
-53.646703
 30
0.0
 40
16.5
100
AcDbArc
 50
180.0
 51
360.0
  0
CIRCLE
  5
5A
100
AcDbEntity
  8
1
370
    18
  6
PHANTOM
100
AcDbCircle
 10
125.13868
 20
-2.646698
 30
0.0
 40
16.5
  0
LINE
  5
5B
100
AcDbEntity
  8
1
370
    18
  6
CENTER
100
AcDbLine
 10
101.85088
 20
22.8533
 30
0.0
 11
148.426479
 21
22.8533
 31
0.0
  0
LINE
  5
5C
100
AcDbEntity
  8
1
370
    18
  6
CENTER
100
AcDbLine
 10
101.85088
 20
-28.1467
 30
0.0
 11
148.426479
 21
-28.1467
 31
0.0
  0
CIRCLE
  5
5D
100
AcDbEntity
  8
1
370
    18
  6
PHANTOM
100
AcDbCircle
 10
125.13868
 20
-28.1467
 30
0.0
 40
16.5
  0
CIRCLE
  5
5E
100
AcDbEntity
  8
1
370
    18
  6
PHANTOM
100
AcDbCircle
 10
125.13868
 20
22.8533
 30
0.0
 40
16.5
  0
POINT
  5
5F
100
AcDbEntity
  8
1
370
    50
100
AcDbPoint
 10
125.13868
 20
-2.646698
 30
0.0
  0
LINE
  5
60
100
AcDbEntity
  8
1
370
   100
100
AcDbLine
 10
72.711493
 20
-70.146703
 30
0.0
 11
57.711493
 21
-70.146703
 31
0.0
  0
LINE
  5
61
100
AcDbEntity
  8
1
370
   100
100
AcDbLine
 10
72.711493
 20
-96.558662
 30
0.0
 11
72.711493
 21
91.265266
 31
0.0
  0
LINE
  5
62
100
AcDbEntity
  8
1
370
   100
100
AcDbLine
 10
57.711493
 20
-70.146703
 30
0.0
 11
57.711493
 21
64.853307
 31
0.0
  0
LINE
  5
63
100
AcDbEntity
  8
1
370
    18
  6
CENTER
100
AcDbLine
 10
82.818068
 20
-2.646698
 30
0.0
 11
31.855167
 21
-2.646698
 31
0.0
  0
LINE
  5
64
100
AcDbEntity
  8
1
370
   100
100
AcDbLine
 10
72.711493
 20
64.853307
 30
0.0
 11
57.711493
 21
64.853307
 31
0.0
  0
LINE
  5
65
100
AcDbEntity
  8
1
370
   100
100
AcDbLine
 10
39.711493
 20
-96.558662
 30
0.0
 11
39.711493
 21
91.265266
 31
0.0
  0
HATCH
  5
66
100
AcDbEntity
  8
1
370
    25
100
AcDbHatch
 10
0.0
 20
0.0
 30
0.0
210
0.0
220
0.0
230
1.0
  2
_U
 70
     0
 71
     1
 91
        1
 92
        1
 93
        8
 72
     1
 10
72.711493000000004
 20
-70.146703000000002
 11
57.711492999999997
 21
-70.146703000000002
 72
     1
 10
57.711492999999997
 20
-70.146703000000002
 11
57.711492999999997
 21
64.853307000000001
 72
     1
 10
57.711492999999997
 20
64.853307000000001
 11
72.711493000000004
 21
64.853307000000001
 72
     1
 10
72.711493000000004
 20
64.853307000000001
 11
72.711493000000004
 21
91.265265999999997
 72
     1
 10
72.711493000000004
 20
91.265265999999997
 11
39.711492999999997
 21
91.265265999999997
 72
     1
 10
39.711492999999997
 20
91.265265999999997
 11
39.711492999999997
 21
-96.558661999999998
 72
     1
 10
39.711492999999997
 20
-96.558661999999998
 11
72.711493000000004
 21
-96.558661999999998
 72
     1
 10
72.711493000000004
 20
-96.558661999999998
 11
72.711493000000004
 21
-70.146703000000002
 97
        8
330
0
330
0
330
0
330
0
330
0
330
0
330
0
330
0
 75
     0
 76
     0
 52
315.0
 41
1.0
 77
     0
 78
     1
 53
315.0
 43
0.0
 44
0.0
 45
2.1213199999999999
 46
2.1213199999999999
 79
     0
 98
        1
 10
0.0
 20
0.0
  0
LINE
  5
67
100
AcDbEntity
  8
1
370
    50
  6
DASHED
100
AcDbLine
 10
-3.12067
 20
120.928818
 30
0.0
 11
-3.12067
 21
-83.72644
 31
0.0
  0
LWPOLYLINE
  5
68
100
AcDbEntity
  8
2
370
    18
100
AcDbPolyline
 90
        3
 70
     0
 10
-70.740972
 20
62.999028
 10
-63.205488
 20
76.436458
 10
-38.547865
 20
76.436458
  0
LINE
  5
6D
100
AcDbEntity
  8
2
370
    25
100
AcDbLine
 10
-70.24755
 20
64.937207
 30
0.0
 11
-70.740972
 21
62.999028
 31
0.0
  0
LINE
  5
6E
100
AcDbEntity
  8
2
370
    25
100
AcDbLine
 10
-70.740972
 20
62.999028
 30
0.0
 11
-69.344567
 21
64.430829
 31
0.0
  0
TEXT
  5
6F
100
AcDbEntity
  8
2
370
    18
100
AcDbText
 10
-62.043486
 20
76.936458
 30
0.0
 40
3.0
  1
φ３３×５貫通
 72
     5
 11
-41.643486
 21
76.936458
 31
0.0
100
AcDbText
  0
DIMENSION
  5
70
100
AcDbEntity
  8
2
370
    25
100
AcDbDimension
  2
*D0
 10
-36.52146
 20
48.353297
 30
0.0
 11
-41.52146
 21
-4.146703
 31
0.0
 71
     0
 72
     0
 41
0.0
 42
0.0
  3
Standard
100
AcDbAlignedDimension
 13
-55.052683
 23
-53.646703
 33
0.0
 14
-55.052683
 24
48.353297
 34
0.0
 50
90.0
100
AcDbRotatedDimension
  0
DIMENSION
  5
71
100
AcDbEntity
  8
2
370
    25
100
AcDbDimension
  2
*D1
 10
-30.170057
 20
64.853297
 30
0.0
 11
-35.170057
 21
-4.146703
 31
0.0
 71
     0
 72
     0
 41
0.0
 42
0.0
  3
Standard
100
AcDbAlignedDimension
 13
-78.340483
 23
-70.146703
 33
0.0
 14
-78.340483
 24
64.853297
 34
0.0
 50
90.0
100
AcDbRotatedDimension
  0
DIMENSION
  5
72
100
AcDbEntity
  8
2
370
    25
100
AcDbDimension
  2
*D2
 10
-41.855265
 20
22.8533
 30
0.0
 11
-48.355265
 21
7.103301
 31
0.0
 71
     0
 72
     0
 41
0.0
 42
0.0
  3
Standard
100
AcDbAlignedDimension
 13
-55.052683
 23
-2.646698
 33
0.0
 14
-55.052683
 24
22.8533
 34
0.0
 50
90.0
100
AcDbRotatedDimension
  0
DIMENSION
  5
73
100
AcDbEntity
  8
2
370
    25
100
AcDbDimension
  2
*D3
 10
-41.855265
 20
48.353297
 30
0.0
 11
-48.355265
 21
32.603298
 31
0.0
 71
     0
 72
     0
 41
0.0
 42
0.0
  3
Standard
100
AcDbAlignedDimension
 13
-55.052683
 23
22.8533
 33
0.0
 14
-55.052683
 24
48.353297
 34
0.0
 50
90.0
100
AcDbRotatedDimension
  0
DIMENSION
  5
74
100
AcDbEntity
  8
2
370
    25
100
AcDbDimension
  2
*D4
 10
-41.855265
 20
-2.646698
 30
0.0
 11
-48.355265
 21
-18.396699
 31
0.0
 71
     0
 72
     0
 41
0.0
 42
0.0
  3
Standard
100
AcDbAlignedDimension
 13
-55.052683
 23
-28.1467
 33
0.0
 14
-55.052683
 24
-2.646698
 34
0.0
 50
90.0
100
AcDbRotatedDimension
  0
DIMENSION
  5
75
100
AcDbEntity
  8
2
370
    25
100
AcDbDimension
  2
*D5
 10
-41.855265
 20
-28.1467
 30
0.0
 11
-48.355265
 21
-43.896702
 31
0.0
 71
     0
 72
     0
 41
0.0
 42
0.0
  3
Standard
100
AcDbAlignedDimension
 13
-55.052683
 23
-53.646703
 33
0.0
 14
-55.052683
 24
-28.1467
 34
0.0
 50
90.0
100
AcDbRotatedDimension
  0
LWPOLYLINE
  5
76
100
AcDbEntity
  8
2
370
    18
100
AcDbPolyline
 90
        3
 70
     0
 10
132.73819
 20
62.999028
 10
140.273674
 20
76.436458
 10
156.942986
 20
76.436458
  0
LINE
  5
7B
100
AcDbEntity
  8
2
370
    25
100
AcDbLine
 10
133.231612
 20
64.937207
 30
0.0
 11
132.73819
 21
62.999028
 31
0.0
  0
LINE
  5
7C
100
AcDbEntity
  8
2
370
    25
100
AcDbLine
 10
132.73819
 20
62.999028
 30
0.0
 11
134.134595
 21
64.430829
 31
0.0
  0
TEXT
  5
7D
100
AcDbEntity
  8
2
370
    18
100
AcDbText
 10
141.435677
 20
76.936458
 30
0.0
 40
3.0
  1
φ３３×５
 72
     5
 11
155.835677
 21
76.936458
 31
0.0
100
AcDbText
  0
DIMENSION
  5
7E
100
AcDbEntity
  8
2
370
    25
100
AcDbDimension
  2
*D6
 10
72.711493
 20
99.379128
 30
0.0
 11
65.211493
 21
101.379128
 31
0.0
 71
     0
 72
     0
 41
0.0
 42
0.0
  3
Standard
100
AcDbAlignedDimension
 13
57.711493
 23
64.853307
 33
0.0
 14
72.711493
 24
91.265266
 34
0.0
100
AcDbRotatedDimension
  0
DIMENSION
  5
7F
100
AcDbEntity
  8
2
370
    25
100
AcDbDimension
  2
*D7
 10
166.957703
 20
48.353297
 30
0.0
 11
161.957703
 21
-4.146703
 31
0.0
 71
     0
 72
     0
 41
0.0
 42
0.0
  3
Standard
100
AcDbAlignedDimension
 13
148.426479
 23
-53.646703
 33
0.0
 14
148.426479
 24
48.353297
 34
0.0
 50
90.0
100
AcDbRotatedDimension
  0
DIMENSION
  5
80
100
AcDbEntity
  8
2
370
    25
100
AcDbDimension
  2
*D8
 10
173.309105
 20
64.853297
 30
0.0
 11
168.309105
 21
-4.146703
 31
0.0
 71
     0
 72
     0
 41
0.0
 42
0.0
  3
Standard
100
AcDbAlignedDimension
 13
125.13868
 23
-70.146703
 33
0.0
 14
125.13868
 24
64.853297
 34
0.0
 50
90.0
100
AcDbRotatedDimension
  0
DIMENSION
  5
81
100
AcDbEntity
  8
2
370
    25
100
AcDbDimension
  2
*D9
 10
161.623898
 20
22.8533
 30
0.0
 11
155.123898
 21
7.103301
 31
0.0
 71
     0
 72
     0
 41
0.0
 42
0.0
  3
Standard
100
AcDbAlignedDimension
 13
148.426479
 23
-2.646698
 33
0.0
 14
148.426479
 24
22.8533
 34
0.0
 50
90.0
100
AcDbRotatedDimension
  0
DIMENSION
  5
82
100
AcDbEntity
  8
2
370
    25
100
AcDbDimension
  2
*D10
 10
161.623898
 20
48.353297
 30
0.0
 11
155.123898
 21
32.603298
 31
0.0
 71
     0
 72
     0
 41
0.0
 42
0.0
  3
Standard
100
AcDbAlignedDimension
 13
148.426479
 23
22.8533
 33
0.0
 14
148.426479
 24
48.353297
 34
0.0
 50
90.0
100
AcDbRotatedDimension
  0
DIMENSION
  5
83
100
AcDbEntity
  8
2
370
    25
100
AcDbDimension
  2
*D11
 10
161.623898
 20
-2.646698
 30
0.0
 11
155.123898
 21
-18.396699
 31
0.0
 71
     0
 72
     0
 41
0.0
 42
0.0
  3
Standard
100
AcDbAlignedDimension
 13
148.426479
 23
-28.1467
 33
0.0
 14
148.426479
 24
-2.646698
 34
0.0
 50
90.0
100
AcDbRotatedDimension
  0
DIMENSION
  5
84
100
AcDbEntity
  8
2
370
    25
100
AcDbDimension
  2
*D12
 10
161.623898
 20
-28.1467
 30
0.0
 11
155.123898
 21
-43.896702
 31
0.0
 71
     0
 72
     0
 41
0.0
 42
0.0
  3
Standard
100
AcDbAlignedDimension
 13
148.426479
 23
-53.646703
 33
0.0
 14
148.426479
 24
-28.1467
 34
0.0
 50
90.0
100
AcDbRotatedDimension
  0
TEXT
  5
85
100
AcDbEntity
  8
2
370
    18
100
AcDbText
 10
48.711493
 20
104.112289
 30
0.0
 40
3.0
  1
扉厚２６～
 72
     5
 11
63.111493
 21
104.112289
 31
0.0
100
AcDbText
  0
DIMENSION
  5
86
100
AcDbEntity
  8
2
370
    25
100
AcDbDimension
  2
*D13
 10
72.711493
 20
103.612289
 30
0.0
 11
56.211493
 21
105.612289
 31
0.0
 71
     0
 72
     0
 41
0.0
 42
0.0
  3
Standard
100
AcDbAlignedDimension
 13
39.711493
 23
91.265266
 33
0.0
 14
72.711493
 24
91.265266
 34
0.0
100
AcDbRotatedDimension
  0
TEXT
  5
87
100
AcDbEntity
  8
2
370
    18
100
AcDbText
 10
7.801661
 20
125.296471
 30
0.0
 40
3.2
  1
Ｋ-１Ｂ・Ｋ-１Ｃ　切欠図
 72
     5
 11
45.561662
 21
125.296471
 31
0.0
100
AcDbText
  0
TEXT
  5
88
100
AcDbEntity
  8
2
370
    18
100
AcDbText
 10
-179.796843
 20
125.296471
 30
0.0
 40
3.2
  1
バーハンドル引手
 72
     5
 11
-154.836843
 21
125.296471
 31
0.0
100
AcDbText
  0
TEXT
  5
89
100
AcDbEntity
  8
2
370
    18
100
AcDbText
 10
-179.796843
 20
121.420303
 30
0.0
 40
3.2
  1
１Ｂ・１Ｃ・１ＢＷ・１ＣＷ　切欠図
 72
     5
 11
-126.036843
 21
121.420303
 31
0.0
100
AcDbText
  0
TEXT
  5
8A
100
AcDbEntity
  8
2
370
    18
100
AcDbText
 10
-166.104401
 20
110.198105
 30
0.0
 40
3.0
  1
バーハンドル引手…扉厚３０～４０
 72
     5
 11
-118.704401
 21
110.198105
 31
0.0
100
AcDbText
  0
TEXT
  5
8B
100
AcDbEntity
  8
2
370
    18
100
AcDbText
 10
-166.76767
 20
106.736282
 30
0.0
 40
3.0
  1
１ＢＷ・１ＣＷ…扉厚３３～３８
 72
     5
 11
-122.36767
 21
106.736282
 31
0.0
100
AcDbText
  0
TEXT
  5
8C
100
AcDbEntity
  8
2
370
    18
100
AcDbText
 10
-166.76767
 20
103.60202
 30
0.0
 40
3.0
  1
１Ｂ・１Ｃ…扉厚２８～３３
 72
     5
 11
-128.36767
 21
103.60202
 31
0.0
100
AcDbText
  0
DIMENSION
  5
8D
100
AcDbEntity
  8
2
370
    25
100
AcDbDimension
  2
*D14
 10
-130.76767
 20
103.10202
 30
0.0
 11
-147.26767
 21
105.10202
 31
0.0
 71
     0
 72
     0
 41
0.0
 42
0.0
  3
Standard
100
AcDbAlignedDimension
 13
-163.76767
 23
92.265266
 33
0.0
 14
-130.76767
 24
92.265266
 34
0.0
100
AcDbRotatedDimension
  0
LINE
  5
8E
100
AcDbEntity
  8
3
370
   100
100
AcDbLine
 10
200.0
 20
138.0
 30
0.0
 11
200.0
 21
-138.0
 31
0.0
  0
LINE
  5
8F
100
AcDbEntity
  8
3
370
   100
100
AcDbLine
 10
-190.0
 20
-138.0
 30
0.0
 11
200.0
 21
-138.0
 31
0.0
  0
LINE
  5
90
100
AcDbEntity
  8
3
370
    50
100
AcDbLine
 10
-190.0
 20
-108.0
 30
0.0
 11
200.0
 21
-108.0
 31
0.0
  0
LINE
  5
91
100
AcDbEntity
  8
3
370
    25
100
AcDbLine
 10
10.0
 20
-112.999949
 30
0.0
 11
108.000527
 21
-112.999865
 31
0.0
  0
LINE
  5
92
100
AcDbEntity
  8
3
370
   100
100
AcDbLine
 10
-190.3
 20
138.3
 30
0.0
 11
200.3
 21
138.3
 31
0.0
  0
LINE
  5
93
100
AcDbEntity
  8
3
370
   100
100
AcDbLine
 10
200.3
 20
138.3
 30
0.0
 11
200.3
 21
-138.3
 31
0.0
  0
LINE
  5
94
100
AcDbEntity
  8
3
370
   100
100
AcDbLine
 10
200.3
 20
-138.3
 30
0.0
 11
-190.3
 21
-138.3
 31
0.0
  0
LINE
  5
95
100
AcDbEntity
  8
3
370
   100
100
AcDbLine
 10
-190.3
 20
-138.3
 30
0.0
 11
-190.3
 21
138.3
 31
0.0
  0
LINE
  5
96
100
AcDbEntity
  8
3
370
    25
100
AcDbLine
 10
108.000527
 20
-112.999865
 30
0.0
 11
108.000527
 21
-108.0
 31
0.0
  0
LINE
  5
97
100
AcDbEntity
  8
3
370
    25
100
AcDbLine
 10
90.0
 20
-129.999865
 30
0.0
 11
108.000527
 21
-129.999865
 31
0.0
  0
LINE
  5
98
100
AcDbEntity
  8
3
370
    25
100
AcDbLine
 10
108.000527
 20
-129.999865
 30
0.0
 11
108.000527
 21
-125.0
 31
0.0
  0
LINE
  5
99
100
AcDbEntity
  8
3
370
    50
100
AcDbLine
 10
10.0
 20
-108.0
 30
0.0
 11
10.0
 21
-138.0
 31
0.0
  0
TEXT
  5
9A
100
AcDbEntity
  8
3
370
   100
100
AcDbText
 10
22.0
 20
-135.5
 30
0.0
 40
8.0
  1
（株）川口技研
 72
     5
 11
76.4
 21
-135.5
 31
0.0
100
AcDbText
  0
TEXT
  5
9B
100
AcDbEntity
  8
3
370
    25
100
AcDbText
 10
91.800263
 20
-112.29994
 30
0.0
 40
3.6
  1
図面名称
 72
     5
 11
105.480263
 21
-112.29994
 31
0.0
100
AcDbText
  0
TEXT
  5
9C
100
AcDbEntity
  8
3
370
    25
100
AcDbText
 10
91.800263
 20
-129.299925
 30
0.0
 40
3.6
  1
図面番号
 72
     5
 11
105.480263
 21
-129.299925
 31
0.0
100
AcDbText
  0
TEXT
  5
9D
100
AcDbEntity
  8
3
370
    25
100
AcDbText
 10
16.133333
 20
-112.299991
 30
0.0
 40
3.6
  1
図　　法
 72
     5
 11
29.813333
 21
-112.299991
 31
0.0
100
AcDbText
  0
TEXT
  5
9E
100
AcDbEntity
  8
3
370
    25
100
AcDbText
 10
42.8
 20
-112.299974
 30
0.0
 40
3.6
  1
単　　位
 72
     5
 11
56.48
 21
-112.299974
 31
0.0
100
AcDbText
  0
TEXT
  5
9F
100
AcDbEntity
  8
3
370
    25
100
AcDbText
 10
69.466667
 20
-112.299957
 30
0.0
 40
3.6
  1
尺　　度
 72
     5
 11
83.146667
 21
-112.299957
 31
0.0
100
AcDbText
  0
TEXT
  5
A0
100
AcDbEntity
  8
3
370
    25
100
AcDbText
 10
46.0
 20
-120.999957
 30
0.0
 40
4.0
  1
ｍｍ
 72
     5
 11
53.2
 21
-120.999957
 31
0.0
100
AcDbText
  0
TEXT
  5
A1
100
AcDbEntity
  8
3
370
    25
100
AcDbText
 10
17.333333
 20
-120.999957
 30
0.0
 40
4.0
  1
３角法
 72
     5
 11
28.533333
 21
-120.999957
 31
0.0
100
AcDbText
  0
LINE
  5
A2
100
AcDbEntity
  8
3
370
    50
100
AcDbLine
 10
90.0
 20
-138.0
 30
0.0
 11
90.0
 21
-108.0
 31
0.0
  0
LINE
  5
A3
100
AcDbEntity
  8
3
370
    50
100
AcDbLine
 10
10.0
 20
-125.0
 30
0.0
 11
90.0
 21
-125.0
 31
0.0
  0
LINE
  5
A4
100
AcDbEntity
  8
3
370
    50
100
AcDbLine
 10
90.0
 20
-125.0
 30
0.0
 11
200.0
 21
-125.0
 31
0.0
  0
LINE
  5
A5
100
AcDbEntity
  8
3
370
    50
100
AcDbLine
 10
36.666667
 20
-125.0
 30
0.0
 11
36.666667
 21
-108.0
 31
0.0
  0
LINE
  5
A6
100
AcDbEntity
  8
3
370
    50
100
AcDbLine
 10
63.333333
 20
-125.0
 30
0.0
 11
63.333333
 21
-108.0
 31
0.0
  0
TEXT
  5
A7
100
AcDbEntity
  8
3
370
    25
100
AcDbText
 10
70.666667
 20
-120.999957
 30
0.0
 40
4.0
  1
１／１
 72
     5
 11
81.866667
 21
-120.999957
 31
0.0
100
AcDbText
  0
TEXT
  5
A8
100
AcDbEntity
  8
3
370
   100
100
AcDbText
 10
124.421455
 20
-134.545471
 30
0.0
 40
6.0
  1
ＤＺ－１９７９－００
 72
     5
 11
183.221455
 21
-134.545471
 31
0.0
100
AcDbText
  0
TEXT
  5
A9
100
AcDbEntity
  8
3
370
    50
100
AcDbText
 10
93.266281
 20
-118.105537
 30
0.0
 40
4.5
  1
１Ｂ(Ｗ)/１Ｃ(Ｗ)/Ｋ-１(Ｂ・Ｃ)/ＢＨ-(Ｒ１・Ｋ１)Ｇ　
 41
0.9
 72
     5
 11
195.731281
 21
-118.105537
 31
0.0
100
AcDbText
  0
TEXT
  5
AA
100
AcDbEntity
  8
3
370
    18
100
AcDbText
 10
161.490573
 20
-123.765137
 30
0.0
 40
4.5
  1
-色記号　切欠図
 72
     5
 11
194.340573
 21
-123.765137
 31
0.0
100
AcDbText
  0
ENDSEC
  0
SECTION
  2
OBJECTS
  0
DICTIONARY
  5
13F
100
AcDbDictionary
280
     0
281
     1
  3
ACAD_GROUP
350
140
  3
ACAD_MLINESTYLE
350
141
  0
DICTIONARY
  5
140
102
{ACAD_REACTORS
330
13F
102
}
100
AcDbDictionary
280
     0
281
     1
  0
DICTIONARY
  5
141
102
{ACAD_REACTORS
330
13F
102
}
100
AcDbDictionary
280
     0
281
     1
  3
Standard
350
142
  0
MLINESTYLE
  5
142
102
{ACAD_REACTORS
330
141
102
}
100
AcDbMlineStyle
  2
Standard
 70
     0
  3

 62
     0
 51
90.0
 52
90.0
 71
     2
 49
0.5
 62
   256
  6
ByLayer
 49
-0.5
 62
   256
  6
ByLayer
  0
ENDSEC
  0
EOF
