  0
SECTION
  2
HEADER
  9
$ACADVER
  1
AC1015
  9
$ACADMAINTVER
 70
     6
  9
$DWGCODEPAGE
  3
ANSI_932
  9
$INSBASE
 10
0.0
 20
0.0
 30
0.0
  9
$EXTMIN
 10
-210.0
 20
-148.5
 30
1.000000E+20
  9
$EXTMAX
 10
210.0
 20
148.5
 30
-1.000000E+20
  9
$LIMMIN
 10
-210.0
 20
-148.5
  9
$LIMMAX
 10
210.0
 20
148.5
  9
$ORTHOMODE
 70
     0
  9
$REGENMODE
 70
     1
  9
$FILLMODE
 70
     1
  9
$QTEXTMODE
 70
     0
  9
$MIRRTEXT
 70
     1
  9
$LTSCALE
 40
1.0
  9
$ATTMODE
 70
     1
  9
$TEXTSIZE
 40
0.2
  9
$TRACEWID
 40
0.05
  9
$TEXTSTYLE
  7
STANDARD
  9
$CLAYER
  8
0
  9
$CELTYPE
  6
CONTINUOUS
  9
$CECOLOR
 62
   256
  9
$CELTSCALE
 40
1.0
  9
$DISPSILH
 70
     0
  9
$DIMSCALE
 40
1.0
  9
$DIMASZ
 40
2.0
  9
$DIMEXO
 40
0.5
  9
$DIMDLI
 40
0.38
  9
$DIMRND
 40
0.0
  9
$DIMDLE
 40
0.0
  9
$DIMEXE
 40
2.0
  9
$DIMTP
 40
0.0
  9
$DIMTM
 40
0.0
  9
$DIMTXT
 40
2.5
  9
$DIMCEN
 40
0.09
  9
$DIMTSZ
 40
0.0
  9
$DIMTOL
 70
     0
  9
$DIMLIM
 70
     0
  9
$DIMTIH
 70
     0
  9
$DIMTOH
 70
     0
  9
$DIMSE1
 70
     0
  9
$DIMSE2
 70
     0
  9
$DIMTAD
 70
     1
  9
$DIMZIN
 70
     0
  9
$DIMBLK
  1

  9
$DIMASO
 70
     1
  9
$DIMSHO
 70
     1
  9
$DIMPOST
  1

  9
$DIMAPOST
  1

  9
$DIMALT
 70
     0
  9
$DIMALTD
 70
     2
  9
$DIMALTF
 40
25.4
  9
$DIMLFAC
 40
1.0
  9
$DIMTOFL
 70
     0
  9
$DIMTVP
 40
0.0
  9
$DIMTIX
 70
     0
  9
$DIMSOXD
 70
     0
  9
$DIMSAH
 70
     0
  9
$DIMBLK1
  1

  9
$DIMBLK2
  1

  9
$DIMSTYLE
  2
Standard
  9
$DIMCLRD
 70
     0
  9
$DIMCLRE
 70
     0
  9
$DIMCLRT
 70
     0
  9
$DIMTFAC
 40
1.0
  9
$DIMGAP
 40
0.5
  9
$DIMJUST
 70
     0
  9
$DIMSD1
 70
     0
  9
$DIMSD2
 70
     0
  9
$DIMTOLJ
 70
     1
  9
$DIMTZIN
 70
     0
  9
$DIMALTZ
 70
     0
  9
$DIMALTTZ
 70
     0
  9
$DIMUPT
 70
     0
  9
$DIMDEC
 70
     2
  9
$DIMTDEC
 70
     4
  9
$DIMALTU
 70
     2
  9
$DIMALTTD
 70
     2
  9
$DIMTXSTY
  7
STANDARD
  9
$DIMAUNIT
 70
     0
  9
$DIMADEC
 70
     0
  9
$DIMALTRND
 40
0.0
  9
$DIMAZIN
 70
     0
  9
$DIMDSEP
 70
     0
  9
$DIMATFIT
 70
     3
  9
$DIMFRAC
 70
     0
  9
$DIMLDRBLK
  1

  9
$DIMLUNIT
 70
     2
  9
$DIMLWD
 70
     0
  9
$DIMLWE
 70
     0
  9
$DIMTMOVE
 70
     0
  9
$LUNITS
 70
     2
  9
$LUPREC
 70
     4
  9
$SKETCHINC
 40
0.1
  9
$FILLETRAD
 40
0.0
  9
$AUNITS
 70
     0
  9
$AUPREC
 70
     0
  9
$MENU
  1
acad
  9
$ELEVATION
 40
0.0
  9
$PELEVATION
 40
0.0
  9
$THICKNESS
 40
0.0
  9
$LIMCHECK
 70
     0
  9
$CHAMFERA
 40
0.0
  9
$CHAMFERB
 40
0.0
  9
$CHAMFERC
 40
0.0
  9
$CHAMFERD
 40
0.0
  9
$SKPOLY
 70
     0
  9
$TDCREATE
 40
2451501.000000000
  9
$TDUCREATE
 40
0.000000000
  9
$TDUPDATE
 40
0.000000000
  9
$TDUUPDATE
 40
2447892.625000000
  9
$TDINDWG
 40
0.0000000000
  9
$TDUSRTIMER
 40
0.0000000000
  9
$USRTIMER
 70
     1
  9
$ANGBASE
 50
0.0
  9
$ANGDIR
 70
     0
  9
$PDMODE
 70
     0
  9
$PDSIZE
 40
0.0
  9
$PLINEWID
 40
0.0
  9
$SPLFRAME
 70
     0
  9
$SPLINETYPE
 70
     6
  9
$SPLINESEGS
 70
     8
  9
$HANDSEED
  5
138
  9
$SURFTAB1
 70
     6
  9
$SURFTAB2
 70
     6
  9
$SURFTYPE
 70
     6
  9
$SURFU
 70
     6
  9
$SURFV
 70
     6
  9
$UCSBASE
  2

  9
$UCSNAME
  2

  9
$UCSORG
 10
0.0
 20
0.0
 30
0.0
  9
$UCSXDIR
 10
1.0
 20
0.0
 30
0.0
  9
$UCSYDIR
 10
0.0
 20
1.0
 30
0.0
  9
$UCSORTHOREF
  2

  9
$UCSORTHOVIEW
 70
     0
  9
$UCSORGTOP
 10
0.0
 20
0.0
 30
0.0
  9
$UCSORGBOTTOM
 10
0.0
 20
0.0
 30
0.0
  9
$UCSORGLEFT
 10
0.0
 20
0.0
 30
0.0
  9
$UCSORGRIGHT
 10
0.0
 20
0.0
 30
0.0
  9
$UCSORGFRONT
 10
0.0
 20
0.0
 30
0.0
  9
$UCSORGBACK
 10
0.0
 20
0.0
 30
0.0
  9
$PUCSBASE
  2

  9
$PUCSNAME
  2

  9
$PUCSORG
 10
0.0
 20
0.0
 30
0.0
  9
$PUCSXDIR
 10
1.0
 20
0.0
 30
0.0
  9
$PUCSYDIR
 10
0.0
 20
1.0
 30
0.0
  9
$PUCSORTHOREF
  2

  9
$PUCSORTHOVIEW
 70
     0
  9
$PUCSORGTOP
 10
0.0
 20
0.0
 30
0.0
  9
$PUCSORGBOTTOM
 10
0.0
 20
0.0
 30
0.0
  9
$PUCSORGLEFT
 10
0.0
 20
0.0
 30
0.0
  9
$PUCSORGRIGHT
 10
0.0
 20
0.0
 30
0.0
  9
$PUCSORGFRONT
 10
0.0
 20
0.0
 30
0.0
  9
$PUCSORGBACK
 10
0.0
 20
0.0
 30
0.0
  9
$USERI1
 70
     0
  9
$USERI2
 70
     0
  9
$USERI3
 70
     0
  9
$USERI4
 70
     0
  9
$USERI5
 70
     0
  9
$USERR1
 40
0.0
  9
$USERR2
 40
0.0
  9
$USERR3
 40
0.0
  9
$USERR4
 40
0.0
  9
$USERR5
 40
0.0
  9
$WORLDVIEW
 70
     1
  9
$SHADEDGE
 70
     3
  9
$SHADEDIF
 70
    70
  9
$TILEMODE
 70
     1
  9
$MAXACTVP
 70
    16
  9
$PINSBASE
 10
0.0
 20
0.0
 30
0.0
  9
$PLIMCHECK
 70
     0
  9
$PEXTMIN
 10
1.000000E+20
 20
1.000000E+20
 30
1.000000E+20
  9
$PEXTMAX
 10
-1.000000E+20
 20
-1.000000E+20
 30
-1.000000E+20
  9
$PLIMMIN
 10
0.0
 20
0.0
  9
$PLIMMAX
 10
12.0
 20
9.0
  9
$UNITMODE
 70
     0
  9
$VISRETAIN
 70
     0
  9
$PLINEGEN
 70
     1
  9
$PSLTSCALE
 70
     0
  9
$TREEDEPTH
 70
  3020
  9
$CMLSTYLE
  2
Standard
  9
$CMLJUST
 70
     0
  9
$CMLSCALE
 40
1.0
  9
$PROXYGRAPHICS
 70
     0
  9
$MEASUREMENT
 70
     0
  9
$CELWEIGHT
370
     0
  9
$ENDCAPS
280
     0
  9
$JOINSTYLE
280
     0
  9
$LWDISPLAY
290
     0
  9
$INSUNITS
 70
     0
  9
$HYPERLINKBASE
  1

  9
$STYLESHEET
  1

  9
$XEDIT
290
     1
  9
$CEPSNTYPE
380
     0
  9
$PSTYLEMODE
290
     1
  9
$FINGERPRINTGUID
  2

  9
$VERSIONGUID
  2

  9
$EXTNAMES
290
     1
  9
$PSVPSCALE
 40
0.0
  0
ENDSEC
  0
SECTION
  2
CLASSES
  0
CLASS
  1
LWPOLYLINE
  2
AcDbPolyline
  3
AutoCAD 2000
 90
        0
280
     0
281
     1
  0
CLASS
  1
IMAGE
  2
AcDbRasterImage
  3
ISM
 90
      127
280
     0
281
     1
  0
CLASS
  1
OLE2FRAME
  2
AcDbOle2Frame
  3
AutoCAD 2000
 90
        0
280
     0
281
     1
  0
CLASS
  1
HATCH
  2
AcDbHatch
  3
AutoCAD 2000
 90
        0
280
     0
281
     1
  0
CLASS
  1
DICTIONARYVAR
  2
AcDbDictionaryVar
  3
AutoCAD 2000
 90
        0
280
     0
281
     0
  0
CLASS
  1
RASTERVARIABLES
  2
AcDbRasterVariables
  3
ISM
 90
        0
280
     0
281
     0
  0
CLASS
  1
IMAGEDEF
  2
AcDbRasterImageDef
  3
ISM
 90
        0
280
     0
281
     0
  0
CLASS
  1
IMAGEDEF_REACTOR
  2
AcDbRasterImageDefReactor
  3
ISM
 90
        1
280
     0
281
     0
  0
CLASS
  1
IDBUFFER
  2
AcDbIdBuffer
  3
AutoCAD 2000
 90
        0
280
     0
281
     0
  0
CLASS
  1
SPATIAL_FILTER
  2
AcDbSpatialFilter
  3
AutoCAD 2000
 90
        0
280
     0
281
     0
  0
CLASS
  1
XRECORD
  2
AcDbXrecord
  3
AutoCAD 2000
 90
        0
280
     0
281
     0
  0
CLASS
  1
SORTENTSTABLE
  2
AcDbSortentsTable
  3
AutoCAD 2000
 90
        0
280
     0
281
     0
  0
CLASS
  1
LAYER_INDEX
  2
AcDbLayerIndex
  3
AutoCAD 2000
 90
        0
280
     0
281
     0
  0
CLASS
  1
SPATIAL_INDEX
  2
AcDbSpatialIndex
  3
AutoCAD 2000
 90
        0
280
     0
281
     0
  0
CLASS
  1
OBJECT_PTR
  2
CAseDLPNTableRecord
  3
"ASE-LPNTableRecord"
 90
        1
280
     0
281
     0
  0
CLASS
  1
LAYOUT
  2
AcDbLayout
  3
AutoCAD 2000
 90
        0
280
     0
281
     0
  0
CLASS
  1
PLOTSETTINGS
  2
AcDbPlotSettings
  3
AutoCAD 2000
 90
        0
280
     0
281
     0
  0
CLASS
  1
ACDBDICTIONARYWDFLT
  2
AcDbDictionaryWithDefault
  3
AutoCAD 2000
 90
        0
280
     0
281
     0
  0
CLASS
  1
ACDBPLACEHOLDER
  2
AcDbPlaceHolder
  3
AutoCAD 2000
 90
        0
280
     0
281
     0
  0
CLASS
  1
VBA_PROJECT
  2
AcDbVbaProject
  3
acadvba
 90
        0
280
     0
281
     0
  0
CLASS
  1
WIPEOUT
  2
AcDbWipeout
  3
WipeOut|AutoCAD Express Tool|expresstools@autodesk.com
 90
      127
280
     0
281
     1
  0
CLASS
  1
WIPEOUTVARIABLES
  2
AcDbWipeoutVariables
  3
WipeOut|AutoCAD Express Tool|expresstools@autodesk.com
 90
        0
280
     0
281
     0
  0
CLASS
  1
RTEXT
  2
RText
  3
RText|AutoCAD Express Tool|expresstools@autodesk.com
 90
        0
280
     0
281
     1
  0
CLASS
  1
ARCALIGNEDTEXT
  2
AcDbArcAlignedText
  3
ATEXT|AutoCAD Express Tool|expresstools@autodesk.com
 90
        0
280
     0
281
     1
  0
ENDSEC
  0
SECTION
  2
TABLES
  0
TABLE
  2
VPORT
  5
6
100
AcDbSymbolTable
 70
     1
  0
VPORT
  5
19
100
AcDbSymbolTableRecord
100
AcDbViewportTableRecord
  2
*ACTIVE
 70
     0
 10
0.0
 20
0.0
 11
1.0
 21
1.0
 12
0.0
 22
0.0
 13
0.0
 23
0.0
 14
1.0
 24
1.0
 15
0.0
 25
0.0
 16
0.0
 26
0.0
 36
1.0
 17
0.0
 27
0.0
 37
0.0
 40
297.0
 41
1.414141
 42
50.0
 43
0.0
 44
0.0
 50
0.0
 51
0.0
 71
     0
 72
   500
 73
     1
 74
     1
 75
     0
 76
     0
 77
     0
 78
     0
281
     0
 65
     0
110
0.0
120
0.0
130
0.0
111
1.0
121
0.0
131
0.0
112
0.0
122
1.0
132
0.0
345
0
346
0
 79
     0
146
0.0
  0
ENDTAB
  0
TABLE
  2
LTYPE
  5
3
100
AcDbSymbolTable
 70
     9
  0
LTYPE
  5
C
100
AcDbSymbolTableRecord
100
AcDbLinetypeTableRecord
  2
ByBlock
 70
    64
  3

 72
    65
 73
     0
 40
0.0
  0
LTYPE
  5
D
100
AcDbSymbolTableRecord
100
AcDbLinetypeTableRecord
  2
ByLayer
 70
    64
  3

 72
    65
 73
     0
 40
0.0
  0
LTYPE
  5
E
100
AcDbSymbolTableRecord
100
AcDbLinetypeTableRecord
  2
CONTINUOUS
 70
     0
  3
Solid line
 72
    65
 73
     0
 40
0.0
  0
LTYPE
  5
F
100
AcDbSymbolTableRecord
100
AcDbLinetypeTableRecord
  2
DASHED
 70
     0
  3
__ __ __ __ __ __ __ __ __ __ __ __ __ __ __
 72
    65
 73
     2
 40
2.0
 49
1.2
 74
     0
 49
-0.8
 74
     0
  0
LTYPE
  5
10
100
AcDbSymbolTableRecord
100
AcDbLinetypeTableRecord
  2
CENTER
 70
     0
  3
____ _ ____ _ ____ _ ____ _ ____ _ ____ _ ____
 72
    65
 73
     4
 40
12.0
 49
9.0
 74
     0
 49
-1.0
 74
     0
 49
1.0
 74
     0
 49
-1.0
 74
     0
  0
LTYPE
  5
11
100
AcDbSymbolTableRecord
100
AcDbLinetypeTableRecord
  2
HIDDEN
 70
     0
  3
_ _ _ _ _ _ _ _ _ _ _ _ _ _ _ _ _ _ _ _ _ _ _
 72
    65
 73
     2
 40
3.2
 49
1.3
 74
     0
 49
-1.9
 74
     0
  0
LTYPE
  5
12
100
AcDbSymbolTableRecord
100
AcDbLinetypeTableRecord
  2
PHANTOM
 70
     0
  3
_____ _ _ _____ _ _ _____ _ _ _____ _ _ _____
 72
    65
 73
     6
 40
12.5
 49
9.0
 74
     0
 49
-1.0
 74
     0
 49
0.5
 74
     0
 49
-0.5
 74
     0
 49
0.5
 74
     0
 49
-1.0
 74
     0
  0
LTYPE
  5
13
100
AcDbSymbolTableRecord
100
AcDbLinetypeTableRecord
  2
DOT
 70
     0
  3
...............................................
 72
    65
 73
     2
 40
1.0
 49
0.5
 74
     0
 49
-0.5
 74
     0
  0
LTYPE
  5
14
100
AcDbSymbolTableRecord
100
AcDbLinetypeTableRecord
  2
DASHDOT
 70
     0
  3
__ . __ . __ . __ . __ . __ . __ . __ . __ . __
 72
    65
 73
     4
 40
8.0
 49
5.0
 74
     0
 49
-1.0
 74
     0
 49
1.0
 74
     0
 49
-1.0
 74
     0
  0
ENDTAB
  0
TABLE
  2
LAYER
  5
1
100
AcDbSymbolTable
 70
     4
  0
LAYER
  5
15
100
AcDbSymbolTableRecord
100
AcDbLayerTableRecord
  2
0
 70
     0
 62
     8
  6
CONTINUOUS
290
     1
370
    -3
390
0
  0
LAYER
  5
16
100
AcDbSymbolTableRecord
100
AcDbLayerTableRecord
  2
1
 70
     0
 62
     2
  6
CONTINUOUS
290
     1
370
    -3
390
0
  0
LAYER
  5
17
100
AcDbSymbolTableRecord
100
AcDbLayerTableRecord
  2
2
 70
     0
 62
     3
  6
CONTINUOUS
290
     1
370
    -3
390
0
  0
LAYER
  5
18
100
AcDbSymbolTableRecord
100
AcDbLayerTableRecord
  2
3
 70
     0
 62
     4
  6
CONTINUOUS
290
     1
370
    -3
390
0
  0
ENDTAB
  0
TABLE
  2
STYLE
  5
2
100
AcDbSymbolTable
 70
     1
  0
STYLE
  5
1B
100
AcDbSymbolTableRecord
100
AcDbTextStyleTableRecord
  2
STANDARD
 70
    64
 40
0.0
 41
1.0
 50
0.0
 71
     0
 42
1.0
  3
txt
  4
BIGFONT
  0
ENDTAB
  0
TABLE
  2
VIEW
  5
4
100
AcDbSymbolTable
 70
     0
  0
ENDTAB
  0
TABLE
  2
UCS
  5
5
100
AcDbSymbolTable
 70
     0
  0
ENDTAB
  0
TABLE
  2
APPID
  5
7
100
AcDbSymbolTable
 70
     1
  0
APPID
  5
1A
100
AcDbSymbolTableRecord
100
AcDbRegAppTableRecord
  2
ACAD
 70
     0
  0
ENDTAB
  0
TABLE
  2
DIMSTYLE
  5
8
100
AcDbSymbolTable
 70
     1
100
AcDbDimStyleTable
 71
     0
  0
DIMSTYLE
105
32
100
AcDbSymbolTableRecord
100
AcDbDimStyleTableRecord
  2
Standard
 70
     0
  3

  4

 40
1.0
 41
2.0
 42
0.5
 43
0.38
 44
2.0
 45
0.0
 46
0.0
 47
0.0
 48
0.0
 71
     0
 72
     0
 73
     0
 74
     0
 75
     0
 76
     0
 77
     1
 78
     0
 79
     0
140
2.5
141
0.09
142
0.0
143
25.4
144
1.0
145
0.0
146
1.0
147
0.5
148
0.0
170
     0
171
     2
172
     0
173
     0
174
     0
175
     0
176
     0
177
     0
178
     0
179
     0
271
     2
272
     4
273
     2
274
     2
275
     0
276
     0
277
     2
278
    46
279
     0
280
     0
281
     0
282
     0
283
     1
284
     0
285
     0
286
     0
288
     0
289
     3
340
1B
341
0
342
0
343
0
344
0
371
    -2
372
    -2
  0
ENDTAB
  0
TABLE
  2
BLOCK_RECORD
  5
2D
100
AcDbSymbolTable
 70
    15
  0
BLOCK_RECORD
  5
2B
100
AcDbSymbolTableRecord
100
AcDbBlockTableRecord
  2
*Model_Space
340
0
  0
BLOCK_RECORD
  5
2C
100
AcDbSymbolTableRecord
100
AcDbBlockTableRecord
  2
*Paper_Space
340
0
  0
BLOCK_RECORD
  5
1C
100
AcDbSymbolTableRecord
100
AcDbBlockTableRecord
  2
*D0
340
0
  0
BLOCK_RECORD
  5
1D
100
AcDbSymbolTableRecord
100
AcDbBlockTableRecord
  2
*D1
340
0
  0
BLOCK_RECORD
  5
1E
100
AcDbSymbolTableRecord
100
AcDbBlockTableRecord
  2
*D2
340
0
  0
BLOCK_RECORD
  5
1F
100
AcDbSymbolTableRecord
100
AcDbBlockTableRecord
  2
*D3
340
0
  0
BLOCK_RECORD
  5
20
100
AcDbSymbolTableRecord
100
AcDbBlockTableRecord
  2
*D4
340
0
  0
BLOCK_RECORD
  5
21
100
AcDbSymbolTableRecord
100
AcDbBlockTableRecord
  2
*D5
340
0
  0
BLOCK_RECORD
  5
22
100
AcDbSymbolTableRecord
100
AcDbBlockTableRecord
  2
*D6
340
0
  0
BLOCK_RECORD
  5
23
100
AcDbSymbolTableRecord
100
AcDbBlockTableRecord
  2
*D7
340
0
  0
BLOCK_RECORD
  5
24
100
AcDbSymbolTableRecord
100
AcDbBlockTableRecord
  2
*D8
340
0
  0
BLOCK_RECORD
  5
25
100
AcDbSymbolTableRecord
100
AcDbBlockTableRecord
  2
*D9
340
0
  0
BLOCK_RECORD
  5
26
100
AcDbSymbolTableRecord
100
AcDbBlockTableRecord
  2
*D10
340
0
  0
BLOCK_RECORD
  5
27
100
AcDbSymbolTableRecord
100
AcDbBlockTableRecord
  2
*D11
340
0
  0
BLOCK_RECORD
  5
28
100
AcDbSymbolTableRecord
100
AcDbBlockTableRecord
  2
*D12
340
0
  0
BLOCK_RECORD
  5
29
100
AcDbSymbolTableRecord
100
AcDbBlockTableRecord
  2
*D13
340
0
  0
BLOCK_RECORD
  5
2A
100
AcDbSymbolTableRecord
100
AcDbBlockTableRecord
  2
*D14
340
0
  0
ENDTAB
  0
ENDSEC
  0
SECTION
  2
BLOCKS
  0
BLOCK
  5
2E
100
AcDbEntity
  8
0
390
0
100
AcDbBlockBegin
  2
*Model_Space
 70
     0
 10
0.0
 20
0.0
 30
0.0
  3
*Model_Space
  1

  0
ENDBLK
  5
2F
100
AcDbEntity
  8
0
390
0
100
AcDbBlockEnd
  0
BLOCK
  5
30
100
AcDbEntity
 67
     1
  8
0
390
0
100
AcDbBlockBegin
  2
*Paper_Space
 70
     0
 10
0.0
 20
0.0
 30
0.0
  3
*Paper_Space
  1

  0
ENDBLK
  5
31
100
AcDbEntity
 67
     1
  8
0
390
0
100
AcDbBlockEnd
  0
BLOCK
  5
A2
100
AcDbEntity
  8
2
100
AcDbBlockBegin
  2
*D0
 70
     1
 10
0.0
 20
0.0
 30
0.0
  3
*D0
  1

  0
LINE
  5
A3
100
AcDbEntity
  8
2
370
    25
100
AcDbLine
 10
-169.68515
 20
82.234924
 30
0.0
 11
-169.68515
 21
93.85479
 31
0.0
  0
LINE
  5
A4
100
AcDbEntity
  8
2
370
    25
100
AcDbLine
 10
-169.68515
 20
92.85479
 30
0.0
 11
-167.753298
 21
92.337152
 31
0.0
  0
LINE
  5
A5
100
AcDbEntity
  8
2
370
    25
100
AcDbLine
 10
-169.68515
 20
92.85479
 30
0.0
 11
-167.753298
 21
93.372428
 31
0.0
  0
LINE
  5
A6
100
AcDbEntity
  8
2
370
    25
100
AcDbLine
 10
-169.68515
 20
92.85479
 30
0.0
 11
-136.68515
 21
92.85479
 31
0.0
  0
LINE
  5
A7
100
AcDbEntity
  8
2
370
    25
100
AcDbLine
 10
-136.68515
 20
92.85479
 30
0.0
 11
-138.617002
 21
93.372428
 31
0.0
  0
LINE
  5
A8
100
AcDbEntity
  8
2
370
    25
100
AcDbLine
 10
-136.68515
 20
92.85479
 30
0.0
 11
-138.617002
 21
92.337152
 31
0.0
  0
LINE
  5
A9
100
AcDbEntity
  8
2
370
    25
100
AcDbLine
 10
-136.68515
 20
82.234924
 30
0.0
 11
-136.68515
 21
93.85479
 31
0.0
  0
ENDBLK
  5
AA
100
AcDbEntity
  8
2
100
AcDbBlockEnd
  0
BLOCK
  5
AB
100
AcDbEntity
  8
2
100
AcDbBlockBegin
  2
*D1
 70
     1
 10
0.0
 20
0.0
 30
0.0
  3
*D1
  1

  0
TEXT
  5
AC
100
AcDbEntity
  8
2
370
    18
100
AcDbText
 10
-92.257963
 20
-70.391901
 30
0.0
 40
3.0
  1
３３
 72
     5
 11
-86.857963
 21
-70.391901
 31
0.0
100
AcDbText
  0
LINE
  5
AD
100
AcDbEntity
  8
2
370
    25
100
AcDbLine
 10
-105.757963
 20
-41.677245
 30
0.0
 11
-105.757963
 21
-71.891901
 31
0.0
  0
LINE
  5
AE
100
AcDbEntity
  8
2
370
    25
100
AcDbLine
 10
-105.757963
 20
-70.891901
 30
0.0
 11
-103.826112
 21
-71.409539
 31
0.0
  0
LINE
  5
AF
100
AcDbEntity
  8
2
370
    25
100
AcDbLine
 10
-105.757963
 20
-70.891901
 30
0.0
 11
-103.826112
 21
-70.374263
 31
0.0
  0
LINE
  5
B0
100
AcDbEntity
  8
2
370
    25
100
AcDbLine
 10
-105.757963
 20
-70.891901
 30
0.0
 11
-72.757963
 21
-70.891901
 31
0.0
  0
LINE
  5
B1
100
AcDbEntity
  8
2
370
    25
100
AcDbLine
 10
-72.757963
 20
-70.891901
 30
0.0
 11
-74.689815
 21
-70.374263
 31
0.0
  0
LINE
  5
B2
100
AcDbEntity
  8
2
370
    25
100
AcDbLine
 10
-72.757963
 20
-70.891901
 30
0.0
 11
-74.689815
 21
-71.409539
 31
0.0
  0
LINE
  5
B3
100
AcDbEntity
  8
2
370
    25
100
AcDbLine
 10
-72.757963
 20
-41.677245
 30
0.0
 11
-72.757963
 21
-71.891901
 31
0.0
  0
ENDBLK
  5
B4
100
AcDbEntity
  8
2
100
AcDbBlockEnd
  0
BLOCK
  5
B5
100
AcDbEntity
  8
2
100
AcDbBlockBegin
  2
*D2
 70
     1
 10
0.0
 20
0.0
 30
0.0
  3
*D2
  1

  0
TEXT
  5
B6
100
AcDbEntity
  8
2
370
    25
100
AcDbText
 10
-61.444574
 20
17.822905
 30
0.0
 40
3.0
  1
２６．５
 50
90.0
 72
     5
 11
-61.444574
 21
29.222905
 31
0.0
100
AcDbText
  0
LINE
  5
B7
100
AcDbEntity
  8
2
370
    25
100
AcDbLine
 10
-69.257963
 20
11.322855
 30
0.0
 11
-59.944574
 21
11.322855
 31
0.0
  0
LINE
  5
B8
100
AcDbEntity
  8
2
370
    25
100
AcDbLine
 10
-60.944574
 20
11.322855
 30
0.0
 11
-60.426936
 21
13.254707
 31
0.0
  0
LINE
  5
B9
100
AcDbEntity
  8
2
370
    25
100
AcDbLine
 10
-60.944574
 20
11.322855
 30
0.0
 11
-61.462212
 21
13.254707
 31
0.0
  0
LINE
  5
BA
100
AcDbEntity
  8
2
370
    25
100
AcDbLine
 10
-60.944574
 20
11.322855
 30
0.0
 11
-60.944574
 21
37.822955
 31
0.0
  0
LINE
  5
BB
100
AcDbEntity
  8
2
370
    25
100
AcDbLine
 10
-60.944574
 20
37.822955
 30
0.0
 11
-61.462212
 21
35.891104
 31
0.0
  0
LINE
  5
BC
100
AcDbEntity
  8
2
370
    25
100
AcDbLine
 10
-60.944574
 20
37.822955
 30
0.0
 11
-60.426936
 21
35.891104
 31
0.0
  0
LINE
  5
BD
100
AcDbEntity
  8
2
370
    25
100
AcDbLine
 10
-69.257963
 20
37.822955
 30
0.0
 11
-59.944574
 21
37.822955
 31
0.0
  0
ENDBLK
  5
BE
100
AcDbEntity
  8
2
100
AcDbBlockEnd
  0
BLOCK
  5
BF
100
AcDbEntity
  8
2
100
AcDbBlockBegin
  2
*D3
 70
     1
 10
0.0
 20
0.0
 30
0.0
  3
*D3
  1

  0
TEXT
  5
C0
100
AcDbEntity
  8
2
370
    25
100
AcDbText
 10
-61.444574
 20
-34.677195
 30
0.0
 40
3.0
  1
２６．５
 50
90.0
 72
     5
 11
-61.444574
 21
-23.277195
 31
0.0
100
AcDbText
  0
LINE
  5
C1
100
AcDbEntity
  8
2
370
    25
100
AcDbLine
 10
-69.257963
 20
-41.177245
 30
0.0
 11
-59.944574
 21
-41.177245
 31
0.0
  0
LINE
  5
C2
100
AcDbEntity
  8
2
370
    25
100
AcDbLine
 10
-60.944574
 20
-41.177245
 30
0.0
 11
-60.426936
 21
-39.245394
 31
0.0
  0
LINE
  5
C3
100
AcDbEntity
  8
2
370
    25
100
AcDbLine
 10
-60.944574
 20
-41.177245
 30
0.0
 11
-61.462212
 21
-39.245394
 31
0.0
  0
LINE
  5
C4
100
AcDbEntity
  8
2
370
    25
100
AcDbLine
 10
-60.944574
 20
-41.177245
 30
0.0
 11
-60.944574
 21
-14.677145
 31
0.0
  0
LINE
  5
C5
100
AcDbEntity
  8
2
370
    25
100
AcDbLine
 10
-60.944574
 20
-14.677145
 30
0.0
 11
-61.462212
 21
-16.608997
 31
0.0
  0
LINE
  5
C6
100
AcDbEntity
  8
2
370
    25
100
AcDbLine
 10
-60.944574
 20
-14.677145
 30
0.0
 11
-60.426936
 21
-16.608997
 31
0.0
  0
LINE
  5
C7
100
AcDbEntity
  8
2
370
    25
100
AcDbLine
 10
-69.257963
 20
-14.677145
 30
0.0
 11
-59.944574
 21
-14.677145
 31
0.0
  0
ENDBLK
  5
C8
100
AcDbEntity
  8
2
100
AcDbBlockEnd
  0
BLOCK
  5
C9
100
AcDbEntity
  8
2
100
AcDbBlockBegin
  2
*D4
 70
     1
 10
0.0
 20
0.0
 30
0.0
  3
*D4
  1

  0
TEXT
  5
CA
100
AcDbEntity
  8
2
370
    25
100
AcDbText
 10
-61.444574
 20
-6.177145
 30
0.0
 40
3.0
  1
２６
 50
90.0
 72
     5
 11
-61.444574
 21
-0.777145
 31
0.0
100
AcDbText
  0
LINE
  5
CB
100
AcDbEntity
  8
2
370
    25
100
AcDbLine
 10
-69.257963
 20
-14.677145
 30
0.0
 11
-59.944574
 21
-14.677145
 31
0.0
  0
LINE
  5
CC
100
AcDbEntity
  8
2
370
    25
100
AcDbLine
 10
-60.944574
 20
-14.677145
 30
0.0
 11
-60.426936
 21
-12.745293
 31
0.0
  0
LINE
  5
CD
100
AcDbEntity
  8
2
370
    25
100
AcDbLine
 10
-60.944574
 20
-14.677145
 30
0.0
 11
-61.462212
 21
-12.745293
 31
0.0
  0
LINE
  5
CE
100
AcDbEntity
  8
2
370
    25
100
AcDbLine
 10
-60.944574
 20
-14.677145
 30
0.0
 11
-60.944574
 21
11.322855
 31
0.0
  0
LINE
  5
CF
100
AcDbEntity
  8
2
370
    25
100
AcDbLine
 10
-60.944574
 20
11.322855
 30
0.0
 11
-61.462212
 21
9.391003
 31
0.0
  0
LINE
  5
D0
100
AcDbEntity
  8
2
370
    25
100
AcDbLine
 10
-60.944574
 20
11.322855
 30
0.0
 11
-60.426936
 21
9.391003
 31
0.0
  0
LINE
  5
D1
100
AcDbEntity
  8
2
370
    25
100
AcDbLine
 10
-69.257963
 20
11.322855
 30
0.0
 11
-59.944574
 21
11.322855
 31
0.0
  0
ENDBLK
  5
D2
100
AcDbEntity
  8
2
100
AcDbBlockEnd
  0
BLOCK
  5
D3
100
AcDbEntity
  8
2
100
AcDbBlockBegin
  2
*D5
 70
     1
 10
0.0
 20
0.0
 30
0.0
  3
*D5
  1

  0
TEXT
  5
D4
100
AcDbEntity
  8
2
370
    25
100
AcDbText
 10
-56.460455
 20
-4.677145
 30
0.0
 40
3.0
  1
７９
 50
90.0
 72
     5
 11
-56.460455
 21
0.722855
 31
0.0
100
AcDbText
  0
LINE
  5
D5
100
AcDbEntity
  8
2
370
    25
100
AcDbLine
 10
-69.257963
 20
-41.177245
 30
0.0
 11
-54.960455
 21
-41.177245
 31
0.0
  0
LINE
  5
D6
100
AcDbEntity
  8
2
370
    25
100
AcDbLine
 10
-55.960455
 20
-41.177245
 30
0.0
 11
-55.442817
 21
-39.245394
 31
0.0
  0
LINE
  5
D7
100
AcDbEntity
  8
2
370
    25
100
AcDbLine
 10
-55.960455
 20
-41.177245
 30
0.0
 11
-56.478093
 21
-39.245394
 31
0.0
  0
LINE
  5
D8
100
AcDbEntity
  8
2
370
    25
100
AcDbLine
 10
-55.960455
 20
-41.177245
 30
0.0
 11
-55.960455
 21
37.822955
 31
0.0
  0
LINE
  5
D9
100
AcDbEntity
  8
2
370
    25
100
AcDbLine
 10
-55.960455
 20
37.822955
 30
0.0
 11
-56.478093
 21
35.891104
 31
0.0
  0
LINE
  5
DA
100
AcDbEntity
  8
2
370
    25
100
AcDbLine
 10
-55.960455
 20
37.822955
 30
0.0
 11
-55.442817
 21
35.891104
 31
0.0
  0
LINE
  5
DB
100
AcDbEntity
  8
2
370
    25
100
AcDbLine
 10
-69.257963
 20
37.822955
 30
0.0
 11
-54.960455
 21
37.822955
 31
0.0
  0
ENDBLK
  5
DC
100
AcDbEntity
  8
2
100
AcDbBlockEnd
  0
BLOCK
  5
DD
100
AcDbEntity
  8
2
100
AcDbBlockBegin
  2
*D6
 70
     1
 10
0.0
 20
0.0
 30
0.0
  3
*D6
  1

  0
TEXT
  5
DE
100
AcDbEntity
  8
2
370
    25
100
AcDbText
 10
-51.68479
 20
-7.677145
 30
0.0
 40
3.0
  1
１１２
 50
90.0
 72
     5
 11
-51.68479
 21
0.722855
 31
0.0
100
AcDbText
  0
LINE
  5
DF
100
AcDbEntity
  8
2
370
    25
100
AcDbLine
 10
-88.757963
 20
-57.677245
 30
0.0
 11
-50.18479
 21
-57.677245
 31
0.0
  0
LINE
  5
E0
100
AcDbEntity
  8
2
370
    25
100
AcDbLine
 10
-51.18479
 20
-57.677245
 30
0.0
 11
-50.667152
 21
-55.745394
 31
0.0
  0
LINE
  5
E1
100
AcDbEntity
  8
2
370
    25
100
AcDbLine
 10
-51.18479
 20
-57.677245
 30
0.0
 11
-51.702428
 21
-55.745394
 31
0.0
  0
LINE
  5
E2
100
AcDbEntity
  8
2
370
    25
100
AcDbLine
 10
-51.18479
 20
-57.677245
 30
0.0
 11
-51.18479
 21
54.322955
 31
0.0
  0
LINE
  5
E3
100
AcDbEntity
  8
2
370
    25
100
AcDbLine
 10
-51.18479
 20
54.322955
 30
0.0
 11
-51.702428
 21
52.391104
 31
0.0
  0
LINE
  5
E4
100
AcDbEntity
  8
2
370
    25
100
AcDbLine
 10
-51.18479
 20
54.322955
 30
0.0
 11
-50.667152
 21
52.391104
 31
0.0
  0
LINE
  5
E5
100
AcDbEntity
  8
2
370
    25
100
AcDbLine
 10
-88.757963
 20
54.322955
 30
0.0
 11
-50.18479
 21
54.322955
 31
0.0
  0
ENDBLK
  5
E6
100
AcDbEntity
  8
2
100
AcDbBlockEnd
  0
BLOCK
  5
E7
100
AcDbEntity
  8
2
100
AcDbBlockBegin
  2
*D7
 70
     1
 10
0.0
 20
0.0
 30
0.0
  3
*D7
  1

  0
TEXT
  5
E8
100
AcDbEntity
  8
2
370
    25
100
AcDbText
 10
55.160057
 20
89.093765
 30
0.0
 40
3.0
  1
１３．５
 72
     5
 11
66.560057
 21
89.093765
 31
0.0
100
AcDbText
  0
LINE
  5
E9
100
AcDbEntity
  8
2
370
    25
100
AcDbLine
 10
54.410057
 20
45.573763
 30
0.0
 11
54.410057
 21
89.593765
 31
0.0
  0
LINE
  5
EA
100
AcDbEntity
  8
2
370
    25
100
AcDbLine
 10
54.410057
 20
88.593765
 30
0.0
 11
56.341908
 21
88.076127
 31
0.0
  0
LINE
  5
EB
100
AcDbEntity
  8
2
370
    25
100
AcDbLine
 10
54.410057
 20
88.593765
 30
0.0
 11
56.341908
 21
89.111403
 31
0.0
  0
LINE
  5
EC
100
AcDbEntity
  8
2
370
    25
100
AcDbLine
 10
54.410057
 20
88.593765
 30
0.0
 11
67.910057
 21
88.593765
 31
0.0
  0
LINE
  5
ED
100
AcDbEntity
  8
2
370
    25
100
AcDbLine
 10
67.910057
 20
88.593765
 30
0.0
 11
65.978205
 21
89.111403
 31
0.0
  0
LINE
  5
EE
100
AcDbEntity
  8
2
370
    25
100
AcDbLine
 10
67.910057
 20
88.593765
 30
0.0
 11
65.978205
 21
88.076127
 31
0.0
  0
ENDBLK
  5
EF
100
AcDbEntity
  8
2
100
AcDbBlockEnd
  0
BLOCK
  5
F0
100
AcDbEntity
  8
2
100
AcDbBlockBegin
  2
*D8
 70
     1
 10
0.0
 20
0.0
 30
0.0
  3
*D8
  1

  0
TEXT
  5
F1
100
AcDbEntity
  8
2
370
    25
100
AcDbText
 10
142.429306
 20
19.572905
 30
0.0
 40
3.0
  1
26.5
 50
90.0
 41
2.0
 72
     5
 11
142.429306
 21
30.372905
 31
0.0
100
AcDbText
  0
LINE
  5
F2
100
AcDbEntity
  8
2
370
    25
100
AcDbLine
 10
135.337244
 20
11.322855
 30
0.0
 11
143.929306
 21
11.322855
 31
0.0
  0
LINE
  5
F3
100
AcDbEntity
  8
2
370
    25
100
AcDbLine
 10
142.929306
 20
11.322855
 30
0.0
 11
143.446944
 21
13.254707
 31
0.0
  0
LINE
  5
F4
100
AcDbEntity
  8
2
370
    25
100
AcDbLine
 10
142.929306
 20
11.322855
 30
0.0
 11
142.411668
 21
13.254707
 31
0.0
  0
LINE
  5
F5
100
AcDbEntity
  8
2
370
    25
100
AcDbLine
 10
142.929306
 20
11.322855
 30
0.0
 11
142.929306
 21
37.822955
 31
0.0
  0
LINE
  5
F6
100
AcDbEntity
  8
2
370
    25
100
AcDbLine
 10
142.929306
 20
37.822955
 30
0.0
 11
142.411668
 21
35.891104
 31
0.0
  0
LINE
  5
F7
100
AcDbEntity
  8
2
370
    25
100
AcDbLine
 10
142.929306
 20
37.822955
 30
0.0
 11
143.446944
 21
35.891104
 31
0.0
  0
LINE
  5
F8
100
AcDbEntity
  8
2
370
    25
100
AcDbLine
 10
135.337244
 20
37.822955
 30
0.0
 11
143.929306
 21
37.822955
 31
0.0
  0
ENDBLK
  5
F9
100
AcDbEntity
  8
2
100
AcDbBlockEnd
  0
BLOCK
  5
FA
100
AcDbEntity
  8
2
100
AcDbBlockBegin
  2
*D9
 70
     1
 10
0.0
 20
0.0
 30
0.0
  3
*D9
  1

  0
TEXT
  5
FB
100
AcDbEntity
  8
2
370
    25
100
AcDbText
 10
142.429306
 20
-4.177145
 30
0.0
 40
3.0
  1
26
 50
90.0
 41
2.0
 72
     5
 11
142.429306
 21
0.622855
 31
0.0
100
AcDbText
  0
LINE
  5
FC
100
AcDbEntity
  8
2
370
    25
100
AcDbLine
 10
135.337244
 20
-14.677145
 30
0.0
 11
143.929306
 21
-14.677145
 31
0.0
  0
LINE
  5
FD
100
AcDbEntity
  8
2
370
    25
100
AcDbLine
 10
142.929306
 20
-14.677145
 30
0.0
 11
143.446944
 21
-12.745293
 31
0.0
  0
LINE
  5
FE
100
AcDbEntity
  8
2
370
    25
100
AcDbLine
 10
142.929306
 20
-14.677145
 30
0.0
 11
142.411668
 21
-12.745293
 31
0.0
  0
LINE
  5
FF
100
AcDbEntity
  8
2
370
    25
100
AcDbLine
 10
142.929306
 20
-14.677145
 30
0.0
 11
142.929306
 21
11.322855
 31
0.0
  0
LINE
  5
100
100
AcDbEntity
  8
2
370
    25
100
AcDbLine
 10
142.929306
 20
11.322855
 30
0.0
 11
142.411668
 21
9.391003
 31
0.0
  0
LINE
  5
101
100
AcDbEntity
  8
2
370
    25
100
AcDbLine
 10
142.929306
 20
11.322855
 30
0.0
 11
143.446944
 21
9.391003
 31
0.0
  0
ENDBLK
  5
102
100
AcDbEntity
  8
2
100
AcDbBlockEnd
  0
BLOCK
  5
103
100
AcDbEntity
  8
2
100
AcDbBlockBegin
  2
*D10
 70
     1
 10
0.0
 20
0.0
 30
0.0
  3
*D10
  1

  0
TEXT
  5
104
100
AcDbEntity
  8
2
370
    25
100
AcDbText
 10
142.429306
 20
-32.927195
 30
0.0
 40
3.0
  1
26.5
 50
90.0
 41
2.0
 72
     5
 11
142.429306
 21
-22.127195
 31
0.0
100
AcDbText
  0
LINE
  5
105
100
AcDbEntity
  8
2
370
    25
100
AcDbLine
 10
135.337244
 20
-41.177245
 30
0.0
 11
143.929306
 21
-41.177245
 31
0.0
  0
LINE
  5
106
100
AcDbEntity
  8
2
370
    25
100
AcDbLine
 10
142.929306
 20
-41.177245
 30
0.0
 11
143.446944
 21
-39.245394
 31
0.0
  0
LINE
  5
107
100
AcDbEntity
  8
2
370
    25
100
AcDbLine
 10
142.929306
 20
-41.177245
 30
0.0
 11
142.411668
 21
-39.245394
 31
0.0
  0
LINE
  5
108
100
AcDbEntity
  8
2
370
    25
100
AcDbLine
 10
142.929306
 20
-41.177245
 30
0.0
 11
142.929306
 21
-14.677145
 31
0.0
  0
LINE
  5
109
100
AcDbEntity
  8
2
370
    25
100
AcDbLine
 10
142.929306
 20
-14.677145
 30
0.0
 11
142.411668
 21
-16.608997
 31
0.0
  0
LINE
  5
10A
100
AcDbEntity
  8
2
370
    25
100
AcDbLine
 10
142.929306
 20
-14.677145
 30
0.0
 11
143.446944
 21
-16.608997
 31
0.0
  0
ENDBLK
  5
10B
100
AcDbEntity
  8
2
100
AcDbBlockEnd
  0
BLOCK
  5
10C
100
AcDbEntity
  8
2
100
AcDbBlockBegin
  2
*D11
 70
     1
 10
0.0
 20
0.0
 30
0.0
  3
*D11
  1

  0
TEXT
  5
10D
100
AcDbEntity
  8
2
370
    25
100
AcDbText
 10
147.573517
 20
-4.177145
 30
0.0
 40
3.0
  1
79
 50
90.0
 41
2.0
 72
     5
 11
147.573517
 21
0.622855
 31
0.0
100
AcDbText
  0
LINE
  5
10E
100
AcDbEntity
  8
2
370
    25
100
AcDbLine
 10
135.337244
 20
-41.177245
 30
0.0
 11
149.073517
 21
-41.177245
 31
0.0
  0
LINE
  5
10F
100
AcDbEntity
  8
2
370
    25
100
AcDbLine
 10
148.073517
 20
-41.177245
 30
0.0
 11
148.591155
 21
-39.245394
 31
0.0
  0
LINE
  5
110
100
AcDbEntity
  8
2
370
    25
100
AcDbLine
 10
148.073517
 20
-41.177245
 30
0.0
 11
147.555879
 21
-39.245394
 31
0.0
  0
LINE
  5
111
100
AcDbEntity
  8
2
370
    25
100
AcDbLine
 10
148.073517
 20
-41.177245
 30
0.0
 11
148.073517
 21
37.822955
 31
0.0
  0
LINE
  5
112
100
AcDbEntity
  8
2
370
    25
100
AcDbLine
 10
148.073517
 20
37.822955
 30
0.0
 11
147.555879
 21
35.891104
 31
0.0
  0
LINE
  5
113
100
AcDbEntity
  8
2
370
    25
100
AcDbLine
 10
148.073517
 20
37.822955
 30
0.0
 11
148.591155
 21
35.891104
 31
0.0
  0
LINE
  5
114
100
AcDbEntity
  8
2
370
    25
100
AcDbLine
 10
135.337244
 20
37.822955
 30
0.0
 11
149.073517
 21
37.822955
 31
0.0
  0
ENDBLK
  5
115
100
AcDbEntity
  8
2
100
AcDbBlockEnd
  0
BLOCK
  5
116
100
AcDbEntity
  8
2
100
AcDbBlockBegin
  2
*D12
 70
     1
 10
0.0
 20
0.0
 30
0.0
  3
*D12
  1

  0
TEXT
  5
117
100
AcDbEntity
  8
2
370
    25
100
AcDbText
 10
112.837244
 20
-69.992691
 30
0.0
 40
3.0
  1
33
 41
2.0
 72
     5
 11
117.637244
 21
-69.992691
 31
0.0
100
AcDbText
  0
LINE
  5
118
100
AcDbEntity
  8
2
370
    25
100
AcDbLine
 10
98.837244
 20
-41.677245
 30
0.0
 11
98.837244
 21
-71.492691
 31
0.0
  0
LINE
  5
119
100
AcDbEntity
  8
2
370
    25
100
AcDbLine
 10
98.837244
 20
-70.492691
 30
0.0
 11
100.769095
 21
-71.010329
 31
0.0
  0
LINE
  5
11A
100
AcDbEntity
  8
2
370
    25
100
AcDbLine
 10
98.837244
 20
-70.492691
 30
0.0
 11
100.769095
 21
-69.975053
 31
0.0
  0
LINE
  5
11B
100
AcDbEntity
  8
2
370
    25
100
AcDbLine
 10
98.837244
 20
-70.492691
 30
0.0
 11
131.837244
 21
-70.492691
 31
0.0
  0
LINE
  5
11C
100
AcDbEntity
  8
2
370
    25
100
AcDbLine
 10
131.837244
 20
-70.492691
 30
0.0
 11
129.905392
 21
-69.975053
 31
0.0
  0
LINE
  5
11D
100
AcDbEntity
  8
2
370
    25
100
AcDbLine
 10
131.837244
 20
-70.492691
 30
0.0
 11
129.905392
 21
-71.010329
 31
0.0
  0
LINE
  5
11E
100
AcDbEntity
  8
2
370
    25
100
AcDbLine
 10
131.837244
 20
-41.677245
 30
0.0
 11
131.837244
 21
-71.492691
 31
0.0
  0
ENDBLK
  5
11F
100
AcDbEntity
  8
2
100
AcDbBlockEnd
  0
BLOCK
  5
120
100
AcDbEntity
  8
2
100
AcDbBlockBegin
  2
*D13
 70
     1
 10
0.0
 20
0.0
 30
0.0
  3
*D13
  1

  0
TEXT
  5
121
100
AcDbEntity
  8
2
370
    25
100
AcDbText
 10
152.145615
 20
-5.427145
 30
0.0
 40
3.0
  1
112
 50
90.0
 41
2.0
 72
     5
 11
152.145615
 21
2.372855
 31
0.0
100
AcDbText
  0
LINE
  5
122
100
AcDbEntity
  8
2
370
    25
100
AcDbLine
 10
115.837244
 20
-57.677245
 30
0.0
 11
153.645615
 21
-57.677245
 31
0.0
  0
LINE
  5
123
100
AcDbEntity
  8
2
370
    25
100
AcDbLine
 10
152.645615
 20
-57.677245
 30
0.0
 11
153.163253
 21
-55.745394
 31
0.0
  0
LINE
  5
124
100
AcDbEntity
  8
2
370
    25
100
AcDbLine
 10
152.645615
 20
-57.677245
 30
0.0
 11
152.127977
 21
-55.745394
 31
0.0
  0
LINE
  5
125
100
AcDbEntity
  8
2
370
    25
100
AcDbLine
 10
152.645615
 20
-57.677245
 30
0.0
 11
152.645615
 21
54.322955
 31
0.0
  0
LINE
  5
126
100
AcDbEntity
  8
2
370
    25
100
AcDbLine
 10
152.645615
 20
54.322955
 30
0.0
 11
152.127977
 21
52.391104
 31
0.0
  0
LINE
  5
127
100
AcDbEntity
  8
2
370
    25
100
AcDbLine
 10
152.645615
 20
54.322955
 30
0.0
 11
153.163253
 21
52.391104
 31
0.0
  0
LINE
  5
128
100
AcDbEntity
  8
2
370
    25
100
AcDbLine
 10
115.837244
 20
54.322955
 30
0.0
 11
153.645615
 21
54.322955
 31
0.0
  0
ENDBLK
  5
129
100
AcDbEntity
  8
2
100
AcDbBlockEnd
  0
BLOCK
  5
12A
100
AcDbEntity
  8
2
100
AcDbBlockBegin
  2
*D14
 70
     1
 10
0.0
 20
0.0
 30
0.0
  3
*D14
  1

  0
LINE
  5
12B
100
AcDbEntity
  8
2
370
    25
100
AcDbLine
 10
41.910057
 20
82.234924
 30
0.0
 11
41.910057
 21
96.255646
 31
0.0
  0
LINE
  5
12C
100
AcDbEntity
  8
2
370
    25
100
AcDbLine
 10
41.910057
 20
95.255646
 30
0.0
 11
43.841908
 21
94.738008
 31
0.0
  0
LINE
  5
12D
100
AcDbEntity
  8
2
370
    25
100
AcDbLine
 10
41.910057
 20
95.255646
 30
0.0
 11
43.841908
 21
95.773284
 31
0.0
  0
LINE
  5
12E
100
AcDbEntity
  8
2
370
    25
100
AcDbLine
 10
41.910057
 20
95.255646
 30
0.0
 11
67.910057
 21
95.255646
 31
0.0
  0
LINE
  5
12F
100
AcDbEntity
  8
2
370
    25
100
AcDbLine
 10
67.910057
 20
95.255646
 30
0.0
 11
65.978205
 21
95.773284
 31
0.0
  0
LINE
  5
130
100
AcDbEntity
  8
2
370
    25
100
AcDbLine
 10
67.910057
 20
95.255646
 30
0.0
 11
65.978205
 21
94.738008
 31
0.0
  0
LINE
  5
131
100
AcDbEntity
  8
2
370
    25
100
AcDbLine
 10
67.910057
 20
82.234924
 30
0.0
 11
67.910057
 21
96.255646
 31
0.0
  0
ENDBLK
  5
132
100
AcDbEntity
  8
2
100
AcDbBlockEnd
  0
ENDSEC
  0
SECTION
  2
ENTITIES
  0
LINE
  5
33
100
AcDbEntity
  8
1
370
   100
100
AcDbLine
 10
-136.68515
 20
-85.089205
 30
0.0
 11
-136.68515
 21
81.734924
 31
0.0
  0
LINE
  5
34
100
AcDbEntity
  8
1
370
    18
  6
CENTER
100
AcDbLine
 10
-126.578575
 20
-1.677145
 30
0.0
 11
-177.541475
 21
-1.677145
 31
0.0
  0
LINE
  5
35
100
AcDbEntity
  8
1
370
   100
100
AcDbLine
 10
-169.68515
 20
-85.089205
 30
0.0
 11
-169.68515
 21
81.734924
 31
0.0
  0
LINE
  5
36
100
AcDbEntity
  8
1
370
    25
  6
CENTER
100
AcDbLine
 10
-153.18515
 20
-1.677145
 30
0.0
 11
-153.18515
 21
-92.187067
 31
0.0
  0
LINE
  5
37
100
AcDbEntity
  8
1
370
   100
100
AcDbLine
 10
-136.68515
 20
54.322955
 30
0.0
 11
-169.68515
 21
54.322955
 31
0.0
  0
LINE
  5
38
100
AcDbEntity
  8
1
370
   100
100
AcDbLine
 10
-136.68515
 20
-57.677245
 30
0.0
 11
-169.68515
 21
-57.677245
 31
0.0
  0
HATCH
  5
39
100
AcDbEntity
  8
1
370
    25
100
AcDbHatch
 10
0.0
 20
0.0
 30
0.0
210
0.0
220
0.0
230
1.0
  2
_U
 70
     0
 71
     1
 91
        1
 92
        1
 93
       12
 72
     1
 10
-136.685946
 20
-85.089191999999997
 11
-136.68514999999999
 21
-57.677244999999999
 72
     1
 10
-136.68514999999999
 20
-57.677244999999999
 11
-169.68514999999999
 21
-57.677244999999999
 72
     1
 10
-169.68514999999999
 20
-57.677244999999999
 11
-169.68514999999999
 21
-85.089205000000007
 72
     1
 10
-169.68514999999999
 20
-85.089205000000007
 11
-166.51159200000001
 21
-85.559683000000007
 72
     1
 10
-166.51159200000001
 20
-85.559683000000007
 11
-163.341137
 21
-85.884276999999997
 72
     1
 10
-163.341137
 20
-85.884276999999997
 11
-160.17688899999999
 21
-85.917101000000002
 72
     1
 10
-160.17688899999999
 20
-85.917101000000002
 11
-156.683232
 21
-85.545466000000005
 72
     1
 10
-156.683232
 20
-85.545466000000005
 11
-153.18514999999999
 21
-85.089206000000004
 72
     1
 10
-153.18514999999999
 20
-85.089206000000004
 11
-148.922552
 21
-84.889544999999998
 72
     1
 10
-148.922552
 20
-84.889544999999998
 11
-144.64895100000001
 21
-84.946894
 72
     1
 10
-144.64895100000001
 20
-84.946894
 11
-140.66575800000001
 21
-85.023489999999995
 72
     1
 10
-140.66575800000001
 20
-85.023489999999995
 11
-136.685946
 21
-85.089191999999997
 97
       12
330
0
330
0
330
0
330
0
330
0
330
0
330
0
330
0
330
0
330
0
330
0
330
0
 75
     0
 76
     0
 52
315.0
 41
1.0
 77
     0
 78
     1
 53
315.0
 43
0.0
 44
0.0
 45
2.1213199999999999
 46
2.1213199999999999
 79
     0
 98
        1
 10
0.0
 20
0.0
  0
HATCH
  5
3A
100
AcDbEntity
  8
1
370
    25
100
AcDbHatch
 10
0.0
 20
0.0
 30
0.0
210
0.0
220
0.0
230
1.0
  2
_U
 70
     0
 71
     1
 91
        1
 92
        1
 93
       13
 72
     1
 10
-136.68575899999999
 20
54.322955
 11
-169.68514999999999
 21
54.322955
 72
     1
 10
-169.68514999999999
 20
54.322955
 11
-169.68514999999999
 21
81.734924000000007
 72
     1
 10
-169.68514999999999
 20
81.734924000000007
 11
-166.38502500000001
 21
81.782298999999995
 72
     1
 10
-166.38502500000001
 20
81.782298999999995
 11
-163.08493200000001
 21
81.817830000000001
 72
     1
 10
-163.08493200000001
 20
81.817830000000001
 11
-159.78490099999999
 21
81.829673
 72
     1
 10
-159.78490099999999
 20
81.829673
 11
-156.48496299999999
 21
81.805986000000004
 72
     1
 10
-156.48496299999999
 20
81.805986000000004
 11
-153.18514999999999
 21
81.734922999999995
 72
     1
 10
-153.18514999999999
 20
81.734922999999995
 11
-149.71474599999999
 21
81.611287000000004
 72
     1
 10
-149.71474599999999
 20
81.611287000000004
 11
-146.244866
 21
81.499686999999994
 72
     1
 10
-146.244866
 20
81.499686999999994
 11
-142.77586199999999
 21
81.477669000000006
 72
     1
 10
-142.77586199999999
 20
81.477669000000006
 11
-139.73057399999999
 21
81.574059000000005
 72
     1
 10
-139.73057399999999
 20
81.574059000000005
 11
-136.68575899999999
 21
81.734889999999993
 72
     1
 10
-136.68575899999999
 20
81.734889999999993
 11
-136.68575899999999
 21
54.322955
 97
       13
330
0
330
0
330
0
330
0
330
0
330
0
330
0
330
0
330
0
330
0
330
0
330
0
330
0
 75
     0
 76
     0
 52
315.0
 41
1.0
 77
     0
 78
     1
 53
315.0
 43
0.0
 44
0.0
 45
2.1213199999999999
 46
2.1213199999999999
 79
     0
 98
        1
 10
0.0
 20
0.0
  0
LINE
  5
3B
100
AcDbEntity
  8
1
370
    25
  6
CENTER
100
AcDbLine
 10
-153.18515
 20
-1.677145
 30
0.0
 11
-153.18515
 21
88.832787
 31
0.0
  0
POINT
  5
3C
100
AcDbEntity
  8
1
370
    50
100
AcDbPoint
 10
-89.257963
 20
37.822955
 30
0.0
  0
POINT
  5
3D
100
AcDbEntity
  8
1
370
    50
100
AcDbPoint
 10
-89.257963
 20
-41.177245
 30
0.0
  0
LINE
  5
3E
100
AcDbEntity
  8
1
370
   100
100
AcDbLine
 10
-72.757963
 20
37.822955
 30
0.0
 11
-72.757963
 21
-41.177245
 31
0.0
  0
LINE
  5
3F
100
AcDbEntity
  8
1
370
   100
100
AcDbLine
 10
-105.757963
 20
37.822955
 30
0.0
 11
-105.757963
 21
-41.177245
 31
0.0
  0
LINE
  5
40
100
AcDbEntity
  8
1
370
    18
  6
CENTER
100
AcDbLine
 10
-108.757963
 20
37.822955
 30
0.0
 11
-69.757963
 21
37.822955
 31
0.0
  0
LINE
  5
41
100
AcDbEntity
  8
1
370
    18
  6
CENTER
100
AcDbLine
 10
-108.757963
 20
-41.177245
 30
0.0
 11
-69.757963
 21
-41.177245
 31
0.0
  0
ARC
  5
42
100
AcDbEntity
  8
1
370
   100
100
AcDbCircle
 10
-89.257963
 20
37.822955
 30
0.0
 40
16.5
100
AcDbArc
 50
0.0
 51
180.0
  0
ARC
  5
43
100
AcDbEntity
  8
1
370
   100
100
AcDbCircle
 10
-89.257963
 20
-41.177245
 30
0.0
 40
16.5
100
AcDbArc
 50
180.0
 51
360.0
  0
LINE
  5
44
100
AcDbEntity
  8
1
370
    25
  6
CENTER
100
AcDbLine
 10
-108.757963
 20
11.322855
 30
0.0
 11
-69.757963
 21
11.322855
 31
0.0
  0
LINE
  5
45
100
AcDbEntity
  8
1
370
    25
  6
CENTER
100
AcDbLine
 10
-108.757963
 20
-14.677145
 30
0.0
 11
-69.757963
 21
-14.677145
 31
0.0
  0
LINE
  5
46
100
AcDbEntity
  8
1
370
   100
100
AcDbLine
 10
67.910057
 20
-85.089205
 30
0.0
 11
67.910057
 21
81.734924
 31
0.0
  0
LINE
  5
47
100
AcDbEntity
  8
1
370
    18
  6
CENTER
100
AcDbLine
 10
78.016632
 20
-1.677145
 30
0.0
 11
34.053731
 21
-1.677145
 31
0.0
  0
LINE
  5
48
100
AcDbEntity
  8
1
370
   100
100
AcDbLine
 10
41.910057
 20
-85.089205
 30
0.0
 11
41.910057
 21
81.734924
 31
0.0
  0
LINE
  5
49
100
AcDbEntity
  8
1
370
   100
100
AcDbLine
 10
67.910057
 20
54.322955
 30
0.0
 11
54.410057
 21
54.322955
 31
0.0
  0
LINE
  5
4A
100
AcDbEntity
  8
1
370
   100
100
AcDbLine
 10
67.910057
 20
-57.677245
 30
0.0
 11
54.410057
 21
-57.677245
 31
0.0
  0
POINT
  5
4B
100
AcDbEntity
  8
1
370
    50
100
AcDbPoint
 10
115.337244
 20
37.822955
 30
0.0
  0
POINT
  5
4C
100
AcDbEntity
  8
1
370
    50
100
AcDbPoint
 10
115.337244
 20
-41.177245
 30
0.0
  0
LINE
  5
4D
100
AcDbEntity
  8
1
370
   100
100
AcDbLine
 10
131.837244
 20
37.822955
 30
0.0
 11
131.837244
 21
-41.177245
 31
0.0
  0
LINE
  5
4E
100
AcDbEntity
  8
1
370
   100
100
AcDbLine
 10
98.837244
 20
37.822955
 30
0.0
 11
98.837244
 21
-41.177245
 31
0.0
  0
LINE
  5
4F
100
AcDbEntity
  8
1
370
    18
  6
CENTER
100
AcDbLine
 10
95.837244
 20
37.822955
 30
0.0
 11
134.837244
 21
37.822955
 31
0.0
  0
LINE
  5
50
100
AcDbEntity
  8
1
370
    18
  6
CENTER
100
AcDbLine
 10
95.837244
 20
-41.177245
 30
0.0
 11
134.837244
 21
-41.177245
 31
0.0
  0
ARC
  5
51
100
AcDbEntity
  8
1
370
   100
100
AcDbCircle
 10
115.337244
 20
37.822955
 30
0.0
 40
16.5
100
AcDbArc
 50
0.0
 51
180.0
  0
ARC
  5
52
100
AcDbEntity
  8
1
370
   100
100
AcDbCircle
 10
115.337244
 20
-41.177245
 30
0.0
 40
16.5
100
AcDbArc
 50
180.0
 51
360.0
  0
LINE
  5
53
100
AcDbEntity
  8
1
370
    25
  6
CENTER
100
AcDbLine
 10
95.837244
 20
11.322855
 30
0.0
 11
134.837244
 21
11.322855
 31
0.0
  0
LINE
  5
54
100
AcDbEntity
  8
1
370
    25
  6
CENTER
100
AcDbLine
 10
95.837244
 20
-14.677145
 30
0.0
 11
134.837244
 21
-14.677145
 31
0.0
  0
LINE
  5
55
100
AcDbEntity
  8
1
370
   100
100
AcDbLine
 10
54.410057
 20
-57.677245
 30
0.0
 11
54.410057
 21
54.322955
 31
0.0
  0
HATCH
  5
56
100
AcDbEntity
  8
1
370
    25
100
AcDbHatch
 10
0.0
 20
0.0
 30
0.0
210
0.0
220
0.0
230
1.0
  2
_U
 70
     0
 71
     1
 91
        1
 92
        1
 93
        8
 72
     1
 10
67.910056999999995
 20
-57.677244999999999
 11
54.410057000000002
 21
-57.677244999999999
 72
     1
 10
54.410057000000002
 20
-57.677244999999999
 11
54.410057000000002
 21
54.322955
 72
     1
 10
54.410057000000002
 20
54.322955
 11
67.910056999999995
 21
54.322955
 72
     1
 10
67.910056999999995
 20
54.322955
 11
67.910056999999995
 21
81.734924000000007
 72
     1
 10
67.910056999999995
 20
81.734924000000007
 11
41.910057000000002
 21
81.734924000000007
 72
     1
 10
41.910057000000002
 20
81.734924000000007
 11
41.910057000000002
 21
-85.089205000000007
 72
     1
 10
41.910057000000002
 20
-85.089205000000007
 11
67.910056999999995
 21
-85.089205000000007
 72
     1
 10
67.910056999999995
 20
-85.089205000000007
 11
67.910056999999995
 21
-57.677244999999999
 97
        8
330
0
330
0
330
0
330
0
330
0
330
0
330
0
330
0
 75
     0
 76
     0
 52
45.0
 41
1.0
 77
     0
 78
     1
 53
45.0
 43
0.0
 44
0.0
 45
-1.4142140000000001
 46
1.4142140000000001
 79
     0
 98
        1
 10
0.0
 20
0.0
  0
CIRCLE
  5
57
100
AcDbEntity
  8
1
370
    18
  6
DASHDOT
100
AcDbCircle
 10
-89.257963
 20
-14.677145
 30
0.0
 40
16.5
  0
ARC
  5
58
100
AcDbEntity
  8
1
370
    18
  6
PHANTOM
100
AcDbCircle
 10
-89.257963
 20
37.822955
 30
0.0
 40
16.5
100
AcDbArc
 50
180.0
 51
360.0
  0
ARC
  5
59
100
AcDbEntity
  8
1
370
    18
  6
PHANTOM
100
AcDbCircle
 10
-89.257963
 20
-41.177245
 30
0.0
 40
16.5
100
AcDbArc
 50
0.0
 51
180.0
  0
CIRCLE
  5
5A
100
AcDbEntity
  8
1
370
    18
  6
DASHDOT
100
AcDbCircle
 10
-89.257963
 20
11.322855
 30
0.0
 40
16.5
  0
CIRCLE
  5
5B
100
AcDbEntity
  8
1
370
    18
  6
DASHDOT
100
AcDbCircle
 10
115.337244
 20
-14.677145
 30
0.0
 40
16.5
  0
ARC
  5
5C
100
AcDbEntity
  8
1
370
    18
  6
PHANTOM
100
AcDbCircle
 10
115.337244
 20
37.822955
 30
0.0
 40
16.5
100
AcDbArc
 50
180.0
 51
360.0
  0
ARC
  5
5D
100
AcDbEntity
  8
1
370
    18
  6
PHANTOM
100
AcDbCircle
 10
115.337244
 20
-41.177245
 30
0.0
 40
16.5
100
AcDbArc
 50
0.0
 51
180.0
  0
CIRCLE
  5
5E
100
AcDbEntity
  8
1
370
    18
  6
DASHDOT
100
AcDbCircle
 10
115.337244
 20
11.322855
 30
0.0
 40
16.5
  0
LINE
  5
5F
100
AcDbEntity
  8
1
370
    50
  6
DASHED
100
AcDbLine
 10
-7.489599
 20
126.232399
 30
0.0
 11
-7.489599
 21
-96.517387
 31
0.0
  0
LINE
  5
60
100
AcDbEntity
  8
1
370
    25
  6
CENTER
100
AcDbLine
 10
115.337244
 20
63.940005
 30
0.0
 11
115.337244
 21
-64.347356
 31
0.0
  0
LINE
  5
61
100
AcDbEntity
  8
1
370
    25
  6
CENTER
100
AcDbLine
 10
-89.257963
 20
-62.3067
 30
0.0
 11
-89.257963
 21
61.248483
 31
0.0
  0
TEXT
  5
62
100
AcDbEntity
  8
2
370
    18
100
AcDbText
 10
-148.68515
 20
93.35479
 30
0.0
 40
3.0
  1
40
 41
2.0
 72
     5
 11
-143.88515
 21
93.35479
 31
0.0
100
AcDbText
  0
TEXT
  5
63
100
AcDbEntity
  8
2
370
    18
100
AcDbText
 10
-163.68515
 20
93.35479
 30
0.0
 40
3.0
  1
扉厚２８～
 72
     5
 11
-149.28515
 21
93.35479
 31
0.0
100
AcDbText
  0
DIMENSION
  5
64
100
AcDbEntity
  8
2
370
    25
100
AcDbDimension
  2
*D0
 10
-136.68515
 20
92.85479
 30
0.0
 11
-153.18515
 21
94.85479
 31
0.0
 71
     0
 72
     0
 41
0.0
 42
0.0
  3
Standard
100
AcDbAlignedDimension
 13
-169.68515
 23
81.734924
 33
0.0
 14
-136.68515
 24
81.734924
 34
0.0
100
AcDbRotatedDimension
  0
DIMENSION
  5
65
100
AcDbEntity
  8
2
370
    25
100
AcDbDimension
  2
*D1
 10
-72.757963
 20
-70.891901
 30
0.0
 11
-89.257963
 21
-68.891901
 31
0.0
 71
     0
 72
     0
 41
0.0
 42
0.0
  3
Standard
100
AcDbAlignedDimension
 13
-105.757963
 23
-41.177245
 33
0.0
 14
-72.757963
 24
-41.177245
 34
0.0
100
AcDbRotatedDimension
  0
DIMENSION
  5
66
100
AcDbEntity
  8
2
370
    25
100
AcDbDimension
  2
*D2
 10
-60.944574
 20
37.822955
 30
0.0
 11
-67.444574
 21
20.822905
 31
0.0
 71
     0
 72
     0
 41
0.0
 42
0.0
  3
Standard
100
AcDbAlignedDimension
 13
-69.757963
 23
11.322855
 33
0.0
 14
-69.757963
 24
37.822955
 34
0.0
 50
90.0
100
AcDbRotatedDimension
  0
DIMENSION
  5
67
100
AcDbEntity
  8
2
370
    25
100
AcDbDimension
  2
*D3
 10
-60.944574
 20
-14.677145
 30
0.0
 11
-67.444574
 21
-31.677195
 31
0.0
 71
     0
 72
     0
 41
0.0
 42
0.0
  3
Standard
100
AcDbAlignedDimension
 13
-69.757963
 23
-41.177245
 33
0.0
 14
-69.757963
 24
-14.677145
 34
0.0
 50
90.0
100
AcDbRotatedDimension
  0
DIMENSION
  5
68
100
AcDbEntity
  8
2
370
    25
100
AcDbDimension
  2
*D4
 10
-60.944574
 20
11.322855
 30
0.0
 11
-64.444574
 21
-3.177145
 31
0.0
 71
     0
 72
     0
 41
0.0
 42
0.0
  3
Standard
100
AcDbAlignedDimension
 13
-69.757963
 23
-14.677145
 33
0.0
 14
-69.757963
 24
11.322855
 34
0.0
 50
90.0
100
AcDbRotatedDimension
  0
DIMENSION
  5
69
100
AcDbEntity
  8
2
370
    25
100
AcDbDimension
  2
*D5
 10
-55.960455
 20
37.822955
 30
0.0
 11
-59.460455
 21
-1.677145
 31
0.0
 71
     0
 72
     0
 41
0.0
 42
0.0
  3
Standard
100
AcDbAlignedDimension
 13
-69.757963
 23
-41.177245
 33
0.0
 14
-69.757963
 24
37.822955
 34
0.0
 50
90.0
100
AcDbRotatedDimension
  0
DIMENSION
  5
6A
100
AcDbEntity
  8
2
370
    25
100
AcDbDimension
  2
*D6
 10
-51.18479
 20
54.322955
 30
0.0
 11
-56.18479
 21
-4.677145
 31
0.0
 71
     0
 72
     0
 41
0.0
 42
0.0
  3
Standard
100
AcDbAlignedDimension
 13
-89.257963
 23
-57.677245
 33
0.0
 14
-89.257963
 24
54.322955
 34
0.0
 50
90.0
100
AcDbRotatedDimension
  0
TEXT
  5
6B
100
AcDbEntity
  8
2
370
    18
100
AcDbText
 10
-72.960966
 20
66.406116
 30
0.0
 40
3.0
  1
φ３３×４貫通
 72
     5
 11
-52.560966
 21
66.406116
 31
0.0
100
AcDbText
  0
LWPOLYLINE
  5
6C
100
AcDbEntity
  8
2
370
    25
100
AcDbPolyline
 90
        3
 70
     0
 10
-81.214187
 20
52.22947
 10
-74.231642
 20
65.912287
 10
-51.472082
 20
65.912287
  0
LINE
  5
71
100
AcDbEntity
  8
2
370
    25
100
AcDbLine
 10
-80.797138
 20
54.185504
 30
0.0
 11
-81.214187
 21
52.22947
 31
0.0
  0
LINE
  5
72
100
AcDbEntity
  8
2
370
    25
100
AcDbLine
 10
-81.214187
 20
52.22947
 30
0.0
 11
-79.874995
 21
53.714921
 31
0.0
  0
LWPOLYLINE
  5
73
100
AcDbEntity
  8
2
370
    25
100
AcDbPolyline
 90
        3
 70
     0
 10
123.909964
 20
51.920921
 10
130.89251
 20
65.603737
 10
146.859344
 20
65.603737
  0
LINE
  5
78
100
AcDbEntity
  8
2
370
    25
100
AcDbLine
 10
124.327013
 20
53.876955
 30
0.0
 11
123.909964
 21
51.920921
 31
0.0
  0
LINE
  5
79
100
AcDbEntity
  8
2
370
    25
100
AcDbLine
 10
123.909964
 20
51.920921
 30
0.0
 11
125.249157
 21
53.406371
 31
0.0
  0
DIMENSION
  5
7A
100
AcDbEntity
  8
2
370
    25
100
AcDbDimension
  2
*D7
 10
67.910057
 20
88.593765
 30
0.0
 11
61.160057
 21
90.593765
 31
0.0
 71
     0
 72
     0
 41
0.0
 42
0.0
  3
Standard
100
AcDbAlignedDimension
 13
54.410057
 23
45.073763
 33
0.0
 14
67.910057
 24
88.593765
 34
0.0
100
AcDbRotatedDimension
  0
DIMENSION
  5
7B
100
AcDbEntity
  8
2
370
    25
100
AcDbDimension
  2
*D8
 10
142.929306
 20
37.822955
 30
0.0
 11
136.429306
 21
22.572905
 31
0.0
 71
     0
 72
     0
 41
0.0
 42
0.0
  3
Standard
100
AcDbAlignedDimension
 13
134.837244
 23
11.322855
 33
0.0
 14
134.837244
 24
37.822955
 34
0.0
 50
90.0
100
AcDbRotatedDimension
  0
DIMENSION
  5
7C
100
AcDbEntity
  8
2
370
    25
100
AcDbDimension
  2
*D9
 10
142.929306
 20
11.322855
 30
0.0
 11
139.429306
 21
-1.177145
 31
0.0
 71
     0
 72
     0
 41
0.0
 42
0.0
  3
Standard
100
AcDbAlignedDimension
 13
134.837244
 23
-14.677145
 33
0.0
 14
142.929306
 24
11.322855
 34
0.0
 50
90.0
100
AcDbRotatedDimension
  0
DIMENSION
  5
7D
100
AcDbEntity
  8
2
370
    25
100
AcDbDimension
  2
*D10
 10
142.929306
 20
-14.677145
 30
0.0
 11
136.429306
 21
-29.927195
 31
0.0
 71
     0
 72
     0
 41
0.0
 42
0.0
  3
Standard
100
AcDbAlignedDimension
 13
134.837244
 23
-41.177245
 33
0.0
 14
142.929306
 24
-14.677145
 34
0.0
 50
90.0
100
AcDbRotatedDimension
  0
DIMENSION
  5
7E
100
AcDbEntity
  8
2
370
    25
100
AcDbDimension
  2
*D11
 10
148.073517
 20
37.822955
 30
0.0
 11
144.573517
 21
-1.177145
 31
0.0
 71
     0
 72
     0
 41
0.0
 42
0.0
  3
Standard
100
AcDbAlignedDimension
 13
134.837244
 23
-41.177245
 33
0.0
 14
134.837244
 24
37.822955
 34
0.0
 50
90.0
100
AcDbRotatedDimension
  0
DIMENSION
  5
7F
100
AcDbEntity
  8
2
370
    25
100
AcDbDimension
  2
*D12
 10
131.837244
 20
-70.492691
 30
0.0
 11
115.837244
 21
-68.492691
 31
0.0
 71
     0
 72
     0
 41
0.0
 42
0.0
  3
Standard
100
AcDbAlignedDimension
 13
98.837244
 23
-41.177245
 33
0.0
 14
131.837244
 24
-41.177245
 34
0.0
100
AcDbRotatedDimension
  0
TEXT
  5
80
100
AcDbEntity
  8
2
370
    18
100
AcDbText
 10
132.163186
 20
66.097566
 30
0.0
 40
3.0
  1
φ３３×４
 72
     5
 11
146.563186
 21
66.097566
 31
0.0
100
AcDbText
  0
TEXT
  5
81
100
AcDbEntity
  8
2
370
    18
100
AcDbText
 10
-179.796843
 20
121.420303
 30
0.0
 40
3.2
  1
１ＣＴ　切欠図
 72
     5
 11
-158.036843
 21
121.420303
 31
0.0
100
AcDbText
  0
TEXT
  5
82
100
AcDbEntity
  8
2
370
    18
100
AcDbText
 10
8.144421
 20
121.321602
 30
0.0
 40
3.2
  1
Ｋ-１ＣＴ　切欠図
 72
     5
 11
34.704421
 21
121.321602
 31
0.0
100
AcDbText
  0
DIMENSION
  5
83
100
AcDbEntity
  8
2
370
    25
100
AcDbDimension
  2
*D13
 10
152.645615
 20
54.322955
 30
0.0
 11
147.645615
 21
-2.427145
 31
0.0
 71
     0
 72
     0
 41
0.0
 42
0.0
  3
Standard
100
AcDbAlignedDimension
 13
115.337244
 23
-57.677245
 33
0.0
 14
115.337244
 24
54.322955
 34
0.0
 50
90.0
100
AcDbRotatedDimension
  0
TEXT
  5
84
100
AcDbEntity
  8
2
370
    18
100
AcDbText
 10
47.410057
 20
95.755646
 30
0.0
 40
3.0
  1
扉厚２６～
 72
     5
 11
61.810057
 21
95.755646
 31
0.0
100
AcDbText
  0
DIMENSION
  5
85
100
AcDbEntity
  8
2
370
    25
100
AcDbDimension
  2
*D14
 10
67.910057
 20
95.255646
 30
0.0
 11
54.910057
 21
97.255646
 31
0.0
 71
     0
 72
     0
 41
0.0
 42
0.0
  3
Standard
100
AcDbAlignedDimension
 13
41.910057
 23
81.734924
 33
0.0
 14
67.910057
 24
81.734924
 34
0.0
100
AcDbRotatedDimension
  0
LINE
  5
86
100
AcDbEntity
  8
3
370
   100
100
AcDbLine
 10
200.0
 20
138.0
 30
0.0
 11
200.0
 21
-138.0
 31
0.0
  0
LINE
  5
87
100
AcDbEntity
  8
3
370
   100
100
AcDbLine
 10
-190.0
 20
-138.0
 30
0.0
 11
200.0
 21
-138.0
 31
0.0
  0
LINE
  5
88
100
AcDbEntity
  8
3
370
    50
100
AcDbLine
 10
-190.0
 20
-108.0
 30
0.0
 11
200.0
 21
-108.0
 31
0.0
  0
LINE
  5
89
100
AcDbEntity
  8
3
370
    25
100
AcDbLine
 10
10.0
 20
-112.999949
 30
0.0
 11
108.000527
 21
-112.999865
 31
0.0
  0
LINE
  5
8A
100
AcDbEntity
  8
3
370
   100
100
AcDbLine
 10
-190.3
 20
138.3
 30
0.0
 11
200.3
 21
138.3
 31
0.0
  0
LINE
  5
8B
100
AcDbEntity
  8
3
370
   100
100
AcDbLine
 10
200.3
 20
138.3
 30
0.0
 11
200.3
 21
-138.3
 31
0.0
  0
LINE
  5
8C
100
AcDbEntity
  8
3
370
   100
100
AcDbLine
 10
200.3
 20
-138.3
 30
0.0
 11
-190.3
 21
-138.3
 31
0.0
  0
LINE
  5
8D
100
AcDbEntity
  8
3
370
   100
100
AcDbLine
 10
-190.3
 20
-138.3
 30
0.0
 11
-190.3
 21
138.3
 31
0.0
  0
LINE
  5
8E
100
AcDbEntity
  8
3
370
    25
100
AcDbLine
 10
108.000527
 20
-112.999865
 30
0.0
 11
108.000527
 21
-108.0
 31
0.0
  0
LINE
  5
8F
100
AcDbEntity
  8
3
370
    25
100
AcDbLine
 10
90.0
 20
-129.999865
 30
0.0
 11
108.000527
 21
-129.999865
 31
0.0
  0
LINE
  5
90
100
AcDbEntity
  8
3
370
    25
100
AcDbLine
 10
108.000527
 20
-129.999865
 30
0.0
 11
108.000527
 21
-125.0
 31
0.0
  0
LINE
  5
91
100
AcDbEntity
  8
3
370
    50
100
AcDbLine
 10
10.0
 20
-108.0
 30
0.0
 11
10.0
 21
-138.0
 31
0.0
  0
TEXT
  5
92
100
AcDbEntity
  8
3
370
   100
100
AcDbText
 10
22.0
 20
-135.5
 30
0.0
 40
8.0
  1
（株）川口技研
 72
     5
 11
76.4
 21
-135.5
 31
0.0
100
AcDbText
  0
TEXT
  5
93
100
AcDbEntity
  8
3
370
    25
100
AcDbText
 10
91.800263
 20
-112.29994
 30
0.0
 40
3.6
  1
図面名称
 72
     5
 11
105.480263
 21
-112.29994
 31
0.0
100
AcDbText
  0
TEXT
  5
94
100
AcDbEntity
  8
3
370
    25
100
AcDbText
 10
91.800263
 20
-129.299925
 30
0.0
 40
3.6
  1
図面番号
 72
     5
 11
105.480263
 21
-129.299925
 31
0.0
100
AcDbText
  0
TEXT
  5
95
100
AcDbEntity
  8
3
370
    25
100
AcDbText
 10
16.133333
 20
-112.299991
 30
0.0
 40
3.6
  1
図　　法
 72
     5
 11
29.813333
 21
-112.299991
 31
0.0
100
AcDbText
  0
TEXT
  5
96
100
AcDbEntity
  8
3
370
    25
100
AcDbText
 10
42.8
 20
-112.299974
 30
0.0
 40
3.6
  1
単　　位
 72
     5
 11
56.48
 21
-112.299974
 31
0.0
100
AcDbText
  0
TEXT
  5
97
100
AcDbEntity
  8
3
370
    25
100
AcDbText
 10
69.466667
 20
-112.299957
 30
0.0
 40
3.6
  1
尺　　度
 72
     5
 11
83.146667
 21
-112.299957
 31
0.0
100
AcDbText
  0
TEXT
  5
98
100
AcDbEntity
  8
3
370
    25
100
AcDbText
 10
46.0
 20
-120.999957
 30
0.0
 40
4.0
  1
ｍｍ
 72
     5
 11
53.2
 21
-120.999957
 31
0.0
100
AcDbText
  0
TEXT
  5
99
100
AcDbEntity
  8
3
370
    25
100
AcDbText
 10
17.333333
 20
-120.999957
 30
0.0
 40
4.0
  1
３角法
 72
     5
 11
28.533333
 21
-120.999957
 31
0.0
100
AcDbText
  0
LINE
  5
9A
100
AcDbEntity
  8
3
370
    50
100
AcDbLine
 10
90.0
 20
-138.0
 30
0.0
 11
90.0
 21
-108.0
 31
0.0
  0
LINE
  5
9B
100
AcDbEntity
  8
3
370
    50
100
AcDbLine
 10
10.0
 20
-125.0
 30
0.0
 11
90.0
 21
-125.0
 31
0.0
  0
LINE
  5
9C
100
AcDbEntity
  8
3
370
    50
100
AcDbLine
 10
90.0
 20
-125.0
 30
0.0
 11
200.0
 21
-125.0
 31
0.0
  0
LINE
  5
9D
100
AcDbEntity
  8
3
370
    50
100
AcDbLine
 10
36.666667
 20
-125.0
 30
0.0
 11
36.666667
 21
-108.0
 31
0.0
  0
LINE
  5
9E
100
AcDbEntity
  8
3
370
    50
100
AcDbLine
 10
63.333333
 20
-125.0
 30
0.0
 11
63.333333
 21
-108.0
 31
0.0
  0
TEXT
  5
9F
100
AcDbEntity
  8
3
370
    25
100
AcDbText
 10
70.666667
 20
-120.999957
 30
0.0
 40
4.0
  1
１／１
 72
     5
 11
81.866667
 21
-120.999957
 31
0.0
100
AcDbText
  0
TEXT
  5
A0
100
AcDbEntity
  8
3
370
   100
100
AcDbText
 10
124.421455
 20
-134.545471
 30
0.0
 40
6.0
  1
ＤＺ－１９８０－００
 72
     5
 11
183.221455
 21
-134.545471
 31
0.0
100
AcDbText
  0
TEXT
  5
A1
100
AcDbEntity
  8
3
370
    50
100
AcDbText
 10
108.342773
 20
-120.064911
 30
0.0
 40
4.5
  1
１ＣＴ・Ｋ-１ＣＴ　-色記号　切欠図
 41
0.9
 72
     5
 11
176.382773
 21
-120.064911
 31
0.0
100
AcDbText
  0
ENDSEC
  0
SECTION
  2
OBJECTS
  0
DICTIONARY
  5
133
100
AcDbDictionary
280
     0
281
     1
  3
ACAD_GROUP
350
134
  3
ACAD_MLINESTYLE
350
135
  0
DICTIONARY
  5
134
102
{ACAD_REACTORS
330
133
102
}
100
AcDbDictionary
280
     0
281
     1
  0
DICTIONARY
  5
135
102
{ACAD_REACTORS
330
133
102
}
100
AcDbDictionary
280
     0
281
     1
  3
Standard
350
136
  0
MLINESTYLE
  5
136
102
{ACAD_REACTORS
330
135
102
}
100
AcDbMlineStyle
  2
Standard
 70
     0
  3

 62
     0
 51
90.0
 52
90.0
 71
     2
 49
0.5
 62
   256
  6
ByLayer
 49
-0.5
 62
   256
  6
ByLayer
  0
ENDSEC
  0
EOF
