  0
SECTION
  2
HEADER
  9
$ACADVER
  1
AC1015
  9
$ACADMAINTVER
 70
     6
  9
$DWGCODEPAGE
  3
ANSI_932
  9
$INSBASE
 10
0.0
 20
0.0
 30
0.0
  9
$EXTMIN
 10
-210.0
 20
-148.5
 30
1.000000E+20
  9
$EXTMAX
 10
210.0
 20
148.5
 30
-1.000000E+20
  9
$LIMMIN
 10
-210.0
 20
-148.5
  9
$LIMMAX
 10
210.0
 20
148.5
  9
$ORTHOMODE
 70
     0
  9
$REGENMODE
 70
     1
  9
$FILLMODE
 70
     1
  9
$QTEXTMODE
 70
     0
  9
$MIRRTEXT
 70
     1
  9
$LTSCALE
 40
1.0
  9
$ATTMODE
 70
     1
  9
$TEXTSIZE
 40
0.2
  9
$TRACEWID
 40
0.05
  9
$TEXTSTYLE
  7
STANDARD
  9
$CLAYER
  8
0
  9
$CELTYPE
  6
CONTINUOUS
  9
$CECOLOR
 62
   256
  9
$CELTSCALE
 40
1.0
  9
$DISPSILH
 70
     0
  9
$DIMSCALE
 40
1.0
  9
$DIMASZ
 40
2.0
  9
$DIMEXO
 40
0.5
  9
$DIMDLI
 40
0.38
  9
$DIMRND
 40
0.0
  9
$DIMDLE
 40
0.0
  9
$DIMEXE
 40
2.0
  9
$DIMTP
 40
0.0
  9
$DIMTM
 40
0.0
  9
$DIMTXT
 40
2.5
  9
$DIMCEN
 40
0.09
  9
$DIMTSZ
 40
0.0
  9
$DIMTOL
 70
     0
  9
$DIMLIM
 70
     0
  9
$DIMTIH
 70
     0
  9
$DIMTOH
 70
     0
  9
$DIMSE1
 70
     0
  9
$DIMSE2
 70
     0
  9
$DIMTAD
 70
     1
  9
$DIMZIN
 70
     0
  9
$DIMBLK
  1

  9
$DIMASO
 70
     1
  9
$DIMSHO
 70
     1
  9
$DIMPOST
  1

  9
$DIMAPOST
  1

  9
$DIMALT
 70
     0
  9
$DIMALTD
 70
     2
  9
$DIMALTF
 40
25.4
  9
$DIMLFAC
 40
1.0
  9
$DIMTOFL
 70
     0
  9
$DIMTVP
 40
0.0
  9
$DIMTIX
 70
     0
  9
$DIMSOXD
 70
     0
  9
$DIMSAH
 70
     0
  9
$DIMBLK1
  1

  9
$DIMBLK2
  1

  9
$DIMSTYLE
  2
Standard
  9
$DIMCLRD
 70
     0
  9
$DIMCLRE
 70
     0
  9
$DIMCLRT
 70
     0
  9
$DIMTFAC
 40
1.0
  9
$DIMGAP
 40
0.5
  9
$DIMJUST
 70
     0
  9
$DIMSD1
 70
     0
  9
$DIMSD2
 70
     0
  9
$DIMTOLJ
 70
     1
  9
$DIMTZIN
 70
     0
  9
$DIMALTZ
 70
     0
  9
$DIMALTTZ
 70
     0
  9
$DIMUPT
 70
     0
  9
$DIMDEC
 70
     2
  9
$DIMTDEC
 70
     4
  9
$DIMALTU
 70
     2
  9
$DIMALTTD
 70
     2
  9
$DIMTXSTY
  7
STANDARD
  9
$DIMAUNIT
 70
     0
  9
$DIMADEC
 70
     0
  9
$DIMALTRND
 40
0.0
  9
$DIMAZIN
 70
     0
  9
$DIMDSEP
 70
     0
  9
$DIMATFIT
 70
     3
  9
$DIMFRAC
 70
     0
  9
$DIMLDRBLK
  1

  9
$DIMLUNIT
 70
     2
  9
$DIMLWD
 70
     0
  9
$DIMLWE
 70
     0
  9
$DIMTMOVE
 70
     0
  9
$LUNITS
 70
     2
  9
$LUPREC
 70
     4
  9
$SKETCHINC
 40
0.1
  9
$FILLETRAD
 40
0.0
  9
$AUNITS
 70
     0
  9
$AUPREC
 70
     0
  9
$MENU
  1
acad
  9
$ELEVATION
 40
0.0
  9
$PELEVATION
 40
0.0
  9
$THICKNESS
 40
0.0
  9
$LIMCHECK
 70
     0
  9
$CHAMFERA
 40
0.0
  9
$CHAMFERB
 40
0.0
  9
$CHAMFERC
 40
0.0
  9
$CHAMFERD
 40
0.0
  9
$SKPOLY
 70
     0
  9
$TDCREATE
 40
2451501.000000000
  9
$TDUCREATE
 40
0.000000000
  9
$TDUPDATE
 40
0.000000000
  9
$TDUUPDATE
 40
2447892.625000000
  9
$TDINDWG
 40
0.0000000000
  9
$TDUSRTIMER
 40
0.0000000000
  9
$USRTIMER
 70
     1
  9
$ANGBASE
 50
0.0
  9
$ANGDIR
 70
     0
  9
$PDMODE
 70
     0
  9
$PDSIZE
 40
0.0
  9
$PLINEWID
 40
0.0
  9
$SPLFRAME
 70
     0
  9
$SPLINETYPE
 70
     6
  9
$SPLINESEGS
 70
     8
  9
$HANDSEED
  5
14C
  9
$SURFTAB1
 70
     6
  9
$SURFTAB2
 70
     6
  9
$SURFTYPE
 70
     6
  9
$SURFU
 70
     6
  9
$SURFV
 70
     6
  9
$UCSBASE
  2

  9
$UCSNAME
  2

  9
$UCSORG
 10
0.0
 20
0.0
 30
0.0
  9
$UCSXDIR
 10
1.0
 20
0.0
 30
0.0
  9
$UCSYDIR
 10
0.0
 20
1.0
 30
0.0
  9
$UCSORTHOREF
  2

  9
$UCSORTHOVIEW
 70
     0
  9
$UCSORGTOP
 10
0.0
 20
0.0
 30
0.0
  9
$UCSORGBOTTOM
 10
0.0
 20
0.0
 30
0.0
  9
$UCSORGLEFT
 10
0.0
 20
0.0
 30
0.0
  9
$UCSORGRIGHT
 10
0.0
 20
0.0
 30
0.0
  9
$UCSORGFRONT
 10
0.0
 20
0.0
 30
0.0
  9
$UCSORGBACK
 10
0.0
 20
0.0
 30
0.0
  9
$PUCSBASE
  2

  9
$PUCSNAME
  2

  9
$PUCSORG
 10
0.0
 20
0.0
 30
0.0
  9
$PUCSXDIR
 10
1.0
 20
0.0
 30
0.0
  9
$PUCSYDIR
 10
0.0
 20
1.0
 30
0.0
  9
$PUCSORTHOREF
  2

  9
$PUCSORTHOVIEW
 70
     0
  9
$PUCSORGTOP
 10
0.0
 20
0.0
 30
0.0
  9
$PUCSORGBOTTOM
 10
0.0
 20
0.0
 30
0.0
  9
$PUCSORGLEFT
 10
0.0
 20
0.0
 30
0.0
  9
$PUCSORGRIGHT
 10
0.0
 20
0.0
 30
0.0
  9
$PUCSORGFRONT
 10
0.0
 20
0.0
 30
0.0
  9
$PUCSORGBACK
 10
0.0
 20
0.0
 30
0.0
  9
$USERI1
 70
     0
  9
$USERI2
 70
     0
  9
$USERI3
 70
     0
  9
$USERI4
 70
     0
  9
$USERI5
 70
     0
  9
$USERR1
 40
0.0
  9
$USERR2
 40
0.0
  9
$USERR3
 40
0.0
  9
$USERR4
 40
0.0
  9
$USERR5
 40
0.0
  9
$WORLDVIEW
 70
     1
  9
$SHADEDGE
 70
     3
  9
$SHADEDIF
 70
    70
  9
$TILEMODE
 70
     1
  9
$MAXACTVP
 70
    16
  9
$PINSBASE
 10
0.0
 20
0.0
 30
0.0
  9
$PLIMCHECK
 70
     0
  9
$PEXTMIN
 10
1.000000E+20
 20
1.000000E+20
 30
1.000000E+20
  9
$PEXTMAX
 10
-1.000000E+20
 20
-1.000000E+20
 30
-1.000000E+20
  9
$PLIMMIN
 10
0.0
 20
0.0
  9
$PLIMMAX
 10
12.0
 20
9.0
  9
$UNITMODE
 70
     0
  9
$VISRETAIN
 70
     0
  9
$PLINEGEN
 70
     1
  9
$PSLTSCALE
 70
     0
  9
$TREEDEPTH
 70
  3020
  9
$CMLSTYLE
  2
Standard
  9
$CMLJUST
 70
     0
  9
$CMLSCALE
 40
1.0
  9
$PROXYGRAPHICS
 70
     0
  9
$MEASUREMENT
 70
     0
  9
$CELWEIGHT
370
     0
  9
$ENDCAPS
280
     0
  9
$JOINSTYLE
280
     0
  9
$LWDISPLAY
290
     0
  9
$INSUNITS
 70
     0
  9
$HYPERLINKBASE
  1

  9
$STYLESHEET
  1

  9
$XEDIT
290
     1
  9
$CEPSNTYPE
380
     0
  9
$PSTYLEMODE
290
     1
  9
$FINGERPRINTGUID
  2

  9
$VERSIONGUID
  2

  9
$EXTNAMES
290
     1
  9
$PSVPSCALE
 40
0.0
  0
ENDSEC
  0
SECTION
  2
CLASSES
  0
CLASS
  1
LWPOLYLINE
  2
AcDbPolyline
  3
AutoCAD 2000
 90
        0
280
     0
281
     1
  0
CLASS
  1
IMAGE
  2
AcDbRasterImage
  3
ISM
 90
      127
280
     0
281
     1
  0
CLASS
  1
OLE2FRAME
  2
AcDbOle2Frame
  3
AutoCAD 2000
 90
        0
280
     0
281
     1
  0
CLASS
  1
HATCH
  2
AcDbHatch
  3
AutoCAD 2000
 90
        0
280
     0
281
     1
  0
CLASS
  1
DICTIONARYVAR
  2
AcDbDictionaryVar
  3
AutoCAD 2000
 90
        0
280
     0
281
     0
  0
CLASS
  1
RASTERVARIABLES
  2
AcDbRasterVariables
  3
ISM
 90
        0
280
     0
281
     0
  0
CLASS
  1
IMAGEDEF
  2
AcDbRasterImageDef
  3
ISM
 90
        0
280
     0
281
     0
  0
CLASS
  1
IMAGEDEF_REACTOR
  2
AcDbRasterImageDefReactor
  3
ISM
 90
        1
280
     0
281
     0
  0
CLASS
  1
IDBUFFER
  2
AcDbIdBuffer
  3
AutoCAD 2000
 90
        0
280
     0
281
     0
  0
CLASS
  1
SPATIAL_FILTER
  2
AcDbSpatialFilter
  3
AutoCAD 2000
 90
        0
280
     0
281
     0
  0
CLASS
  1
XRECORD
  2
AcDbXrecord
  3
AutoCAD 2000
 90
        0
280
     0
281
     0
  0
CLASS
  1
SORTENTSTABLE
  2
AcDbSortentsTable
  3
AutoCAD 2000
 90
        0
280
     0
281
     0
  0
CLASS
  1
LAYER_INDEX
  2
AcDbLayerIndex
  3
AutoCAD 2000
 90
        0
280
     0
281
     0
  0
CLASS
  1
SPATIAL_INDEX
  2
AcDbSpatialIndex
  3
AutoCAD 2000
 90
        0
280
     0
281
     0
  0
CLASS
  1
OBJECT_PTR
  2
CAseDLPNTableRecord
  3
"ASE-LPNTableRecord"
 90
        1
280
     0
281
     0
  0
CLASS
  1
LAYOUT
  2
AcDbLayout
  3
AutoCAD 2000
 90
        0
280
     0
281
     0
  0
CLASS
  1
PLOTSETTINGS
  2
AcDbPlotSettings
  3
AutoCAD 2000
 90
        0
280
     0
281
     0
  0
CLASS
  1
ACDBDICTIONARYWDFLT
  2
AcDbDictionaryWithDefault
  3
AutoCAD 2000
 90
        0
280
     0
281
     0
  0
CLASS
  1
ACDBPLACEHOLDER
  2
AcDbPlaceHolder
  3
AutoCAD 2000
 90
        0
280
     0
281
     0
  0
CLASS
  1
VBA_PROJECT
  2
AcDbVbaProject
  3
acadvba
 90
        0
280
     0
281
     0
  0
CLASS
  1
WIPEOUT
  2
AcDbWipeout
  3
WipeOut|AutoCAD Express Tool|expresstools@autodesk.com
 90
      127
280
     0
281
     1
  0
CLASS
  1
WIPEOUTVARIABLES
  2
AcDbWipeoutVariables
  3
WipeOut|AutoCAD Express Tool|expresstools@autodesk.com
 90
        0
280
     0
281
     0
  0
CLASS
  1
RTEXT
  2
RText
  3
RText|AutoCAD Express Tool|expresstools@autodesk.com
 90
        0
280
     0
281
     1
  0
CLASS
  1
ARCALIGNEDTEXT
  2
AcDbArcAlignedText
  3
ATEXT|AutoCAD Express Tool|expresstools@autodesk.com
 90
        0
280
     0
281
     1
  0
ENDSEC
  0
SECTION
  2
TABLES
  0
TABLE
  2
VPORT
  5
6
100
AcDbSymbolTable
 70
     1
  0
VPORT
  5
19
100
AcDbSymbolTableRecord
100
AcDbViewportTableRecord
  2
*ACTIVE
 70
     0
 10
0.0
 20
0.0
 11
1.0
 21
1.0
 12
0.0
 22
0.0
 13
0.0
 23
0.0
 14
1.0
 24
1.0
 15
0.0
 25
0.0
 16
0.0
 26
0.0
 36
1.0
 17
0.0
 27
0.0
 37
0.0
 40
297.0
 41
1.414141
 42
50.0
 43
0.0
 44
0.0
 50
0.0
 51
0.0
 71
     0
 72
   500
 73
     1
 74
     1
 75
     0
 76
     0
 77
     0
 78
     0
281
     0
 65
     0
110
0.0
120
0.0
130
0.0
111
1.0
121
0.0
131
0.0
112
0.0
122
1.0
132
0.0
345
0
346
0
 79
     0
146
0.0
  0
ENDTAB
  0
TABLE
  2
LTYPE
  5
3
100
AcDbSymbolTable
 70
     9
  0
LTYPE
  5
C
100
AcDbSymbolTableRecord
100
AcDbLinetypeTableRecord
  2
ByBlock
 70
    64
  3

 72
    65
 73
     0
 40
0.0
  0
LTYPE
  5
D
100
AcDbSymbolTableRecord
100
AcDbLinetypeTableRecord
  2
ByLayer
 70
    64
  3

 72
    65
 73
     0
 40
0.0
  0
LTYPE
  5
E
100
AcDbSymbolTableRecord
100
AcDbLinetypeTableRecord
  2
CONTINUOUS
 70
     0
  3
Solid line
 72
    65
 73
     0
 40
0.0
  0
LTYPE
  5
F
100
AcDbSymbolTableRecord
100
AcDbLinetypeTableRecord
  2
DASHED
 70
     0
  3
__ __ __ __ __ __ __ __ __ __ __ __ __ __ __
 72
    65
 73
     2
 40
2.0
 49
1.2
 74
     0
 49
-0.8
 74
     0
  0
LTYPE
  5
10
100
AcDbSymbolTableRecord
100
AcDbLinetypeTableRecord
  2
CENTER
 70
     0
  3
____ _ ____ _ ____ _ ____ _ ____ _ ____ _ ____
 72
    65
 73
     4
 40
12.0
 49
9.0
 74
     0
 49
-1.0
 74
     0
 49
1.0
 74
     0
 49
-1.0
 74
     0
  0
LTYPE
  5
11
100
AcDbSymbolTableRecord
100
AcDbLinetypeTableRecord
  2
HIDDEN
 70
     0
  3
_ _ _ _ _ _ _ _ _ _ _ _ _ _ _ _ _ _ _ _ _ _ _
 72
    65
 73
     2
 40
3.2
 49
1.3
 74
     0
 49
-1.9
 74
     0
  0
LTYPE
  5
12
100
AcDbSymbolTableRecord
100
AcDbLinetypeTableRecord
  2
PHANTOM
 70
     0
  3
_____ _ _ _____ _ _ _____ _ _ _____ _ _ _____
 72
    65
 73
     6
 40
12.5
 49
9.0
 74
     0
 49
-1.0
 74
     0
 49
0.5
 74
     0
 49
-0.5
 74
     0
 49
0.5
 74
     0
 49
-1.0
 74
     0
  0
LTYPE
  5
13
100
AcDbSymbolTableRecord
100
AcDbLinetypeTableRecord
  2
DOT
 70
     0
  3
...............................................
 72
    65
 73
     2
 40
1.0
 49
0.5
 74
     0
 49
-0.5
 74
     0
  0
LTYPE
  5
14
100
AcDbSymbolTableRecord
100
AcDbLinetypeTableRecord
  2
DASHDOT
 70
     0
  3
__ . __ . __ . __ . __ . __ . __ . __ . __ . __
 72
    65
 73
     4
 40
8.0
 49
5.0
 74
     0
 49
-1.0
 74
     0
 49
1.0
 74
     0
 49
-1.0
 74
     0
  0
ENDTAB
  0
TABLE
  2
LAYER
  5
1
100
AcDbSymbolTable
 70
     4
  0
LAYER
  5
15
100
AcDbSymbolTableRecord
100
AcDbLayerTableRecord
  2
0
 70
     0
 62
     8
  6
CONTINUOUS
290
     1
370
    -3
390
0
  0
LAYER
  5
16
100
AcDbSymbolTableRecord
100
AcDbLayerTableRecord
  2
1
 70
     0
 62
     2
  6
CONTINUOUS
290
     1
370
    -3
390
0
  0
LAYER
  5
17
100
AcDbSymbolTableRecord
100
AcDbLayerTableRecord
  2
2
 70
     0
 62
     3
  6
CONTINUOUS
290
     1
370
    -3
390
0
  0
LAYER
  5
18
100
AcDbSymbolTableRecord
100
AcDbLayerTableRecord
  2
3
 70
     0
 62
     4
  6
CONTINUOUS
290
     1
370
    -3
390
0
  0
ENDTAB
  0
TABLE
  2
STYLE
  5
2
100
AcDbSymbolTable
 70
     1
  0
STYLE
  5
1B
100
AcDbSymbolTableRecord
100
AcDbTextStyleTableRecord
  2
STANDARD
 70
    64
 40
0.0
 41
1.0
 50
0.0
 71
     0
 42
1.0
  3
txt
  4
BIGFONT
  0
ENDTAB
  0
TABLE
  2
VIEW
  5
4
100
AcDbSymbolTable
 70
     0
  0
ENDTAB
  0
TABLE
  2
UCS
  5
5
100
AcDbSymbolTable
 70
     0
  0
ENDTAB
  0
TABLE
  2
APPID
  5
7
100
AcDbSymbolTable
 70
     1
  0
APPID
  5
1A
100
AcDbSymbolTableRecord
100
AcDbRegAppTableRecord
  2
ACAD
 70
     0
  0
ENDTAB
  0
TABLE
  2
DIMSTYLE
  5
8
100
AcDbSymbolTable
 70
     1
100
AcDbDimStyleTable
 71
     0
  0
DIMSTYLE
105
33
100
AcDbSymbolTableRecord
100
AcDbDimStyleTableRecord
  2
Standard
 70
     0
  3

  4

 40
1.0
 41
2.0
 42
0.5
 43
0.38
 44
2.0
 45
0.0
 46
0.0
 47
0.0
 48
0.0
 71
     0
 72
     0
 73
     0
 74
     0
 75
     0
 76
     0
 77
     1
 78
     0
 79
     0
140
2.5
141
0.09
142
0.0
143
25.4
144
1.0
145
0.0
146
1.0
147
0.5
148
0.0
170
     0
171
     2
172
     0
173
     0
174
     0
175
     0
176
     0
177
     0
178
     0
179
     0
271
     2
272
     4
273
     2
274
     2
275
     0
276
     0
277
     2
278
    46
279
     0
280
     0
281
     0
282
     0
283
     1
284
     0
285
     0
286
     0
288
     0
289
     3
340
1B
341
0
342
0
343
0
344
0
371
    -2
372
    -2
  0
ENDTAB
  0
TABLE
  2
BLOCK_RECORD
  5
2E
100
AcDbSymbolTable
 70
    16
  0
BLOCK_RECORD
  5
2C
100
AcDbSymbolTableRecord
100
AcDbBlockTableRecord
  2
*Model_Space
340
0
  0
BLOCK_RECORD
  5
2D
100
AcDbSymbolTableRecord
100
AcDbBlockTableRecord
  2
*Paper_Space
340
0
  0
BLOCK_RECORD
  5
1C
100
AcDbSymbolTableRecord
100
AcDbBlockTableRecord
  2
*D0
340
0
  0
BLOCK_RECORD
  5
1D
100
AcDbSymbolTableRecord
100
AcDbBlockTableRecord
  2
*D1
340
0
  0
BLOCK_RECORD
  5
1E
100
AcDbSymbolTableRecord
100
AcDbBlockTableRecord
  2
*D2
340
0
  0
BLOCK_RECORD
  5
1F
100
AcDbSymbolTableRecord
100
AcDbBlockTableRecord
  2
*D3
340
0
  0
BLOCK_RECORD
  5
20
100
AcDbSymbolTableRecord
100
AcDbBlockTableRecord
  2
*D4
340
0
  0
BLOCK_RECORD
  5
21
100
AcDbSymbolTableRecord
100
AcDbBlockTableRecord
  2
*D5
340
0
  0
BLOCK_RECORD
  5
22
100
AcDbSymbolTableRecord
100
AcDbBlockTableRecord
  2
*D6
340
0
  0
BLOCK_RECORD
  5
23
100
AcDbSymbolTableRecord
100
AcDbBlockTableRecord
  2
*D7
340
0
  0
BLOCK_RECORD
  5
24
100
AcDbSymbolTableRecord
100
AcDbBlockTableRecord
  2
*D8
340
0
  0
BLOCK_RECORD
  5
25
100
AcDbSymbolTableRecord
100
AcDbBlockTableRecord
  2
*D9
340
0
  0
BLOCK_RECORD
  5
26
100
AcDbSymbolTableRecord
100
AcDbBlockTableRecord
  2
*D10
340
0
  0
BLOCK_RECORD
  5
27
100
AcDbSymbolTableRecord
100
AcDbBlockTableRecord
  2
*D11
340
0
  0
BLOCK_RECORD
  5
28
100
AcDbSymbolTableRecord
100
AcDbBlockTableRecord
  2
*D12
340
0
  0
BLOCK_RECORD
  5
29
100
AcDbSymbolTableRecord
100
AcDbBlockTableRecord
  2
*D13
340
0
  0
BLOCK_RECORD
  5
2A
100
AcDbSymbolTableRecord
100
AcDbBlockTableRecord
  2
*D14
340
0
  0
BLOCK_RECORD
  5
2B
100
AcDbSymbolTableRecord
100
AcDbBlockTableRecord
  2
*D15
340
0
  0
ENDTAB
  0
ENDSEC
  0
SECTION
  2
BLOCKS
  0
BLOCK
  5
2F
100
AcDbEntity
  8
0
390
0
100
AcDbBlockBegin
  2
*Model_Space
 70
     0
 10
0.0
 20
0.0
 30
0.0
  3
*Model_Space
  1

  0
ENDBLK
  5
30
100
AcDbEntity
  8
0
390
0
100
AcDbBlockEnd
  0
BLOCK
  5
31
100
AcDbEntity
 67
     1
  8
0
390
0
100
AcDbBlockBegin
  2
*Paper_Space
 70
     0
 10
0.0
 20
0.0
 30
0.0
  3
*Paper_Space
  1

  0
ENDBLK
  5
32
100
AcDbEntity
 67
     1
  8
0
390
0
100
AcDbBlockEnd
  0
BLOCK
  5
B2
100
AcDbEntity
  8
2
100
AcDbBlockBegin
  2
*D0
 70
     1
 10
0.0
 20
0.0
 30
0.0
  3
*D0
  1

  0
TEXT
  5
B3
100
AcDbEntity
  8
2
370
    18
100
AcDbText
 10
-12.485001
 20
44.218828
 30
0.0
 40
4.0
  1
33.5
 50
90.0
 41
2.0
 72
     5
 11
-12.485001
 21
58.618828
 31
0.0
100
AcDbText
  0
LINE
  5
B4
100
AcDbEntity
  8
2
370
    25
100
AcDbLine
 10
-11.985001
 20
36.468828
 30
0.0
 11
-11.467363
 21
38.40068
 31
0.0
  0
LINE
  5
B5
100
AcDbEntity
  8
2
370
    25
100
AcDbLine
 10
-11.985001
 20
36.468828
 30
0.0
 11
-12.502639
 21
38.40068
 31
0.0
  0
LINE
  5
B6
100
AcDbEntity
  8
2
370
    25
100
AcDbLine
 10
-11.985001
 20
36.468828
 30
0.0
 11
-11.985001
 21
69.968828
 31
0.0
  0
LINE
  5
B7
100
AcDbEntity
  8
2
370
    25
100
AcDbLine
 10
-11.985001
 20
69.968828
 30
0.0
 11
-12.502639
 21
68.036977
 31
0.0
  0
LINE
  5
B8
100
AcDbEntity
  8
2
370
    25
100
AcDbLine
 10
-11.985001
 20
69.968828
 30
0.0
 11
-11.467363
 21
68.036977
 31
0.0
  0
ENDBLK
  5
B9
100
AcDbEntity
  8
2
100
AcDbBlockEnd
  0
BLOCK
  5
BA
100
AcDbEntity
  8
2
100
AcDbBlockBegin
  2
*D1
 70
     1
 10
0.0
 20
0.0
 30
0.0
  3
*D1
  1

  0
TEXT
  5
BB
100
AcDbEntity
  8
2
370
    18
100
AcDbText
 10
-12.485001
 20
10.718828
 30
0.0
 40
4.0
  1
33.5
 50
90.0
 41
2.0
 72
     5
 11
-12.485001
 21
25.118828
 31
0.0
100
AcDbText
  0
LINE
  5
BC
100
AcDbEntity
  8
2
370
    25
100
AcDbLine
 10
-11.985001
 20
2.968828
 30
0.0
 11
-11.467363
 21
4.90068
 31
0.0
  0
LINE
  5
BD
100
AcDbEntity
  8
2
370
    25
100
AcDbLine
 10
-11.985001
 20
2.968828
 30
0.0
 11
-12.502639
 21
4.90068
 31
0.0
  0
LINE
  5
BE
100
AcDbEntity
  8
2
370
    25
100
AcDbLine
 10
-11.985001
 20
2.968828
 30
0.0
 11
-11.985001
 21
36.468828
 31
0.0
  0
LINE
  5
BF
100
AcDbEntity
  8
2
370
    25
100
AcDbLine
 10
-11.985001
 20
36.468828
 30
0.0
 11
-12.502639
 21
34.536977
 31
0.0
  0
LINE
  5
C0
100
AcDbEntity
  8
2
370
    25
100
AcDbLine
 10
-11.985001
 20
36.468828
 30
0.0
 11
-11.467363
 21
34.536977
 31
0.0
  0
LINE
  5
C1
100
AcDbEntity
  8
2
370
    25
100
AcDbLine
 10
-21.661575
 20
36.468828
 30
0.0
 11
-10.985001
 21
36.468828
 31
0.0
  0
ENDBLK
  5
C2
100
AcDbEntity
  8
2
100
AcDbBlockEnd
  0
BLOCK
  5
C3
100
AcDbEntity
  8
2
100
AcDbBlockBegin
  2
*D2
 70
     1
 10
0.0
 20
0.0
 30
0.0
  3
*D2
  1

  0
TEXT
  5
C4
100
AcDbEntity
  8
2
370
    18
100
AcDbText
 10
-12.485001
 20
-56.281173
 30
0.0
 40
4.0
  1
33.5
 50
90.0
 41
2.0
 72
     5
 11
-12.485001
 21
-41.881173
 31
0.0
100
AcDbText
  0
LINE
  5
C5
100
AcDbEntity
  8
2
370
    25
100
AcDbLine
 10
-11.985001
 20
-64.031175
 30
0.0
 11
-11.467363
 21
-62.099324
 31
0.0
  0
LINE
  5
C6
100
AcDbEntity
  8
2
370
    25
100
AcDbLine
 10
-11.985001
 20
-64.031175
 30
0.0
 11
-12.502639
 21
-62.099324
 31
0.0
  0
LINE
  5
C7
100
AcDbEntity
  8
2
370
    25
100
AcDbLine
 10
-11.985001
 20
-64.031175
 30
0.0
 11
-11.985001
 21
-30.531172
 31
0.0
  0
LINE
  5
C8
100
AcDbEntity
  8
2
370
    25
100
AcDbLine
 10
-11.985001
 20
-30.531172
 30
0.0
 11
-12.502639
 21
-32.463023
 31
0.0
  0
LINE
  5
C9
100
AcDbEntity
  8
2
370
    25
100
AcDbLine
 10
-11.985001
 20
-30.531172
 30
0.0
 11
-11.467363
 21
-32.463023
 31
0.0
  0
LINE
  5
CA
100
AcDbEntity
  8
2
370
    25
100
AcDbLine
 10
-21.661575
 20
-30.531172
 30
0.0
 11
-10.985001
 21
-30.531172
 31
0.0
  0
ENDBLK
  5
CB
100
AcDbEntity
  8
2
100
AcDbBlockEnd
  0
BLOCK
  5
CC
100
AcDbEntity
  8
2
100
AcDbBlockBegin
  2
*D3
 70
     1
 10
0.0
 20
0.0
 30
0.0
  3
*D3
  1

  0
TEXT
  5
CD
100
AcDbEntity
  8
2
370
    18
100
AcDbText
 10
-4.839657
 20
-4.531174
 30
0.0
 40
4.0
  1
134
 50
90.0
 41
2.0
 72
     5
 11
-4.839657
 21
5.868826
 31
0.0
100
AcDbText
  0
LINE
  5
CE
100
AcDbEntity
  8
2
370
    25
100
AcDbLine
 10
-21.661575
 20
-64.031175
 30
0.0
 11
-3.339657
 21
-64.031175
 31
0.0
  0
LINE
  5
CF
100
AcDbEntity
  8
2
370
    25
100
AcDbLine
 10
-4.339657
 20
-64.031175
 30
0.0
 11
-3.822019
 21
-62.099324
 31
0.0
  0
LINE
  5
D0
100
AcDbEntity
  8
2
370
    25
100
AcDbLine
 10
-4.339657
 20
-64.031175
 30
0.0
 11
-4.857295
 21
-62.099324
 31
0.0
  0
LINE
  5
D1
100
AcDbEntity
  8
2
370
    25
100
AcDbLine
 10
-4.339657
 20
-64.031175
 30
0.0
 11
-4.339657
 21
69.968828
 31
0.0
  0
LINE
  5
D2
100
AcDbEntity
  8
2
370
    25
100
AcDbLine
 10
-4.339657
 20
69.968828
 30
0.0
 11
-4.857295
 21
68.036977
 31
0.0
  0
LINE
  5
D3
100
AcDbEntity
  8
2
370
    25
100
AcDbLine
 10
-4.339657
 20
69.968828
 30
0.0
 11
-3.822019
 21
68.036977
 31
0.0
  0
LINE
  5
D4
100
AcDbEntity
  8
2
370
    25
100
AcDbLine
 10
-21.661575
 20
69.968828
 30
0.0
 11
-3.339657
 21
69.968828
 31
0.0
  0
ENDBLK
  5
D5
100
AcDbEntity
  8
2
100
AcDbBlockEnd
  0
BLOCK
  5
D6
100
AcDbEntity
  8
2
100
AcDbBlockBegin
  2
*D4
 70
     1
 10
0.0
 20
0.0
 30
0.0
  3
*D4
  1

  0
TEXT
  5
D7
100
AcDbEntity
  8
2
370
    25
100
AcDbText
 10
1.590775
 20
-4.531174
 30
0.0
 40
4.0
  1
167
 50
90.0
 41
2.0
 72
     5
 11
1.590775
 21
5.868826
 31
0.0
100
AcDbText
  0
LINE
  5
D8
100
AcDbEntity
  8
2
370
    25
100
AcDbLine
 10
-41.161575
 20
-80.531175
 30
0.0
 11
3.090775
 21
-80.531175
 31
0.0
  0
LINE
  5
D9
100
AcDbEntity
  8
2
370
    25
100
AcDbLine
 10
2.090775
 20
-80.531175
 30
0.0
 11
2.608413
 21
-78.599324
 31
0.0
  0
LINE
  5
DA
100
AcDbEntity
  8
2
370
    25
100
AcDbLine
 10
2.090775
 20
-80.531175
 30
0.0
 11
1.573136
 21
-78.599324
 31
0.0
  0
LINE
  5
DB
100
AcDbEntity
  8
2
370
    25
100
AcDbLine
 10
2.090775
 20
-80.531175
 30
0.0
 11
2.090775
 21
86.468828
 31
0.0
  0
LINE
  5
DC
100
AcDbEntity
  8
2
370
    25
100
AcDbLine
 10
2.090775
 20
86.468828
 30
0.0
 11
1.573136
 21
84.536977
 31
0.0
  0
LINE
  5
DD
100
AcDbEntity
  8
2
370
    25
100
AcDbLine
 10
2.090775
 20
86.468828
 30
0.0
 11
2.608413
 21
84.536977
 31
0.0
  0
LINE
  5
DE
100
AcDbEntity
  8
2
370
    25
100
AcDbLine
 10
-41.161575
 20
86.468828
 30
0.0
 11
3.090775
 21
86.468828
 31
0.0
  0
ENDBLK
  5
DF
100
AcDbEntity
  8
2
100
AcDbBlockEnd
  0
BLOCK
  5
E0
100
AcDbEntity
  8
2
100
AcDbBlockBegin
  2
*D5
 70
     1
 10
0.0
 20
0.0
 30
0.0
  3
*D5
  1

  0
TEXT
  5
E1
100
AcDbEntity
  8
2
370
    25
100
AcDbText
 10
161.552124
 20
45.414967
 30
0.0
 40
4.0
  1
33.5
 50
90.0
 41
2.0
 72
     5
 11
161.552124
 21
59.814967
 31
0.0
100
AcDbText
  0
LINE
  5
E2
100
AcDbEntity
  8
2
370
    25
100
AcDbLine
 10
154.357029
 20
36.664967
 30
0.0
 11
163.052124
 21
36.664967
 31
0.0
  0
LINE
  5
E3
100
AcDbEntity
  8
2
370
    25
100
AcDbLine
 10
162.052124
 20
36.664967
 30
0.0
 11
162.569762
 21
38.596818
 31
0.0
  0
LINE
  5
E4
100
AcDbEntity
  8
2
370
    25
100
AcDbLine
 10
162.052124
 20
36.664967
 30
0.0
 11
161.534486
 21
38.596818
 31
0.0
  0
LINE
  5
E5
100
AcDbEntity
  8
2
370
    25
100
AcDbLine
 10
162.052124
 20
36.664967
 30
0.0
 11
162.052124
 21
70.164967
 31
0.0
  0
LINE
  5
E6
100
AcDbEntity
  8
2
370
    25
100
AcDbLine
 10
162.052124
 20
70.164967
 30
0.0
 11
161.534486
 21
68.233115
 31
0.0
  0
LINE
  5
E7
100
AcDbEntity
  8
2
370
    25
100
AcDbLine
 10
162.052124
 20
70.164967
 30
0.0
 11
162.569762
 21
68.233115
 31
0.0
  0
LINE
  5
E8
100
AcDbEntity
  8
2
370
    25
100
AcDbLine
 10
150.569229
 20
70.164967
 30
0.0
 11
163.052124
 21
70.164967
 31
0.0
  0
ENDBLK
  5
E9
100
AcDbEntity
  8
2
100
AcDbBlockEnd
  0
BLOCK
  5
EA
100
AcDbEntity
  8
2
100
AcDbBlockBegin
  2
*D6
 70
     1
 10
0.0
 20
0.0
 30
0.0
  3
*D6
  1

  0
TEXT
  5
EB
100
AcDbEntity
  8
2
370
    25
100
AcDbText
 10
161.552124
 20
11.914967
 30
0.0
 40
4.0
  1
33.5
 50
90.0
 41
2.0
 72
     5
 11
161.552124
 21
26.314967
 31
0.0
100
AcDbText
  0
LINE
  5
EC
100
AcDbEntity
  8
2
370
    25
100
AcDbLine
 10
154.357029
 20
3.164967
 30
0.0
 11
163.052124
 21
3.164967
 31
0.0
  0
LINE
  5
ED
100
AcDbEntity
  8
2
370
    25
100
AcDbLine
 10
162.052124
 20
3.164967
 30
0.0
 11
162.569762
 21
5.096818
 31
0.0
  0
LINE
  5
EE
100
AcDbEntity
  8
2
370
    25
100
AcDbLine
 10
162.052124
 20
3.164967
 30
0.0
 11
161.534486
 21
5.096818
 31
0.0
  0
LINE
  5
EF
100
AcDbEntity
  8
2
370
    25
100
AcDbLine
 10
162.052124
 20
3.164967
 30
0.0
 11
162.052124
 21
36.664967
 31
0.0
  0
LINE
  5
F0
100
AcDbEntity
  8
2
370
    25
100
AcDbLine
 10
162.052124
 20
36.664967
 30
0.0
 11
161.534486
 21
34.733115
 31
0.0
  0
LINE
  5
F1
100
AcDbEntity
  8
2
370
    25
100
AcDbLine
 10
162.052124
 20
36.664967
 30
0.0
 11
162.569762
 21
34.733115
 31
0.0
  0
ENDBLK
  5
F2
100
AcDbEntity
  8
2
100
AcDbBlockEnd
  0
BLOCK
  5
F3
100
AcDbEntity
  8
2
100
AcDbBlockBegin
  2
*D7
 70
     1
 10
0.0
 20
0.0
 30
0.0
  3
*D7
  1

  0
TEXT
  5
F4
100
AcDbEntity
  8
2
370
    25
100
AcDbText
 10
161.552124
 20
-21.585033
 30
0.0
 40
4.0
  1
33.5
 50
90.0
 41
2.0
 72
     5
 11
161.552124
 21
-7.185033
 31
0.0
100
AcDbText
  0
LINE
  5
F5
100
AcDbEntity
  8
2
370
    25
100
AcDbLine
 10
154.357029
 20
-30.335033
 30
0.0
 11
163.052124
 21
-30.335033
 31
0.0
  0
LINE
  5
F6
100
AcDbEntity
  8
2
370
    25
100
AcDbLine
 10
162.052124
 20
-30.335033
 30
0.0
 11
162.569762
 21
-28.403182
 31
0.0
  0
LINE
  5
F7
100
AcDbEntity
  8
2
370
    25
100
AcDbLine
 10
162.052124
 20
-30.335033
 30
0.0
 11
161.534486
 21
-28.403182
 31
0.0
  0
LINE
  5
F8
100
AcDbEntity
  8
2
370
    25
100
AcDbLine
 10
162.052124
 20
-30.335033
 30
0.0
 11
162.052124
 21
3.164967
 31
0.0
  0
LINE
  5
F9
100
AcDbEntity
  8
2
370
    25
100
AcDbLine
 10
162.052124
 20
3.164967
 30
0.0
 11
161.534486
 21
1.233115
 31
0.0
  0
LINE
  5
FA
100
AcDbEntity
  8
2
370
    25
100
AcDbLine
 10
162.052124
 20
3.164967
 30
0.0
 11
162.569762
 21
1.233115
 31
0.0
  0
ENDBLK
  5
FB
100
AcDbEntity
  8
2
100
AcDbBlockEnd
  0
BLOCK
  5
FC
100
AcDbEntity
  8
2
100
AcDbBlockBegin
  2
*D8
 70
     1
 10
0.0
 20
0.0
 30
0.0
  3
*D8
  1

  0
TEXT
  5
FD
100
AcDbEntity
  8
2
370
    25
100
AcDbText
 10
161.552124
 20
-55.085033
 30
0.0
 40
4.0
  1
33.5
 50
90.0
 41
2.0
 72
     5
 11
161.552124
 21
-40.685033
 31
0.0
100
AcDbText
  0
LINE
  5
FE
100
AcDbEntity
  8
2
370
    25
100
AcDbLine
 10
150.569229
 20
-63.835033
 30
0.0
 11
163.052124
 21
-63.835033
 31
0.0
  0
LINE
  5
FF
100
AcDbEntity
  8
2
370
    25
100
AcDbLine
 10
162.052124
 20
-63.835033
 30
0.0
 11
162.569762
 21
-61.903182
 31
0.0
  0
LINE
  5
100
100
AcDbEntity
  8
2
370
    25
100
AcDbLine
 10
162.052124
 20
-63.835033
 30
0.0
 11
161.534486
 21
-61.903182
 31
0.0
  0
LINE
  5
101
100
AcDbEntity
  8
2
370
    25
100
AcDbLine
 10
162.052124
 20
-63.835033
 30
0.0
 11
162.052124
 21
-30.335033
 31
0.0
  0
LINE
  5
102
100
AcDbEntity
  8
2
370
    25
100
AcDbLine
 10
162.052124
 20
-30.335033
 30
0.0
 11
161.534486
 21
-32.266885
 31
0.0
  0
LINE
  5
103
100
AcDbEntity
  8
2
370
    25
100
AcDbLine
 10
162.052124
 20
-30.335033
 30
0.0
 11
162.569762
 21
-32.266885
 31
0.0
  0
ENDBLK
  5
104
100
AcDbEntity
  8
2
100
AcDbBlockEnd
  0
BLOCK
  5
105
100
AcDbEntity
  8
2
100
AcDbBlockBegin
  2
*D9
 70
     1
 10
0.0
 20
0.0
 30
0.0
  3
*D9
  1

  0
TEXT
  5
106
100
AcDbEntity
  8
2
370
    25
100
AcDbText
 10
168.396217
 20
-2.835033
 30
0.0
 40
4.0
  1
134
 50
90.0
 41
2.0
 72
     5
 11
168.396217
 21
7.564967
 31
0.0
100
AcDbText
  0
LINE
  5
107
100
AcDbEntity
  8
2
370
    25
100
AcDbLine
 10
150.569229
 20
-63.835033
 30
0.0
 11
169.896217
 21
-63.835033
 31
0.0
  0
LINE
  5
108
100
AcDbEntity
  8
2
370
    25
100
AcDbLine
 10
168.896217
 20
-63.835033
 30
0.0
 11
169.413855
 21
-61.903182
 31
0.0
  0
LINE
  5
109
100
AcDbEntity
  8
2
370
    25
100
AcDbLine
 10
168.896217
 20
-63.835033
 30
0.0
 11
168.378579
 21
-61.903182
 31
0.0
  0
LINE
  5
10A
100
AcDbEntity
  8
2
370
    25
100
AcDbLine
 10
168.896217
 20
-63.835033
 30
0.0
 11
168.896217
 21
70.164967
 31
0.0
  0
LINE
  5
10B
100
AcDbEntity
  8
2
370
    25
100
AcDbLine
 10
168.896217
 20
70.164967
 30
0.0
 11
168.378579
 21
68.233115
 31
0.0
  0
LINE
  5
10C
100
AcDbEntity
  8
2
370
    25
100
AcDbLine
 10
168.896217
 20
70.164967
 30
0.0
 11
169.413855
 21
68.233115
 31
0.0
  0
LINE
  5
10D
100
AcDbEntity
  8
2
370
    25
100
AcDbLine
 10
150.569229
 20
70.164967
 30
0.0
 11
169.896217
 21
70.164967
 31
0.0
  0
ENDBLK
  5
10E
100
AcDbEntity
  8
2
100
AcDbBlockEnd
  0
BLOCK
  5
10F
100
AcDbEntity
  8
2
100
AcDbBlockBegin
  2
*D10
 70
     1
 10
0.0
 20
0.0
 30
0.0
  3
*D10
  1

  0
TEXT
  5
110
100
AcDbEntity
  8
2
370
    25
100
AcDbText
 10
175.62056
 20
-2.835033
 30
0.0
 40
4.0
  1
167
 50
90.0
 41
2.0
 72
     5
 11
175.62056
 21
7.564967
 31
0.0
100
AcDbText
  0
LINE
  5
111
100
AcDbEntity
  8
2
370
    25
100
AcDbLine
 10
131.069229
 20
-80.335033
 30
0.0
 11
177.12056
 21
-80.335033
 31
0.0
  0
LINE
  5
112
100
AcDbEntity
  8
2
370
    25
100
AcDbLine
 10
176.12056
 20
-80.335033
 30
0.0
 11
176.638198
 21
-78.403182
 31
0.0
  0
LINE
  5
113
100
AcDbEntity
  8
2
370
    25
100
AcDbLine
 10
176.12056
 20
-80.335033
 30
0.0
 11
175.602922
 21
-78.403182
 31
0.0
  0
LINE
  5
114
100
AcDbEntity
  8
2
370
    25
100
AcDbLine
 10
176.12056
 20
-80.335033
 30
0.0
 11
176.12056
 21
86.664967
 31
0.0
  0
LINE
  5
115
100
AcDbEntity
  8
2
370
    25
100
AcDbLine
 10
176.12056
 20
86.664967
 30
0.0
 11
175.602922
 21
84.733115
 31
0.0
  0
LINE
  5
116
100
AcDbEntity
  8
2
370
    25
100
AcDbLine
 10
176.12056
 20
86.664967
 30
0.0
 11
176.638198
 21
84.733115
 31
0.0
  0
LINE
  5
117
100
AcDbEntity
  8
2
370
    25
100
AcDbLine
 10
131.069229
 20
86.664967
 30
0.0
 11
177.12056
 21
86.664967
 31
0.0
  0
ENDBLK
  5
118
100
AcDbEntity
  8
2
100
AcDbBlockEnd
  0
BLOCK
  5
119
100
AcDbEntity
  8
2
100
AcDbBlockBegin
  2
*D11
 70
     1
 10
0.0
 20
0.0
 30
0.0
  3
*D11
  1

  0
TEXT
  5
11A
100
AcDbEntity
  8
2
370
    25
100
AcDbText
 10
126.569229
 20
92.522381
 30
0.0
 40
4.0
  1
33
 41
2.0
 72
     5
 11
132.969229
 21
92.522381
 31
0.0
100
AcDbText
  0
LINE
  5
11B
100
AcDbEntity
  8
2
370
    25
100
AcDbLine
 10
114.069229
 20
70.664967
 30
0.0
 11
114.069229
 21
93.022381
 31
0.0
  0
LINE
  5
11C
100
AcDbEntity
  8
2
370
    25
100
AcDbLine
 10
114.069229
 20
92.022381
 30
0.0
 11
116.001081
 21
91.504743
 31
0.0
  0
LINE
  5
11D
100
AcDbEntity
  8
2
370
    25
100
AcDbLine
 10
114.069229
 20
92.022381
 30
0.0
 11
116.001081
 21
92.540019
 31
0.0
  0
LINE
  5
11E
100
AcDbEntity
  8
2
370
    25
100
AcDbLine
 10
114.069229
 20
92.022381
 30
0.0
 11
147.069229
 21
92.022381
 31
0.0
  0
LINE
  5
11F
100
AcDbEntity
  8
2
370
    25
100
AcDbLine
 10
147.069229
 20
92.022381
 30
0.0
 11
145.137377
 21
92.540019
 31
0.0
  0
LINE
  5
120
100
AcDbEntity
  8
2
370
    25
100
AcDbLine
 10
147.069229
 20
92.022381
 30
0.0
 11
145.137377
 21
91.504743
 31
0.0
  0
LINE
  5
121
100
AcDbEntity
  8
2
370
    25
100
AcDbLine
 10
147.069229
 20
70.664967
 30
0.0
 11
147.069229
 21
93.022381
 31
0.0
  0
ENDBLK
  5
122
100
AcDbEntity
  8
2
100
AcDbBlockEnd
  0
BLOCK
  5
123
100
AcDbEntity
  8
2
100
AcDbBlockBegin
  2
*D12
 70
     1
 10
0.0
 20
0.0
 30
0.0
  3
*D12
  1

  0
TEXT
  5
124
100
AcDbEntity
  8
2
370
    25
100
AcDbText
 10
81.642042
 20
105.057262
 30
0.0
 40
4.0
  1
15
 41
2.0
 72
     5
 11
88.042042
 21
105.057262
 31
0.0
100
AcDbText
  0
LINE
  5
125
100
AcDbEntity
  8
2
370
    25
100
AcDbLine
 10
78.142042
 20
87.164967
 30
0.0
 11
78.142042
 21
105.557262
 31
0.0
  0
LINE
  5
126
100
AcDbEntity
  8
2
370
    25
100
AcDbLine
 10
78.142042
 20
104.557262
 30
0.0
 11
80.073894
 21
104.039624
 31
0.0
  0
LINE
  5
127
100
AcDbEntity
  8
2
370
    25
100
AcDbLine
 10
78.142042
 20
104.557262
 30
0.0
 11
80.073894
 21
105.074901
 31
0.0
  0
LINE
  5
128
100
AcDbEntity
  8
2
370
    25
100
AcDbLine
 10
78.142042
 20
104.557262
 30
0.0
 11
93.142042
 21
104.557262
 31
0.0
  0
LINE
  5
129
100
AcDbEntity
  8
2
370
    25
100
AcDbLine
 10
93.142042
 20
104.557262
 30
0.0
 11
91.210191
 21
105.074901
 31
0.0
  0
LINE
  5
12A
100
AcDbEntity
  8
2
370
    25
100
AcDbLine
 10
93.142042
 20
104.557262
 30
0.0
 11
91.210191
 21
104.039624
 31
0.0
  0
LINE
  5
12B
100
AcDbEntity
  8
2
370
    25
100
AcDbLine
 10
93.142042
 20
98.576931
 30
0.0
 11
93.142042
 21
105.557262
 31
0.0
  0
ENDBLK
  5
12C
100
AcDbEntity
  8
2
100
AcDbBlockEnd
  0
BLOCK
  5
12D
100
AcDbEntity
  8
2
100
AcDbBlockBegin
  2
*D13
 70
     1
 10
0.0
 20
0.0
 30
0.0
  3
*D13
  1

  0
LINE
  5
12E
100
AcDbEntity
  8
2
370
    25
100
AcDbLine
 10
-11.985001
 20
-30.531172
 30
0.0
 11
-11.467363
 21
-28.59932
 31
0.0
  0
LINE
  5
12F
100
AcDbEntity
  8
2
370
    25
100
AcDbLine
 10
-11.985001
 20
-30.531172
 30
0.0
 11
-12.502639
 21
-28.59932
 31
0.0
  0
LINE
  5
130
100
AcDbEntity
  8
2
370
    25
100
AcDbLine
 10
-11.985001
 20
-30.531172
 30
0.0
 11
-11.985001
 21
2.968828
 31
0.0
  0
LINE
  5
131
100
AcDbEntity
  8
2
370
    25
100
AcDbLine
 10
-11.985001
 20
2.968828
 30
0.0
 11
-12.502639
 21
1.036977
 31
0.0
  0
LINE
  5
132
100
AcDbEntity
  8
2
370
    25
100
AcDbLine
 10
-11.985001
 20
2.968828
 30
0.0
 11
-11.467363
 21
1.036977
 31
0.0
  0
LINE
  5
133
100
AcDbEntity
  8
2
370
    25
100
AcDbLine
 10
-21.661575
 20
2.968828
 30
0.0
 11
-10.985001
 21
2.968828
 31
0.0
  0
ENDBLK
  5
134
100
AcDbEntity
  8
2
100
AcDbBlockEnd
  0
BLOCK
  5
135
100
AcDbEntity
  8
2
100
AcDbBlockBegin
  2
*D14
 70
     1
 10
0.0
 20
0.0
 30
0.0
  3
*D14
  1

  0
LINE
  5
136
100
AcDbEntity
  8
2
370
    25
100
AcDbLine
 10
60.142042
 20
98.576931
 30
0.0
 11
60.142042
 21
111.387405
 31
0.0
  0
LINE
  5
137
100
AcDbEntity
  8
2
370
    25
100
AcDbLine
 10
60.142042
 20
110.387405
 30
0.0
 11
62.073894
 21
109.869767
 31
0.0
  0
LINE
  5
138
100
AcDbEntity
  8
2
370
    25
100
AcDbLine
 10
60.142042
 20
110.387405
 30
0.0
 11
62.073894
 21
110.905043
 31
0.0
  0
LINE
  5
139
100
AcDbEntity
  8
2
370
    25
100
AcDbLine
 10
60.142042
 20
110.387405
 30
0.0
 11
93.142042
 21
110.387405
 31
0.0
  0
LINE
  5
13A
100
AcDbEntity
  8
2
370
    25
100
AcDbLine
 10
93.142042
 20
110.387405
 30
0.0
 11
91.210191
 21
110.905043
 31
0.0
  0
LINE
  5
13B
100
AcDbEntity
  8
2
370
    25
100
AcDbLine
 10
93.142042
 20
110.387405
 30
0.0
 11
91.210191
 21
109.869767
 31
0.0
  0
LINE
  5
13C
100
AcDbEntity
  8
2
370
    25
100
AcDbLine
 10
93.142042
 20
98.576931
 30
0.0
 11
93.142042
 21
111.387405
 31
0.0
  0
ENDBLK
  5
13D
100
AcDbEntity
  8
2
100
AcDbBlockEnd
  0
BLOCK
  5
13E
100
AcDbEntity
  8
2
100
AcDbBlockBegin
  2
*D15
 70
     1
 10
0.0
 20
0.0
 30
0.0
  3
*D15
  1

  0
LINE
  5
13F
100
AcDbEntity
  8
2
370
    25
100
AcDbLine
 10
-109.244171
 20
98.380793
 30
0.0
 11
-109.244171
 21
104.524658
 31
0.0
  0
LINE
  5
140
100
AcDbEntity
  8
2
370
    25
100
AcDbLine
 10
-109.244171
 20
103.524658
 30
0.0
 11
-107.312319
 21
103.00702
 31
0.0
  0
LINE
  5
141
100
AcDbEntity
  8
2
370
    25
100
AcDbLine
 10
-109.244171
 20
103.524658
 30
0.0
 11
-107.312319
 21
104.042296
 31
0.0
  0
LINE
  5
142
100
AcDbEntity
  8
2
370
    25
100
AcDbLine
 10
-109.244171
 20
103.524658
 30
0.0
 11
-76.244171
 21
103.524658
 31
0.0
  0
LINE
  5
143
100
AcDbEntity
  8
2
370
    25
100
AcDbLine
 10
-76.244171
 20
103.524658
 30
0.0
 11
-78.176023
 21
104.042296
 31
0.0
  0
LINE
  5
144
100
AcDbEntity
  8
2
370
    25
100
AcDbLine
 10
-76.244171
 20
103.524658
 30
0.0
 11
-78.176023
 21
103.00702
 31
0.0
  0
LINE
  5
145
100
AcDbEntity
  8
2
370
    25
100
AcDbLine
 10
-76.244171
 20
98.380793
 30
0.0
 11
-76.244171
 21
104.524658
 31
0.0
  0
ENDBLK
  5
146
100
AcDbEntity
  8
2
100
AcDbBlockEnd
  0
ENDSEC
  0
SECTION
  2
ENTITIES
  0
LINE
  5
34
100
AcDbEntity
  8
1
370
    50
100
AcDbLine
 10
-25.161575
 20
69.968828
 30
0.0
 11
-25.161575
 21
-64.031175
 31
0.0
  0
LINE
  5
35
100
AcDbEntity
  8
1
370
    50
100
AcDbLine
 10
-58.161575
 20
69.968828
 30
0.0
 11
-58.161575
 21
-64.031175
 31
0.0
  0
CIRCLE
  5
36
100
AcDbEntity
  8
1
370
    18
  6
PHANTOM
100
AcDbCircle
 10
-41.661575
 20
2.968828
 30
0.0
 40
16.5
  0
CIRCLE
  5
37
100
AcDbEntity
  8
1
370
    18
  6
PHANTOM
100
AcDbCircle
 10
-41.661575
 20
36.468828
 30
0.0
 40
16.5
  0
CIRCLE
  5
38
100
AcDbEntity
  8
1
370
    18
  6
PHANTOM
100
AcDbCircle
 10
-41.661575
 20
-30.531172
 30
0.0
 40
16.5
  0
ARC
  5
39
100
AcDbEntity
  8
1
370
    18
  6
PHANTOM
100
AcDbCircle
 10
-41.661575
 20
69.968828
 30
0.0
 40
16.5
100
AcDbArc
 50
180.0
 51
360.0
  0
ARC
  5
3A
100
AcDbEntity
  8
1
370
    50
100
AcDbCircle
 10
-41.661575
 20
69.968828
 30
0.0
 40
16.5
100
AcDbArc
 50
0.0
 51
180.0
  0
ARC
  5
3B
100
AcDbEntity
  8
1
370
    18
  6
PHANTOM
100
AcDbCircle
 10
-41.661575
 20
-64.031175
 30
0.0
 40
16.5
100
AcDbArc
 50
0.0
 51
180.0
  0
ARC
  5
3C
100
AcDbEntity
  8
1
370
    50
100
AcDbCircle
 10
-41.661575
 20
-64.031175
 30
0.0
 40
16.5
100
AcDbArc
 50
180.0
 51
360.0
  0
LINE
  5
3D
100
AcDbEntity
  8
1
370
    25
  6
CENTER
100
AcDbLine
 10
-61.161575
 20
69.968828
 30
0.0
 11
-22.161575
 21
69.968828
 31
0.0
  0
LINE
  5
3E
100
AcDbEntity
  8
1
370
    25
  6
CENTER
100
AcDbLine
 10
-41.661575
 20
97.200426
 30
0.0
 11
-41.661575
 21
-91.331953
 31
0.0
  0
LINE
  5
3F
100
AcDbEntity
  8
1
370
    25
  6
CENTER
100
AcDbLine
 10
-61.161575
 20
36.468828
 30
0.0
 11
-22.161575
 21
36.468828
 31
0.0
  0
LINE
  5
40
100
AcDbEntity
  8
1
370
    25
  6
CENTER
100
AcDbLine
 10
-61.161575
 20
2.968828
 30
0.0
 11
-22.161575
 21
2.968828
 31
0.0
  0
LINE
  5
41
100
AcDbEntity
  8
1
370
    25
  6
CENTER
100
AcDbLine
 10
-61.161575
 20
-30.531172
 30
0.0
 11
-22.161575
 21
-30.531172
 31
0.0
  0
LINE
  5
42
100
AcDbEntity
  8
1
370
    25
  6
CENTER
100
AcDbLine
 10
-61.161575
 20
-64.031175
 30
0.0
 11
-22.161575
 21
-64.031175
 31
0.0
  0
LINE
  5
43
100
AcDbEntity
  8
1
370
   100
100
AcDbLine
 10
-109.244171
 20
97.880793
 30
0.0
 11
-109.244171
 21
-91.943136
 31
0.0
  0
LINE
  5
44
100
AcDbEntity
  8
1
370
   100
100
AcDbLine
 10
-76.244171
 20
97.880793
 30
0.0
 11
-76.244171
 21
-91.943136
 31
0.0
  0
POINT
  5
45
100
AcDbEntity
  8
1
370
    50
100
AcDbPoint
 10
-76.244171
 20
2.968828
 30
0.0
  0
POINT
  5
46
100
AcDbEntity
  8
1
370
    50
100
AcDbPoint
 10
-109.244171
 20
2.968828
 30
0.0
  0
LINE
  5
47
100
AcDbEntity
  8
1
370
    25
  6
CENTER
100
AcDbLine
 10
-116.934586
 20
2.968828
 30
0.0
 11
-67.812759
 21
2.968828
 31
0.0
  0
LINE
  5
48
100
AcDbEntity
  8
1
370
    25
  6
CENTER
100
AcDbLine
 10
-92.744171
 20
100.739723
 30
0.0
 11
-92.744171
 21
-98.665609
 31
0.0
  0
LINE
  5
49
100
AcDbEntity
  8
1
370
   100
100
AcDbLine
 10
-76.244171
 20
-80.531175
 30
0.0
 11
-109.244171
 21
-80.531175
 31
0.0
  0
LINE
  5
4A
100
AcDbEntity
  8
1
370
   100
100
AcDbLine
 10
-76.244171
 20
86.468828
 30
0.0
 11
-109.244171
 21
86.468828
 31
0.0
  0
HATCH
  5
4B
100
AcDbEntity
  8
1
370
    25
100
AcDbHatch
 10
0.0
 20
0.0
 30
0.0
210
0.0
220
0.0
230
1.0
  2
_U
 70
     0
 71
     1
 91
        1
 92
        1
 93
        4
 72
     1
 10
-109.24417099999999
 20
-91.943135999999996
 11
-109.24417099999999
 21
-80.531175000000005
 72
     1
 10
-109.24417099999999
 20
-80.531175000000005
 11
-76.244170999999994
 21
-80.531175000000005
 72
     1
 10
-76.244170999999994
 20
-80.531175000000005
 11
-76.244170999999994
 21
-91.943135999999996
 72
     1
 10
-76.244170999999994
 20
-91.943135999999996
 11
-109.24417099999999
 21
-91.943135999999996
 97
        4
330
0
330
0
330
0
330
0
 75
     0
 76
     0
 52
135.0
 41
1.0
 77
     0
 78
     1
 53
135.0
 43
0.0
 44
0.0
 45
-2.1213199999999999
 46
-2.1213199999999999
 79
     0
 98
        1
 10
0.0
 20
0.0
  0
HATCH
  5
4C
100
AcDbEntity
  8
1
370
    25
100
AcDbHatch
 10
0.0
 20
0.0
 30
0.0
210
0.0
220
0.0
230
1.0
  2
_U
 70
     0
 71
     1
 91
        1
 92
        1
 93
        4
 72
     1
 10
-76.244170999999994
 20
97.880792999999997
 11
-76.244170999999994
 21
86.468828000000002
 72
     1
 10
-76.244170999999994
 20
86.468828000000002
 11
-109.24417099999999
 21
86.468828000000002
 72
     1
 10
-109.24417099999999
 20
86.468828000000002
 11
-109.24417099999999
 21
97.880792999999997
 72
     1
 10
-109.24417099999999
 20
97.880792999999997
 11
-76.244170999999994
 21
97.880792999999997
 97
        4
330
0
330
0
330
0
330
0
 75
     0
 76
     0
 52
135.0
 41
1.0
 77
     0
 78
     1
 53
135.0
 43
0.0
 44
0.0
 45
-2.1213199999999999
 46
-2.1213199999999999
 79
     0
 98
        1
 10
0.0
 20
0.0
  0
LINE
  5
4D
100
AcDbEntity
  8
1
370
   100
100
AcDbLine
 10
147.069229
 20
3.164967
 30
0.0
 11
147.069229
 21
-63.835033
 31
0.0
  0
LINE
  5
4E
100
AcDbEntity
  8
1
370
   100
100
AcDbLine
 10
114.069229
 20
3.164967
 30
0.0
 11
114.069229
 21
-63.835033
 31
0.0
  0
LINE
  5
4F
100
AcDbEntity
  8
1
370
    18
  6
CENTER
100
AcDbLine
 10
130.569229
 20
3.164967
 30
0.0
 11
130.569229
 21
-91.746998
 31
0.0
  0
LINE
  5
50
100
AcDbEntity
  8
1
370
    18
  6
CENTER
100
AcDbLine
 10
111.061234
 20
3.164967
 30
0.0
 11
153.857029
 21
3.164967
 31
0.0
  0
ARC
  5
51
100
AcDbEntity
  8
1
370
    18
  6
PHANTOM
100
AcDbCircle
 10
130.569229
 20
-63.835033
 30
0.0
 40
16.5
100
AcDbArc
 50
0.0
 51
180.0
  0
ARC
  5
52
100
AcDbEntity
  8
1
370
   100
100
AcDbCircle
 10
130.569229
 20
-63.835033
 30
0.0
 40
16.5
100
AcDbArc
 50
180.0
 51
360.0
  0
CIRCLE
  5
53
100
AcDbEntity
  8
1
370
    18
  6
PHANTOM
100
AcDbCircle
 10
130.569229
 20
3.164967
 30
0.0
 40
16.5
  0
CIRCLE
  5
54
100
AcDbEntity
  8
1
370
    18
  6
PHANTOM
100
AcDbCircle
 10
130.569229
 20
-30.335033
 30
0.0
 40
16.5
  0
POINT
  5
55
100
AcDbEntity
  8
1
370
    50
100
AcDbPoint
 10
130.569229
 20
3.164967
 30
0.0
  0
LINE
  5
56
100
AcDbEntity
  8
1
370
   100
100
AcDbLine
 10
93.142042
 20
-91.746998
 30
0.0
 11
93.142042
 21
98.076931
 31
0.0
  0
LINE
  5
57
100
AcDbEntity
  8
1
370
    18
  6
CENTER
100
AcDbLine
 10
96.456551
 20
3.164967
 30
0.0
 11
52.285717
 21
3.164967
 31
0.0
  0
LINE
  5
58
100
AcDbEntity
  8
1
370
   100
100
AcDbLine
 10
60.142042
 20
-91.746998
 30
0.0
 11
60.142042
 21
98.076931
 31
0.0
  0
LINE
  5
59
100
AcDbEntity
  8
1
370
   100
100
AcDbLine
 10
93.142042
 20
86.664967
 30
0.0
 11
78.142042
 21
86.664967
 31
0.0
  0
LINE
  5
5A
100
AcDbEntity
  8
1
370
   100
100
AcDbLine
 10
93.142042
 20
-80.335033
 30
0.0
 11
78.142042
 21
-80.335033
 31
0.0
  0
LINE
  5
5B
100
AcDbEntity
  8
1
370
    25
  6
CENTER
100
AcDbLine
 10
111.069229
 20
-63.835033
 30
0.0
 11
150.069229
 21
-63.835033
 31
0.0
  0
LINE
  5
5C
100
AcDbEntity
  8
1
370
    25
  6
CENTER
100
AcDbLine
 10
153.857029
 20
-30.335033
 30
0.0
 11
107.281429
 21
-30.335033
 31
0.0
  0
LINE
  5
5D
100
AcDbEntity
  8
1
370
   100
100
AcDbLine
 10
147.069229
 20
3.164967
 30
0.0
 11
147.069229
 21
70.164967
 31
0.0
  0
LINE
  5
5E
100
AcDbEntity
  8
1
370
   100
100
AcDbLine
 10
114.069229
 20
3.164967
 30
0.0
 11
114.069229
 21
70.164967
 31
0.0
  0
LINE
  5
5F
100
AcDbEntity
  8
1
370
    18
  6
CENTER
100
AcDbLine
 10
130.569229
 20
3.164967
 30
0.0
 11
130.569229
 21
90.954914
 31
0.0
  0
ARC
  5
60
100
AcDbEntity
  8
1
370
    18
  6
PHANTOM
100
AcDbCircle
 10
130.569229
 20
70.164967
 30
0.0
 40
16.5
100
AcDbArc
 50
180.0
 51
360.0
  0
ARC
  5
61
100
AcDbEntity
  8
1
370
   100
100
AcDbCircle
 10
130.569229
 20
70.164967
 30
0.0
 40
16.5
100
AcDbArc
 50
0.0
 51
180.0
  0
CIRCLE
  5
62
100
AcDbEntity
  8
1
370
    18
  6
PHANTOM
100
AcDbCircle
 10
130.569229
 20
36.664967
 30
0.0
 40
16.5
  0
LINE
  5
63
100
AcDbEntity
  8
1
370
    25
  6
CENTER
100
AcDbLine
 10
111.069229
 20
70.164967
 30
0.0
 11
150.069229
 21
70.164967
 31
0.0
  0
LINE
  5
64
100
AcDbEntity
  8
1
370
    25
  6
CENTER
100
AcDbLine
 10
153.857029
 20
36.664967
 30
0.0
 11
107.281429
 21
36.664967
 31
0.0
  0
LINE
  5
65
100
AcDbEntity
  8
1
370
   100
100
AcDbLine
 10
78.142042
 20
-80.335033
 30
0.0
 11
78.142042
 21
86.664967
 31
0.0
  0
HATCH
  5
66
100
AcDbEntity
  8
1
370
    25
100
AcDbHatch
 10
0.0
 20
0.0
 30
0.0
210
0.0
220
0.0
230
1.0
  2
_U
 70
     0
 71
     1
 91
        1
 92
        1
 93
        8
 72
     1
 10
60.142041999999996
 20
98.076931000000002
 11
93.142042000000004
 21
98.076931000000002
 72
     1
 10
93.142042000000004
 20
98.076931000000002
 11
93.142042000000004
 21
86.664967000000004
 72
     1
 10
93.142042000000004
 20
86.664967000000004
 11
78.142042000000004
 21
86.664967000000004
 72
     1
 10
78.142042000000004
 20
86.664967000000004
 11
78.142042000000004
 21
-80.335032999999996
 72
     1
 10
78.142042000000004
 20
-80.335032999999996
 11
93.142042000000004
 21
-80.335032999999996
 72
     1
 10
93.142042000000004
 20
-80.335032999999996
 11
93.142042000000004
 21
-91.746998000000005
 72
     1
 10
93.142042000000004
 20
-91.746998000000005
 11
60.142041999999996
 21
-91.746998000000005
 72
     1
 10
60.142041999999996
 20
-91.746998000000005
 11
60.142041999999996
 21
98.076931000000002
 97
        8
330
0
330
0
330
0
330
0
330
0
330
0
330
0
330
0
 75
     0
 76
     0
 52
135.0
 41
1.0
 77
     0
 78
     1
 53
135.0
 43
0.0
 44
0.0
 45
-2.1213199999999999
 46
-2.1213199999999999
 79
     0
 98
        1
 10
0.0
 20
0.0
  0
DIMENSION
  5
67
100
AcDbEntity
  8
2
370
    25
100
AcDbDimension
  2
*D0
 10
-11.985001
 20
69.968828
 30
0.0
 11
-20.485001
 21
48.218828
 31
0.0
 71
     0
 72
     0
 41
0.0
 42
0.0
  3
Standard
100
AcDbAlignedDimension
 13
-11.985001
 23
36.468828
 33
0.0
 14
-11.985001
 24
69.968828
 34
0.0
 50
90.0
100
AcDbRotatedDimension
  0
DIMENSION
  5
68
100
AcDbEntity
  8
2
370
    25
100
AcDbDimension
  2
*D1
 10
-11.985001
 20
36.468828
 30
0.0
 11
-20.485001
 21
14.718828
 31
0.0
 71
     0
 72
     0
 41
0.0
 42
0.0
  3
Standard
100
AcDbAlignedDimension
 13
-11.985001
 23
2.968828
 33
0.0
 14
-22.161575
 24
36.468828
 34
0.0
 50
90.0
100
AcDbRotatedDimension
  0
DIMENSION
  5
69
100
AcDbEntity
  8
2
370
    25
100
AcDbDimension
  2
*D2
 10
-11.985001
 20
-30.531172
 30
0.0
 11
-20.485001
 21
-52.281173
 31
0.0
 71
     0
 72
     0
 41
0.0
 42
0.0
  3
Standard
100
AcDbAlignedDimension
 13
-11.985001
 23
-64.031175
 33
0.0
 14
-22.161575
 24
-30.531172
 34
0.0
 50
90.0
100
AcDbRotatedDimension
  0
DIMENSION
  5
6A
100
AcDbEntity
  8
2
370
    25
100
AcDbDimension
  2
*D3
 10
-4.339657
 20
69.968828
 30
0.0
 11
-10.839657
 21
-0.531174
 31
0.0
 71
     0
 72
     0
 41
0.0
 42
0.0
  3
Standard
100
AcDbAlignedDimension
 13
-22.161575
 23
-64.031175
 33
0.0
 14
-22.161575
 24
69.968828
 34
0.0
 50
90.0
100
AcDbRotatedDimension
  0
DIMENSION
  5
6B
100
AcDbEntity
  8
2
370
    25
100
AcDbDimension
  2
*D4
 10
2.090775
 20
86.468828
 30
0.0
 11
-4.409225
 21
-0.531174
 31
0.0
 71
     0
 72
     0
 41
0.0
 42
0.0
  3
Standard
100
AcDbAlignedDimension
 13
-41.661575
 23
-80.531175
 33
0.0
 14
-41.661575
 24
86.468828
 34
0.0
 50
90.0
100
AcDbRotatedDimension
  0
LWPOLYLINE
  5
6C
100
AcDbEntity
  8
2
370
    25
100
AcDbPolyline
 90
        3
 70
     0
 10
137.992712
 20
84.900702
 10
146.782249
 20
102.34808
 10
169.176315
 20
102.34808
  0
LINE
  5
71
100
AcDbEntity
  8
2
370
    25
100
AcDbLine
 10
138.399578
 20
86.85888
 30
0.0
 11
137.992712
 21
84.900702
 31
0.0
  0
LINE
  5
72
100
AcDbEntity
  8
2
370
    25
100
AcDbLine
 10
137.992712
 20
84.900702
 30
0.0
 11
139.324157
 21
86.393101
 31
0.0
  0
DIMENSION
  5
73
100
AcDbEntity
  8
2
370
    25
100
AcDbDimension
  2
*D5
 10
162.052124
 20
70.164967
 30
0.0
 11
153.552124
 21
49.414967
 31
0.0
 71
     0
 72
     0
 41
0.0
 42
0.0
  3
Standard
100
AcDbAlignedDimension
 13
153.857029
 23
36.664967
 33
0.0
 14
150.069229
 24
70.164967
 34
0.0
 50
90.0
100
AcDbRotatedDimension
  0
DIMENSION
  5
74
100
AcDbEntity
  8
2
370
    25
100
AcDbDimension
  2
*D6
 10
162.052124
 20
36.664967
 30
0.0
 11
153.552124
 21
15.914967
 31
0.0
 71
     0
 72
     0
 41
0.0
 42
0.0
  3
Standard
100
AcDbAlignedDimension
 13
153.857029
 23
3.164967
 33
0.0
 14
162.052124
 24
36.664967
 34
0.0
 50
90.0
100
AcDbRotatedDimension
  0
DIMENSION
  5
75
100
AcDbEntity
  8
2
370
    25
100
AcDbDimension
  2
*D7
 10
162.052124
 20
3.164967
 30
0.0
 11
153.552124
 21
-17.585033
 31
0.0
 71
     0
 72
     0
 41
0.0
 42
0.0
  3
Standard
100
AcDbAlignedDimension
 13
153.857029
 23
-30.335033
 33
0.0
 14
162.052124
 24
3.164967
 34
0.0
 50
90.0
100
AcDbRotatedDimension
  0
DIMENSION
  5
76
100
AcDbEntity
  8
2
370
    25
100
AcDbDimension
  2
*D8
 10
162.052124
 20
-30.335033
 30
0.0
 11
153.552124
 21
-51.085033
 31
0.0
 71
     0
 72
     0
 41
0.0
 42
0.0
  3
Standard
100
AcDbAlignedDimension
 13
150.069229
 23
-63.835033
 33
0.0
 14
162.052124
 24
-30.335033
 34
0.0
 50
90.0
100
AcDbRotatedDimension
  0
DIMENSION
  5
77
100
AcDbEntity
  8
2
370
    25
100
AcDbDimension
  2
*D9
 10
168.896217
 20
70.164967
 30
0.0
 11
162.396217
 21
1.164967
 31
0.0
 71
     0
 72
     0
 41
0.0
 42
0.0
  3
Standard
100
AcDbAlignedDimension
 13
150.069229
 23
-63.835033
 33
0.0
 14
150.069229
 24
70.164967
 34
0.0
 50
90.0
100
AcDbRotatedDimension
  0
DIMENSION
  5
78
100
AcDbEntity
  8
2
370
    25
100
AcDbDimension
  2
*D10
 10
176.12056
 20
86.664967
 30
0.0
 11
169.62056
 21
1.164967
 31
0.0
 71
     0
 72
     0
 41
0.0
 42
0.0
  3
Standard
100
AcDbAlignedDimension
 13
130.569229
 23
-80.335033
 33
0.0
 14
130.569229
 24
86.664967
 34
0.0
 50
90.0
100
AcDbRotatedDimension
  0
DIMENSION
  5
79
100
AcDbEntity
  8
2
370
    25
100
AcDbDimension
  2
*D11
 10
147.069229
 20
92.022381
 30
0.0
 11
130.569229
 21
94.522381
 31
0.0
 71
     0
 72
     0
 41
0.0
 42
0.0
  3
Standard
100
AcDbAlignedDimension
 13
114.069229
 23
70.164967
 33
0.0
 14
147.069229
 24
70.164967
 34
0.0
100
AcDbRotatedDimension
  0
DIMENSION
  5
7A
100
AcDbEntity
  8
2
370
    25
100
AcDbDimension
  2
*D12
 10
93.142042
 20
104.557262
 30
0.0
 11
85.642042
 21
107.057262
 31
0.0
 71
     0
 72
     0
 41
0.0
 42
0.0
  3
Standard
100
AcDbAlignedDimension
 13
78.142042
 23
86.664967
 33
0.0
 14
93.142042
 24
98.076931
 34
0.0
100
AcDbRotatedDimension
  0
LWPOLYLINE
  5
7B
100
AcDbEntity
  8
2
370
    18
100
AcDbPolyline
 90
        3
 70
     0
 10
-29.640573
 20
81.271284
 10
-19.049294
 20
91.229479
 10
11.573727
 20
91.229479
  0
LINE
  5
80
100
AcDbEntity
  8
2
370
    25
100
AcDbLine
 10
-28.587712
 20
82.97172
 30
0.0
 11
-29.640573
 21
81.271284
 31
0.0
  0
LINE
  5
81
100
AcDbEntity
  8
2
370
    25
100
AcDbLine
 10
-29.640573
 20
81.271284
 30
0.0
 11
-27.878551
 21
82.217475
 31
0.0
  0
TEXT
  5
82
100
AcDbEntity
  8
2
370
    18
100
AcDbText
 10
-12.297432
 20
91.694855
 30
0.0
 40
4.0
  1
%%c33
 41
2.0
 72
     5
 11
-1.897432
 21
91.694855
 31
0.0
100
AcDbText
  0
TEXT
  5
83
100
AcDbEntity
  8
2
370
    18
100
AcDbText
 10
-20.297432
 20
91.694855
 30
0.0
 40
4.0
  1
５－
 72
     5
 11
-13.097432
 21
91.694855
 31
0.0
100
AcDbText
  0
TEXT
  5
84
100
AcDbEntity
  8
2
370
    18
100
AcDbText
 10
-0.297432
 20
91.694855
 30
0.0
 40
4.0
  1
貫通穴
 72
     5
 11
10.902568
 21
91.694855
 31
0.0
100
AcDbText
  0
TEXT
  5
85
100
AcDbEntity
  8
2
370
    18
100
AcDbText
 10
-12.485001
 20
-22.781172
 30
0.0
 40
4.0
  1
33.5
 50
90.0
 41
2.0
 72
     5
 11
-12.485001
 21
-8.381172
 31
0.0
100
AcDbText
  0
DIMENSION
  5
86
100
AcDbEntity
  8
2
370
    25
100
AcDbDimension
  2
*D13
 10
-11.985001
 20
2.968828
 30
0.0
 11
-14.485001
 21
-13.781172
 31
0.0
 71
     0
 72
     0
 41
0.0
 42
0.0
  3
Standard
100
AcDbAlignedDimension
 13
-11.985001
 23
-30.531172
 33
0.0
 14
-22.161575
 24
2.968828
 34
0.0
 50
90.0
100
AcDbRotatedDimension
  0
TEXT
  5
87
100
AcDbEntity
  8
2
370
    18
100
AcDbText
 10
74.642042
 20
110.887405
 30
0.0
 40
4.0
  1
２６～
 72
     5
 11
85.842042
 21
110.887405
 31
0.0
100
AcDbText
  0
TEXT
  5
88
100
AcDbEntity
  8
2
370
    18
100
AcDbText
 10
66.642042
 20
110.887405
 30
0.0
 40
4.0
  1
扉厚
 72
     5
 11
73.842042
 21
110.887405
 31
0.0
100
AcDbText
  0
DIMENSION
  5
89
100
AcDbEntity
  8
2
370
    25
100
AcDbDimension
  2
*D14
 10
93.142042
 20
110.387405
 30
0.0
 11
76.642042
 21
112.387405
 31
0.0
 71
     0
 72
     0
 41
0.0
 42
0.0
  3
Standard
100
AcDbAlignedDimension
 13
60.142042
 23
98.076931
 33
0.0
 14
93.142042
 24
98.076931
 34
0.0
100
AcDbRotatedDimension
  0
TEXT
  5
8A
100
AcDbEntity
  8
2
370
    18
100
AcDbText
 10
149.391815
 20
102.84808
 30
0.0
 40
4.0
  1
φ３３×５
 72
     5
 11
168.591815
 21
102.84808
 31
0.0
100
AcDbText
  0
TEXT
  5
8B
100
AcDbEntity
  8
2
370
    18
100
AcDbText
 10
-76.744171
 20
108.524658
 30
0.0
 40
4.0
  1
33
 41
2.0
 72
     5
 11
-70.344171
 21
108.524658
 31
0.0
100
AcDbText
  0
TEXT
  5
8C
100
AcDbEntity
  8
2
370
    18
100
AcDbText
 10
-112.744171
 20
108.524658
 30
0.0
 40
4.0
  1
１ＣＬ…扉厚２８～
 72
     5
 11
-77.544171
 21
108.524658
 31
0.0
100
AcDbText
  0
TEXT
  5
8D
100
AcDbEntity
  8
2
370
    18
100
AcDbText
 10
-112.744171
 20
104.024658
 30
0.0
 40
4.0
  1
１ＣＬＷ…扉厚３３～３８
 72
     5
 11
-65.544171
 21
104.024658
 31
0.0
100
AcDbText
  0
TEXT
  5
8E
100
AcDbEntity
  8
2
370
    18
100
AcDbText
 10
-112.414032
 20
117.442947
 30
0.0
 40
4.0
  1
１Ａ…扉厚２６～４０
 72
     5
 11
-73.214032
 21
117.442947
 31
0.0
100
AcDbText
  0
DIMENSION
  5
8F
100
AcDbEntity
  8
2
370
    25
100
AcDbDimension
  2
*D15
 10
-76.244171
 20
103.524658
 30
0.0
 11
-92.744171
 21
105.524658
 31
0.0
 71
     0
 72
     0
 41
0.0
 42
0.0
  3
Standard
100
AcDbAlignedDimension
 13
-109.244171
 23
97.880793
 33
0.0
 14
-76.244171
 24
97.880793
 34
0.0
100
AcDbRotatedDimension
  0
TEXT
  5
90
100
AcDbEntity
  8
2
370
    18
100
AcDbText
 10
-112.414032
 20
112.942947
 30
0.0
 40
4.0
  1
ＰＡ１-１８…扉厚２６～
 72
     5
 11
-67.214032
 21
112.942947
 31
0.0
100
AcDbText
  0
LINE
  5
91
100
AcDbEntity
  8
2
370
    18
  6
PHANTOM
100
AcDbLine
 10
19.162666
 20
129.860519
 30
0.0
 11
19.162666
 21
-97.088562
 31
0.0
  0
LINE
  5
92
100
AcDbEntity
  8
3
370
   100
100
AcDbLine
 10
-190.0
 20
138.0
 30
0.0
 11
-190.0
 21
-138.0
 31
0.0
  0
LINE
  5
93
100
AcDbEntity
  8
3
370
   100
100
AcDbLine
 10
200.0
 20
138.0
 30
0.0
 11
200.0
 21
-138.0
 31
0.0
  0
LINE
  5
94
100
AcDbEntity
  8
3
370
   100
100
AcDbLine
 10
-190.0
 20
138.0
 30
0.0
 11
200.0
 21
138.0
 31
0.0
  0
LINE
  5
95
100
AcDbEntity
  8
3
370
   100
100
AcDbLine
 10
-190.0
 20
-138.0
 30
0.0
 11
200.0
 21
-138.0
 31
0.0
  0
LINE
  5
96
100
AcDbEntity
  8
3
370
    50
100
AcDbLine
 10
-190.0
 20
-108.0
 30
0.0
 11
200.0
 21
-108.0
 31
0.0
  0
LINE
  5
97
100
AcDbEntity
  8
3
370
    25
100
AcDbLine
 10
10.0
 20
-112.999949
 30
0.0
 11
108.000527
 21
-112.999865
 31
0.0
  0
LINE
  5
98
100
AcDbEntity
  8
3
370
   100
100
AcDbLine
 10
-190.3
 20
138.3
 30
0.0
 11
200.3
 21
138.3
 31
0.0
  0
LINE
  5
99
100
AcDbEntity
  8
3
370
   100
100
AcDbLine
 10
200.3
 20
138.3
 30
0.0
 11
200.3
 21
-138.3
 31
0.0
  0
LINE
  5
9A
100
AcDbEntity
  8
3
370
   100
100
AcDbLine
 10
200.3
 20
-138.3
 30
0.0
 11
-190.3
 21
-138.3
 31
0.0
  0
LINE
  5
9B
100
AcDbEntity
  8
3
370
   100
100
AcDbLine
 10
-190.3
 20
-138.3
 30
0.0
 11
-190.3
 21
138.3
 31
0.0
  0
LINE
  5
9C
100
AcDbEntity
  8
3
370
    25
100
AcDbLine
 10
108.000527
 20
-112.999865
 30
0.0
 11
108.000527
 21
-108.0
 31
0.0
  0
LINE
  5
9D
100
AcDbEntity
  8
3
370
    25
100
AcDbLine
 10
90.0
 20
-129.999865
 30
0.0
 11
108.000527
 21
-129.999865
 31
0.0
  0
LINE
  5
9E
100
AcDbEntity
  8
3
370
    25
100
AcDbLine
 10
108.000527
 20
-129.999865
 30
0.0
 11
108.000527
 21
-125.0
 31
0.0
  0
LINE
  5
9F
100
AcDbEntity
  8
3
370
    50
100
AcDbLine
 10
10.0
 20
-108.0
 30
0.0
 11
10.0
 21
-138.0
 31
0.0
  0
TEXT
  5
A0
100
AcDbEntity
  8
3
370
   100
100
AcDbText
 10
22.0
 20
-135.5
 30
0.0
 40
8.0
  1
（株）川口技研
 72
     5
 11
76.4
 21
-135.5
 31
0.0
100
AcDbText
  0
TEXT
  5
A1
100
AcDbEntity
  8
3
370
    25
100
AcDbText
 10
91.800263
 20
-112.29994
 30
0.0
 40
3.6
  1
図面名称
 72
     5
 11
105.480263
 21
-112.29994
 31
0.0
100
AcDbText
  0
TEXT
  5
A2
100
AcDbEntity
  8
3
370
    25
100
AcDbText
 10
91.800263
 20
-129.299925
 30
0.0
 40
3.6
  1
図面番号
 72
     5
 11
105.480263
 21
-129.299925
 31
0.0
100
AcDbText
  0
TEXT
  5
A3
100
AcDbEntity
  8
3
370
    25
100
AcDbText
 10
16.133333
 20
-112.299991
 30
0.0
 40
3.6
  1
図　　法
 72
     5
 11
29.813333
 21
-112.299991
 31
0.0
100
AcDbText
  0
TEXT
  5
A4
100
AcDbEntity
  8
3
370
    25
100
AcDbText
 10
42.8
 20
-112.299974
 30
0.0
 40
3.6
  1
単　　位
 72
     5
 11
56.48
 21
-112.299974
 31
0.0
100
AcDbText
  0
TEXT
  5
A5
100
AcDbEntity
  8
3
370
    25
100
AcDbText
 10
69.466667
 20
-112.299957
 30
0.0
 40
3.6
  1
尺　　度
 72
     5
 11
83.146667
 21
-112.299957
 31
0.0
100
AcDbText
  0
TEXT
  5
A6
100
AcDbEntity
  8
3
370
    25
100
AcDbText
 10
46.0
 20
-120.999957
 30
0.0
 40
4.0
  1
ｍｍ
 72
     5
 11
53.2
 21
-120.999957
 31
0.0
100
AcDbText
  0
TEXT
  5
A7
100
AcDbEntity
  8
3
370
    25
100
AcDbText
 10
17.333333
 20
-120.999957
 30
0.0
 40
4.0
  1
３角法
 72
     5
 11
28.533333
 21
-120.999957
 31
0.0
100
AcDbText
  0
LINE
  5
A8
100
AcDbEntity
  8
3
370
    50
100
AcDbLine
 10
90.0
 20
-138.0
 30
0.0
 11
90.0
 21
-108.0
 31
0.0
  0
LINE
  5
A9
100
AcDbEntity
  8
3
370
    50
100
AcDbLine
 10
10.0
 20
-125.0
 30
0.0
 11
90.0
 21
-125.0
 31
0.0
  0
LINE
  5
AA
100
AcDbEntity
  8
3
370
    50
100
AcDbLine
 10
90.0
 20
-125.0
 30
0.0
 11
200.0
 21
-125.0
 31
0.0
  0
LINE
  5
AB
100
AcDbEntity
  8
3
370
    50
100
AcDbLine
 10
36.666667
 20
-125.0
 30
0.0
 11
36.666667
 21
-108.0
 31
0.0
  0
LINE
  5
AC
100
AcDbEntity
  8
3
370
    50
100
AcDbLine
 10
63.333333
 20
-125.0
 30
0.0
 11
63.333333
 21
-108.0
 31
0.0
  0
TEXT
  5
AD
100
AcDbEntity
  8
3
370
    25
100
AcDbText
 10
70.666667
 20
-120.999957
 30
0.0
 40
4.0
  1
１／１
 72
     5
 11
81.866667
 21
-120.999957
 31
0.0
100
AcDbText
  0
TEXT
  5
AE
100
AcDbEntity
  8
3
370
   100
100
AcDbText
 10
124.421455
 20
-134.545471
 30
0.0
 40
6.0
  1
ＤＺ－１９７８－００
 72
     5
 11
183.221455
 21
-134.545471
 31
0.0
100
AcDbText
  0
TEXT
  5
AF
100
AcDbEntity
  8
3
370
    50
100
AcDbText
 10
93.430756
 20
-120.407188
 30
0.0
 40
4.5
  1
１Ａ/ＰＡ１-１８/１ＣＬ/１ＣＬＷ/Ｋ-１ＣＬ　-色記号　切欠図
 41
0.78
 72
     5
 11
196.273756
 21
-120.407188
 31
0.0
100
AcDbText
  0
TEXT
  5
B0
100
AcDbEntity
  8
3
370
    18
100
AcDbText
 10
-183.671478
 20
126.243965
 30
0.0
 40
8.0
  1
１Ａ・ＰＡ１-１８・１ＣＬ・１ＣＬＷ　切欠図
 72
     5
 11
-13.271478
 21
126.243965
 31
0.0
100
AcDbText
  0
TEXT
  5
B1
100
AcDbEntity
  8
3
370
    18
100
AcDbText
 10
36.328522
 20
126.243965
 30
0.0
 40
8.0
  1
Ｋ-１ＣＬ　切欠図
 72
     5
 11
102.728522
 21
126.243965
 31
0.0
100
AcDbText
  0
ENDSEC
  0
SECTION
  2
OBJECTS
  0
DICTIONARY
  5
147
100
AcDbDictionary
280
     0
281
     1
  3
ACAD_GROUP
350
148
  3
ACAD_MLINESTYLE
350
149
  0
DICTIONARY
  5
148
102
{ACAD_REACTORS
330
147
102
}
100
AcDbDictionary
280
     0
281
     1
  0
DICTIONARY
  5
149
102
{ACAD_REACTORS
330
147
102
}
100
AcDbDictionary
280
     0
281
     1
  3
Standard
350
14A
  0
MLINESTYLE
  5
14A
102
{ACAD_REACTORS
330
149
102
}
100
AcDbMlineStyle
  2
Standard
 70
     0
  3

 62
     0
 51
90.0
 52
90.0
 71
     2
 49
0.5
 62
   256
  6
ByLayer
 49
-0.5
 62
   256
  6
ByLayer
  0
ENDSEC
  0
EOF
