  0
SECTION
  2
HEADER
  9
$ACADVER
  1
AC1015
  9
$ACADMAINTVER
 70
     6
  9
$DWGCODEPAGE
  3
ANSI_932
  9
$INSBASE
 10
0.0
 20
0.0
 30
0.0
  9
$EXTMIN
 10
-4756.0
 20
-420.5
 30
0.0
  9
$EXTMAX
 10
4756.0
 20
420.5
 30
0.0
  9
$LIMMIN
 10
-4756.0
 20
-420.5
  9
$LIMMAX
 10
4756.0
 20
420.5
  9
$ORTHOMODE
 70
     0
  9
$REGENMODE
 70
     1
  9
$FILLMODE
 70
     1
  9
$QTEXTMODE
 70
     0
  9
$MIRRTEXT
 70
     1
  9
$LTSCALE
 40
1.0
  9
$ATTMODE
 70
     1
  9
$TEXTSIZE
 40
1.0
  9
$TRACEWID
 40
0.05
  9
$TEXTSTYLE
  7
STANDARD
  9
$CLAYER
  8
0
  9
$CELTYPE
  6
ByBlock
  9
$CECOLOR
 62
   256
  9
$CELTSCALE
 40
1.0
  9
$DISPSILH
 70
     0
  9
$DIMSCALE
 40
1.0
  9
$DIMASZ
 40
2.0
  9
$DIMEXO
 40
0.5
  9
$DIMDLI
 40
0.38
  9
$DIMRND
 40
0.0
  9
$DIMDLE
 40
0.0
  9
$DIMEXE
 40
2.0
  9
$DIMTP
 40
0.0
  9
$DIMTM
 40
0.0
  9
$DIMTXT
 40
4.0
  9
$DIMCEN
 40
0.09
  9
$DIMTSZ
 40
0.0
  9
$DIMTOL
 70
     0
  9
$DIMLIM
 70
     0
  9
$DIMTIH
 70
     0
  9
$DIMTOH
 70
     0
  9
$DIMSE1
 70
     0
  9
$DIMSE2
 70
     0
  9
$DIMTAD
 70
     1
  9
$DIMZIN
 70
     0
  9
$DIMBLK
  1

  9
$DIMASO
 70
     1
  9
$DIMSHO
 70
     1
  9
$DIMPOST
  1

  9
$DIMAPOST
  1

  9
$DIMALT
 70
     0
  9
$DIMALTD
 70
     2
  9
$DIMALTF
 40
25.4
  9
$DIMLFAC
 40
1.0
  9
$DIMTOFL
 70
     0
  9
$DIMTVP
 40
0.0
  9
$DIMTIX
 70
     0
  9
$DIMSOXD
 70
     0
  9
$DIMSAH
 70
     0
  9
$DIMBLK1
  1

  9
$DIMBLK2
  1

  9
$DIMSTYLE
  2
Standard
  9
$DIMCLRD
 70
     0
  9
$DIMCLRE
 70
     0
  9
$DIMCLRT
 70
     0
  9
$DIMTFAC
 40
1.0
  9
$DIMGAP
 40
0.5
  9
$DIMJUST
 70
     0
  9
$DIMSD1
 70
     0
  9
$DIMSD2
 70
     0
  9
$DIMTOLJ
 70
     1
  9
$DIMTZIN
 70
     0
  9
$DIMALTZ
 70
     0
  9
$DIMALTTZ
 70
     0
  9
$DIMUPT
 70
     0
  9
$DIMDEC
 70
     4
  9
$DIMTDEC
 70
     4
  9
$DIMALTU
 70
     2
  9
$DIMALTTD
 70
     2
  9
$DIMTXSTY
  7
STANDARD
  9
$DIMAUNIT
 70
     0
  9
$DIMADEC
 70
     2
  9
$DIMALTRND
 40
0.0
  9
$DIMAZIN
 70
     0
  9
$DIMDSEP
 70
    46
  9
$DIMATFIT
 70
     3
  9
$DIMFRAC
 70
     0
  9
$DIMLDRBLK
  1

  9
$DIMLUNIT
 70
     2
  9
$DIMLWD
 70
    -2
  9
$DIMLWE
 70
    -2
  9
$DIMTMOVE
 70
     2
  9
$LUNITS
 70
     2
  9
$LUPREC
 70
     4
  9
$SKETCHINC
 40
0.1
  9
$FILLETRAD
 40
0.5
  9
$AUNITS
 70
     0
  9
$AUPREC
 70
     0
  9
$MENU
  1
.
  9
$ELEVATION
 40
0.0
  9
$PELEVATION
 40
0.0
  9
$THICKNESS
 40
0.0
  9
$LIMCHECK
 70
     0
  9
$CHAMFERA
 40
0.0
  9
$CHAMFERB
 40
0.0
  9
$CHAMFERC
 40
0.0
  9
$CHAMFERD
 40
0.0
  9
$SKPOLY
 70
     0
  9
$TDCREATE
 40
2457913.0
  9
$TDUCREATE
 40
2457912.625
  9
$TDUPDATE
 40
2459458.541906898
  9
$TDUUPDATE
 40
2459458.166906898
  9
$TDINDWG
 40
0.0000000116
  9
$TDUSRTIMER
 40
0.0000000116
  9
$USRTIMER
 70
     1
  9
$ANGBASE
 50
0.0
  9
$ANGDIR
 70
     0
  9
$PDMODE
 70
     0
  9
$PDSIZE
 40
0.0
  9
$PLINEWID
 40
0.0
  9
$SPLFRAME
 70
     0
  9
$SPLINETYPE
 70
     6
  9
$SPLINESEGS
 70
     8
  9
$HANDSEED
  5
300
  9
$SURFTAB1
 70
     6
  9
$SURFTAB2
 70
     6
  9
$SURFTYPE
 70
     6
  9
$SURFU
 70
     6
  9
$SURFV
 70
     6
  9
$UCSBASE
  2

  9
$UCSNAME
  2

  9
$UCSORG
 10
0.0
 20
0.0
 30
0.0
  9
$UCSXDIR
 10
1.0
 20
0.0
 30
0.0
  9
$UCSYDIR
 10
0.0
 20
1.0
 30
0.0
  9
$UCSORTHOREF
  2

  9
$UCSORTHOVIEW
 70
     0
  9
$UCSORGTOP
 10
0.0
 20
0.0
 30
0.0
  9
$UCSORGBOTTOM
 10
0.0
 20
0.0
 30
0.0
  9
$UCSORGLEFT
 10
0.0
 20
0.0
 30
0.0
  9
$UCSORGRIGHT
 10
0.0
 20
0.0
 30
0.0
  9
$UCSORGFRONT
 10
0.0
 20
0.0
 30
0.0
  9
$UCSORGBACK
 10
0.0
 20
0.0
 30
0.0
  9
$PUCSBASE
  2

  9
$PUCSNAME
  2

  9
$PUCSORG
 10
0.0
 20
0.0
 30
0.0
  9
$PUCSXDIR
 10
1.0
 20
0.0
 30
0.0
  9
$PUCSYDIR
 10
0.0
 20
1.0
 30
0.0
  9
$PUCSORTHOREF
  2

  9
$PUCSORTHOVIEW
 70
     0
  9
$PUCSORGTOP
 10
0.0
 20
0.0
 30
0.0
  9
$PUCSORGBOTTOM
 10
0.0
 20
0.0
 30
0.0
  9
$PUCSORGLEFT
 10
0.0
 20
0.0
 30
0.0
  9
$PUCSORGRIGHT
 10
0.0
 20
0.0
 30
0.0
  9
$PUCSORGFRONT
 10
0.0
 20
0.0
 30
0.0
  9
$PUCSORGBACK
 10
0.0
 20
0.0
 30
0.0
  9
$USERI1
 70
     0
  9
$USERI2
 70
     0
  9
$USERI3
 70
     0
  9
$USERI4
 70
     0
  9
$USERI5
 70
     0
  9
$USERR1
 40
0.0
  9
$USERR2
 40
0.0
  9
$USERR3
 40
0.0
  9
$USERR4
 40
0.0
  9
$USERR5
 40
0.0
  9
$WORLDVIEW
 70
     1
  9
$SHADEDGE
 70
     3
  9
$SHADEDIF
 70
    70
  9
$TILEMODE
 70
     1
  9
$MAXACTVP
 70
    64
  9
$PINSBASE
 10
0.0
 20
0.0
 30
0.0
  9
$PLIMCHECK
 70
     0
  9
$PEXTMIN
 10
1.000000000000000E+20
 20
1.000000000000000E+20
 30
1.000000000000000E+20
  9
$PEXTMAX
 10
-1.000000000000000E+20
 20
-1.000000000000000E+20
 30
-1.000000000000000E+20
  9
$PLIMMIN
 10
0.0
 20
0.0
  9
$PLIMMAX
 10
12.0
 20
9.0
  9
$UNITMODE
 70
     0
  9
$VISRETAIN
 70
     1
  9
$PLINEGEN
 70
     0
  9
$PSLTSCALE
 70
     1
  9
$TREEDEPTH
 70
  3020
  9
$CMLSTYLE
  2
Standard
  9
$CMLJUST
 70
     0
  9
$CMLSCALE
 40
1.0
  9
$PROXYGRAPHICS
 70
     1
  9
$MEASUREMENT
 70
     0
  9
$CELWEIGHT
370
    -1
  9
$ENDCAPS
280
     0
  9
$JOINSTYLE
280
     0
  9
$LWDISPLAY
290
     0
  9
$INSUNITS
 70
     0
  9
$HYPERLINKBASE
  1

  9
$STYLESHEET
  1

  9
$XEDIT
290
     1
  9
$CEPSNTYPE
380
     0
  9
$PSTYLEMODE
290
     1
  9
$FINGERPRINTGUID
  2
{25f0371a-c177-40b9-bc48-34b4fc419101}
  9
$VERSIONGUID
  2
{FAEB1C32-E019-11D5-929B-00C0DF256EC4}
  9
$EXTNAMES
290
     1
  9
$PSVPSCALE
 40
0.0
  9
$OLESTARTUP
290
     0
  0
ENDSEC
  0
SECTION
  2
CLASSES
  0
CLASS
  1
ACDBDICTIONARYWDFLT
  2
AcDbDictionaryWithDefault
  3
ObjectDBX Classes
 90
        0
280
     0
281
     0
  0
CLASS
  1
MATERIAL
  2
AcDbMaterial
  3
ObjectDBX Classes
 90
     1153
280
     0
281
     0
  0
CLASS
  1
SCALE
  2
AcDbScale
  3
ObjectDBX Classes
 90
     1153
280
     0
281
     0
  0
CLASS
  1
VISUALSTYLE
  2
AcDbVisualStyle
  3
ObjectDBX Classes
 90
     4095
280
     0
281
     0
  0
CLASS
  1
TABLESTYLE
  2
AcDbTableStyle
  3
ObjectDBX Classes
 90
     4095
280
     0
281
     0
  0
CLASS
  1
MLEADERSTYLE
  2
AcDbMLeaderStyle
  3
ACDB_MLEADERSTYLE_CLASS
 90
     4095
280
     0
281
     0
  0
CLASS
  1
DICTIONARYVAR
  2
AcDbDictionaryVar
  3
ObjectDBX Classes
 90
        0
280
     0
281
     0
  0
CLASS
  1
ACDBPLACEHOLDER
  2
AcDbPlaceHolder
  3
ObjectDBX Classes
 90
        0
280
     0
281
     0
  0
CLASS
  1
LAYOUT
  2
AcDbLayout
  3
ObjectDBX Classes
 90
        0
280
     0
281
     0
  0
ENDSEC
  0
SECTION
  2
TABLES
  0
TABLE
  2
VPORT
  5
8
102
{ACAD_XDICTIONARY
360
2C4
102
}
330
0
100
AcDbSymbolTable
 70
     1
  0
VPORT
  5
20
330
8
100
AcDbSymbolTableRecord
100
AcDbViewportTableRecord
  2
*ACTIVE
 70
     0
 10
0.0
 20
0.0
 11
1.0
 21
1.0
 12
0.0
 22
0.0
 13
0.0
 23
0.0
 14
1.0
 24
1.0
 15
0.0
 25
0.0
 16
0.0
 26
0.0
 36
1.0
 17
0.0
 27
0.0
 37
0.0
 40
841.0
 41
11.310345
 42
50.0
 43
0.0
 44
0.0
 50
0.0
 51
0.0
 71
     0
 72
   500
 73
     1
 74
     1
 75
     0
 76
     0
 77
     0
 78
     0
281
     0
 65
     0
110
0.0
120
0.0
130
0.0
111
1.0
121
0.0
131
0.0
112
0.0
122
1.0
132
0.0
 79
     0
146
0.0
  0
ENDTAB
  0
TABLE
  2
LTYPE
  5
5
330
0
100
AcDbSymbolTable
 70
     7
  0
LTYPE
  5
14
330
5
100
AcDbSymbolTableRecord
100
AcDbLinetypeTableRecord
  2
ByBlock
 70
     0
  3

 72
    65
 73
     0
 40
0.0
  0
LTYPE
  5
15
330
5
100
AcDbSymbolTableRecord
100
AcDbLinetypeTableRecord
  2
ByLayer
 70
     0
  3

 72
    65
 73
     0
 40
0.0
  0
LTYPE
  5
16
330
5
100
AcDbSymbolTableRecord
100
AcDbLinetypeTableRecord
  2
CONTINUOUS
 70
     0
  3
Solid line
 72
    65
 73
     0
 40
0.0
  0
LTYPE
  5
22
330
5
100
AcDbSymbolTableRecord
100
AcDbLinetypeTableRecord
  2
DASHED
 70
     0
  3
__ __ __ __ __ __ __ __ __ __ __ __ __ __ __
 72
    65
 73
     2
 40
2.0
 49
1.2
 74
     0
 49
-0.8
 74
     0
  0
LTYPE
  5
23
330
5
100
AcDbSymbolTableRecord
100
AcDbLinetypeTableRecord
  2
CENTER
 70
     0
  3
____ _ ____ _ ____ _ ____ _ ____ _ ____ _ ____
 72
    65
 73
     4
 40
12.0
 49
9.0
 74
     0
 49
-1.0
 74
     0
 49
1.0
 74
     0
 49
-1.0
 74
     0
  0
LTYPE
  5
24
330
5
100
AcDbSymbolTableRecord
100
AcDbLinetypeTableRecord
  2
HIDDEN
 70
     0
  3
_ _ _ _ _ _ _ _ _ _ _ _ _ _ _ _ _ _ _ _ _ _ _
 72
    65
 73
     2
 40
3.2
 49
1.3
 74
     0
 49
-1.9
 74
     0
  0
LTYPE
  5
25
330
5
100
AcDbSymbolTableRecord
100
AcDbLinetypeTableRecord
  2
PHANTOM
 70
     0
  3
_____ _ _ _____ _ _ _____ _ _ _____ _ _ _____
 72
    65
 73
     6
 40
12.5
 49
9.0
 74
     0
 49
-1.0
 74
     0
 49
0.5
 74
     0
 49
-0.5
 74
     0
 49
0.5
 74
     0
 49
-1.0
 74
     0
  0
LTYPE
  5
26
330
5
100
AcDbSymbolTableRecord
100
AcDbLinetypeTableRecord
  2
DOT
 70
     0
  3
...............................................
 72
    65
 73
     2
 40
1.0
 49
0.5
 74
     0
 49
-0.5
 74
     0
  0
LTYPE
  5
27
330
5
100
AcDbSymbolTableRecord
100
AcDbLinetypeTableRecord
  2
DASHDOT
 70
     0
  3
__ . __ . __ . __ . __ . __ . __ . __ . __ . __
 72
    65
 73
     4
 40
8.0
 49
5.0
 74
     0
 49
-1.0
 74
     0
 49
1.0
 74
     0
 49
-1.0
 74
     0
  0
ENDTAB
  0
TABLE
  2
LAYER
  5
2
330
0
100
AcDbSymbolTable
 70
     4
  0
LAYER
  5
10
330
2
100
AcDbSymbolTableRecord
100
AcDbLayerTableRecord
  2
0
 70
     0
 62
     8
  6
CONTINUOUS
370
    -3
390
F
  0
LAYER
  5
2D
330
2
100
AcDbSymbolTableRecord
100
AcDbLayerTableRecord
  2
1
 70
     0
 62
     2
  6
CONTINUOUS
370
    -3
390
F
  0
LAYER
  5
2E
330
2
100
AcDbSymbolTableRecord
100
AcDbLayerTableRecord
  2
2
 70
     0
 62
     3
  6
CONTINUOUS
370
    -3
390
F
  0
LAYER
  5
2F
330
2
100
AcDbSymbolTableRecord
100
AcDbLayerTableRecord
  2
3
 70
     0
 62
     4
  6
CONTINUOUS
370
    -3
390
F
  0
ENDTAB
  0
TABLE
  2
STYLE
  5
3
330
0
100
AcDbSymbolTable
 70
     1
  0
STYLE
  5
11
330
3
100
AcDbSymbolTableRecord
100
AcDbTextStyleTableRecord
  2
STANDARD
 70
     0
 40
0.0
 41
1.0
 50
0.0
 71
     0
 42
1.0
  3
txt
  4
BIGFONT
  0
ENDTAB
  0
TABLE
  2
VIEW
  5
6
330
0
100
AcDbSymbolTable
 70
     0
  0
ENDTAB
  0
TABLE
  2
UCS
  5
7
330
0
100
AcDbSymbolTable
 70
     0
  0
ENDTAB
  0
TABLE
  2
APPID
  5
9
330
0
100
AcDbSymbolTable
 70
     2
  0
APPID
  5
12
330
9
100
AcDbSymbolTableRecord
100
AcDbRegAppTableRecord
  2
ACAD
 70
     0
  0
APPID
  5
2FD
330
9
100
AcDbSymbolTableRecord
100
AcDbRegAppTableRecord
  2
ACAD_MLEADERVER
 70
     0
  0
ENDTAB
  0
TABLE
  2
DIMSTYLE
  5
A
330
0
100
AcDbSymbolTable
 70
     1
100
AcDbDimStyleTable
  0
DIMSTYLE
105
31
330
A
100
AcDbSymbolTableRecord
100
AcDbDimStyleTableRecord
  2
Standard
 70
     0
178
     0
340
11
  0
ENDTAB
  0
TABLE
  2
BLOCK_RECORD
  5
1
330
0
100
AcDbSymbolTable
 70
    29
  0
BLOCK_RECORD
  5
1D
330
1
100
AcDbSymbolTableRecord
100
AcDbBlockTableRecord
  2
*Model_Space
340
1E
  0
BLOCK_RECORD
  5
1B
330
1
100
AcDbSymbolTableRecord
100
AcDbBlockTableRecord
  2
*Paper_Space
340
1C
  0
BLOCK_RECORD
  5
33
330
1
100
AcDbSymbolTableRecord
100
AcDbBlockTableRecord
  2
*D0
340
0
  0
BLOCK_RECORD
  5
3D
330
1
100
AcDbSymbolTableRecord
100
AcDbBlockTableRecord
  2
*D1
340
0
  0
BLOCK_RECORD
  5
48
330
1
100
AcDbSymbolTableRecord
100
AcDbBlockTableRecord
  2
*D2
340
0
  0
BLOCK_RECORD
  5
53
330
1
100
AcDbSymbolTableRecord
100
AcDbBlockTableRecord
  2
*D3
340
0
  0
BLOCK_RECORD
  5
5E
330
1
100
AcDbSymbolTableRecord
100
AcDbBlockTableRecord
  2
*D4
340
0
  0
BLOCK_RECORD
  5
68
330
1
100
AcDbSymbolTableRecord
100
AcDbBlockTableRecord
  2
*D5
340
0
  0
BLOCK_RECORD
  5
73
330
1
100
AcDbSymbolTableRecord
100
AcDbBlockTableRecord
  2
*D6
340
0
  0
BLOCK_RECORD
  5
7E
330
1
100
AcDbSymbolTableRecord
100
AcDbBlockTableRecord
  2
*D7
340
0
  0
BLOCK_RECORD
  5
88
330
1
100
AcDbSymbolTableRecord
100
AcDbBlockTableRecord
  2
*D8
340
0
  0
BLOCK_RECORD
  5
93
330
1
100
AcDbSymbolTableRecord
100
AcDbBlockTableRecord
  2
*D9
340
0
  0
BLOCK_RECORD
  5
9E
330
1
100
AcDbSymbolTableRecord
100
AcDbBlockTableRecord
  2
*D10
340
0
  0
BLOCK_RECORD
  5
A7
330
1
100
AcDbSymbolTableRecord
100
AcDbBlockTableRecord
  2
*D11
340
0
  0
BLOCK_RECORD
  5
B1
330
1
100
AcDbSymbolTableRecord
100
AcDbBlockTableRecord
  2
*D12
340
0
  0
BLOCK_RECORD
  5
BA
330
1
100
AcDbSymbolTableRecord
100
AcDbBlockTableRecord
  2
*D13
340
0
  0
BLOCK_RECORD
  5
C4
330
1
100
AcDbSymbolTableRecord
100
AcDbBlockTableRecord
  2
*D14
340
0
  0
BLOCK_RECORD
  5
CE
330
1
100
AcDbSymbolTableRecord
100
AcDbBlockTableRecord
  2
*D15
340
0
  0
BLOCK_RECORD
  5
D8
330
1
100
AcDbSymbolTableRecord
100
AcDbBlockTableRecord
  2
*D16
340
0
  0
BLOCK_RECORD
  5
E3
330
1
100
AcDbSymbolTableRecord
100
AcDbBlockTableRecord
  2
*D17
340
0
  0
BLOCK_RECORD
  5
EE
330
1
100
AcDbSymbolTableRecord
100
AcDbBlockTableRecord
  2
*D18
340
0
  0
BLOCK_RECORD
  5
F9
330
1
100
AcDbSymbolTableRecord
100
AcDbBlockTableRecord
  2
*D19
340
0
  0
BLOCK_RECORD
  5
104
330
1
100
AcDbSymbolTableRecord
100
AcDbBlockTableRecord
  2
*D20
340
0
  0
BLOCK_RECORD
  5
10D
330
1
100
AcDbSymbolTableRecord
100
AcDbBlockTableRecord
  2
*D21
340
0
  0
BLOCK_RECORD
  5
117
330
1
100
AcDbSymbolTableRecord
100
AcDbBlockTableRecord
  2
*D22
340
0
  0
BLOCK_RECORD
  5
122
330
1
100
AcDbSymbolTableRecord
100
AcDbBlockTableRecord
  2
*D23
340
0
  0
BLOCK_RECORD
  5
12D
330
1
100
AcDbSymbolTableRecord
100
AcDbBlockTableRecord
  2
*D24
340
0
  0
BLOCK_RECORD
  5
137
330
1
100
AcDbSymbolTableRecord
100
AcDbBlockTableRecord
  2
*D25
340
0
  0
BLOCK_RECORD
  5
142
330
1
100
AcDbSymbolTableRecord
100
AcDbBlockTableRecord
  2
*D26
340
0
  0
BLOCK_RECORD
  5
14D
330
1
100
AcDbSymbolTableRecord
100
AcDbBlockTableRecord
  2
*D27
340
0
  0
BLOCK_RECORD
  5
158
330
1
100
AcDbSymbolTableRecord
100
AcDbBlockTableRecord
  2
*D28
340
0
  0
ENDTAB
  0
ENDSEC
  0
SECTION
  2
BLOCKS
  0
BLOCK
  5
29B
330
1D
100
AcDbEntity
  8
0
100
AcDbBlockBegin
  2
*Model_Space
 70
     0
 10
0.0
 20
0.0
 30
0.0
  3
*Model_Space
  1

  0
ENDBLK
  5
29C
330
1D
100
AcDbEntity
  8
0
100
AcDbBlockEnd
  0
BLOCK
  5
29D
330
1B
100
AcDbEntity
 67
     1
  8
0
100
AcDbBlockBegin
  2
*Paper_Space
 70
     0
 10
0.0
 20
0.0
 30
0.0
  3
*Paper_Space
  1

  0
ENDBLK
  5
29E
330
1B
100
AcDbEntity
 67
     1
  8
0
100
AcDbBlockEnd
  0
BLOCK
  5
32
330
33
100
AcDbEntity
  8
2
100
AcDbBlockBegin
  2
*D0
 70
     1
 10
0.0
 20
0.0
 30
0.0
  3
*D0
  1

  0
TEXT
  5
34
330
33
100
AcDbEntity
  8
2
370
    18
100
AcDbText
 10
47.261107
 20
92.711035
 30
0.0
 40
2.5
  1
3.5
 41
2.0
 72
     5
 11
53.761107
 21
92.711035
 31
0.0
100
AcDbText
  0
LINE
  5
35
330
33
100
AcDbEntity
  8
2
370
    25
100
AcDbLine
 10
58.761107
 20
92.211035
 30
0.0
 11
56.829256
 21
92.728673
 31
0.0
  0
LINE
  5
36
330
33
100
AcDbEntity
  8
2
370
    25
100
AcDbLine
 10
58.761107
 20
92.211035
 30
0.0
 11
56.829256
 21
91.693397
 31
0.0
  0
LINE
  5
37
330
33
100
AcDbEntity
  8
2
370
    25
100
AcDbLine
 10
46.261107
 20
92.211035
 30
0.0
 11
67.261107
 21
92.211035
 31
0.0
  0
LINE
  5
38
330
33
100
AcDbEntity
  8
2
370
    25
100
AcDbLine
 10
62.261107
 20
92.211035
 30
0.0
 11
64.192959
 21
91.693397
 31
0.0
  0
LINE
  5
39
330
33
100
AcDbEntity
  8
2
370
    25
100
AcDbLine
 10
62.261107
 20
92.211035
 30
0.0
 11
64.192959
 21
92.728673
 31
0.0
  0
LINE
  5
3A
330
33
100
AcDbEntity
  8
2
370
    25
100
AcDbLine
 10
62.261107
 20
84.447434
 30
0.0
 11
62.261107
 21
93.211035
 31
0.0
  0
ENDBLK
  5
3B
330
33
100
AcDbEntity
  8
2
100
AcDbBlockEnd
  0
BLOCK
  5
3C
330
3D
100
AcDbEntity
  8
2
100
AcDbBlockBegin
  2
*D1
 70
     1
 10
0.0
 20
0.0
 30
0.0
  3
*D1
  1

  0
TEXT
  5
3E
330
3D
100
AcDbEntity
  8
2
370
    18
100
AcDbText
 10
87.511107
 20
109.737122
 30
0.0
 40
2.5
  1
67.5
 41
2.0
 72
     5
 11
96.511107
 21
109.737122
 31
0.0
100
AcDbText
  0
LINE
  5
3F
330
3D
100
AcDbEntity
  8
2
370
    25
100
AcDbLine
 10
58.761107
 20
88.951498
 30
0.0
 11
58.761107
 21
110.237122
 31
0.0
  0
LINE
  5
40
330
3D
100
AcDbEntity
  8
2
370
    25
100
AcDbLine
 10
58.761107
 20
109.237122
 30
0.0
 11
60.692959
 21
108.719483
 31
0.0
  0
LINE
  5
41
330
3D
100
AcDbEntity
  8
2
370
    25
100
AcDbLine
 10
58.761107
 20
109.237122
 30
0.0
 11
60.692959
 21
109.75476
 31
0.0
  0
LINE
  5
42
330
3D
100
AcDbEntity
  8
2
370
    25
100
AcDbLine
 10
58.761107
 20
109.237122
 30
0.0
 11
126.261107
 21
109.237122
 31
0.0
  0
LINE
  5
43
330
3D
100
AcDbEntity
  8
2
370
    25
100
AcDbLine
 10
126.261107
 20
109.237122
 30
0.0
 11
124.329256
 21
109.75476
 31
0.0
  0
LINE
  5
44
330
3D
100
AcDbEntity
  8
2
370
    25
100
AcDbLine
 10
126.261107
 20
109.237122
 30
0.0
 11
124.329256
 21
108.719483
 31
0.0
  0
LINE
  5
45
330
3D
100
AcDbEntity
  8
2
370
    25
100
AcDbLine
 10
126.261107
 20
60.947477
 30
0.0
 11
126.261107
 21
110.237122
 31
0.0
  0
ENDBLK
  5
46
330
3D
100
AcDbEntity
  8
2
100
AcDbBlockEnd
  0
BLOCK
  5
47
330
48
100
AcDbEntity
  8
2
100
AcDbBlockBegin
  2
*D2
 70
     1
 10
0.0
 20
0.0
 30
0.0
  3
*D2
  1

  0
TEXT
  5
49
330
48
100
AcDbEntity
  8
2
370
    25
100
AcDbText
 10
89.261107
 20
105.283287
 30
0.0
 40
2.5
  1
51
 41
2.0
 72
     5
 11
93.261107
 21
105.283287
 31
0.0
100
AcDbText
  0
LINE
  5
4A
330
48
100
AcDbEntity
  8
2
370
    25
100
AcDbLine
 10
58.761107
 20
88.951498
 30
0.0
 11
58.761107
 21
105.783287
 31
0.0
  0
LINE
  5
4B
330
48
100
AcDbEntity
  8
2
370
    25
100
AcDbLine
 10
58.761107
 20
104.783287
 30
0.0
 11
60.692959
 21
104.265649
 31
0.0
  0
LINE
  5
4C
330
48
100
AcDbEntity
  8
2
370
    25
100
AcDbLine
 10
58.761107
 20
104.783287
 30
0.0
 11
60.692959
 21
105.300925
 31
0.0
  0
LINE
  5
4D
330
48
100
AcDbEntity
  8
2
370
    25
100
AcDbLine
 10
58.761107
 20
104.783287
 30
0.0
 11
109.761107
 21
104.783287
 31
0.0
  0
LINE
  5
4E
330
48
100
AcDbEntity
  8
2
370
    25
100
AcDbLine
 10
109.761107
 20
104.783287
 30
0.0
 11
107.829256
 21
105.300925
 31
0.0
  0
LINE
  5
4F
330
48
100
AcDbEntity
  8
2
370
    25
100
AcDbLine
 10
109.761107
 20
104.783287
 30
0.0
 11
107.829256
 21
104.265649
 31
0.0
  0
LINE
  5
50
330
48
100
AcDbEntity
  8
2
370
    25
100
AcDbLine
 10
109.761107
 20
80.447477
 30
0.0
 11
109.761107
 21
105.783287
 31
0.0
  0
ENDBLK
  5
51
330
48
100
AcDbEntity
  8
2
100
AcDbBlockEnd
  0
BLOCK
  5
52
330
53
100
AcDbEntity
  8
2
100
AcDbBlockBegin
  2
*D3
 70
     1
 10
0.0
 20
0.0
 30
0.0
  3
*D3
  1

  0
TEXT
  5
54
330
53
100
AcDbEntity
  8
2
370
    18
100
AcDbText
 10
-3.48404
 20
95.641577
 30
0.0
 40
2.5
  1
18
 41
2.0
 72
     5
 11
0.51596
 21
95.641577
 31
0.0
100
AcDbText
  0
LINE
  5
55
330
53
100
AcDbEntity
  8
2
370
    25
100
AcDbLine
 10
-9.98404
 20
84.447434
 30
0.0
 11
-9.98404
 21
96.141577
 31
0.0
  0
LINE
  5
56
330
53
100
AcDbEntity
  8
2
370
    25
100
AcDbLine
 10
-9.98404
 20
95.141577
 30
0.0
 11
-8.052189
 21
94.623939
 31
0.0
  0
LINE
  5
57
330
53
100
AcDbEntity
  8
2
370
    25
100
AcDbLine
 10
-9.98404
 20
95.141577
 30
0.0
 11
-8.052189
 21
95.659215
 31
0.0
  0
LINE
  5
58
330
53
100
AcDbEntity
  8
2
370
    25
100
AcDbLine
 10
-9.98404
 20
95.141577
 30
0.0
 11
8.01596
 21
95.141577
 31
0.0
  0
LINE
  5
59
330
53
100
AcDbEntity
  8
2
370
    25
100
AcDbLine
 10
8.01596
 20
95.141577
 30
0.0
 11
6.084108
 21
95.659215
 31
0.0
  0
LINE
  5
5A
330
53
100
AcDbEntity
  8
2
370
    25
100
AcDbLine
 10
8.01596
 20
95.141577
 30
0.0
 11
6.084108
 21
94.623939
 31
0.0
  0
LINE
  5
5B
330
53
100
AcDbEntity
  8
2
370
    25
100
AcDbLine
 10
8.01596
 20
84.447434
 30
0.0
 11
8.01596
 21
96.141577
 31
0.0
  0
ENDBLK
  5
5C
330
53
100
AcDbEntity
  8
2
100
AcDbBlockEnd
  0
BLOCK
  5
5D
330
5E
100
AcDbEntity
  8
2
100
AcDbBlockBegin
  2
*D4
 70
     1
 10
0.0
 20
0.0
 30
0.0
  3
*D4
  1

  0
TEXT
  5
5F
330
5E
100
AcDbEntity
  8
2
370
    18
100
AcDbText
 10
60.261107
 20
92.711035
 30
0.0
 40
2.5
  1
3.5
 41
2.0
 72
     5
 11
66.761107
 21
92.711035
 31
0.0
100
AcDbText
  0
LINE
  5
60
330
5E
100
AcDbEntity
  8
2
370
    25
100
AcDbLine
 10
71.761107
 20
92.211035
 30
0.0
 11
69.829256
 21
92.728673
 31
0.0
  0
LINE
  5
61
330
5E
100
AcDbEntity
  8
2
370
    25
100
AcDbLine
 10
71.761107
 20
92.211035
 30
0.0
 11
69.829256
 21
91.693397
 31
0.0
  0
LINE
  5
62
330
5E
100
AcDbEntity
  8
2
370
    25
100
AcDbLine
 10
59.261107
 20
92.211035
 30
0.0
 11
80.261107
 21
92.211035
 31
0.0
  0
LINE
  5
63
330
5E
100
AcDbEntity
  8
2
370
    25
100
AcDbLine
 10
75.261107
 20
92.211035
 30
0.0
 11
77.192959
 21
91.693397
 31
0.0
  0
LINE
  5
64
330
5E
100
AcDbEntity
  8
2
370
    25
100
AcDbLine
 10
75.261107
 20
92.211035
 30
0.0
 11
77.192959
 21
92.728673
 31
0.0
  0
LINE
  5
65
330
5E
100
AcDbEntity
  8
2
370
    25
100
AcDbLine
 10
75.261107
 20
84.447434
 30
0.0
 11
75.261107
 21
93.211035
 31
0.0
  0
ENDBLK
  5
66
330
5E
100
AcDbEntity
  8
2
100
AcDbBlockEnd
  0
BLOCK
  5
67
330
68
100
AcDbEntity
  8
2
100
AcDbBlockBegin
  2
*D5
 70
     1
 10
0.0
 20
0.0
 30
0.0
  3
*D5
  1

  0
TEXT
  5
69
330
68
100
AcDbEntity
  8
2
370
    18
100
AcDbText
 10
-5.98404
 20
91.55332
 30
0.0
 40
2.5
  1
(15)
 41
2.0
 72
     5
 11
3.01596
 21
91.55332
 31
0.0
100
AcDbText
  0
LINE
  5
6A
330
68
100
AcDbEntity
  8
2
370
    25
100
AcDbLine
 10
-8.48404
 20
59.947467
 30
0.0
 11
-8.48404
 21
92.05332
 31
0.0
  0
LINE
  5
6B
330
68
100
AcDbEntity
  8
2
370
    25
100
AcDbLine
 10
-8.48404
 20
91.05332
 30
0.0
 11
-6.552189
 21
90.535682
 31
0.0
  0
LINE
  5
6C
330
68
100
AcDbEntity
  8
2
370
    25
100
AcDbLine
 10
-8.48404
 20
91.05332
 30
0.0
 11
-6.552189
 21
91.570958
 31
0.0
  0
LINE
  5
6D
330
68
100
AcDbEntity
  8
2
370
    25
100
AcDbLine
 10
-8.48404
 20
91.05332
 30
0.0
 11
6.51596
 21
91.05332
 31
0.0
  0
LINE
  5
6E
330
68
100
AcDbEntity
  8
2
370
    25
100
AcDbLine
 10
6.51596
 20
91.05332
 30
0.0
 11
4.584108
 21
91.570958
 31
0.0
  0
LINE
  5
6F
330
68
100
AcDbEntity
  8
2
370
    25
100
AcDbLine
 10
6.51596
 20
91.05332
 30
0.0
 11
4.584108
 21
90.535682
 31
0.0
  0
LINE
  5
70
330
68
100
AcDbEntity
  8
2
370
    25
100
AcDbLine
 10
6.51596
 20
59.947467
 30
0.0
 11
6.51596
 21
92.05332
 31
0.0
  0
ENDBLK
  5
71
330
68
100
AcDbEntity
  8
2
100
AcDbBlockEnd
  0
BLOCK
  5
72
330
73
100
AcDbEntity
  8
2
100
AcDbBlockBegin
  2
*D6
 70
     1
 10
0.0
 20
0.0
 30
0.0
  3
*D6
  1

  0
TEXT
  5
74
330
73
100
AcDbEntity
  8
2
370
    18
100
AcDbText
 10
21.869124
 20
50.447479
 30
0.0
 40
2.5
  1
13
 50
90.0
 41
2.0
 72
     5
 11
21.869124
 21
54.447479
 31
0.0
100
AcDbText
  0
LINE
  5
75
330
73
100
AcDbEntity
  8
2
370
    25
100
AcDbLine
 10
18.820776
 20
46.447492
 30
0.0
 11
23.369124
 21
46.447492
 31
0.0
  0
LINE
  5
76
330
73
100
AcDbEntity
  8
2
370
    25
100
AcDbLine
 10
22.369124
 20
46.447492
 30
0.0
 11
22.886763
 21
48.379343
 31
0.0
  0
LINE
  5
77
330
73
100
AcDbEntity
  8
2
370
    25
100
AcDbLine
 10
22.369124
 20
46.447492
 30
0.0
 11
21.851486
 21
48.379343
 31
0.0
  0
LINE
  5
78
330
73
100
AcDbEntity
  8
2
370
    25
100
AcDbLine
 10
22.369124
 20
46.447492
 30
0.0
 11
22.369124
 21
59.447467
 31
0.0
  0
LINE
  5
79
330
73
100
AcDbEntity
  8
2
370
    25
100
AcDbLine
 10
22.369124
 20
59.447467
 30
0.0
 11
21.851486
 21
57.515615
 31
0.0
  0
LINE
  5
7A
330
73
100
AcDbEntity
  8
2
370
    25
100
AcDbLine
 10
22.369124
 20
59.447467
 30
0.0
 11
22.886763
 21
57.515615
 31
0.0
  0
LINE
  5
7B
330
73
100
AcDbEntity
  8
2
370
    25
100
AcDbLine
 10
10.01596
 20
59.447467
 30
0.0
 11
23.369124
 21
59.447467
 31
0.0
  0
ENDBLK
  5
7C
330
73
100
AcDbEntity
  8
2
100
AcDbBlockEnd
  0
BLOCK
  5
7D
330
7E
100
AcDbEntity
  8
2
100
AcDbBlockBegin
  2
*D7
 70
     1
 10
0.0
 20
0.0
 30
0.0
  3
*D7
  1

  0
TEXT
  5
7F
330
7E
100
AcDbEntity
  8
2
370
    18
100
AcDbText
 10
21.869124
 20
37.447458
 30
0.0
 40
2.5
  1
13
 50
90.0
 41
2.0
 72
     5
 11
21.869124
 21
41.447458
 31
0.0
100
AcDbText
  0
LINE
  5
80
330
7E
100
AcDbEntity
  8
2
370
    25
100
AcDbLine
 10
10.01596
 20
33.447424
 30
0.0
 11
23.369124
 21
33.447424
 31
0.0
  0
LINE
  5
81
330
7E
100
AcDbEntity
  8
2
370
    25
100
AcDbLine
 10
22.369124
 20
33.447424
 30
0.0
 11
22.886763
 21
35.379275
 31
0.0
  0
LINE
  5
82
330
7E
100
AcDbEntity
  8
2
370
    25
100
AcDbLine
 10
22.369124
 20
33.447424
 30
0.0
 11
21.851486
 21
35.379275
 31
0.0
  0
LINE
  5
83
330
7E
100
AcDbEntity
  8
2
370
    25
100
AcDbLine
 10
22.369124
 20
33.447424
 30
0.0
 11
22.369124
 21
46.447492
 31
0.0
  0
LINE
  5
84
330
7E
100
AcDbEntity
  8
2
370
    25
100
AcDbLine
 10
22.369124
 20
46.447492
 30
0.0
 11
21.851486
 21
44.51564
 31
0.0
  0
LINE
  5
85
330
7E
100
AcDbEntity
  8
2
370
    25
100
AcDbLine
 10
22.369124
 20
46.447492
 30
0.0
 11
22.886763
 21
44.51564
 31
0.0
  0
ENDBLK
  5
86
330
7E
100
AcDbEntity
  8
2
100
AcDbBlockEnd
  0
BLOCK
  5
87
330
88
100
AcDbEntity
  8
2
100
AcDbBlockBegin
  2
*D8
 70
     1
 10
0.0
 20
0.0
 30
0.0
  3
*D8
  1

  0
TEXT
  5
89
330
88
100
AcDbEntity
  8
2
370
    18
100
AcDbText
 10
27.081191
 20
43.947437
 30
0.0
 40
2.5
  1
60
 50
90.0
 41
2.0
 72
     5
 11
27.081191
 21
47.947437
 31
0.0
100
AcDbText
  0
LINE
  5
8A
330
88
100
AcDbEntity
  8
2
370
    25
100
AcDbLine
 10
4.815764
 20
16.447437
 30
0.0
 11
28.581191
 21
16.447437
 31
0.0
  0
LINE
  5
8B
330
88
100
AcDbEntity
  8
2
370
    25
100
AcDbLine
 10
27.581191
 20
16.447437
 30
0.0
 11
28.098829
 21
18.379289
 31
0.0
  0
LINE
  5
8C
330
88
100
AcDbEntity
  8
2
370
    25
100
AcDbLine
 10
27.581191
 20
16.447437
 30
0.0
 11
27.063553
 21
18.379289
 31
0.0
  0
LINE
  5
8D
330
88
100
AcDbEntity
  8
2
370
    25
100
AcDbLine
 10
27.581191
 20
16.447437
 30
0.0
 11
27.581191
 21
76.447437
 31
0.0
  0
LINE
  5
8E
330
88
100
AcDbEntity
  8
2
370
    25
100
AcDbLine
 10
27.581191
 20
76.447437
 30
0.0
 11
27.063553
 21
74.515585
 31
0.0
  0
LINE
  5
8F
330
88
100
AcDbEntity
  8
2
370
    25
100
AcDbLine
 10
27.581191
 20
76.447437
 30
0.0
 11
28.098829
 21
74.515585
 31
0.0
  0
LINE
  5
90
330
88
100
AcDbEntity
  8
2
370
    25
100
AcDbLine
 10
4.815764
 20
76.447437
 30
0.0
 11
28.581191
 21
76.447437
 31
0.0
  0
ENDBLK
  5
91
330
88
100
AcDbEntity
  8
2
100
AcDbBlockEnd
  0
BLOCK
  5
92
330
93
100
AcDbEntity
  8
2
100
AcDbBlockBegin
  2
*D9
 70
     1
 10
0.0
 20
0.0
 30
0.0
  3
*D9
  1

  0
TEXT
  5
94
330
93
100
AcDbEntity
  8
2
370
    18
100
AcDbText
 10
11.956946
 20
43.947432
 30
0.0
 40
2.5
  1
75
 50
90.0
 41
2.0
 72
     5
 11
11.956946
 21
47.947432
 31
0.0
100
AcDbText
  0
LINE
  5
95
330
93
100
AcDbEntity
  8
2
370
    25
100
AcDbLine
 10
8.51596
 20
8.947429
 30
0.0
 11
33.456946
 21
8.947429
 31
0.0
  0
LINE
  5
96
330
93
100
AcDbEntity
  8
2
370
    25
100
AcDbLine
 10
32.456946
 20
8.947429
 30
0.0
 11
32.974584
 21
10.879281
 31
0.0
  0
LINE
  5
97
330
93
100
AcDbEntity
  8
2
370
    25
100
AcDbLine
 10
32.456946
 20
8.947429
 30
0.0
 11
31.939308
 21
10.879281
 31
0.0
  0
LINE
  5
98
330
93
100
AcDbEntity
  8
2
370
    25
100
AcDbLine
 10
32.456946
 20
8.947429
 30
0.0
 11
32.456946
 21
83.947434
 31
0.0
  0
LINE
  5
99
330
93
100
AcDbEntity
  8
2
370
    25
100
AcDbLine
 10
32.456946
 20
83.947434
 30
0.0
 11
31.939308
 21
82.015583
 31
0.0
  0
LINE
  5
9A
330
93
100
AcDbEntity
  8
2
370
    25
100
AcDbLine
 10
32.456946
 20
83.947434
 30
0.0
 11
32.974584
 21
82.015583
 31
0.0
  0
LINE
  5
9B
330
93
100
AcDbEntity
  8
2
370
    25
100
AcDbLine
 10
8.51596
 20
83.947434
 30
0.0
 11
33.456946
 21
83.947434
 31
0.0
  0
ENDBLK
  5
9C
330
93
100
AcDbEntity
  8
2
100
AcDbBlockEnd
  0
BLOCK
  5
9D
330
9E
100
AcDbEntity
  8
2
100
AcDbBlockBegin
  2
*D10
 70
     1
 10
0.0
 20
0.0
 30
0.0
  3
*D10
  1

  0
TEXT
  5
9F
330
9E
100
AcDbEntity
  8
2
370
    18
100
AcDbText
 10
-38.090589
 20
32.947473
 30
0.0
 40
2.5
  1
22
 50
90.0
 41
2.0
 72
     5
 11
-38.090589
 21
36.947473
 31
0.0
100
AcDbText
  0
LINE
  5
A0
330
9E
100
AcDbEntity
  8
2
370
    25
100
AcDbLine
 10
-37.590589
 20
24.447474
 30
0.0
 11
-37.07295
 21
26.379325
 31
0.0
  0
LINE
  5
A1
330
9E
100
AcDbEntity
  8
2
370
    25
100
AcDbLine
 10
-37.590589
 20
24.447474
 30
0.0
 11
-38.108227
 21
26.379325
 31
0.0
  0
LINE
  5
A2
330
9E
100
AcDbEntity
  8
2
370
    25
100
AcDbLine
 10
-37.590589
 20
24.447474
 30
0.0
 11
-37.590589
 21
46.447472
 31
0.0
  0
LINE
  5
A3
330
9E
100
AcDbEntity
  8
2
370
    25
100
AcDbLine
 10
-37.590589
 20
46.447472
 30
0.0
 11
-38.108227
 21
44.515621
 31
0.0
  0
LINE
  5
A4
330
9E
100
AcDbEntity
  8
2
370
    25
100
AcDbLine
 10
-37.590589
 20
46.447472
 30
0.0
 11
-37.07295
 21
44.515621
 31
0.0
  0
ENDBLK
  5
A5
330
9E
100
AcDbEntity
  8
2
100
AcDbBlockEnd
  0
BLOCK
  5
A6
330
A7
100
AcDbEntity
  8
2
100
AcDbBlockBegin
  2
*D11
 70
     1
 10
0.0
 20
0.0
 30
0.0
  3
*D11
  1

  0
TEXT
  5
A8
330
A7
100
AcDbEntity
  8
2
370
    25
100
AcDbText
 10
134.239783
 20
48.19754
 30
0.0
 40
2.5
  1
13.5
 50
90.0
 41
2.0
 72
     5
 11
134.239783
 21
57.19754
 31
0.0
100
AcDbText
  0
LINE
  5
A9
330
A7
100
AcDbEntity
  8
2
370
    25
100
AcDbLine
 10
134.302642
 20
46.447603
 30
0.0
 11
135.739783
 21
46.447603
 31
0.0
  0
LINE
  5
AA
330
A7
100
AcDbEntity
  8
2
370
    25
100
AcDbLine
 10
134.739783
 20
46.447603
 30
0.0
 11
135.257421
 21
48.379454
 31
0.0
  0
LINE
  5
AB
330
A7
100
AcDbEntity
  8
2
370
    25
100
AcDbLine
 10
134.739783
 20
46.447603
 30
0.0
 11
134.222145
 21
48.379454
 31
0.0
  0
LINE
  5
AC
330
A7
100
AcDbEntity
  8
2
370
    25
100
AcDbLine
 10
134.739783
 20
46.447603
 30
0.0
 11
134.739783
 21
59.947477
 31
0.0
  0
LINE
  5
AD
330
A7
100
AcDbEntity
  8
2
370
    25
100
AcDbLine
 10
134.739783
 20
59.947477
 30
0.0
 11
134.222145
 21
58.015626
 31
0.0
  0
LINE
  5
AE
330
A7
100
AcDbEntity
  8
2
370
    25
100
AcDbLine
 10
134.739783
 20
59.947477
 30
0.0
 11
135.257421
 21
58.015626
 31
0.0
  0
ENDBLK
  5
AF
330
A7
100
AcDbEntity
  8
2
100
AcDbBlockEnd
  0
BLOCK
  5
B0
330
B1
100
AcDbEntity
  8
2
100
AcDbBlockBegin
  2
*D12
 70
     1
 10
0.0
 20
0.0
 30
0.0
  3
*D12
  1

  0
TEXT
  5
B2
330
B1
100
AcDbEntity
  8
2
370
    25
100
AcDbText
 10
139.873145
 20
38.197477
 30
0.0
 40
2.5
  1
33.5
 50
90.0
 41
2.0
 72
     5
 11
139.873145
 21
47.197477
 31
0.0
100
AcDbText
  0
LINE
  5
B3
330
B1
100
AcDbEntity
  8
2
370
    25
100
AcDbLine
 10
140.373145
 20
26.447477
 30
0.0
 11
140.890783
 21
28.379329
 31
0.0
  0
LINE
  5
B4
330
B1
100
AcDbEntity
  8
2
370
    25
100
AcDbLine
 10
140.373145
 20
26.447477
 30
0.0
 11
139.855507
 21
28.379329
 31
0.0
  0
LINE
  5
B5
330
B1
100
AcDbEntity
  8
2
370
    25
100
AcDbLine
 10
140.373145
 20
26.447477
 30
0.0
 11
140.373145
 21
59.947477
 31
0.0
  0
LINE
  5
B6
330
B1
100
AcDbEntity
  8
2
370
    25
100
AcDbLine
 10
140.373145
 20
59.947477
 30
0.0
 11
139.855507
 21
58.015626
 31
0.0
  0
LINE
  5
B7
330
B1
100
AcDbEntity
  8
2
370
    25
100
AcDbLine
 10
140.373145
 20
59.947477
 30
0.0
 11
140.890783
 21
58.015626
 31
0.0
  0
ENDBLK
  5
B8
330
B1
100
AcDbEntity
  8
2
100
AcDbBlockEnd
  0
BLOCK
  5
B9
330
BA
100
AcDbEntity
  8
2
100
AcDbBlockBegin
  2
*D13
 70
     1
 10
0.0
 20
0.0
 30
0.0
  3
*D13
  1

  0
TEXT
  5
BB
330
BA
100
AcDbEntity
  8
2
370
    25
100
AcDbText
 10
139.873145
 20
4.697477
 30
0.0
 40
2.5
  1
33.5
 50
90.0
 41
2.0
 72
     5
 11
139.873145
 21
13.697477
 31
0.0
100
AcDbText
  0
LINE
  5
BC
330
BA
100
AcDbEntity
  8
2
370
    25
100
AcDbLine
 10
140.373145
 20
-7.052523
 30
0.0
 11
140.890783
 21
-5.120671
 31
0.0
  0
LINE
  5
BD
330
BA
100
AcDbEntity
  8
2
370
    25
100
AcDbLine
 10
140.373145
 20
-7.052523
 30
0.0
 11
139.855507
 21
-5.120671
 31
0.0
  0
LINE
  5
BE
330
BA
100
AcDbEntity
  8
2
370
    25
100
AcDbLine
 10
140.373145
 20
-7.052523
 30
0.0
 11
140.373145
 21
26.447477
 31
0.0
  0
LINE
  5
BF
330
BA
100
AcDbEntity
  8
2
370
    25
100
AcDbLine
 10
140.373145
 20
26.447477
 30
0.0
 11
139.855507
 21
24.515626
 31
0.0
  0
LINE
  5
C0
330
BA
100
AcDbEntity
  8
2
370
    25
100
AcDbLine
 10
140.373145
 20
26.447477
 30
0.0
 11
140.890783
 21
24.515626
 31
0.0
  0
LINE
  5
C1
330
BA
100
AcDbEntity
  8
2
370
    25
100
AcDbLine
 10
129.761107
 20
26.447477
 30
0.0
 11
141.373145
 21
26.447477
 31
0.0
  0
ENDBLK
  5
C2
330
BA
100
AcDbEntity
  8
2
100
AcDbBlockEnd
  0
BLOCK
  5
C3
330
C4
100
AcDbEntity
  8
2
100
AcDbBlockBegin
  2
*D14
 70
     1
 10
0.0
 20
0.0
 30
0.0
  3
*D14
  1

  0
TEXT
  5
C5
330
C4
100
AcDbEntity
  8
2
370
    25
100
AcDbText
 10
139.873145
 20
-28.802523
 30
0.0
 40
2.5
  1
33.5
 50
90.0
 41
2.0
 72
     5
 11
139.873145
 21
-19.802523
 31
0.0
100
AcDbText
  0
LINE
  5
C6
330
C4
100
AcDbEntity
  8
2
370
    25
100
AcDbLine
 10
140.373145
 20
-40.552523
 30
0.0
 11
140.890783
 21
-38.620671
 31
0.0
  0
LINE
  5
C7
330
C4
100
AcDbEntity
  8
2
370
    25
100
AcDbLine
 10
140.373145
 20
-40.552523
 30
0.0
 11
139.855507
 21
-38.620671
 31
0.0
  0
LINE
  5
C8
330
C4
100
AcDbEntity
  8
2
370
    25
100
AcDbLine
 10
140.373145
 20
-40.552523
 30
0.0
 11
140.373145
 21
-7.052523
 31
0.0
  0
LINE
  5
C9
330
C4
100
AcDbEntity
  8
2
370
    25
100
AcDbLine
 10
140.373145
 20
-7.052523
 30
0.0
 11
139.855507
 21
-8.984374
 31
0.0
  0
LINE
  5
CA
330
C4
100
AcDbEntity
  8
2
370
    25
100
AcDbLine
 10
140.373145
 20
-7.052523
 30
0.0
 11
140.890783
 21
-8.984374
 31
0.0
  0
LINE
  5
CB
330
C4
100
AcDbEntity
  8
2
370
    25
100
AcDbLine
 10
129.761107
 20
-7.052523
 30
0.0
 11
141.373145
 21
-7.052523
 31
0.0
  0
ENDBLK
  5
CC
330
C4
100
AcDbEntity
  8
2
100
AcDbBlockEnd
  0
BLOCK
  5
CD
330
CE
100
AcDbEntity
  8
2
100
AcDbBlockBegin
  2
*D15
 70
     1
 10
0.0
 20
0.0
 30
0.0
  3
*D15
  1

  0
TEXT
  5
CF
330
CE
100
AcDbEntity
  8
2
370
    25
100
AcDbText
 10
139.873145
 20
-62.302524
 30
0.0
 40
2.5
  1
33.5
 50
90.0
 41
2.0
 72
     5
 11
139.873145
 21
-53.302524
 31
0.0
100
AcDbText
  0
LINE
  5
D0
330
CE
100
AcDbEntity
  8
2
370
    25
100
AcDbLine
 10
140.373145
 20
-74.052526
 30
0.0
 11
140.890783
 21
-72.120674
 31
0.0
  0
LINE
  5
D1
330
CE
100
AcDbEntity
  8
2
370
    25
100
AcDbLine
 10
140.373145
 20
-74.052526
 30
0.0
 11
139.855507
 21
-72.120674
 31
0.0
  0
LINE
  5
D2
330
CE
100
AcDbEntity
  8
2
370
    25
100
AcDbLine
 10
140.373145
 20
-74.052526
 30
0.0
 11
140.373145
 21
-40.552523
 31
0.0
  0
LINE
  5
D3
330
CE
100
AcDbEntity
  8
2
370
    25
100
AcDbLine
 10
140.373145
 20
-40.552523
 30
0.0
 11
139.855507
 21
-42.484374
 31
0.0
  0
LINE
  5
D4
330
CE
100
AcDbEntity
  8
2
370
    25
100
AcDbLine
 10
140.373145
 20
-40.552523
 30
0.0
 11
140.890783
 21
-42.484374
 31
0.0
  0
LINE
  5
D5
330
CE
100
AcDbEntity
  8
2
370
    25
100
AcDbLine
 10
129.761107
 20
-40.552523
 30
0.0
 11
141.373145
 21
-40.552523
 31
0.0
  0
ENDBLK
  5
D6
330
CE
100
AcDbEntity
  8
2
100
AcDbBlockEnd
  0
BLOCK
  5
D7
330
D8
100
AcDbEntity
  8
2
100
AcDbBlockBegin
  2
*D16
 70
     1
 10
0.0
 20
0.0
 30
0.0
  3
*D16
  1

  0
TEXT
  5
D9
330
D8
100
AcDbEntity
  8
2
370
    25
100
AcDbText
 10
145.83438
 20
-10.802524
 30
0.0
 40
2.5
  1
134
 50
90.0
 41
2.0
 72
     5
 11
145.83438
 21
-4.302524
 31
0.0
100
AcDbText
  0
LINE
  5
DA
330
D8
100
AcDbEntity
  8
2
370
    25
100
AcDbLine
 10
129.761107
 20
-74.052526
 30
0.0
 11
147.33438
 21
-74.052526
 31
0.0
  0
LINE
  5
DB
330
D8
100
AcDbEntity
  8
2
370
    25
100
AcDbLine
 10
146.33438
 20
-74.052526
 30
0.0
 11
146.852018
 21
-72.120674
 31
0.0
  0
LINE
  5
DC
330
D8
100
AcDbEntity
  8
2
370
    25
100
AcDbLine
 10
146.33438
 20
-74.052526
 30
0.0
 11
145.816742
 21
-72.120674
 31
0.0
  0
LINE
  5
DD
330
D8
100
AcDbEntity
  8
2
370
    25
100
AcDbLine
 10
146.33438
 20
-74.052526
 30
0.0
 11
146.33438
 21
59.947477
 31
0.0
  0
LINE
  5
DE
330
D8
100
AcDbEntity
  8
2
370
    25
100
AcDbLine
 10
146.33438
 20
59.947477
 30
0.0
 11
145.816742
 21
58.015626
 31
0.0
  0
LINE
  5
DF
330
D8
100
AcDbEntity
  8
2
370
    25
100
AcDbLine
 10
146.33438
 20
59.947477
 30
0.0
 11
146.852018
 21
58.015626
 31
0.0
  0
LINE
  5
E0
330
D8
100
AcDbEntity
  8
2
370
    25
100
AcDbLine
 10
129.761107
 20
59.947477
 30
0.0
 11
147.33438
 21
59.947477
 31
0.0
  0
ENDBLK
  5
E1
330
D8
100
AcDbEntity
  8
2
100
AcDbBlockEnd
  0
BLOCK
  5
E2
330
E3
100
AcDbEntity
  8
2
100
AcDbBlockBegin
  2
*D17
 70
     1
 10
0.0
 20
0.0
 30
0.0
  3
*D17
  1

  0
TEXT
  5
E4
330
E3
100
AcDbEntity
  8
2
370
    25
100
AcDbText
 10
152.338584
 20
-10.802524
 30
0.0
 40
2.5
  1
167
 50
90.0
 41
2.0
 72
     5
 11
152.338584
 21
-4.302524
 31
0.0
100
AcDbText
  0
LINE
  5
E5
330
E3
100
AcDbEntity
  8
2
370
    25
100
AcDbLine
 10
110.261107
 20
-90.552526
 30
0.0
 11
153.838584
 21
-90.552526
 31
0.0
  0
LINE
  5
E6
330
E3
100
AcDbEntity
  8
2
370
    25
100
AcDbLine
 10
152.838584
 20
-90.552526
 30
0.0
 11
153.356222
 21
-88.620674
 31
0.0
  0
LINE
  5
E7
330
E3
100
AcDbEntity
  8
2
370
    25
100
AcDbLine
 10
152.838584
 20
-90.552526
 30
0.0
 11
152.320946
 21
-88.620674
 31
0.0
  0
LINE
  5
E8
330
E3
100
AcDbEntity
  8
2
370
    25
100
AcDbLine
 10
152.838584
 20
-90.552526
 30
0.0
 11
152.838584
 21
76.447477
 31
0.0
  0
LINE
  5
E9
330
E3
100
AcDbEntity
  8
2
370
    25
100
AcDbLine
 10
152.838584
 20
76.447477
 30
0.0
 11
152.320946
 21
74.515626
 31
0.0
  0
LINE
  5
EA
330
E3
100
AcDbEntity
  8
2
370
    25
100
AcDbLine
 10
152.838584
 20
76.447477
 30
0.0
 11
153.356222
 21
74.515626
 31
0.0
  0
LINE
  5
EB
330
E3
100
AcDbEntity
  8
2
370
    25
100
AcDbLine
 10
110.261107
 20
76.447477
 30
0.0
 11
153.838584
 21
76.447477
 31
0.0
  0
ENDBLK
  5
EC
330
E3
100
AcDbEntity
  8
2
100
AcDbBlockEnd
  0
BLOCK
  5
ED
330
EE
100
AcDbEntity
  8
2
100
AcDbBlockBegin
  2
*D18
 70
     1
 10
0.0
 20
0.0
 30
0.0
  3
*D18
  1

  0
TEXT
  5
EF
330
EE
100
AcDbEntity
  8
2
370
    18
100
AcDbText
 10
94.011107
 20
97.108849
 30
0.0
 40
2.5
  1
54.5
 41
2.0
 72
     5
 11
103.011107
 21
97.108849
 31
0.0
100
AcDbText
  0
LINE
  5
F0
330
EE
100
AcDbEntity
  8
2
370
    25
100
AcDbLine
 10
71.761107
 20
88.951498
 30
0.0
 11
71.761107
 21
97.608849
 31
0.0
  0
LINE
  5
F1
330
EE
100
AcDbEntity
  8
2
370
    25
100
AcDbLine
 10
71.761107
 20
96.608849
 30
0.0
 11
73.692959
 21
96.09121
 31
0.0
  0
LINE
  5
F2
330
EE
100
AcDbEntity
  8
2
370
    25
100
AcDbLine
 10
71.761107
 20
96.608849
 30
0.0
 11
73.692959
 21
97.126487
 31
0.0
  0
LINE
  5
F3
330
EE
100
AcDbEntity
  8
2
370
    25
100
AcDbLine
 10
71.761107
 20
96.608849
 30
0.0
 11
126.261107
 21
96.608849
 31
0.0
  0
LINE
  5
F4
330
EE
100
AcDbEntity
  8
2
370
    25
100
AcDbLine
 10
126.261107
 20
96.608849
 30
0.0
 11
124.329256
 21
97.126487
 31
0.0
  0
LINE
  5
F5
330
EE
100
AcDbEntity
  8
2
370
    25
100
AcDbLine
 10
126.261107
 20
96.608849
 30
0.0
 11
124.329256
 21
96.09121
 31
0.0
  0
LINE
  5
F6
330
EE
100
AcDbEntity
  8
2
370
    25
100
AcDbLine
 10
126.261107
 20
60.947477
 30
0.0
 11
126.261107
 21
97.608849
 31
0.0
  0
ENDBLK
  5
F7
330
EE
100
AcDbEntity
  8
2
100
AcDbBlockEnd
  0
BLOCK
  5
F8
330
F9
100
AcDbEntity
  8
2
100
AcDbBlockBegin
  2
*D19
 70
     1
 10
0.0
 20
0.0
 30
0.0
  3
*D19
  1

  0
TEXT
  5
FA
330
F9
100
AcDbEntity
  8
2
370
    25
100
AcDbText
 10
95.761107
 20
101.335579
 30
0.0
 40
2.5
  1
38
 41
2.0
 72
     5
 11
99.761107
 21
101.335579
 31
0.0
100
AcDbText
  0
LINE
  5
FB
330
F9
100
AcDbEntity
  8
2
370
    25
100
AcDbLine
 10
71.761107
 20
88.951498
 30
0.0
 11
71.761107
 21
101.835579
 31
0.0
  0
LINE
  5
FC
330
F9
100
AcDbEntity
  8
2
370
    25
100
AcDbLine
 10
71.761107
 20
100.835579
 30
0.0
 11
73.692959
 21
100.317941
 31
0.0
  0
LINE
  5
FD
330
F9
100
AcDbEntity
  8
2
370
    25
100
AcDbLine
 10
71.761107
 20
100.835579
 30
0.0
 11
73.692959
 21
101.353217
 31
0.0
  0
LINE
  5
FE
330
F9
100
AcDbEntity
  8
2
370
    25
100
AcDbLine
 10
71.761107
 20
100.835579
 30
0.0
 11
109.761107
 21
100.835579
 31
0.0
  0
LINE
  5
FF
330
F9
100
AcDbEntity
  8
2
370
    25
100
AcDbLine
 10
109.761107
 20
100.835579
 30
0.0
 11
107.829256
 21
101.353217
 31
0.0
  0
LINE
  5
100
330
F9
100
AcDbEntity
  8
2
370
    25
100
AcDbLine
 10
109.761107
 20
100.835579
 30
0.0
 11
107.829256
 21
100.317941
 31
0.0
  0
LINE
  5
101
330
F9
100
AcDbEntity
  8
2
370
    25
100
AcDbLine
 10
109.761107
 20
80.447477
 30
0.0
 11
109.761107
 21
101.835579
 31
0.0
  0
ENDBLK
  5
102
330
F9
100
AcDbEntity
  8
2
100
AcDbBlockEnd
  0
BLOCK
  5
103
330
104
100
AcDbEntity
  8
2
100
AcDbBlockBegin
  2
*D20
 70
     1
 10
0.0
 20
0.0
 30
0.0
  3
*D20
  1

  0
TEXT
  5
105
330
104
100
AcDbEntity
  8
2
370
    25
100
AcDbText
 10
77.511107
 20
4.169771
 30
0.0
 40
2.5
  1
21.5
 41
2.0
 72
     5
 11
86.511107
 21
4.169771
 31
0.0
100
AcDbText
  0
LINE
  5
106
330
104
100
AcDbEntity
  8
2
370
    25
100
AcDbLine
 10
71.761107
 20
3.669771
 30
0.0
 11
73.692959
 21
3.152133
 31
0.0
  0
LINE
  5
107
330
104
100
AcDbEntity
  8
2
370
    25
100
AcDbLine
 10
71.761107
 20
3.669771
 30
0.0
 11
73.692959
 21
4.187409
 31
0.0
  0
LINE
  5
108
330
104
100
AcDbEntity
  8
2
370
    25
100
AcDbLine
 10
71.761107
 20
3.669771
 30
0.0
 11
93.261107
 21
3.669771
 31
0.0
  0
LINE
  5
109
330
104
100
AcDbEntity
  8
2
370
    25
100
AcDbLine
 10
93.261107
 20
3.669771
 30
0.0
 11
91.329256
 21
4.187409
 31
0.0
  0
LINE
  5
10A
330
104
100
AcDbEntity
  8
2
370
    25
100
AcDbLine
 10
93.261107
 20
3.669771
 30
0.0
 11
91.329256
 21
3.152133
 31
0.0
  0
ENDBLK
  5
10B
330
104
100
AcDbEntity
  8
2
100
AcDbBlockEnd
  0
BLOCK
  5
10C
330
10D
100
AcDbEntity
  8
2
100
AcDbBlockBegin
  2
*D21
 70
     1
 10
0.0
 20
0.0
 30
0.0
  3
*D21
  1

  0
LINE
  5
10E
330
10D
100
AcDbEntity
  8
2
370
    25
100
AcDbLine
 10
-15.98404
 20
88.951498
 30
0.0
 11
-15.98404
 21
101.857956
 31
0.0
  0
LINE
  5
10F
330
10D
100
AcDbEntity
  8
2
370
    25
100
AcDbLine
 10
-15.98404
 20
100.857956
 30
0.0
 11
-14.052189
 21
100.340318
 31
0.0
  0
LINE
  5
110
330
10D
100
AcDbEntity
  8
2
370
    25
100
AcDbLine
 10
-15.98404
 20
100.857956
 30
0.0
 11
-14.052189
 21
101.375594
 31
0.0
  0
LINE
  5
111
330
10D
100
AcDbEntity
  8
2
370
    25
100
AcDbLine
 10
-15.98404
 20
100.857956
 30
0.0
 11
14.01596
 21
100.857956
 31
0.0
  0
LINE
  5
112
330
10D
100
AcDbEntity
  8
2
370
    25
100
AcDbLine
 10
14.01596
 20
100.857956
 30
0.0
 11
12.084108
 21
101.375594
 31
0.0
  0
LINE
  5
113
330
10D
100
AcDbEntity
  8
2
370
    25
100
AcDbLine
 10
14.01596
 20
100.857956
 30
0.0
 11
12.084108
 21
100.340318
 31
0.0
  0
LINE
  5
114
330
10D
100
AcDbEntity
  8
2
370
    25
100
AcDbLine
 10
14.01596
 20
88.951498
 30
0.0
 11
14.01596
 21
101.857956
 31
0.0
  0
ENDBLK
  5
115
330
10D
100
AcDbEntity
  8
2
100
AcDbBlockEnd
  0
BLOCK
  5
116
330
117
100
AcDbEntity
  8
2
100
AcDbBlockBegin
  2
*D22
 70
     1
 10
0.0
 20
0.0
 30
0.0
  3
*D22
  1

  0
TEXT
  5
118
330
117
100
AcDbEntity
  8
2
370
    18
100
AcDbText
 10
-89.197137
 20
104.111312
 30
0.0
 40
3.0
  1
18
 41
2.0
 72
     5
 11
-84.397137
 21
104.111312
 31
0.0
100
AcDbText
  0
LINE
  5
119
330
117
100
AcDbEntity
  8
2
370
    25
100
AcDbLine
 10
-95.197137
 20
62.947474
 30
0.0
 11
-95.197137
 21
104.611312
 31
0.0
  0
LINE
  5
11A
330
117
100
AcDbEntity
  8
2
370
    25
100
AcDbLine
 10
-95.197137
 20
103.611312
 30
0.0
 11
-93.265285
 21
103.093674
 31
0.0
  0
LINE
  5
11B
330
117
100
AcDbEntity
  8
2
370
    25
100
AcDbLine
 10
-95.197137
 20
103.611312
 30
0.0
 11
-93.265285
 21
104.12895
 31
0.0
  0
LINE
  5
11C
330
117
100
AcDbEntity
  8
2
370
    25
100
AcDbLine
 10
-95.197137
 20
103.611312
 30
0.0
 11
-77.197137
 21
103.611312
 31
0.0
  0
LINE
  5
11D
330
117
100
AcDbEntity
  8
2
370
    25
100
AcDbLine
 10
-77.197137
 20
103.611312
 30
0.0
 11
-79.128989
 21
104.12895
 31
0.0
  0
LINE
  5
11E
330
117
100
AcDbEntity
  8
2
370
    25
100
AcDbLine
 10
-77.197137
 20
103.611312
 30
0.0
 11
-79.128989
 21
103.093674
 31
0.0
  0
LINE
  5
11F
330
117
100
AcDbEntity
  8
2
370
    25
100
AcDbLine
 10
-77.197137
 20
62.947474
 30
0.0
 11
-77.197137
 21
104.611312
 31
0.0
  0
ENDBLK
  5
120
330
117
100
AcDbEntity
  8
2
100
AcDbBlockEnd
  0
BLOCK
  5
121
330
122
100
AcDbEntity
  8
2
100
AcDbBlockBegin
  2
*D23
 70
     1
 10
0.0
 20
0.0
 30
0.0
  3
*D23
  1

  0
TEXT
  5
123
330
122
100
AcDbEntity
  8
2
370
    18
100
AcDbText
 10
-89.197137
 20
108.426521
 30
0.0
 40
3.0
  1
24
 41
2.0
 72
     5
 11
-84.397137
 21
108.426521
 31
0.0
100
AcDbText
  0
LINE
  5
124
330
122
100
AcDbEntity
  8
2
370
    25
100
AcDbLine
 10
-98.197137
 20
88.947474
 30
0.0
 11
-98.197137
 21
108.926521
 31
0.0
  0
LINE
  5
125
330
122
100
AcDbEntity
  8
2
370
    25
100
AcDbLine
 10
-98.197137
 20
107.926521
 30
0.0
 11
-96.265285
 21
107.408883
 31
0.0
  0
LINE
  5
126
330
122
100
AcDbEntity
  8
2
370
    25
100
AcDbLine
 10
-98.197137
 20
107.926521
 30
0.0
 11
-96.265285
 21
108.444159
 31
0.0
  0
LINE
  5
127
330
122
100
AcDbEntity
  8
2
370
    25
100
AcDbLine
 10
-98.197137
 20
107.926521
 30
0.0
 11
-74.197137
 21
107.926521
 31
0.0
  0
LINE
  5
128
330
122
100
AcDbEntity
  8
2
370
    25
100
AcDbLine
 10
-74.197137
 20
107.926521
 30
0.0
 11
-76.128989
 21
108.444159
 31
0.0
  0
LINE
  5
129
330
122
100
AcDbEntity
  8
2
370
    25
100
AcDbLine
 10
-74.197137
 20
107.926521
 30
0.0
 11
-76.128989
 21
107.408883
 31
0.0
  0
LINE
  5
12A
330
122
100
AcDbEntity
  8
2
370
    25
100
AcDbLine
 10
-74.197137
 20
88.947474
 30
0.0
 11
-74.197137
 21
108.926521
 31
0.0
  0
ENDBLK
  5
12B
330
122
100
AcDbEntity
  8
2
100
AcDbBlockEnd
  0
BLOCK
  5
12C
330
12D
100
AcDbEntity
  8
2
100
AcDbBlockBegin
  2
*D24
 70
     1
 10
0.0
 20
0.0
 30
0.0
  3
*D24
  1

  0
TEXT
  5
12E
330
12D
100
AcDbEntity
  8
2
370
    18
100
AcDbText
 10
-133.721819
 20
101.391392
 30
0.0
 40
3.0
  1
3
 41
2.0
 72
     5
 11
-131.921819
 21
101.391392
 31
0.0
100
AcDbText
  0
LINE
  5
12F
330
12D
100
AcDbEntity
  8
2
370
    25
100
AcDbLine
 10
-137.721819
 20
100.891392
 30
0.0
 11
-135.789968
 21
100.373754
 31
0.0
  0
LINE
  5
130
330
12D
100
AcDbEntity
  8
2
370
    25
100
AcDbLine
 10
-137.721819
 20
100.891392
 30
0.0
 11
-135.789968
 21
101.409031
 31
0.0
  0
LINE
  5
131
330
12D
100
AcDbEntity
  8
2
370
    25
100
AcDbLine
 10
-129.721819
 20
100.891392
 30
0.0
 11
-145.721819
 21
100.891392
 31
0.0
  0
LINE
  5
132
330
12D
100
AcDbEntity
  8
2
370
    25
100
AcDbLine
 10
-140.721819
 20
100.891392
 30
0.0
 11
-142.653671
 21
101.409031
 31
0.0
  0
LINE
  5
133
330
12D
100
AcDbEntity
  8
2
370
    25
100
AcDbLine
 10
-140.721819
 20
100.891392
 30
0.0
 11
-142.653671
 21
100.373754
 31
0.0
  0
LINE
  5
134
330
12D
100
AcDbEntity
  8
2
370
    25
100
AcDbLine
 10
-140.721819
 20
94.947474
 30
0.0
 11
-140.721819
 21
101.891392
 31
0.0
  0
ENDBLK
  5
135
330
12D
100
AcDbEntity
  8
2
100
AcDbBlockEnd
  0
BLOCK
  5
136
330
137
100
AcDbEntity
  8
2
100
AcDbBlockBegin
  2
*D25
 70
     1
 10
0.0
 20
0.0
 30
0.0
  3
*D25
  1

  0
TEXT
  5
138
330
137
100
AcDbEntity
  8
2
370
    18
100
AcDbText
 10
-125.262429
 20
19.947474
 30
0.0
 40
3.0
  1
140
 50
90.0
 41
2.0
 72
     5
 11
-125.262429
 21
27.747474
 31
0.0
100
AcDbText
  0
LINE
  5
139
330
137
100
AcDbEntity
  8
2
370
    25
100
AcDbLine
 10
-92.697137
 20
-45.552526
 30
0.0
 11
-125.762429
 21
-45.552526
 31
0.0
  0
LINE
  5
13A
330
137
100
AcDbEntity
  8
2
370
    25
100
AcDbLine
 10
-124.762429
 20
-45.552526
 30
0.0
 11
-124.244791
 21
-43.620675
 31
0.0
  0
LINE
  5
13B
330
137
100
AcDbEntity
  8
2
370
    25
100
AcDbLine
 10
-124.762429
 20
-45.552526
 30
0.0
 11
-125.280067
 21
-43.620675
 31
0.0
  0
LINE
  5
13C
330
137
100
AcDbEntity
  8
2
370
    25
100
AcDbLine
 10
-124.762429
 20
-45.552526
 30
0.0
 11
-124.762429
 21
94.447474
 31
0.0
  0
LINE
  5
13D
330
137
100
AcDbEntity
  8
2
370
    25
100
AcDbLine
 10
-124.762429
 20
94.447474
 30
0.0
 11
-125.280067
 21
92.515622
 31
0.0
  0
LINE
  5
13E
330
137
100
AcDbEntity
  8
2
370
    25
100
AcDbLine
 10
-124.762429
 20
94.447474
 30
0.0
 11
-124.244791
 21
92.515622
 31
0.0
  0
LINE
  5
13F
330
137
100
AcDbEntity
  8
2
370
    25
100
AcDbLine
 10
-92.697137
 20
94.447474
 30
0.0
 11
-125.762429
 21
94.447474
 31
0.0
  0
ENDBLK
  5
140
330
137
100
AcDbEntity
  8
2
100
AcDbBlockEnd
  0
BLOCK
  5
141
330
142
100
AcDbEntity
  8
2
100
AcDbBlockBegin
  2
*D26
 70
     1
 10
0.0
 20
0.0
 30
0.0
  3
*D26
  1

  0
TEXT
  5
143
330
142
100
AcDbEntity
  8
2
370
    18
100
AcDbText
 10
-110.207513
 20
21.447474
 30
0.0
 40
3.0
  1
94
 50
90.0
 41
2.0
 72
     5
 11
-110.207513
 21
26.247474
 31
0.0
100
AcDbText
  0
LINE
  5
144
330
142
100
AcDbEntity
  8
2
370
    25
100
AcDbLine
 10
-86.697137
 20
-22.552526
 30
0.0
 11
-110.707513
 21
-22.552526
 31
0.0
  0
LINE
  5
145
330
142
100
AcDbEntity
  8
2
370
    25
100
AcDbLine
 10
-109.707513
 20
-22.552526
 30
0.0
 11
-109.189875
 21
-20.620675
 31
0.0
  0
LINE
  5
146
330
142
100
AcDbEntity
  8
2
370
    25
100
AcDbLine
 10
-109.707513
 20
-22.552526
 30
0.0
 11
-110.225151
 21
-20.620675
 31
0.0
  0
LINE
  5
147
330
142
100
AcDbEntity
  8
2
370
    25
100
AcDbLine
 10
-109.707513
 20
-22.552526
 30
0.0
 11
-109.707513
 21
71.447474
 31
0.0
  0
LINE
  5
148
330
142
100
AcDbEntity
  8
2
370
    25
100
AcDbLine
 10
-109.707513
 20
71.447474
 30
0.0
 11
-110.225151
 21
69.515622
 31
0.0
  0
LINE
  5
149
330
142
100
AcDbEntity
  8
2
370
    25
100
AcDbLine
 10
-109.707513
 20
71.447474
 30
0.0
 11
-109.189875
 21
69.515622
 31
0.0
  0
LINE
  5
14A
330
142
100
AcDbEntity
  8
2
370
    25
100
AcDbLine
 10
-86.697137
 20
71.447474
 30
0.0
 11
-110.707513
 21
71.447474
 31
0.0
  0
ENDBLK
  5
14B
330
142
100
AcDbEntity
  8
2
100
AcDbBlockEnd
  0
BLOCK
  5
14C
330
14D
100
AcDbEntity
  8
2
100
AcDbBlockBegin
  2
*D27
 70
     1
 10
0.0
 20
0.0
 30
0.0
  3
*D27
  1

  0
TEXT
  5
14E
330
14D
100
AcDbEntity
  8
2
370
    18
100
AcDbText
 10
-148.221819
 20
108.763821
 30
0.0
 40
3.0
  1
15
 41
2.0
 72
     5
 11
-143.421819
 21
108.763821
 31
0.0
100
AcDbText
  0
LINE
  5
14F
330
14D
100
AcDbEntity
  8
2
370
    25
100
AcDbLine
 10
-137.721819
 20
106.763821
 30
0.0
 11
-137.721819
 21
109.263821
 31
0.0
  0
LINE
  5
150
330
14D
100
AcDbEntity
  8
2
370
    25
100
AcDbLine
 10
-137.721819
 20
108.263821
 30
0.0
 11
-139.653671
 21
108.781459
 31
0.0
  0
LINE
  5
151
330
14D
100
AcDbEntity
  8
2
370
    25
100
AcDbLine
 10
-137.721819
 20
108.263821
 30
0.0
 11
-139.653671
 21
107.746183
 31
0.0
  0
LINE
  5
152
330
14D
100
AcDbEntity
  8
2
370
    25
100
AcDbLine
 10
-137.721819
 20
108.263821
 30
0.0
 11
-152.721819
 21
108.263821
 31
0.0
  0
LINE
  5
153
330
14D
100
AcDbEntity
  8
2
370
    25
100
AcDbLine
 10
-152.721819
 20
108.263821
 30
0.0
 11
-150.789968
 21
107.746183
 31
0.0
  0
LINE
  5
154
330
14D
100
AcDbEntity
  8
2
370
    25
100
AcDbLine
 10
-152.721819
 20
108.263821
 30
0.0
 11
-150.789968
 21
108.781459
 31
0.0
  0
LINE
  5
155
330
14D
100
AcDbEntity
  8
2
370
    25
100
AcDbLine
 10
-152.721819
 20
71.947474
 30
0.0
 11
-152.721819
 21
109.263821
 31
0.0
  0
ENDBLK
  5
156
330
14D
100
AcDbEntity
  8
2
100
AcDbBlockEnd
  0
BLOCK
  5
157
330
158
100
AcDbEntity
  8
2
100
AcDbBlockBegin
  2
*D28
 70
     1
 10
0.0
 20
0.0
 30
0.0
  3
*D28
  1

  0
TEXT
  5
159
330
158
100
AcDbEntity
  8
2
370
    18
100
AcDbText
 10
-116.588372
 20
6.447474
 30
0.0
 40
3.0
  1
120
 50
90.0
 41
2.0
 72
     5
 11
-116.588372
 21
14.247474
 31
0.0
100
AcDbText
  0
LINE
  5
15A
330
158
100
AcDbEntity
  8
2
370
    25
100
AcDbLine
 10
-92.710166
 20
-35.552525
 30
0.0
 11
-117.088372
 21
-35.552525
 31
0.0
  0
LINE
  5
15B
330
158
100
AcDbEntity
  8
2
370
    25
100
AcDbLine
 10
-116.088372
 20
-35.552525
 30
0.0
 11
-115.570734
 21
-33.620674
 31
0.0
  0
LINE
  5
15C
330
158
100
AcDbEntity
  8
2
370
    25
100
AcDbLine
 10
-116.088372
 20
-35.552525
 30
0.0
 11
-116.60601
 21
-33.620674
 31
0.0
  0
LINE
  5
15D
330
158
100
AcDbEntity
  8
2
370
    25
100
AcDbLine
 10
-116.088372
 20
-35.552525
 30
0.0
 11
-116.088372
 21
84.447472
 31
0.0
  0
LINE
  5
15E
330
158
100
AcDbEntity
  8
2
370
    25
100
AcDbLine
 10
-116.088372
 20
84.447472
 30
0.0
 11
-116.60601
 21
82.515621
 31
0.0
  0
LINE
  5
15F
330
158
100
AcDbEntity
  8
2
370
    25
100
AcDbLine
 10
-116.088372
 20
84.447472
 30
0.0
 11
-115.570734
 21
82.515621
 31
0.0
  0
LINE
  5
160
330
158
100
AcDbEntity
  8
2
370
    25
100
AcDbLine
 10
-92.710166
 20
84.447472
 30
0.0
 11
-117.088372
 21
84.447472
 31
0.0
  0
ENDBLK
  5
161
330
158
100
AcDbEntity
  8
2
100
AcDbBlockEnd
  0
ENDSEC
  0
SECTION
  2
ENTITIES
  0
LINE
  5
162
330
1D
100
AcDbEntity
  8
1
370
    50
100
AcDbLine
 10
126.261107
 20
59.947477
 30
0.0
 11
126.261107
 21
-74.052526
 31
0.0
  0
LINE
  5
163
330
1D
100
AcDbEntity
  8
1
370
    50
100
AcDbLine
 10
93.261107
 20
59.947477
 30
0.0
 11
93.261107
 21
-74.052526
 31
0.0
  0
LINE
  5
164
330
1D
100
AcDbEntity
  8
1
  6
CENTER
370
    18
100
AcDbLine
 10
90.261107
 20
59.947477
 30
0.0
 11
129.261107
 21
59.947477
 31
0.0
  0
LINE
  5
165
330
1D
100
AcDbEntity
  8
1
  6
CENTER
370
    18
100
AcDbLine
 10
109.761107
 20
79.447477
 30
0.0
 11
109.761107
 21
-96.222773
 31
0.0
  0
LINE
  5
166
330
1D
100
AcDbEntity
  8
1
  6
CENTER
370
    18
100
AcDbLine
 10
90.261107
 20
26.447477
 30
0.0
 11
129.261107
 21
26.447477
 31
0.0
  0
LINE
  5
167
330
1D
100
AcDbEntity
  8
1
  6
CENTER
370
    18
100
AcDbLine
 10
90.261107
 20
-7.052523
 30
0.0
 11
129.261107
 21
-7.052523
 31
0.0
  0
LINE
  5
168
330
1D
100
AcDbEntity
  8
1
  6
CENTER
370
    18
100
AcDbLine
 10
90.261107
 20
-40.552523
 30
0.0
 11
129.261107
 21
-40.552523
 31
0.0
  0
LINE
  5
169
330
1D
100
AcDbEntity
  8
1
  6
CENTER
370
    18
100
AcDbLine
 10
90.261107
 20
-74.052526
 30
0.0
 11
129.261107
 21
-74.052526
 31
0.0
  0
CIRCLE
  5
16A
330
1D
100
AcDbEntity
  8
1
370
    50
100
AcDbCircle
 10
109.761107
 20
-7.052523
 30
0.0
 40
16.5
  0
CIRCLE
  5
16B
330
1D
100
AcDbEntity
  8
1
370
    50
100
AcDbCircle
 10
109.761107
 20
26.447477
 30
0.0
 40
16.5
  0
CIRCLE
  5
16C
330
1D
100
AcDbEntity
  8
1
370
    50
100
AcDbCircle
 10
109.761107
 20
-40.552523
 30
0.0
 40
16.5
  0
LINE
  5
16D
330
1D
100
AcDbEntity
  8
1
  6
DASHED
370
    25
100
AcDbLine
 10
75.261107
 20
83.947434
 30
0.0
 11
71.761107
 21
83.947434
 31
0.0
  0
LINE
  5
16E
330
1D
100
AcDbEntity
  8
1
  6
DASHED
370
    25
100
AcDbLine
 10
94.595352
 20
66.947467
 30
0.0
 11
75.261107
 21
66.947467
 31
0.0
  0
LINE
  5
16F
330
1D
100
AcDbEntity
  8
1
  6
DASHED
370
    25
100
AcDbLine
 10
93.261107
 20
25.947424
 30
0.0
 11
75.261107
 21
25.947424
 31
0.0
  0
LINE
  5
170
330
1D
100
AcDbEntity
  8
1
370
    50
100
AcDbLine
 10
71.761107
 20
88.451498
 30
0.0
 11
71.761107
 21
-93.629365
 31
0.0
  0
LINE
  5
171
330
1D
100
AcDbEntity
  8
1
  6
DASHED
370
    25
100
AcDbLine
 10
75.261107
 20
83.947434
 30
0.0
 11
75.261107
 21
8.947429
 31
0.0
  0
LINE
  5
172
330
1D
100
AcDbEntity
  8
1
  6
DASHED
370
    25
100
AcDbLine
 10
71.761107
 20
8.947429
 30
0.0
 11
75.261107
 21
8.947429
 31
0.0
  0
LINE
  5
173
330
1D
100
AcDbEntity
  8
1
370
    50
100
AcDbLine
 10
8.01596
 20
83.947434
 30
0.0
 11
-9.98404
 21
83.947434
 31
0.0
  0
LINE
  5
174
330
1D
100
AcDbEntity
  8
1
370
    50
100
AcDbLine
 10
8.01596
 20
8.947429
 30
0.0
 11
-9.98404
 21
8.947429
 31
0.0
  0
LINE
  5
175
330
1D
100
AcDbEntity
  8
1
370
    50
100
AcDbLine
 10
8.01596
 20
83.947434
 30
0.0
 11
8.01596
 21
8.947429
 31
0.0
  0
LINE
  5
176
330
1D
100
AcDbEntity
  8
1
370
    50
100
AcDbLine
 10
-9.98404
 20
83.947434
 30
0.0
 11
-9.98404
 21
8.947429
 31
0.0
  0
CIRCLE
  5
177
330
1D
100
AcDbEntity
  8
1
370
    50
100
AcDbCircle
 10
-0.98404
 20
59.447467
 30
0.0
 40
7.5
  0
CIRCLE
  5
178
330
1D
100
AcDbEntity
  8
1
370
    50
100
AcDbCircle
 10
-0.98404
 20
33.447424
 30
0.0
 40
7.5
  0
CIRCLE
  5
179
330
1D
100
AcDbEntity
  8
1
370
    50
100
AcDbCircle
 10
-0.98404
 20
46.447455
 30
0.0
 40
7.5
  0
LINE
  5
17A
330
1D
100
AcDbEntity
  8
1
370
    50
100
AcDbLine
 10
6.51596
 20
33.447424
 30
0.0
 11
6.51596
 21
59.447467
 31
0.0
  0
LINE
  5
17B
330
1D
100
AcDbEntity
  8
1
370
    50
100
AcDbLine
 10
-8.48404
 20
33.447424
 30
0.0
 11
-8.48404
 21
59.447467
 31
0.0
  0
LINE
  5
17C
330
1D
100
AcDbEntity
  8
1
  6
CENTER
370
    18
100
AcDbLine
 10
-11.48404
 20
59.447467
 30
0.0
 11
9.51596
 21
59.447467
 31
0.0
  0
LINE
  5
17D
330
1D
100
AcDbEntity
  8
1
  6
CENTER
370
    18
100
AcDbLine
 10
-11.48404
 20
33.447424
 30
0.0
 11
9.51596
 21
33.447424
 31
0.0
  0
LINE
  5
17E
330
1D
100
AcDbEntity
  8
1
  6
CENTER
370
    18
100
AcDbLine
 10
-0.98404
 20
2.385633
 30
0.0
 11
-0.98404
 21
88.912848
 31
0.0
  0
LINE
  5
17F
330
1D
100
AcDbEntity
  8
1
  6
CENTER
370
    18
100
AcDbLine
 10
4.315764
 20
76.447437
 30
0.0
 11
-6.283845
 21
76.447437
 31
0.0
  0
LINE
  5
180
330
1D
100
AcDbEntity
  8
1
  6
CENTER
370
    18
100
AcDbLine
 10
4.315764
 20
16.447437
 30
0.0
 11
-6.283845
 21
16.447437
 31
0.0
  0
LINE
  5
184
330
1D
100
AcDbEntity
  8
1
370
    50
100
AcDbLine
 10
14.01596
 20
88.451498
 30
0.0
 11
14.01596
 21
-93.629365
 31
0.0
  0
LINE
  5
185
330
1D
100
AcDbEntity
  8
1
370
    50
100
AcDbLine
 10
-15.98404
 20
88.451498
 30
0.0
 11
-15.98404
 21
-93.629365
 31
0.0
  0
LINE
  5
186
330
1D
100
AcDbEntity
  8
1
  6
PHANTOM
370
    18
100
AcDbLine
 10
14.01596
 20
76.947477
 30
0.0
 11
-15.98404
 21
76.947477
 31
0.0
  0
LINE
  5
187
330
1D
100
AcDbEntity
  8
1
  6
PHANTOM
370
    18
100
AcDbLine
 10
14.01596
 20
-90.552526
 30
0.0
 11
-15.98404
 21
-90.552526
 31
0.0
  0
ARC
  5
188
330
1D
100
AcDbEntity
  8
1
370
    50
100
AcDbCircle
 10
109.761107
 20
-74.052526
 30
0.0
 40
16.5
100
AcDbArc
 50
180.0
 51
0.0
  0
ARC
  5
189
330
1D
100
AcDbEntity
  8
1
370
    50
100
AcDbCircle
 10
109.761107
 20
59.947477
 30
0.0
 40
16.5
100
AcDbArc
 50
0.0
 51
180.0
  0
ARC
  5
18A
330
1D
100
AcDbEntity
  8
1
370
    50
100
AcDbCircle
 10
109.761107
 20
59.947477
 30
0.0
 40
16.5
100
AcDbArc
 50
180.0
 51
0.0
  0
ARC
  5
18B
330
1D
100
AcDbEntity
  8
1
370
    50
100
AcDbCircle
 10
109.761107
 20
-74.052526
 30
0.0
 40
16.5
100
AcDbArc
 50
0.0
 51
180.0
  0
LINE
  5
18C
330
1D
100
AcDbEntity
  8
1
  6
CENTER
370
    18
100
AcDbLine
 10
-40.590589
 20
46.447472
 30
0.0
 11
18.320776
 21
46.447492
 31
0.0
  0
LINE
  5
18D
330
1D
100
AcDbEntity
  8
1
  6
CENTER
370
    18
100
AcDbLine
 10
54.808903
 20
46.447506
 30
0.0
 11
133.802642
 21
46.447603
 31
0.0
  0
ARC
  5
193
330
1D
100
AcDbEntity
  8
1
  6
DASHED
370
    50
100
AcDbCircle
 10
-3.98404
 20
77.947434
 30
0.0
 40
6.0
100
AcDbArc
 50
90.0
 51
180.0
  0
ARC
  5
194
330
1D
100
AcDbEntity
  8
1
  6
DASHED
370
    50
100
AcDbCircle
 10
2.01596
 20
77.947434
 30
0.0
 40
6.0
100
AcDbArc
 50
0.0
 51
90.0
  0
ARC
  5
195
330
1D
100
AcDbEntity
  8
1
  6
DASHED
370
    50
100
AcDbCircle
 10
-3.98404
 20
14.947429
 30
0.0
 40
6.0
100
AcDbArc
 50
180.0
 51
270.0
  0
ARC
  5
196
330
1D
100
AcDbEntity
  8
1
  6
DASHED
370
    50
100
AcDbCircle
 10
2.01596
 20
14.947429
 30
0.0
 40
6.0
100
AcDbArc
 50
270.0
 51
0.0
  0
LINE
  5
197
330
1D
100
AcDbEntity
  8
1
370
    25
100
AcDbLine
 10
93.261107
 20
-40.052524
 30
0.0
 11
126.261107
 21
-7.052524
 31
0.0
  0
LINE
  5
198
330
1D
100
AcDbEntity
  8
1
370
    25
100
AcDbLine
 10
93.261107
 20
-42.880951
 30
0.0
 11
126.261107
 21
-9.880951
 31
0.0
  0
LINE
  5
199
330
1D
100
AcDbEntity
  8
1
370
    25
100
AcDbLine
 10
93.261107
 20
-45.709379
 30
0.0
 11
126.261107
 21
-12.709379
 31
0.0
  0
LINE
  5
19A
330
1D
100
AcDbEntity
  8
1
370
    25
100
AcDbLine
 10
93.261107
 20
-48.537806
 30
0.0
 11
126.261107
 21
-15.537806
 31
0.0
  0
LINE
  5
19B
330
1D
100
AcDbEntity
  8
1
370
    25
100
AcDbLine
 10
93.261107
 20
-51.366233
 30
0.0
 11
126.261107
 21
-18.366233
 31
0.0
  0
LINE
  5
19C
330
1D
100
AcDbEntity
  8
1
370
    25
100
AcDbLine
 10
93.261107
 20
-54.19466
 30
0.0
 11
126.261107
 21
-21.19466
 31
0.0
  0
LINE
  5
19D
330
1D
100
AcDbEntity
  8
1
370
    25
100
AcDbLine
 10
93.261107
 20
-57.023087
 30
0.0
 11
126.261107
 21
-24.023087
 31
0.0
  0
LINE
  5
19E
330
1D
100
AcDbEntity
  8
1
370
    25
100
AcDbLine
 10
93.261107
 20
-59.851514
 30
0.0
 11
126.261107
 21
-26.851514
 31
0.0
  0
LINE
  5
19F
330
1D
100
AcDbEntity
  8
1
370
    25
100
AcDbLine
 10
93.261107
 20
-62.679941
 30
0.0
 11
126.261107
 21
-29.679941
 31
0.0
  0
LINE
  5
1A0
330
1D
100
AcDbEntity
  8
1
370
    25
100
AcDbLine
 10
93.261107
 20
-65.508368
 30
0.0
 11
126.261107
 21
-32.508368
 31
0.0
  0
LINE
  5
1A1
330
1D
100
AcDbEntity
  8
1
370
    25
100
AcDbLine
 10
93.261107
 20
-68.336796
 30
0.0
 11
126.261107
 21
-35.336796
 31
0.0
  0
LINE
  5
1A2
330
1D
100
AcDbEntity
  8
1
370
    25
100
AcDbLine
 10
93.261107
 20
-71.165223
 30
0.0
 11
126.261107
 21
-38.165223
 31
0.0
  0
LINE
  5
1A3
330
1D
100
AcDbEntity
  8
1
370
    25
100
AcDbLine
 10
93.261107
 20
-73.99365
 30
0.0
 11
126.261107
 21
-40.99365
 31
0.0
  0
LINE
  5
1A4
330
1D
100
AcDbEntity
  8
1
370
    25
100
AcDbLine
 10
93.462236
 20
-76.620948
 30
0.0
 11
126.261107
 21
-43.822077
 31
0.0
  0
LINE
  5
1A5
330
1D
100
AcDbEntity
  8
1
370
    25
100
AcDbLine
 10
93.994502
 20
-78.917109
 30
0.0
 11
126.261107
 21
-46.650504
 31
0.0
  0
LINE
  5
1A6
330
1D
100
AcDbEntity
  8
1
370
    25
100
AcDbLine
 10
94.777655
 20
-80.962384
 30
0.0
 11
126.261107
 21
-49.478931
 31
0.0
  0
LINE
  5
1A7
330
1D
100
AcDbEntity
  8
1
370
    25
100
AcDbLine
 10
95.769836
 20
-82.79863
 30
0.0
 11
126.261107
 21
-52.307358
 31
0.0
  0
LINE
  5
1A8
330
1D
100
AcDbEntity
  8
1
370
    25
100
AcDbLine
 10
96.948219
 20
-84.448674
 30
0.0
 11
126.261107
 21
-55.135785
 31
0.0
  0
LINE
  5
1A9
330
1D
100
AcDbEntity
  8
1
370
    25
100
AcDbLine
 10
98.301505
 20
-85.923815
 30
0.0
 11
126.261107
 21
-57.964213
 31
0.0
  0
LINE
  5
1AA
330
1D
100
AcDbEntity
  8
1
370
    25
100
AcDbLine
 10
99.826926
 20
-87.226821
 30
0.0
 11
126.261107
 21
-60.79264
 31
0.0
  0
LINE
  5
1AB
330
1D
100
AcDbEntity
  8
1
370
    25
100
AcDbLine
 10
101.52958
 20
-88.352594
 30
0.0
 11
126.261107
 21
-63.621067
 31
0.0
  0
LINE
  5
1AC
330
1D
100
AcDbEntity
  8
1
370
    25
100
AcDbLine
 10
103.423675
 20
-89.286926
 30
0.0
 11
126.261107
 21
-66.449494
 31
0.0
  0
LINE
  5
1AD
330
1D
100
AcDbEntity
  8
1
370
    25
100
AcDbLine
 10
105.536497
 20
-90.002531
 30
0.0
 11
126.261107
 21
-69.277921
 31
0.0
  0
LINE
  5
1AE
330
1D
100
AcDbEntity
  8
1
370
    25
100
AcDbLine
 10
107.918174
 20
-90.449282
 30
0.0
 11
126.261107
 21
-72.106348
 31
0.0
  0
LINE
  5
1AF
330
1D
100
AcDbEntity
  8
1
370
    25
100
AcDbLine
 10
110.668316
 20
-90.527567
 30
0.0
 11
126.236148
 21
-74.959734
 31
0.0
  0
LINE
  5
1B0
330
1D
100
AcDbEntity
  8
1
370
    25
100
AcDbLine
 10
114.034882
 20
-89.989428
 30
0.0
 11
125.69801
 21
-78.3263
 31
0.0
  0
LINE
  5
1B1
330
1D
100
AcDbEntity
  8
1
370
    25
100
AcDbLine
 10
119.430003
 20
-87.422734
 30
0.0
 11
123.131315
 21
-83.721422
 31
0.0
  0
LINE
  5
1B2
330
1D
100
AcDbEntity
  8
1
370
    25
100
AcDbLine
 10
93.261107
 20
-37.224097
 30
0.0
 11
126.261107
 21
-4.224097
 31
0.0
  0
LINE
  5
1B3
330
1D
100
AcDbEntity
  8
1
370
    25
100
AcDbLine
 10
93.261107
 20
-34.39567
 30
0.0
 11
126.261107
 21
-1.39567
 31
0.0
  0
LINE
  5
1B4
330
1D
100
AcDbEntity
  8
1
370
    25
100
AcDbLine
 10
93.261107
 20
-31.567243
 30
0.0
 11
126.261107
 21
1.432757
 31
0.0
  0
LINE
  5
1B5
330
1D
100
AcDbEntity
  8
1
370
    25
100
AcDbLine
 10
93.261107
 20
-28.738816
 30
0.0
 11
126.261107
 21
4.261184
 31
0.0
  0
LINE
  5
1B6
330
1D
100
AcDbEntity
  8
1
370
    25
100
AcDbLine
 10
93.261107
 20
-25.910389
 30
0.0
 11
126.261107
 21
7.089611
 31
0.0
  0
LINE
  5
1B7
330
1D
100
AcDbEntity
  8
1
370
    25
100
AcDbLine
 10
93.261107
 20
-23.081962
 30
0.0
 11
126.261107
 21
9.918038
 31
0.0
  0
LINE
  5
1B8
330
1D
100
AcDbEntity
  8
1
370
    25
100
AcDbLine
 10
93.261107
 20
-20.253534
 30
0.0
 11
126.261107
 21
12.746466
 31
0.0
  0
LINE
  5
1B9
330
1D
100
AcDbEntity
  8
1
370
    25
100
AcDbLine
 10
93.261107
 20
-17.425107
 30
0.0
 11
126.261107
 21
15.574893
 31
0.0
  0
LINE
  5
1BA
330
1D
100
AcDbEntity
  8
1
370
    25
100
AcDbLine
 10
93.261107
 20
-14.59668
 30
0.0
 11
126.261107
 21
18.40332
 31
0.0
  0
LINE
  5
1BB
330
1D
100
AcDbEntity
  8
1
370
    25
100
AcDbLine
 10
93.261107
 20
-11.768253
 30
0.0
 11
126.261107
 21
21.231747
 31
0.0
  0
LINE
  5
1BC
330
1D
100
AcDbEntity
  8
1
370
    25
100
AcDbLine
 10
93.261107
 20
-8.939826
 30
0.0
 11
126.261107
 21
24.060174
 31
0.0
  0
LINE
  5
1BD
330
1D
100
AcDbEntity
  8
1
370
    25
100
AcDbLine
 10
93.261107
 20
-6.111399
 30
0.0
 11
126.261107
 21
26.888601
 31
0.0
  0
LINE
  5
1BE
330
1D
100
AcDbEntity
  8
1
370
    25
100
AcDbLine
 10
93.261107
 20
-3.282972
 30
0.0
 11
126.261107
 21
29.717028
 31
0.0
  0
LINE
  5
1BF
330
1D
100
AcDbEntity
  8
1
370
    25
100
AcDbLine
 10
93.261107
 20
-0.454545
 30
0.0
 11
126.261107
 21
32.545455
 31
0.0
  0
LINE
  5
1C0
330
1D
100
AcDbEntity
  8
1
370
    25
100
AcDbLine
 10
93.261107
 20
2.373883
 30
0.0
 11
126.261107
 21
35.373883
 31
0.0
  0
LINE
  5
1C1
330
1D
100
AcDbEntity
  8
1
370
    25
100
AcDbLine
 10
93.261107
 20
5.20231
 30
0.0
 11
126.261107
 21
38.20231
 31
0.0
  0
LINE
  5
1C2
330
1D
100
AcDbEntity
  8
1
370
    25
100
AcDbLine
 10
93.261107
 20
8.030737
 30
0.0
 11
126.261107
 21
41.030737
 31
0.0
  0
LINE
  5
1C3
330
1D
100
AcDbEntity
  8
1
370
    25
100
AcDbLine
 10
93.261107
 20
10.859164
 30
0.0
 11
126.261107
 21
43.859164
 31
0.0
  0
LINE
  5
1C4
330
1D
100
AcDbEntity
  8
1
370
    25
100
AcDbLine
 10
93.261107
 20
13.687591
 30
0.0
 11
126.261107
 21
46.687591
 31
0.0
  0
LINE
  5
1C5
330
1D
100
AcDbEntity
  8
1
370
    25
100
AcDbLine
 10
93.261107
 20
16.516018
 30
0.0
 11
126.261107
 21
49.516018
 31
0.0
  0
LINE
  5
1C6
330
1D
100
AcDbEntity
  8
1
370
    25
100
AcDbLine
 10
93.261107
 20
19.344445
 30
0.0
 11
126.261107
 21
52.344445
 31
0.0
  0
LINE
  5
1C7
330
1D
100
AcDbEntity
  8
1
370
    25
100
AcDbLine
 10
93.261107
 20
22.172872
 30
0.0
 11
126.261107
 21
55.172872
 31
0.0
  0
LINE
  5
1C8
330
1D
100
AcDbEntity
  8
1
370
    25
100
AcDbLine
 10
93.261107
 20
25.0013
 30
0.0
 11
126.261107
 21
58.0013
 31
0.0
  0
LINE
  5
1C9
330
1D
100
AcDbEntity
  8
1
370
    25
100
AcDbLine
 10
126.238689
 20
60.807308
 30
0.0
 11
93.261107
 21
27.829727
 31
0.0
  0
LINE
  5
1CA
330
1D
100
AcDbEntity
  8
1
370
    25
100
AcDbLine
 10
125.914524
 20
63.311571
 30
0.0
 11
93.261107
 21
30.658154
 31
0.0
  0
LINE
  5
1CB
330
1D
100
AcDbEntity
  8
1
370
    25
100
AcDbLine
 10
125.292391
 20
65.517865
 30
0.0
 11
93.261107
 21
33.486581
 31
0.0
  0
LINE
  5
1CC
330
1D
100
AcDbEntity
  8
1
370
    25
100
AcDbLine
 10
124.436211
 20
67.490112
 30
0.0
 11
93.261107
 21
36.315008
 31
0.0
  0
LINE
  5
1CD
330
1D
100
AcDbEntity
  8
1
370
    25
100
AcDbLine
 10
123.380203
 20
69.262531
 30
0.0
 11
93.261107
 21
39.143435
 31
0.0
  0
LINE
  5
1CE
330
1D
100
AcDbEntity
  8
1
370
    25
100
AcDbLine
 10
122.142825
 20
70.85358
 30
0.0
 11
93.261107
 21
41.971862
 31
0.0
  0
LINE
  5
1CF
330
1D
100
AcDbEntity
  8
1
370
    25
100
AcDbLine
 10
120.73234
 20
72.271522
 30
0.0
 11
93.261107
 21
44.800289
 31
0.0
  0
LINE
  5
1D0
330
1D
100
AcDbEntity
  8
1
370
    25
100
AcDbLine
 10
119.148916
 20
73.516525
 30
0.0
 11
93.261107
 21
47.628717
 31
0.0
  0
LINE
  5
1D1
330
1D
100
AcDbEntity
  8
1
370
    25
100
AcDbLine
 10
117.384668
 20
74.580704
 30
0.0
 11
93.261107
 21
50.457144
 31
0.0
  0
LINE
  5
1D2
330
1D
100
AcDbEntity
  8
1
370
    25
100
AcDbLine
 10
115.421663
 20
75.446126
 30
0.0
 11
93.261107
 21
53.285571
 31
0.0
  0
LINE
  5
1D3
330
1D
100
AcDbEntity
  8
1
370
    25
100
AcDbLine
 10
113.226562
 20
76.079453
 30
0.0
 11
93.261107
 21
56.113998
 31
0.0
  0
LINE
  5
1D4
330
1D
100
AcDbEntity
  8
1
370
    25
100
AcDbLine
 10
110.73726
 20
76.418577
 30
0.0
 11
93.261107
 21
58.942425
 31
0.0
  0
LINE
  5
1D5
330
1D
100
AcDbEntity
  8
1
370
    25
100
AcDbLine
 10
93.37526
 20
61.885005
 30
0.0
 11
107.82358
 21
76.333324
 31
0.0
  0
LINE
  5
1D6
330
1D
100
AcDbEntity
  8
1
370
    25
100
AcDbLine
 10
94.258208
 20
65.596379
 30
0.0
 11
104.112205
 21
75.450377
 31
0.0
  0
TEXT
  5
1D7
330
1D
100
AcDbEntity
  8
1
370
    18
100
AcDbText
 10
-56.580628
 20
125.157257
 30
0.0
 40
5.0
  1
扉側加工
 72
     5
 11
-37.580628
 21
125.157257
 31
0.0
100
AcDbText
  0
TEXT
  5
1D8
330
1D
100
AcDbEntity
  8
1
370
    18
100
AcDbText
 10
-154.274117
 20
125.157257
 30
0.0
 40
5.0
  1
枠側加工
 72
     5
 11
-135.274117
 21
125.157257
 31
0.0
100
AcDbText
  0
LINE
  5
1DA
330
1D
100
AcDbEntity
  8
1
  6
DASHED
370
    25
100
AcDbLine
 10
62.261107
 20
83.947434
 30
0.0
 11
58.761107
 21
83.947434
 31
0.0
  0
LINE
  5
1DB
330
1D
100
AcDbEntity
  8
1
370
    50
100
AcDbLine
 10
58.761107
 20
88.451498
 30
0.0
 11
58.761107
 21
-93.629365
 31
0.0
  0
LINE
  5
1DC
330
1D
100
AcDbEntity
  8
1
  6
DASHED
370
    25
100
AcDbLine
 10
62.261107
 20
83.947434
 30
0.0
 11
62.261107
 21
8.947429
 31
0.0
  0
LINE
  5
1DD
330
1D
100
AcDbEntity
  8
1
  6
DASHED
370
    25
100
AcDbLine
 10
58.761107
 20
8.947429
 30
0.0
 11
62.261107
 21
8.947429
 31
0.0
  0
LINE
  5
1DE
330
1D
100
AcDbEntity
  8
1
370
    50
100
AcDbLine
 10
-98.197137
 20
94.447474
 30
0.0
 11
-98.197137
 21
-45.552526
 31
0.0
  0
LINE
  5
1DF
330
1D
100
AcDbEntity
  8
1
370
    50
100
AcDbLine
 10
-74.197137
 20
94.447474
 30
0.0
 11
-74.197137
 21
-45.552526
 31
0.0
  0
LINE
  5
1E0
330
1D
100
AcDbEntity
  8
1
370
    50
100
AcDbLine
 10
-98.197137
 20
94.447474
 30
0.0
 11
-74.197137
 21
94.447474
 31
0.0
  0
LINE
  5
1E1
330
1D
100
AcDbEntity
  8
1
370
    50
100
AcDbLine
 10
-98.197137
 20
-45.552526
 30
0.0
 11
-74.197137
 21
-45.552526
 31
0.0
  0
ARC
  5
1E2
330
1D
100
AcDbEntity
  8
1
  6
DASHED
370
    50
100
AcDbCircle
 10
-80.197137
 20
88.447474
 30
0.0
 40
6.0
100
AcDbArc
 50
0.0
 51
90.0
  0
ARC
  5
1E3
330
1D
100
AcDbEntity
  8
1
  6
DASHED
370
    50
100
AcDbCircle
 10
-92.197137
 20
88.447474
 30
0.0
 40
6.0
100
AcDbArc
 50
90.0
 51
180.0
  0
ARC
  5
1E4
330
1D
100
AcDbEntity
  8
1
  6
DASHED
370
    50
100
AcDbCircle
 10
-80.197137
 20
-39.552526
 30
0.0
 40
6.0
100
AcDbArc
 50
270.0
 51
0.0
  0
ARC
  5
1E5
330
1D
100
AcDbEntity
  8
1
  6
DASHED
370
    50
100
AcDbCircle
 10
-92.197137
 20
-39.552526
 30
0.0
 40
6.0
100
AcDbArc
 50
180.0
 51
270.0
  0
LINE
  5
1E6
330
1D
100
AcDbEntity
  8
1
370
    50
100
AcDbLine
 10
-95.197137
 20
62.447474
 30
0.0
 11
-95.197137
 21
-13.552526
 31
0.0
  0
LINE
  5
1E7
330
1D
100
AcDbEntity
  8
1
370
    50
100
AcDbLine
 10
-77.197137
 20
62.447474
 30
0.0
 11
-77.197137
 21
-13.552526
 31
0.0
  0
ARC
  5
1E8
330
1D
100
AcDbEntity
  8
1
370
    50
100
AcDbCircle
 10
-86.197137
 20
-13.552526
 30
0.0
 40
9.0
100
AcDbArc
 50
180.0
 51
0.0
  0
ARC
  5
1E9
330
1D
100
AcDbEntity
  8
1
370
    50
100
AcDbCircle
 10
-86.197137
 20
62.447474
 30
0.0
 40
9.0
100
AcDbArc
 50
0.0
 51
180.0
  0
LINE
  5
1EA
330
1D
100
AcDbEntity
  8
1
370
    50
100
AcDbLine
 10
-137.721819
 20
110.98737
 30
0.0
 11
-137.721819
 21
-93.629365
 31
0.0
  0
LINE
  5
1EB
330
1D
100
AcDbEntity
  8
1
370
    50
100
AcDbLine
 10
-137.721819
 20
94.447474
 30
0.0
 11
-140.721819
 21
94.447474
 31
0.0
  0
LINE
  5
1EC
330
1D
100
AcDbEntity
  8
1
  6
DASHED
370
    50
100
AcDbLine
 10
-137.721819
 20
-45.552526
 30
0.0
 11
-140.721819
 21
-45.552526
 31
0.0
  0
LINE
  5
1ED
330
1D
100
AcDbEntity
  8
1
  6
DASHED
370
    50
100
AcDbLine
 10
-140.721819
 20
-22.552526
 30
0.0
 11
-152.721819
 21
-22.552526
 31
0.0
  0
LINE
  5
1EE
330
1D
100
AcDbEntity
  8
1
  6
DASHED
370
    50
100
AcDbLine
 10
-140.721819
 20
71.447474
 30
0.0
 11
-152.721819
 21
71.447474
 31
0.0
  0
LINE
  5
1EF
330
1D
100
AcDbEntity
  8
1
  6
DASHED
370
    50
100
AcDbLine
 10
-140.721819
 20
94.447474
 30
0.0
 11
-140.721819
 21
-45.552526
 31
0.0
  0
LINE
  5
1F0
330
1D
100
AcDbEntity
  8
1
  6
DASHED
370
    50
100
AcDbLine
 10
-152.721819
 20
71.447474
 30
0.0
 11
-152.721819
 21
-22.552526
 31
0.0
  0
LINE
  5
1F1
330
1D
100
AcDbEntity
  8
1
  6
CENTER
370
    18
100
AcDbLine
 10
-81.23957
 20
-35.552525
 30
0.0
 11
-92.210166
 21
-35.552525
 31
0.0
  0
LINE
  5
1F2
330
1D
100
AcDbEntity
  8
1
  6
CENTER
370
    18
100
AcDbLine
 10
-81.23957
 20
84.447472
 30
0.0
 11
-92.210166
 21
84.447472
 31
0.0
  0
LINE
  5
1F3
330
1D
100
AcDbEntity
  8
1
  6
CENTER
370
    18
100
AcDbLine
 10
-130.699152
 20
84.447471
 30
0.0
 11
-156.268276
 21
84.447471
 31
0.0
  0
LINE
  5
1F4
330
1D
100
AcDbEntity
  8
1
  6
CENTER
370
    18
100
AcDbLine
 10
-130.699152
 20
-35.552529
 30
0.0
 11
-156.268276
 21
-35.552529
 31
0.0
  0
LINE
  5
1F5
330
1D
100
AcDbEntity
  8
1
  6
CENTER
370
    18
100
AcDbLine
 10
-130.699152
 20
24.447471
 30
0.0
 11
-156.268276
 21
24.447471
 31
0.0
  0
LINE
  5
1F6
330
1D
100
AcDbEntity
  8
1
  6
CENTER
370
    18
100
AcDbLine
 10
-101.17875
 20
24.447474
 30
0.0
 11
-27.502563
 21
24.447474
 31
0.0
  0
LINE
  5
1F7
330
1D
100
AcDbEntity
  8
1
  6
CENTER
370
    18
100
AcDbLine
 10
-81.23957
 20
-35.552525
 30
0.0
 11
-92.210166
 21
-35.552525
 31
0.0
  0
LINE
  5
1F8
330
1D
100
AcDbEntity
  8
1
  6
CENTER
370
    18
100
AcDbLine
 10
-81.23957
 20
84.447472
 30
0.0
 11
-92.210166
 21
84.447472
 31
0.0
  0
LINE
  5
1F9
330
1D
100
AcDbEntity
  8
1
  6
CENTER
370
    18
100
AcDbLine
 10
-130.699152
 20
84.447471
 30
0.0
 11
-156.268276
 21
84.447471
 31
0.0
  0
LINE
  5
1FA
330
1D
100
AcDbEntity
  8
1
  6
CENTER
370
    18
100
AcDbLine
 10
-130.699152
 20
-35.552529
 30
0.0
 11
-156.268276
 21
-35.552529
 31
0.0
  0
LINE
  5
1FB
330
1D
100
AcDbEntity
  8
1
370
   100
100
AcDbLine
 10
-105.197137
 20
95.183469
 30
0.0
 11
-105.197137
 21
-93.629365
 31
0.0
  0
LINE
  5
1FC
330
1D
100
AcDbEntity
  8
1
370
   100
100
AcDbLine
 10
-67.197137
 20
99.814325
 30
0.0
 11
-67.197137
 21
-93.629365
 31
0.0
  0
LINE
  5
1FD
330
1D
100
AcDbEntity
  8
1
  6
PHANTOM
370
    18
100
AcDbLine
 10
-86.197137
 20
-96.922516
 30
0.0
 11
-86.197137
 21
-14.530563
 31
0.0
  0
LINE
  5
1FE
330
1D
100
AcDbEntity
  8
1
  6
PHANTOM
370
    18
100
AcDbLine
 10
-86.197137
 20
4.914236
 30
0.0
 11
-86.197137
 21
97.578281
 31
0.0
  0
DIMENSION
  5
1FF
330
1D
100
AcDbEntity
  8
2
370
    25
100
AcDbDimension
  2
*D0
 10
62.261107
 20
92.211035
 30
0.0
 11
51.011107
 21
93.961035
 31
0.0
 70
    32
 71
     5
 42
-1.0
  3
Standard
100
AcDbAlignedDimension
 13
58.761107
 23
92.211035
 33
0.0
 14
62.261107
 24
83.947434
 34
0.0
100
AcDbRotatedDimension
  0
DIMENSION
  5
200
330
1D
100
AcDbEntity
  8
2
370
    25
100
AcDbDimension
  2
*D1
 10
126.261107
 20
109.237122
 30
0.0
 11
92.511107
 21
110.987122
 31
0.0
 70
    32
 71
     5
 42
-1.0
  3
Standard
100
AcDbAlignedDimension
 13
58.761107
 23
88.451498
 33
0.0
 14
126.261107
 24
60.447477
 34
0.0
100
AcDbRotatedDimension
  0
TEXT
  5
201
330
1D
100
AcDbEntity
  8
2
370
    18
100
AcDbText
 10
74.261107
 20
105.283287
 30
0.0
 40
2.5
  1
バックセット
 72
     5
 11
88.761107
 21
105.283287
 31
0.0
100
AcDbText
  0
DIMENSION
  5
202
330
1D
100
AcDbEntity
  8
2
370
    25
100
AcDbDimension
  2
*D2
 10
109.761107
 20
104.783287
 30
0.0
 11
91.761107
 21
106.533287
 31
0.0
 70
    32
 71
     5
 42
-1.0
  3
Standard
100
AcDbAlignedDimension
 13
58.761107
 23
88.451498
 33
0.0
 14
109.761107
 24
79.947477
 34
0.0
100
AcDbRotatedDimension
  0
DIMENSION
  5
203
330
1D
100
AcDbEntity
  8
2
370
    25
100
AcDbDimension
  2
*D3
 10
8.01596
 20
95.141577
 30
0.0
 11
-0.98404
 21
96.891577
 31
0.0
 70
    32
 71
     5
 42
-1.0
  3
Standard
100
AcDbAlignedDimension
 13
-9.98404
 23
83.947434
 33
0.0
 14
8.01596
 24
83.947434
 34
0.0
100
AcDbRotatedDimension
  0
DIMENSION
  5
204
330
1D
100
AcDbEntity
  8
2
370
    25
100
AcDbDimension
  2
*D4
 10
75.261107
 20
92.211035
 30
0.0
 11
64.011107
 21
93.961035
 31
0.0
 70
    32
 71
     5
 42
-1.0
  3
Standard
100
AcDbAlignedDimension
 13
71.761107
 23
92.211035
 33
0.0
 14
75.261107
 24
83.947434
 34
0.0
100
AcDbRotatedDimension
  0
DIMENSION
  5
205
330
1D
100
AcDbEntity
  8
2
370
    25
100
AcDbDimension
  2
*D5
 10
6.51596
 20
91.05332
 30
0.0
 11
-0.98404
 21
92.80332
 31
0.0
 70
    32
 71
     5
 42
-1.0
  3
Standard
100
AcDbAlignedDimension
 13
-8.48404
 23
59.447467
 33
0.0
 14
6.51596
 24
59.447467
 34
0.0
100
AcDbRotatedDimension
  0
LWPOLYLINE
  5
206
330
1D
100
AcDbEntity
  8
2
370
    18
100
AcDbPolyline
 90
        3
 70
     0
 43
0.0
 10
119.440169
 20
73.310328
 10
128.116241
 20
85.288458
 10
145.616241
 20
85.288458
  0
LINE
  5
20B
330
1D
100
AcDbEntity
  8
2
370
    25
100
AcDbLine
 10
120.154192
 20
75.178528
 30
0.0
 11
119.440169
 21
73.310328
 31
0.0
  0
LINE
  5
20C
330
1D
100
AcDbEntity
  8
2
370
    25
100
AcDbLine
 10
119.440169
 20
73.310328
 30
0.0
 11
120.992631
 21
74.571225
 31
0.0
  0
TEXT
  5
20D
330
1D
100
AcDbEntity
  8
2
370
    18
100
AcDbText
 10
137.116241
 20
86.288458
 30
0.0
 40
2.5
  1
%%c33
 41
2.0
 72
     5
 11
143.616241
 21
86.288458
 31
0.0
100
AcDbText
  0
TEXT
  5
20E
330
1D
100
AcDbEntity
  8
2
370
    18
100
AcDbText
 10
132.116241
 20
86.288458
 30
0.0
 40
2.5
  1
５－
 72
     5
 11
136.616241
 21
86.288458
 31
0.0
100
AcDbText
  0
DIMENSION
  5
20F
330
1D
100
AcDbEntity
  8
2
370
    25
100
AcDbDimension
  2
*D6
 10
22.369124
 20
59.447467
 30
0.0
 11
19.369124
 21
52.947479
 31
0.0
 70
    32
 71
     5
 42
-1.0
  3
Standard
100
AcDbAlignedDimension
 13
18.320776
 23
46.447492
 33
0.0
 14
9.51596
 24
59.447467
 34
0.0
 50
90.0
100
AcDbRotatedDimension
  0
DIMENSION
  5
210
330
1D
100
AcDbEntity
  8
2
370
    25
100
AcDbDimension
  2
*D7
 10
22.369124
 20
46.447492
 30
0.0
 11
19.369124
 21
39.947458
 31
0.0
 70
    32
 71
     5
 42
-1.0
  3
Standard
100
AcDbAlignedDimension
 13
9.51596
 23
33.447424
 33
0.0
 14
22.369124
 24
46.447492
 34
0.0
 50
90.0
100
AcDbRotatedDimension
  0
DIMENSION
  5
211
330
1D
100
AcDbEntity
  8
2
370
    25
100
AcDbDimension
  2
*D8
 10
27.581191
 20
76.447437
 30
0.0
 11
24.581191
 21
46.447437
 31
0.0
 70
    32
 71
     5
 42
-1.0
  3
Standard
100
AcDbAlignedDimension
 13
4.315764
 23
16.447437
 33
0.0
 14
4.315764
 24
76.447437
 34
0.0
 50
90.0
100
AcDbRotatedDimension
  0
DIMENSION
  5
212
330
1D
100
AcDbEntity
  8
2
370
    25
100
AcDbDimension
  2
*D9
 10
32.456946
 20
83.947434
 30
0.0
 11
9.456946
 21
46.447432
 31
0.0
 70
    32
 71
     5
 42
-1.0
  3
Standard
100
AcDbAlignedDimension
 13
8.01596
 23
8.947429
 33
0.0
 14
8.01596
 24
83.947434
 34
0.0
 50
90.0
100
AcDbRotatedDimension
  0
LWPOLYLINE
  5
213
330
1D
100
AcDbEntity
  8
2
370
    18
100
AcDbPolyline
 90
        3
 70
     0
 43
0.0
 10
-0.98404
 20
16.447437
 10
-20.510743
 20
-3.510225
 10
-37.570594
 20
-3.510225
  0
LINE
  5
218
330
1D
100
AcDbEntity
  8
2
370
    25
100
AcDbLine
 10
-1.965077
 20
14.704575
 30
0.0
 11
-0.98404
 21
16.447437
 31
0.0
  0
LINE
  5
219
330
1D
100
AcDbEntity
  8
2
370
    25
100
AcDbLine
 10
-0.98404
 20
16.447437
 30
0.0
 11
-2.705074
 21
15.428593
 31
0.0
  0
TEXT
  5
21A
330
1D
100
AcDbEntity
  8
2
370
    18
100
AcDbText
 10
-37.092231
 20
-3.010225
 30
0.0
 40
2.5
  1
木ネジ位置
 72
     5
 11
-25.092231
 21
-3.010225
 31
0.0
100
AcDbText
  0
DIMENSION
  5
21B
330
1D
100
AcDbEntity
  8
2
370
    25
100
AcDbDimension
  2
*D10
 10
-37.590589
 20
46.447472
 30
0.0
 11
-40.590589
 21
35.447473
 31
0.0
 70
    32
 71
     5
 42
-1.0
  3
Standard
100
AcDbAlignedDimension
 13
-37.921343
 23
24.447474
 33
0.0
 14
-37.921343
 24
46.447472
 34
0.0
 50
90.0
100
AcDbRotatedDimension
  0
LWPOLYLINE
  5
21C
330
1D
100
AcDbEntity
  8
2
370
    18
100
AcDbPolyline
 90
        3
 70
     0
 43
0.0
 10
-6.757408
 20
64.234766
 10
-19.613526
 20
74.895109
 10
-37.113526
 20
74.895109
  0
LINE
  5
221
330
1D
100
AcDbEntity
  8
2
370
    25
100
AcDbLine
 10
-8.574925
 20
65.06941
 30
0.0
 11
-6.757408
 21
64.234766
 31
0.0
  0
LINE
  5
222
330
1D
100
AcDbEntity
  8
2
370
    25
100
AcDbLine
 10
-6.757408
 20
64.234766
 30
0.0
 11
-7.914101
 21
65.866348
 31
0.0
  0
TEXT
  5
223
330
1D
100
AcDbEntity
  8
2
370
    18
100
AcDbText
 10
-31.113526
 20
75.395109
 30
0.0
 40
2.5
  1
%%c15
 41
2.0
 72
     5
 11
-24.613526
 21
75.395109
 31
0.0
100
AcDbText
  0
TEXT
  5
224
330
1D
100
AcDbEntity
  8
2
370
    18
100
AcDbText
 10
-36.113526
 20
75.395109
 30
0.0
 40
2.5
  1
３－
 72
     5
 11
-31.613526
 21
75.395109
 31
0.0
100
AcDbText
  0
TEXT
  5
225
330
1D
100
AcDbEntity
  8
2
370
    18
100
AcDbText
 10
132.116241
 20
81.788458
 30
0.0
 40
3.0
  1
貫通穴
 72
     5
 11
140.516241
 21
81.788458
 31
0.0
100
AcDbText
  0
DIMENSION
  5
226
330
1D
100
AcDbEntity
  8
2
370
    25
100
AcDbDimension
  2
*D11
 10
134.739783
 20
59.947477
 30
0.0
 11
129.239783
 21
50.69754
 31
0.0
 70
    32
 71
     5
 42
-1.0
  3
Standard
100
AcDbAlignedDimension
 13
133.802642
 23
46.447603
 33
0.0
 14
134.739783
 24
59.947477
 34
0.0
 50
90.0
100
AcDbRotatedDimension
  0
DIMENSION
  5
227
330
1D
100
AcDbEntity
  8
2
370
    25
100
AcDbDimension
  2
*D12
 10
140.373145
 20
59.947477
 30
0.0
 11
134.873145
 21
40.697477
 31
0.0
 70
    32
 71
     5
 42
-1.0
  3
Standard
100
AcDbAlignedDimension
 13
140.373145
 23
26.447477
 33
0.0
 14
140.373145
 24
59.947477
 34
0.0
 50
90.0
100
AcDbRotatedDimension
  0
DIMENSION
  5
228
330
1D
100
AcDbEntity
  8
2
370
    25
100
AcDbDimension
  2
*D13
 10
140.373145
 20
26.447477
 30
0.0
 11
134.873145
 21
7.197477
 31
0.0
 70
    32
 71
     5
 42
-1.0
  3
Standard
100
AcDbAlignedDimension
 13
140.373145
 23
-7.052523
 33
0.0
 14
129.261107
 24
26.447477
 34
0.0
 50
90.0
100
AcDbRotatedDimension
  0
DIMENSION
  5
229
330
1D
100
AcDbEntity
  8
2
370
    25
100
AcDbDimension
  2
*D14
 10
140.373145
 20
-7.052523
 30
0.0
 11
134.873145
 21
-26.302523
 31
0.0
 70
    32
 71
     5
 42
-1.0
  3
Standard
100
AcDbAlignedDimension
 13
140.373145
 23
-40.552523
 33
0.0
 14
129.261107
 24
-7.052523
 34
0.0
 50
90.0
100
AcDbRotatedDimension
  0
DIMENSION
  5
22A
330
1D
100
AcDbEntity
  8
2
370
    25
100
AcDbDimension
  2
*D15
 10
140.373145
 20
-40.552523
 30
0.0
 11
134.873145
 21
-59.802524
 31
0.0
 70
    32
 71
     5
 42
-1.0
  3
Standard
100
AcDbAlignedDimension
 13
140.373145
 23
-74.052526
 33
0.0
 14
129.261107
 24
-40.552523
 34
0.0
 50
90.0
100
AcDbRotatedDimension
  0
DIMENSION
  5
22B
330
1D
100
AcDbEntity
  8
2
370
    25
100
AcDbDimension
  2
*D16
 10
146.33438
 20
59.947477
 30
0.0
 11
142.08438
 21
-8.302524
 31
0.0
 70
    32
 71
     5
 42
-1.0
  3
Standard
100
AcDbAlignedDimension
 13
129.261107
 23
-74.052526
 33
0.0
 14
129.261107
 24
59.947477
 34
0.0
 50
90.0
100
AcDbRotatedDimension
  0
DIMENSION
  5
22C
330
1D
100
AcDbEntity
  8
2
370
    25
100
AcDbDimension
  2
*D17
 10
152.838584
 20
76.447477
 30
0.0
 11
148.588584
 21
-8.302524
 31
0.0
 70
    32
 71
     5
 42
-1.0
  3
Standard
100
AcDbAlignedDimension
 13
109.761107
 23
-90.552526
 33
0.0
 14
109.761107
 24
76.447477
 34
0.0
 50
90.0
100
AcDbRotatedDimension
  0
DIMENSION
  5
22D
330
1D
100
AcDbEntity
  8
2
370
    25
100
AcDbDimension
  2
*D18
 10
126.261107
 20
96.608849
 30
0.0
 11
99.011107
 21
98.358849
 31
0.0
 70
    32
 71
     5
 42
-1.0
  3
Standard
100
AcDbAlignedDimension
 13
71.761107
 23
88.451498
 33
0.0
 14
126.261107
 24
60.447477
 34
0.0
100
AcDbRotatedDimension
  0
TEXT
  5
22E
330
1D
100
AcDbEntity
  8
2
370
    18
100
AcDbText
 10
80.761107
 20
101.335579
 30
0.0
 40
2.5
  1
バックセット
 72
     5
 11
95.261107
 21
101.335579
 31
0.0
100
AcDbText
  0
DIMENSION
  5
22F
330
1D
100
AcDbEntity
  8
2
370
    25
100
AcDbDimension
  2
*D19
 10
109.761107
 20
100.835579
 30
0.0
 11
98.261107
 21
102.585579
 31
0.0
 70
    32
 71
     5
 42
-1.0
  3
Standard
100
AcDbAlignedDimension
 13
71.761107
 23
88.451498
 33
0.0
 14
109.761107
 24
79.947477
 34
0.0
100
AcDbRotatedDimension
  0
DIMENSION
  5
230
330
1D
100
AcDbEntity
  8
2
370
    25
100
AcDbDimension
  2
*D20
 10
93.261107
 20
3.669771
 30
0.0
 11
82.511107
 21
5.419771
 31
0.0
 70
    32
 71
     5
 42
-1.0
  3
Standard
100
AcDbAlignedDimension
 13
71.761107
 23
3.669771
 33
0.0
 14
93.261107
 24
3.669771
 34
0.0
100
AcDbRotatedDimension
  0
TEXT
  5
231
330
1D
100
AcDbEntity
  8
2
370
    18
100
AcDbText
 10
-186.903108
 20
-103.979284
 30
0.0
 40
6.0
  1
※錠・ストライクの隅形状は現品に合わせて、角又はＲ６で加工してください。
 72
     5
 11
27.896892
 21
-103.979284
 31
0.0
100
AcDbText
  0
LINE
  5
232
330
1D
100
AcDbEntity
  8
2
370
   100
100
AcDbLine
 10
-181.144074
 20
-103.857428
 30
0.0
 11
26.62489
 21
-103.857428
 31
0.0
  0
LINE
  5
233
330
1D
100
AcDbEntity
  8
2
370
   100
100
AcDbLine
 10
-181.144074
 20
-104.857428
 30
0.0
 11
26.62489
 21
-104.857428
 31
0.0
  0
LWPOLYLINE
  5
234
330
1D
100
AcDbEntity
  8
2
370
    25
100
AcDbPolyline
 90
        3
 70
     0
 43
0.0
 10
-9.98404
 20
83.947434
 10
-20.397837
 20
96.297981
 10
-33.93972
 20
96.297981
  0
LINE
  5
239
330
1D
100
AcDbEntity
  8
2
370
    25
100
AcDbLine
 10
-11.625084
 20
85.090664
 30
0.0
 11
-9.98404
 21
83.947434
 31
0.0
  0
LINE
  5
23A
330
1D
100
AcDbEntity
  8
2
370
    25
100
AcDbLine
 10
-9.98404
 20
83.947434
 30
0.0
 11
-10.833611
 21
85.758022
 31
0.0
  0
TEXT
  5
23B
330
1D
100
AcDbEntity
  8
2
370
    18
100
AcDbText
 10
-33.2628
 20
96.513275
 30
0.0
 40
2.5
  1
角又は６Ｒ
 72
     5
 11
-21.2628
 21
96.513275
 31
0.0
100
AcDbText
  0
TEXT
  5
23C
330
1D
100
AcDbEntity
  8
2
370
    18
100
AcDbText
 10
-9.73404
 20
101.357956
 30
0.0
 40
2.5
  1
扉厚２８～３６
 72
     5
 11
7.26596
 21
101.357956
 31
0.0
100
AcDbText
  0
DIMENSION
  5
23D
330
1D
100
AcDbEntity
  8
2
370
    25
100
AcDbDimension
  2
*D21
 10
14.01596
 20
100.857956
 30
0.0
 11
-0.98404
 21
102.857956
 31
0.0
 70
    32
 71
     5
 42
-1.0
  3
Standard
100
AcDbAlignedDimension
 13
-15.98404
 23
88.451498
 33
0.0
 14
14.01596
 24
88.451498
 34
0.0
100
AcDbRotatedDimension
  0
TEXT
  5
23E
330
1D
100
AcDbEntity
  8
2
370
    18
100
AcDbText
 10
-87.688902
 20
-0.020033
 30
0.0
 40
3.2
  1
扉
 72
     5
 11
-85.128902
 21
-0.020033
 31
0.0
100
AcDbText
  0
TEXT
  5
23F
330
1D
100
AcDbEntity
  8
2
370
    18
100
AcDbText
 10
-87.688902
 20
-4.220033
 30
0.0
 40
3.2
  1
厚
 72
     5
 11
-85.128902
 21
-4.220033
 31
0.0
100
AcDbText
  0
TEXT
  5
240
330
1D
100
AcDbEntity
  8
2
370
    18
100
AcDbText
 10
-87.688902
 20
-8.420033
 30
0.0
 40
3.2
  1
中
 72
     5
 11
-85.128902
 21
-8.420033
 31
0.0
100
AcDbText
  0
TEXT
  5
241
330
1D
100
AcDbEntity
  8
2
370
    18
100
AcDbText
 10
-87.688902
 20
-12.620033
 30
0.0
 40
3.2
  1
心
 72
     5
 11
-85.128902
 21
-12.620033
 31
0.0
100
AcDbText
  0
LWPOLYLINE
  5
242
330
1D
100
AcDbEntity
  8
2
370
    25
100
AcDbPolyline
 90
        3
 70
     0
 43
0.0
 10
-98.088902
 20
94.447474
 10
-105.579197
 20
106.069932
 10
-120.354279
 20
106.069932
  0
LINE
  5
247
330
1D
100
AcDbEntity
  8
2
370
    25
100
AcDbLine
 10
-99.570522
 20
95.790903
 30
0.0
 11
-98.088902
 21
94.447474
 31
0.0
  0
LINE
  5
248
330
1D
100
AcDbEntity
  8
2
370
    25
100
AcDbLine
 10
-98.088902
 20
94.447474
 30
0.0
 11
-98.700308
 21
96.351728
 31
0.0
  0
TEXT
  5
249
330
1D
100
AcDbEntity
  8
2
370
    18
100
AcDbText
 10
-119.404375
 20
106.424981
 30
0.0
 40
2.5
  1
角又は６Ｒ
 72
     5
 11
-107.404375
 21
106.424981
 31
0.0
100
AcDbText
  0
DIMENSION
  5
24A
330
1D
100
AcDbEntity
  8
2
370
    25
100
AcDbDimension
  2
*D22
 10
-77.197137
 20
103.611312
 30
0.0
 11
-86.197137
 21
105.611312
 31
0.0
 70
    32
 71
     5
 42
-1.0
  3
Standard
100
AcDbAlignedDimension
 13
-95.197137
 23
62.447474
 33
0.0
 14
-77.197137
 24
62.447474
 34
0.0
100
AcDbRotatedDimension
  0
DIMENSION
  5
24B
330
1D
100
AcDbEntity
  8
2
370
    25
100
AcDbDimension
  2
*D23
 10
-74.197137
 20
107.926521
 30
0.0
 11
-86.197137
 21
109.926521
 31
0.0
 70
    32
 71
     5
 42
-1.0
  3
Standard
100
AcDbAlignedDimension
 13
-98.197137
 23
88.447474
 33
0.0
 14
-74.197137
 24
88.447474
 34
0.0
100
AcDbRotatedDimension
  0
LWPOLYLINE
  5
24C
330
1D
100
AcDbEntity
  8
2
370
    18
100
AcDbPolyline
 90
        3
 70
     0
 43
0.0
 10
-78.564298
 20
-18.32115
 10
-70.613509
 20
-23.288415
 10
-59.613509
 20
-23.288415
  0
LINE
  5
251
330
1D
100
AcDbEntity
  8
2
370
    25
100
AcDbLine
 10
-76.651639
 20
-18.905731
 30
0.0
 11
-78.564298
 21
-18.32115
 31
0.0
  0
LINE
  5
252
330
1D
100
AcDbEntity
  8
2
370
    25
100
AcDbLine
 10
-78.564298
 20
-18.32115
 30
0.0
 11
-77.200177
 21
-19.783742
 31
0.0
  0
TEXT
  5
253
330
1D
100
AcDbEntity
  8
2
370
    18
100
AcDbText
 10
-66.613509
 20
-22.788415
 30
0.0
 40
3.0
  1
R9
 41
2.0
 72
     5
 11
-61.813509
 21
-22.788415
 31
0.0
100
AcDbText
  0
DIMENSION
  5
254
330
1D
100
AcDbEntity
  8
2
370
    25
100
AcDbDimension
  2
*D24
 10
-140.721819
 20
100.891392
 30
0.0
 11
-132.221819
 21
102.891392
 31
0.0
 70
    33
 71
     5
 42
-1.0
 51
270.0
  3
Standard
100
AcDbAlignedDimension
 13
-137.721819
 23
100.891392
 33
0.0
 14
-140.721819
 24
94.447474
 34
0.0
  0
DIMENSION
  5
255
330
1D
100
AcDbEntity
  8
2
370
    25
100
AcDbDimension
  2
*D25
 10
-124.762429
 20
94.447474
 30
0.0
 11
-129.762429
 21
22.947474
 31
0.0
 70
    32
 71
     5
 42
-1.0
  3
Standard
100
AcDbAlignedDimension
 13
-92.197137
 23
-45.552526
 33
0.0
 14
-92.197137
 24
94.447474
 34
0.0
 50
90.0
100
AcDbRotatedDimension
  0
DIMENSION
  5
256
330
1D
100
AcDbEntity
  8
2
370
    25
100
AcDbDimension
  2
*D26
 10
-109.707513
 20
71.447474
 30
0.0
 11
-113.207513
 21
24.447474
 31
0.0
 70
    32
 71
     5
 42
-1.0
  3
Standard
100
AcDbAlignedDimension
 13
-86.197137
 23
-22.552526
 33
0.0
 14
-86.197137
 24
71.447474
 34
0.0
 50
90.0
100
AcDbRotatedDimension
  0
DIMENSION
  5
257
330
1D
100
AcDbEntity
  8
2
370
    25
100
AcDbDimension
  2
*D27
 10
-152.721819
 20
108.263821
 30
0.0
 11
-145.221819
 21
110.263821
 31
0.0
 70
    33
 71
     5
 42
-1.0
 51
270.0
  3
Standard
100
AcDbAlignedDimension
 13
-137.721819
 23
106.263821
 33
0.0
 14
-152.721819
 24
71.447474
 34
0.0
  0
TEXT
  5
258
330
1D
100
AcDbEntity
  8
2
370
    18
100
AcDbText
 10
-116.588372
 20
15.447474
 30
0.0
 40
3.0
  1
（取付ネジピッチ）
 50
90.0
 72
     5
 11
-116.588372
 21
41.847474
 31
0.0
100
AcDbText
  0
DIMENSION
  5
259
330
1D
100
AcDbEntity
  8
2
370
    25
100
AcDbDimension
  2
*D28
 10
-116.088372
 20
84.447472
 30
0.0
 11
-121.088372
 21
9.447474
 31
0.0
 70
    32
 71
     5
 42
-1.0
  3
Standard
100
AcDbAlignedDimension
 13
-92.210166
 23
-35.552525
 33
0.0
 14
-92.210166
 24
84.447472
 34
0.0
 50
90.0
100
AcDbRotatedDimension
  0
LINE
  5
25A
330
1D
100
AcDbEntity
  8
3
370
   100
100
AcDbLine
 10
-190.0
 20
138.0
 30
0.0
 11
-190.0
 21
-138.0
 31
0.0
  0
LINE
  5
25B
330
1D
100
AcDbEntity
  8
3
370
   100
100
AcDbLine
 10
200.0
 20
138.0
 30
0.0
 11
200.0
 21
-138.0
 31
0.0
  0
LINE
  5
25C
330
1D
100
AcDbEntity
  8
3
370
   100
100
AcDbLine
 10
-190.0
 20
138.0
 30
0.0
 11
200.0
 21
138.0
 31
0.0
  0
LINE
  5
25D
330
1D
100
AcDbEntity
  8
3
370
   100
100
AcDbLine
 10
-190.0
 20
-138.0
 30
0.0
 11
200.0
 21
-138.0
 31
0.0
  0
LINE
  5
25E
330
1D
100
AcDbEntity
  8
3
370
    50
100
AcDbLine
 10
-190.0
 20
-108.0
 30
0.0
 11
200.0
 21
-108.0
 31
0.0
  0
LINE
  5
25F
330
1D
100
AcDbEntity
  8
3
370
    25
100
AcDbLine
 10
10.0
 20
-112.999949
 30
0.0
 11
108.000527
 21
-112.999865
 31
0.0
  0
LINE
  5
260
330
1D
100
AcDbEntity
  8
3
370
   100
100
AcDbLine
 10
-190.3
 20
138.3
 30
0.0
 11
200.3
 21
138.3
 31
0.0
  0
LINE
  5
261
330
1D
100
AcDbEntity
  8
3
370
   100
100
AcDbLine
 10
200.3
 20
138.3
 30
0.0
 11
200.3
 21
-138.3
 31
0.0
  0
LINE
  5
262
330
1D
100
AcDbEntity
  8
3
370
   100
100
AcDbLine
 10
200.3
 20
-138.3
 30
0.0
 11
-190.3
 21
-138.3
 31
0.0
  0
LINE
  5
263
330
1D
100
AcDbEntity
  8
3
370
   100
100
AcDbLine
 10
-190.3
 20
-138.3
 30
0.0
 11
-190.3
 21
138.3
 31
0.0
  0
LINE
  5
264
330
1D
100
AcDbEntity
  8
3
370
    25
100
AcDbLine
 10
108.000527
 20
-112.999865
 30
0.0
 11
108.000527
 21
-108.0
 31
0.0
  0
LINE
  5
265
330
1D
100
AcDbEntity
  8
3
370
    25
100
AcDbLine
 10
90.0
 20
-129.999865
 30
0.0
 11
108.000527
 21
-129.999865
 31
0.0
  0
LINE
  5
266
330
1D
100
AcDbEntity
  8
3
370
    25
100
AcDbLine
 10
108.000527
 20
-129.999865
 30
0.0
 11
108.000527
 21
-125.0
 31
0.0
  0
LINE
  5
267
330
1D
100
AcDbEntity
  8
3
370
    50
100
AcDbLine
 10
10.0
 20
-108.0
 30
0.0
 11
10.0
 21
-138.0
 31
0.0
  0
TEXT
  5
268
330
1D
100
AcDbEntity
  8
3
370
   100
100
AcDbText
 10
22.0
 20
-135.5
 30
0.0
 40
8.0
  1
（株）川口技研
 72
     5
 11
76.4
 21
-135.5
 31
0.0
100
AcDbText
  0
TEXT
  5
269
330
1D
100
AcDbEntity
  8
3
370
    25
100
AcDbText
 10
91.800263
 20
-112.29994
 30
0.0
 40
3.6
  1
図面名称
 72
     5
 11
105.480263
 21
-112.29994
 31
0.0
100
AcDbText
  0
TEXT
  5
26A
330
1D
100
AcDbEntity
  8
3
370
    25
100
AcDbText
 10
91.800263
 20
-129.299925
 30
0.0
 40
3.6
  1
図面番号
 72
     5
 11
105.480263
 21
-129.299925
 31
0.0
100
AcDbText
  0
TEXT
  5
26B
330
1D
100
AcDbEntity
  8
3
370
    25
100
AcDbText
 10
16.133333
 20
-112.299991
 30
0.0
 40
3.6
  1
図　　法
 72
     5
 11
29.813333
 21
-112.299991
 31
0.0
100
AcDbText
  0
TEXT
  5
26C
330
1D
100
AcDbEntity
  8
3
370
    25
100
AcDbText
 10
42.8
 20
-112.299974
 30
0.0
 40
3.6
  1
単　　位
 72
     5
 11
56.48
 21
-112.299974
 31
0.0
100
AcDbText
  0
TEXT
  5
26D
330
1D
100
AcDbEntity
  8
3
370
    25
100
AcDbText
 10
69.466667
 20
-112.299957
 30
0.0
 40
3.6
  1
尺　　度
 72
     5
 11
83.146667
 21
-112.299957
 31
0.0
100
AcDbText
  0
TEXT
  5
26E
330
1D
100
AcDbEntity
  8
3
370
    25
100
AcDbText
 10
46.0
 20
-120.999957
 30
0.0
 40
4.0
  1
ｍｍ
 72
     5
 11
53.2
 21
-120.999957
 31
0.0
100
AcDbText
  0
TEXT
  5
26F
330
1D
100
AcDbEntity
  8
3
370
    25
100
AcDbText
 10
17.333333
 20
-120.999957
 30
0.0
 40
4.0
  1
３角法
 72
     5
 11
28.533333
 21
-120.999957
 31
0.0
100
AcDbText
  0
LINE
  5
270
330
1D
100
AcDbEntity
  8
3
370
    50
100
AcDbLine
 10
90.0
 20
-138.0
 30
0.0
 11
90.0
 21
-108.0
 31
0.0
  0
LINE
  5
271
330
1D
100
AcDbEntity
  8
3
370
    50
100
AcDbLine
 10
10.0
 20
-125.0
 30
0.0
 11
90.0
 21
-125.0
 31
0.0
  0
LINE
  5
272
330
1D
100
AcDbEntity
  8
3
370
    50
100
AcDbLine
 10
90.0
 20
-125.0
 30
0.0
 11
200.0
 21
-125.0
 31
0.0
  0
LINE
  5
273
330
1D
100
AcDbEntity
  8
3
370
    50
100
AcDbLine
 10
36.666667
 20
-125.0
 30
0.0
 11
36.666667
 21
-108.0
 31
0.0
  0
LINE
  5
274
330
1D
100
AcDbEntity
  8
3
370
    50
100
AcDbLine
 10
63.333333
 20
-125.0
 30
0.0
 11
63.333333
 21
-108.0
 31
0.0
  0
TEXT
  5
275
330
1D
100
AcDbEntity
  8
3
370
    25
100
AcDbText
 10
70.666667
 20
-120.999957
 30
0.0
 40
4.0
  1
１／１
 72
     5
 11
81.866667
 21
-120.999957
 31
0.0
100
AcDbText
  0
TEXT
  5
276
330
1D
100
AcDbEntity
  8
3
370
   100
100
AcDbText
 10
124.421455
 20
-134.545471
 30
0.0
 40
6.0
  1
ＤＺ－１９７２－０１
 72
     5
 11
183.221455
 21
-134.545471
 31
0.0
100
AcDbText
  0
TEXT
  5
277
330
1D
100
AcDbEntity
  8
3
370
    50
100
AcDbText
 10
112.778885
 20
-122.279037
 30
0.0
 40
4.5
  1
ＤＹ１-Ｙ　引手一体型引戸錠　切欠図
 41
0.9
 72
     5
 11
182.843885
 21
-122.279037
 31
0.0
100
AcDbText
  0
POINT
  5
278
330
1D
100
AcDbEntity
  8
3
370
    50
100
AcDbPoint
 10
-86.197137
 20
24.447474
 30
0.0
  0
ENDSEC
  0
SECTION
  2
OBJECTS
  0
DICTIONARY
  5
C
330
0
100
AcDbDictionary
281
     1
  3
ACAD_GROUP
350
D
  3
ACAD_LAYOUT
350
1A
  3
ACAD_MATERIAL
350
29
  3
ACAD_MLEADERSTYLE
350
2BA
  3
ACAD_MLINESTYLE
350
17
  3
ACAD_PLOTSETTINGS
350
19
  3
ACAD_PLOTSTYLENAME
350
E
  3
ACAD_SCALELIST
350
279
  3
ACAD_TABLESTYLE
350
2B8
  3
ACAD_VISUALSTYLE
350
29F
  3
AcDbVariableDictionary
350
2BC
  0
DICTIONARY
  5
2C4
330
8
100
AcDbDictionary
280
     1
281
     1
  3
ACAD_XREC_ROUNDTRIP
360
2C5
  0
DICTIONARY
  5
D
102
{ACAD_REACTORS
330
C
102
}
330
C
100
AcDbDictionary
281
     1
  0
DICTIONARY
  5
1A
102
{ACAD_REACTORS
330
C
102
}
330
C
100
AcDbDictionary
281
     1
  3
Layout1
350
1C
  3
Model
350
1E
  0
DICTIONARY
  5
29
102
{ACAD_REACTORS
330
C
102
}
330
C
100
AcDbDictionary
281
     1
  3
ByBlock
350
2B
  3
ByLayer
350
2A
  3
Global
350
2C
  0
DICTIONARY
  5
2BA
102
{ACAD_REACTORS
330
C
102
}
330
C
100
AcDbDictionary
281
     1
  3
Standard
350
2BB
  0
DICTIONARY
  5
17
102
{ACAD_REACTORS
330
C
102
}
330
C
100
AcDbDictionary
281
     1
  3
Standard
350
18
  0
DICTIONARY
  5
19
102
{ACAD_REACTORS
330
C
102
}
330
C
100
AcDbDictionary
281
     1
  0
ACDBDICTIONARYWDFLT
  5
E
102
{ACAD_REACTORS
330
C
102
}
330
C
100
AcDbDictionary
281
     1
  3
Normal
350
F
100
AcDbDictionaryWithDefault
340
F
  0
DICTIONARY
  5
279
102
{ACAD_REACTORS
330
C
102
}
330
C
100
AcDbDictionary
281
     1
  3
A0
350
27A
  3
A1
350
27B
  3
A2
350
27C
  3
A3
350
27D
  3
A4
350
27E
  3
A5
350
27F
  3
A6
350
280
  3
A7
350
281
  3
A8
350
282
  3
A9
350
283
  3
B0
350
284
  3
B1
350
285
  3
B2
350
286
  3
B3
350
287
  3
B4
350
288
  3
B5
350
289
  3
B6
350
28A
  3
B7
350
28B
  3
B8
350
28C
  3
B9
350
28D
  3
C0
350
28E
  3
C1
350
28F
  3
C2
350
290
  3
C3
350
291
  3
C4
350
292
  3
C5
350
293
  3
C6
350
294
  3
C7
350
295
  3
C8
350
296
  3
C9
350
297
  3
D0
350
298
  3
D1
350
299
  3
D2
350
29A
  0
DICTIONARY
  5
2B8
102
{ACAD_REACTORS
330
C
102
}
330
C
100
AcDbDictionary
281
     1
  3
Standard
350
2B9
  0
DICTIONARY
  5
29F
102
{ACAD_REACTORS
330
C
102
}
330
C
100
AcDbDictionary
281
     1
  3
2dWireframe
350
2A4
  3
Basic
350
2A7
  3
Brighten
350
2AB
  3
ColorChange
350
2AF
  3
Conceptual
350
2A9
  3
Dim
350
2AA
  3
EdgeColorOff
350
2B2
  3
Facepattern
350
2AE
  3
Flat
350
2A0
  3
FlatWithEdges
350
2A1
  3
Gouraud
350
2A2
  3
GouraudWithEdges
350
2A3
  3
Hidden
350
2A6
  3
JitterOff
350
2B0
  3
Linepattern
350
2AD
  3
OverhangOff
350
2B1
  3
Realistic
350
2A8
  3
Shaded
350
2B7
  3
Shaded with edges
350
2B6
  3
Shades of Gray
350
2B3
  3
Sketchy
350
2B4
  3
Thicken
350
2AC
  3
Wireframe
350
2A5
  3
X-Ray
350
2B5
  0
DICTIONARY
  5
2BC
102
{ACAD_REACTORS
330
C
102
}
330
C
100
AcDbDictionary
281
     1
  3
CANNOSCALE
350
2C6
  3
CMLEADERSTYLE
350
2BE
  3
CTABLESTYLE
350
2BD
  3
DIMASSOC
350
2C2
  3
HIDETEXT
350
2C3
  3
MSLTSCALE
350
2BF
  0
XRECORD
  5
2C5
102
{ACAD_REACTORS
330
2C4
102
}
330
2C4
100
AcDbXrecord
280
     1
102
VTR_0.000_0.000_1.000_1.000_VISUALSTYLE
340
2A4
102
VTR_0.000_0.000_1.000_1.000_GRIDDISPLAY
 70
     3
102
VTR_0.000_0.000_1.000_1.000_GRIDMAJOR
 70
     5
102
VTR_0.000_0.000_1.000_1.000_DEFAULTLIGHTING
280
     1
102
VTR_0.000_0.000_1.000_1.000_DEFAULTLIGHTINGTYPE
 70
     1
102
VTR_0.000_0.000_1.000_1.000_BRIGHTNESS
141
0.0
102
VTR_0.000_0.000_1.000_1.000_CONTRAST
142
0.0
  0
LAYOUT
  5
1C
102
{ACAD_REACTORS
330
1A
102
}
330
1A
100
AcDbPlotSettings
  1

  2
none_device
  4

  6

 40
0.0
 41
0.0
 42
0.0
 43
0.0
 44
0.0
 45
0.0
 46
0.0
 47
0.0
 48
0.0
 49
0.0
140
0.0
141
0.0
142
1.0
143
1.0
 70
   688
 72
     0
 73
     0
 74
     5
  7

 75
    16
147
1.0
148
0.0
149
0.0
100
AcDbLayout
  1
Layout1
 70
     1
 71
     1
 10
0.0
 20
0.0
 11
12.0
 21
9.0
 12
0.0
 22
0.0
 32
0.0
 14
1.000000000000000E+20
 24
1.000000000000000E+20
 34
1.000000000000000E+20
 15
-1.000000000000000E+20
 25
-1.000000000000000E+20
 35
-1.000000000000000E+20
146
0.0
 13
0.0
 23
0.0
 33
0.0
 16
1.0
 26
0.0
 36
0.0
 17
0.0
 27
1.0
 37
0.0
 76
     0
330
1B
  0
LAYOUT
  5
1E
102
{ACAD_REACTORS
330
1A
102
}
330
1A
100
AcDbPlotSettings
  1

  2
none_device
  4
Letter_(8.50_x_11.00_Inches)
  6

 40
6.35
 41
6.35
 42
6.35000508
 43
6.35000508
 44
215.9
 45
279.4
 46
0.0
 47
0.0
 48
0.0
 49
0.0
140
0.0
141
0.0
142
1.0
143
1.0
 70
  1712
 72
     0
 73
     0
 74
     0
  7

 75
     0
147
1.0
148
0.0
149
0.0
100
AcDbLayout
  1
Model
 70
     1
 71
     0
 10
0.0
 20
0.0
 11
12.0
 21
9.0
 12
0.0
 22
0.0
 32
0.0
 14
-4756.0
 24
-420.5
 34
0.0
 15
4756.0
 25
420.5
 35
0.0
146
0.0
 13
0.0
 23
0.0
 33
0.0
 16
1.0
 26
0.0
 36
0.0
 17
0.0
 27
1.0
 37
0.0
 76
     0
330
1D
331
20
  0
MATERIAL
  5
2B
102
{ACAD_REACTORS
330
29
102
}
102
{ACAD_XDICTIONARY
360
2C9
102
}
330
29
100
AcDbMaterial
  1
ByBlock
  0
MATERIAL
  5
2A
102
{ACAD_REACTORS
330
29
102
}
102
{ACAD_XDICTIONARY
360
2C7
102
}
330
29
100
AcDbMaterial
  1
ByLayer
  0
MATERIAL
  5
2C
102
{ACAD_REACTORS
330
29
102
}
102
{ACAD_XDICTIONARY
360
2CB
102
}
330
29
100
AcDbMaterial
  1
Global
  0
MLEADERSTYLE
  5
2BB
102
{ACAD_REACTORS
330
2BA
102
}
102
{ACAD_XDICTIONARY
360
2FE
102
}
330
2BA
100
AcDbMLeaderStyle
170
     2
171
     1
172
     0
 90
        2
 40
0.0
 41
0.0
173
     1
 91
-1056964608
340
14
 92
       -2
290
     1
 42
0.09
291
     1
 43
0.36
  3
Standard
341
0
 44
0.18
300

342
11
174
     1
178
     6
175
     1
176
     0
 93
-1056964608
 45
0.18
292
     0
297
     0
 46
0.18
343
0
 94
-1056964608
 47
1.0
 49
1.0
140
1.0
293
     1
141
0.0
294
     1
177
     0
142
1.0
295
     0
296
     0
143
0.125
1001
ACAD_MLEADERVER
1070
     2
  0
MLINESTYLE
  5
18
102
{ACAD_REACTORS
330
17
102
}
330
17
100
AcDbMlineStyle
  2
Standard
 70
     0
  3

 62
   256
 51
90.0
 52
90.0
 71
     2
 49
0.5
 62
   256
  6
BYLAYER
 49
-0.5
 62
   256
  6
BYLAYER
  0
ACDBPLACEHOLDER
  5
F
102
{ACAD_REACTORS
330
E
102
}
330
E
  0
SCALE
  5
27A
102
{ACAD_REACTORS
330
279
102
}
330
279
100
AcDbScale
 70
     0
300
1:1
140
1.0
141
1.0
290
     1
  0
SCALE
  5
27B
102
{ACAD_REACTORS
330
279
102
}
330
279
100
AcDbScale
 70
     0
300
1:2
140
1.0
141
2.0
290
     0
  0
SCALE
  5
27C
102
{ACAD_REACTORS
330
279
102
}
330
279
100
AcDbScale
 70
     0
300
1:4
140
1.0
141
4.0
290
     0
  0
SCALE
  5
27D
102
{ACAD_REACTORS
330
279
102
}
330
279
100
AcDbScale
 70
     0
300
1:5
140
1.0
141
5.0
290
     0
  0
SCALE
  5
27E
102
{ACAD_REACTORS
330
279
102
}
330
279
100
AcDbScale
 70
     0
300
1:8
140
1.0
141
8.0
290
     0
  0
SCALE
  5
27F
102
{ACAD_REACTORS
330
279
102
}
330
279
100
AcDbScale
 70
     0
300
1:10
140
1.0
141
10.0
290
     0
  0
SCALE
  5
280
102
{ACAD_REACTORS
330
279
102
}
330
279
100
AcDbScale
 70
     0
300
1:16
140
1.0
141
16.0
290
     0
  0
SCALE
  5
281
102
{ACAD_REACTORS
330
279
102
}
330
279
100
AcDbScale
 70
     0
300
1:20
140
1.0
141
20.0
290
     0
  0
SCALE
  5
282
102
{ACAD_REACTORS
330
279
102
}
330
279
100
AcDbScale
 70
     0
300
1:30
140
1.0
141
30.0
290
     0
  0
SCALE
  5
283
102
{ACAD_REACTORS
330
279
102
}
330
279
100
AcDbScale
 70
     0
300
1:40
140
1.0
141
40.0
290
     0
  0
SCALE
  5
284
102
{ACAD_REACTORS
330
279
102
}
330
279
100
AcDbScale
 70
     0
300
1:50
140
1.0
141
50.0
290
     0
  0
SCALE
  5
285
102
{ACAD_REACTORS
330
279
102
}
330
279
100
AcDbScale
 70
     0
300
1:100
140
1.0
141
100.0
290
     0
  0
SCALE
  5
286
102
{ACAD_REACTORS
330
279
102
}
330
279
100
AcDbScale
 70
     0
300
2:1
140
2.0
141
1.0
290
     0
  0
SCALE
  5
287
102
{ACAD_REACTORS
330
279
102
}
330
279
100
AcDbScale
 70
     0
300
4:1
140
4.0
141
1.0
290
     0
  0
SCALE
  5
288
102
{ACAD_REACTORS
330
279
102
}
330
279
100
AcDbScale
 70
     0
300
8:1
140
8.0
141
1.0
290
     0
  0
SCALE
  5
289
102
{ACAD_REACTORS
330
279
102
}
330
279
100
AcDbScale
 70
     0
300
10:1
140
10.0
141
1.0
290
     0
  0
SCALE
  5
28A
102
{ACAD_REACTORS
330
279
102
}
330
279
100
AcDbScale
 70
     0
300
100:1
140
100.0
141
1.0
290
     0
  0
SCALE
  5
28B
102
{ACAD_REACTORS
330
279
102
}
330
279
100
AcDbScale
 70
     0
300
1/128" = 1'-0"
140
0.0078125
141
12.0
290
     0
  0
SCALE
  5
28C
102
{ACAD_REACTORS
330
279
102
}
330
279
100
AcDbScale
 70
     0
300
1/64" = 1'-0"
140
0.015625
141
12.0
290
     0
  0
SCALE
  5
28D
102
{ACAD_REACTORS
330
279
102
}
330
279
100
AcDbScale
 70
     0
300
1/32" = 1'-0"
140
0.03125
141
12.0
290
     0
  0
SCALE
  5
28E
102
{ACAD_REACTORS
330
279
102
}
330
279
100
AcDbScale
 70
     0
300
1/16" = 1'-0"
140
0.0625
141
12.0
290
     0
  0
SCALE
  5
28F
102
{ACAD_REACTORS
330
279
102
}
330
279
100
AcDbScale
 70
     0
300
3/32" = 1'-0"
140
0.09375
141
12.0
290
     0
  0
SCALE
  5
290
102
{ACAD_REACTORS
330
279
102
}
330
279
100
AcDbScale
 70
     0
300
1/8" = 1'-0"
140
0.125
141
12.0
290
     0
  0
SCALE
  5
291
102
{ACAD_REACTORS
330
279
102
}
330
279
100
AcDbScale
 70
     0
300
3/16" = 1'-0"
140
0.1875
141
12.0
290
     0
  0
SCALE
  5
292
102
{ACAD_REACTORS
330
279
102
}
330
279
100
AcDbScale
 70
     0
300
1/4" = 1'-0"
140
0.25
141
12.0
290
     0
  0
SCALE
  5
293
102
{ACAD_REACTORS
330
279
102
}
330
279
100
AcDbScale
 70
     0
300
3/8" = 1'-0"
140
0.375
141
12.0
290
     0
  0
SCALE
  5
294
102
{ACAD_REACTORS
330
279
102
}
330
279
100
AcDbScale
 70
     0
300
1/2" = 1'-0"
140
0.5
141
12.0
290
     0
  0
SCALE
  5
295
102
{ACAD_REACTORS
330
279
102
}
330
279
100
AcDbScale
 70
     0
300
3/4" = 1'-0"
140
0.75
141
12.0
290
     0
  0
SCALE
  5
296
102
{ACAD_REACTORS
330
279
102
}
330
279
100
AcDbScale
 70
     0
300
1" = 1'-0"
140
1.0
141
12.0
290
     0
  0
SCALE
  5
297
102
{ACAD_REACTORS
330
279
102
}
330
279
100
AcDbScale
 70
     0
300
1-1/2" = 1'-0"
140
1.5
141
12.0
290
     0
  0
SCALE
  5
298
102
{ACAD_REACTORS
330
279
102
}
330
279
100
AcDbScale
 70
     0
300
3" = 1'-0"
140
3.0
141
12.0
290
     0
  0
SCALE
  5
299
102
{ACAD_REACTORS
330
279
102
}
330
279
100
AcDbScale
 70
     0
300
6" = 1'-0"
140
6.0
141
12.0
290
     0
  0
SCALE
  5
29A
102
{ACAD_REACTORS
330
279
102
}
330
279
100
AcDbScale
 70
     0
300
1'-0" = 1'-0"
140
12.0
141
12.0
290
     0
  0
TABLESTYLE
  5
2B9
102
{ACAD_REACTORS
330
2B8
102
}
330
2B8
100
AcDbTableStyle
  3
Standard
 70
     0
 71
     0
 40
0.06
 41
0.06
280
     0
281
     0
  7
STANDARD
140
0.18
170
     2
 62
     0
 63
   257
283
     0
274
    -2
284
     1
 64
     0
275
    -2
285
     1
 65
     0
276
    -2
286
     1
 66
     0
277
    -2
287
     1
 67
     0
278
    -2
288
     1
 68
     0
279
    -2
289
     1
 69
     0
  7
STANDARD
140
0.25
170
     5
 62
     0
 63
   257
283
     0
274
    -2
284
     1
 64
     0
275
    -2
285
     1
 65
     0
276
    -2
286
     1
 66
     0
277
    -2
287
     1
 67
     0
278
    -2
288
     1
 68
     0
279
    -2
289
     1
 69
     0
  7
STANDARD
140
0.18
170
     5
 62
     0
 63
   257
283
     0
274
    -2
284
     1
 64
     0
275
    -2
285
     1
 65
     0
276
    -2
286
     1
 66
     0
277
    -2
287
     1
 67
     0
278
    -2
288
     1
 68
     0
279
    -2
289
     1
 69
     0
  0
VISUALSTYLE
  5
2A4
102
{ACAD_REACTORS
330
29F
102
}
102
{ACAD_XDICTIONARY
360
2D5
102
}
330
29F
100
AcDbVisualStyle
  2
2dWireframe
 70
     4
 71
     0
 72
     2
 73
     0
 90
        0
 40
0.6
 41
30.0
 62
     5
 63
     7
 74
     1
 91
        4
 64
     7
 65
   257
 75
     1
175
     1
 42
1.0
 92
        0
 66
   257
 43
1.0
 76
     1
 77
     6
 78
     2
 67
     7
 79
     5
170
     0
171
     0
290
     0
174
     0
 93
        1
 44
0.0
173
     0
291
     0
 45
0.0
1001
ACAD
1000
AcDbSavedByObjectVersion
1070
     0
  0
VISUALSTYLE
  5
2A7
102
{ACAD_REACTORS
330
29F
102
}
102
{ACAD_XDICTIONARY
360
2DB
102
}
330
29F
100
AcDbVisualStyle
  2
Basic
 70
     7
 71
     1
 72
     0
 73
     1
 90
        0
 40
0.6
 41
30.0
 62
     5
 63
     7
 74
     0
 91
        4
 64
     7
 65
   257
 75
     1
175
     1
 42
1.0
 92
        8
 66
     7
 43
1.0
 76
     1
 77
     6
 78
     2
 67
     7
 79
     5
170
     0
171
     0
290
     0
174
     0
 93
        1
 44
0.0
173
     0
291
     1
 45
0.0
1001
ACAD
1000
AcDbSavedByObjectVersion
1070
     0
  0
VISUALSTYLE
  5
2AB
102
{ACAD_REACTORS
330
29F
102
}
102
{ACAD_XDICTIONARY
360
2E3
102
}
330
29F
100
AcDbVisualStyle
  2
Brighten
 70
    12
 71
     2
 72
     2
 73
     0
 90
        0
 40
0.6
 41
30.0
 62
     5
 63
     7
 74
     1
 91
        4
 64
     7
 65
   257
 75
     1
175
     1
 42
1.0
 92
        8
 66
     7
 43
1.0
 76
     1
 77
     6
 78
     2
 67
     7
 79
     5
170
     0
171
     0
290
     0
174
     0
 93
        1
 44
50.0
173
     0
291
     1
 45
0.0
1001
ACAD
1000
AcDbSavedByObjectVersion
1070
     0
  0
VISUALSTYLE
  5
2AF
102
{ACAD_REACTORS
330
29F
102
}
102
{ACAD_XDICTIONARY
360
2EB
102
}
330
29F
100
AcDbVisualStyle
  2
ColorChange
 70
    16
 71
     2
 72
     2
 73
     3
 90
        0
 40
0.6
 41
30.0
 62
     5
 63
     8
 74
     1
 91
        4
 64
     7
 65
   257
 75
     1
175
     1
 42
1.0
 92
        8
 66
     8
 43
1.0
 76
     1
 77
     6
 78
     2
 67
     7
 79
     5
170
     0
171
     0
290
     0
174
     0
 93
        1
 44
0.0
173
     0
291
     1
 45
0.0
1001
ACAD
1000
AcDbSavedByObjectVersion
1070
     0
  0
VISUALSTYLE
  5
2A9
102
{ACAD_REACTORS
330
29F
102
}
102
{ACAD_XDICTIONARY
360
2DF
102
}
330
29F
100
AcDbVisualStyle
  2
Conceptual
 70
     9
 71
     3
 72
     2
 73
     0
 90
        0
 40
0.6
 41
30.0
 62
     5
 63
     7
 74
     2
 91
        2
 64
     7
 65
   257
 75
     1
175
     1
 42
179.0
 92
        8
 66
     7
 43
1.0
 76
     1
 77
     6
 78
     2
 67
     7
 79
     3
170
     0
171
     0
290
     0
174
     0
 93
        1
 44
0.0
173
     0
291
     0
 45
0.0
1001
ACAD
1000
AcDbSavedByObjectVersion
1070
     0
  0
VISUALSTYLE
  5
2AA
102
{ACAD_REACTORS
330
29F
102
}
102
{ACAD_XDICTIONARY
360
2E1
102
}
330
29F
100
AcDbVisualStyle
  2
Dim
 70
    11
 71
     2
 72
     2
 73
     0
 90
        0
 40
0.6
 41
30.0
 62
     5
 63
     7
 74
     1
 91
        4
 64
     7
 65
   257
 75
     1
175
     1
 42
1.0
 92
        8
 66
     7
 43
1.0
 76
     1
 77
     6
 78
     2
 67
     7
 79
     5
170
     0
171
     0
290
     0
174
     0
 93
        1
 44
-50.0
173
     0
291
     1
 45
0.0
1001
ACAD
1000
AcDbSavedByObjectVersion
1070
     0
  0
VISUALSTYLE
  5
2B2
102
{ACAD_REACTORS
330
29F
102
}
102
{ACAD_XDICTIONARY
360
2F1
102
}
330
29F
100
AcDbVisualStyle
  2
EdgeColorOff
 70
    22
 71
     2
 72
     2
 73
     0
 90
        0
 40
0.6
 41
30.0
 62
     5
 63
     7
 74
     1
 91
        4
 64
     7
 65
   257
 75
     1
175
     1
 42
1.0
 92
        8
 66
     7
 43
1.0
 76
     1
 77
     6
 78
     2
 67
     7
 79
     5
170
     0
171
     0
290
     0
174
     0
 93
        1
 44
0.0
173
     0
291
     1
 45
0.0
1001
ACAD
1000
AcDbSavedByObjectVersion
1070
     0
  0
VISUALSTYLE
  5
2AE
102
{ACAD_REACTORS
330
29F
102
}
102
{ACAD_XDICTIONARY
360
2E9
102
}
330
29F
100
AcDbVisualStyle
  2
Facepattern
 70
    15
 71
     2
 72
     2
 73
     0
 90
        0
 40
0.6
 41
30.0
 62
     5
 63
     7
 74
     1
 91
        4
 64
     7
 65
   257
 75
     1
175
     1
 42
1.0
 92
        8
 66
     7
 43
1.0
 76
     1
 77
     6
 78
     2
 67
     7
 79
     5
170
     0
171
     0
290
     0
174
     0
 93
        1
 44
0.0
173
     0
291
     1
 45
0.0
1001
ACAD
1000
AcDbSavedByObjectVersion
1070
     0
  0
VISUALSTYLE
  5
2A0
102
{ACAD_REACTORS
330
29F
102
}
102
{ACAD_XDICTIONARY
360
2CD
102
}
330
29F
100
AcDbVisualStyle
  2
Flat
 70
     0
 71
     2
 72
     1
 73
     1
 90
        2
 40
0.6
 41
30.0
 62
     5
 63
     7
 74
     0
 91
        0
 64
     7
 65
   257
 75
     1
175
     1
 42
1.0
 92
        8
 66
     7
 43
1.0
 76
     1
 77
     6
 78
     2
 67
     7
 79
     5
170
     0
171
     0
290
     0
174
     0
 93
       13
 44
0.0
173
     0
291
     1
 45
0.0
1001
ACAD
1000
AcDbSavedByObjectVersion
1070
     0
  0
VISUALSTYLE
  5
2A1
102
{ACAD_REACTORS
330
29F
102
}
102
{ACAD_XDICTIONARY
360
2CF
102
}
330
29F
100
AcDbVisualStyle
  2
FlatWithEdges
 70
     1
 71
     2
 72
     1
 73
     1
 90
        2
 40
0.6
 41
30.0
 62
     5
 63
     7
 74
     1
 91
        0
 64
     7
 65
   257
 75
     1
175
     1
 42
1.0
 92
        0
 66
   257
 43
1.0
 76
     1
 77
     6
 78
     2
 67
     7
 79
     5
170
     0
171
     0
290
     0
174
     0
 93
       13
 44
0.0
173
     0
291
     1
 45
0.0
1001
ACAD
1000
AcDbSavedByObjectVersion
1070
     0
  0
VISUALSTYLE
  5
2A2
102
{ACAD_REACTORS
330
29F
102
}
102
{ACAD_XDICTIONARY
360
2D1
102
}
330
29F
100
AcDbVisualStyle
  2
Gouraud
 70
     2
 71
     2
 72
     2
 73
     1
 90
        2
 40
0.6
 41
30.0
 62
     5
 63
     7
 74
     0
 91
        0
 64
     7
 65
   257
 75
     1
175
     1
 42
1.0
 92
        0
 66
     7
 43
1.0
 76
     1
 77
     6
 78
     2
 67
     7
 79
     5
170
     0
171
     0
290
     0
174
     0
 93
       13
 44
0.0
173
     0
291
     1
 45
0.0
1001
ACAD
1000
AcDbSavedByObjectVersion
1070
     0
  0
VISUALSTYLE
  5
2A3
102
{ACAD_REACTORS
330
29F
102
}
102
{ACAD_XDICTIONARY
360
2D3
102
}
330
29F
100
AcDbVisualStyle
  2
GouraudWithEdges
 70
     3
 71
     2
 72
     2
 73
     1
 90
        2
 40
0.6
 41
30.0
 62
     5
 63
     7
 74
     1
 91
        0
 64
     7
 65
   257
 75
     1
175
     1
 42
1.0
 92
        0
 66
   257
 43
1.0
 76
     1
 77
     6
 78
     2
 67
     7
 79
     5
170
     0
171
     0
290
     0
174
     0
 93
       13
 44
0.0
173
     0
291
     1
 45
0.0
1001
ACAD
1000
AcDbSavedByObjectVersion
1070
     0
  0
VISUALSTYLE
  5
2A6
102
{ACAD_REACTORS
330
29F
102
}
102
{ACAD_XDICTIONARY
360
2D9
102
}
330
29F
100
AcDbVisualStyle
  2
Hidden
 70
     6
 71
     1
 72
     2
 73
     2
 90
        0
 40
0.6
 41
30.0
 62
     5
 63
     7
 74
     2
 91
        2
 64
     7
 65
   257
 75
     2
175
     1
 42
40.0
 92
        0
 66
   257
 43
1.0
 76
     1
 77
     6
 78
     2
 67
     7
 79
     3
170
     0
171
     0
290
     0
174
     0
 93
        1
 44
0.0
173
     0
291
     0
 45
0.0
1001
ACAD
1000
AcDbSavedByObjectVersion
1070
     0
  0
VISUALSTYLE
  5
2B0
102
{ACAD_REACTORS
330
29F
102
}
102
{ACAD_XDICTIONARY
360
2ED
102
}
330
29F
100
AcDbVisualStyle
  2
JitterOff
 70
    20
 71
     2
 72
     2
 73
     0
 90
        0
 40
0.6
 41
30.0
 62
     5
 63
     7
 74
     1
 91
        4
 64
     7
 65
   257
 75
     1
175
     1
 42
1.0
 92
       10
 66
     7
 43
1.0
 76
     1
 77
     6
 78
     2
 67
     7
 79
     5
170
     0
171
     0
290
     0
174
     0
 93
        1
 44
0.0
173
     0
291
     1
 45
0.0
1001
ACAD
1000
AcDbSavedByObjectVersion
1070
     0
  0
VISUALSTYLE
  5
2AD
102
{ACAD_REACTORS
330
29F
102
}
102
{ACAD_XDICTIONARY
360
2E7
102
}
330
29F
100
AcDbVisualStyle
  2
Linepattern
 70
    14
 71
     2
 72
     2
 73
     0
 90
        0
 40
0.6
 41
30.0
 62
     5
 63
     7
 74
     1
 91
        4
 64
     7
 65
   257
 75
     7
175
     7
 42
1.0
 92
        8
 66
     7
 43
1.0
 76
     1
 77
     6
 78
     2
 67
     7
 79
     5
170
     0
171
     0
290
     0
174
     0
 93
        1
 44
0.0
173
     0
291
     1
 45
0.0
1001
ACAD
1000
AcDbSavedByObjectVersion
1070
     0
  0
VISUALSTYLE
  5
2B1
102
{ACAD_REACTORS
330
29F
102
}
102
{ACAD_XDICTIONARY
360
2EF
102
}
330
29F
100
AcDbVisualStyle
  2
OverhangOff
 70
    21
 71
     2
 72
     2
 73
     0
 90
        0
 40
0.6
 41
30.0
 62
     5
 63
     7
 74
     1
 91
        4
 64
     7
 65
   257
 75
     1
175
     1
 42
1.0
 92
        9
 66
     7
 43
1.0
 76
     1
 77
     6
 78
     2
 67
     7
 79
     5
170
     0
171
     0
290
     0
174
     0
 93
        1
 44
0.0
173
     0
291
     1
 45
0.0
1001
ACAD
1000
AcDbSavedByObjectVersion
1070
     0
  0
VISUALSTYLE
  5
2A8
102
{ACAD_REACTORS
330
29F
102
}
102
{ACAD_XDICTIONARY
360
2DD
102
}
330
29F
100
AcDbVisualStyle
  2
Realistic
 70
     8
 71
     2
 72
     3
 73
     0
 90
        2
 40
0.6
 41
30.0
 62
     5
 63
     7
 74
     0
 91
        0
 64
     7
 65
   257
 75
     1
175
     1
 42
1.0
 92
        8
 66
   257
 43
1.0
 76
     1
 77
     6
 78
     2
 67
     7
 79
     3
170
     0
171
     0
290
     0
174
     0
 93
       13
 44
0.0
173
     0
291
     0
 45
0.0
1001
ACAD
1000
AcDbSavedByObjectVersion
1070
     0
  0
VISUALSTYLE
  5
2B7
102
{ACAD_REACTORS
330
29F
102
}
102
{ACAD_XDICTIONARY
360
2FB
102
}
330
29F
100
AcDbVisualStyle
  2
Shaded
 70
    27
 71
     2
 72
     2
 73
     1
 90
        2
 40
0.6
 41
30.0
 62
     5
 63
     7
 74
     0
 91
        4
 64
     7
 65
   257
 75
     1
175
     1
 42
1.0
 92
        8
 66
   257
 43
1.0
 76
     1
 77
     6
 78
     2
 67
     8
 79
     3
170
     0
171
     0
290
     0
174
     0
 93
        5
 44
0.0
173
     0
291
     0
 45
0.0
1001
ACAD
1000
AcDbSavedByObjectVersion
1070
     0
  0
VISUALSTYLE
  5
2B6
102
{ACAD_REACTORS
330
29F
102
}
102
{ACAD_XDICTIONARY
360
2F9
102
}
330
29F
100
AcDbVisualStyle
  2
Shaded with edges
 70
    26
 71
     2
 72
     2
 73
     1
 90
        2
 40
0.6
 41
30.0
 62
     5
 63
     7
 74
     1
 91
       10
 64
     7
 65
   257
 75
     2
175
     1
 42
1.0
 92
        8
 66
   257
 43
1.0
 76
     1
 77
     6
 78
     2
 67
     7
 79
     3
170
     0
171
     0
290
     0
174
     0
 93
        5
 44
0.0
173
     0
291
     0
 45
0.0
1001
ACAD
1000
AcDbSavedByObjectVersion
1070
     0
  0
VISUALSTYLE
  5
2B3
102
{ACAD_REACTORS
330
29F
102
}
102
{ACAD_XDICTIONARY
360
2F3
102
}
330
29F
100
AcDbVisualStyle
  2
Shades of Gray
 70
    23
 71
     2
 72
     2
 73
     3
 90
        0
 40
0.6
 41
30.0
 62
     5
 63
     7
 74
     2
 91
        2
 64
     7
 65
     7
 75
     1
175
     1
 42
40.0
 92
        8
 66
     7
 43
1.0
 76
     1
 77
     6
 78
     2
 67
     7
 79
     3
170
     0
171
     0
290
     0
174
     0
 93
        1
 44
0.0
173
     0
291
     0
 45
0.0
1001
ACAD
1000
AcDbSavedByObjectVersion
1070
     0
  0
VISUALSTYLE
  5
2B4
102
{ACAD_REACTORS
330
29F
102
}
102
{ACAD_XDICTIONARY
360
2F5
102
}
330
29F
100
AcDbVisualStyle
  2
Sketchy
 70
    24
 71
     1
 72
     2
 73
     2
 90
        0
 40
0.6
 41
30.0
 62
     5
 63
     7
 74
     2
 91
        2
 64
     7
 65
     7
 75
     1
175
     1
 42
40.0
 92
       11
 66
     7
 43
1.0
 76
     1
 77
     6
 78
     2
 67
     7
 79
     6
170
     0
171
     0
290
     0
174
     0
 93
        1
 44
0.0
173
     0
291
     0
 45
0.0
1001
ACAD
1000
AcDbSavedByObjectVersion
1070
     0
  0
VISUALSTYLE
  5
2AC
102
{ACAD_REACTORS
330
29F
102
}
102
{ACAD_XDICTIONARY
360
2E5
102
}
330
29F
100
AcDbVisualStyle
  2
Thicken
 70
    13
 71
     2
 72
     2
 73
     0
 90
        0
 40
0.6
 41
30.0
 62
     5
 63
     7
 74
     1
 91
        4
 64
     7
 65
   257
 75
     1
175
     1
 42
1.0
 92
       12
 66
     7
 43
1.0
 76
     1
 77
     6
 78
     2
 67
     7
 79
     5
170
     0
171
     0
290
     0
174
     0
 93
        1
 44
0.0
173
     0
291
     1
 45
0.0
1001
ACAD
1000
AcDbSavedByObjectVersion
1070
     0
  0
VISUALSTYLE
  5
2A5
102
{ACAD_REACTORS
330
29F
102
}
102
{ACAD_XDICTIONARY
360
2D7
102
}
330
29F
100
AcDbVisualStyle
  2
Wireframe
 70
     5
 71
     0
 72
     2
 73
     0
 90
        0
 40
0.6
 41
30.0
 62
     5
 63
     7
 74
     1
 91
        4
 64
     7
 65
   257
 75
     1
175
     1
 42
1.0
 92
        0
 66
   257
 43
1.0
 76
     1
 77
     6
 78
     2
 67
     7
 79
     3
170
     0
171
     0
290
     0
174
     0
 93
        1
 44
0.0
173
     0
291
     0
 45
0.0
1001
ACAD
1000
AcDbSavedByObjectVersion
1070
     0
  0
VISUALSTYLE
  5
2B5
102
{ACAD_REACTORS
330
29F
102
}
102
{ACAD_XDICTIONARY
360
2F7
102
}
330
29F
100
AcDbVisualStyle
  2
X-Ray
 70
    25
 71
     2
 72
     2
 73
     1
 90
        1
 40
0.5
 41
30.0
 62
     5
 63
     7
 74
     1
 91
        0
 64
     7
 65
   257
 75
     1
175
     1
 42
1.0
 92
        8
 66
     7
 43
1.0
 76
     1
 77
     6
 78
     2
 67
     7
 79
     3
170
     0
171
     0
290
     0
174
     0
 93
       13
 44
0.0
173
     0
291
     0
 45
0.0
1001
ACAD
1000
AcDbSavedByObjectVersion
1070
     0
  0
DICTIONARYVAR
  5
2C6
102
{ACAD_REACTORS
330
2BC
102
}
330
2BC
100
DictionaryVariables
280
     0
  1
1:1
  0
DICTIONARYVAR
  5
2BE
102
{ACAD_REACTORS
330
2BC
102
}
330
2BC
100
DictionaryVariables
280
     0
  1
Standard
  0
DICTIONARYVAR
  5
2BD
102
{ACAD_REACTORS
330
2BC
102
}
330
2BC
100
DictionaryVariables
280
     0
  1
Standard
  0
DICTIONARYVAR
  5
2C2
102
{ACAD_REACTORS
330
2BC
102
}
330
2BC
100
DictionaryVariables
280
     0
  1
2
  0
DICTIONARYVAR
  5
2C3
102
{ACAD_REACTORS
330
2BC
102
}
330
2BC
100
DictionaryVariables
280
     0
  1
1
  0
DICTIONARYVAR
  5
2BF
102
{ACAD_REACTORS
330
2BC
102
}
330
2BC
100
DictionaryVariables
280
     0
  1
0
  0
DICTIONARY
  5
2C9
330
2B
100
AcDbDictionary
280
     1
281
     1
  3
ACAD_XREC_ROUNDTRIP
360
2CA
  0
DICTIONARY
  5
2C7
330
2A
100
AcDbDictionary
280
     1
281
     1
  3
ACAD_XREC_ROUNDTRIP
360
2C8
  0
DICTIONARY
  5
2CB
330
2C
100
AcDbDictionary
280
     1
281
     1
  3
ACAD_XREC_ROUNDTRIP
360
2CC
  0
DICTIONARY
  5
2FE
330
2BB
100
AcDbDictionary
280
     1
281
     1
  3
ACAD_XREC_ROUNDTRIP
360
2FF
  0
DICTIONARY
  5
2D5
330
2A4
100
AcDbDictionary
280
     1
281
     1
  3
ACAD_XREC_ROUNDTRIP
360
2D6
  0
DICTIONARY
  5
2DB
330
2A7
100
AcDbDictionary
280
     1
281
     1
  3
ACAD_XREC_ROUNDTRIP
360
2DC
  0
DICTIONARY
  5
2E3
330
2AB
100
AcDbDictionary
280
     1
281
     1
  3
ACAD_XREC_ROUNDTRIP
360
2E4
  0
DICTIONARY
  5
2EB
330
2AF
100
AcDbDictionary
280
     1
281
     1
  3
ACAD_XREC_ROUNDTRIP
360
2EC
  0
DICTIONARY
  5
2DF
330
2A9
100
AcDbDictionary
280
     1
281
     1
  3
ACAD_XREC_ROUNDTRIP
360
2E0
  0
DICTIONARY
  5
2E1
330
2AA
100
AcDbDictionary
280
     1
281
     1
  3
ACAD_XREC_ROUNDTRIP
360
2E2
  0
DICTIONARY
  5
2F1
330
2B2
100
AcDbDictionary
280
     1
281
     1
  3
ACAD_XREC_ROUNDTRIP
360
2F2
  0
DICTIONARY
  5
2E9
330
2AE
100
AcDbDictionary
280
     1
281
     1
  3
ACAD_XREC_ROUNDTRIP
360
2EA
  0
DICTIONARY
  5
2CD
330
2A0
100
AcDbDictionary
280
     1
281
     1
  3
ACAD_XREC_ROUNDTRIP
360
2CE
  0
DICTIONARY
  5
2CF
330
2A1
100
AcDbDictionary
280
     1
281
     1
  3
ACAD_XREC_ROUNDTRIP
360
2D0
  0
DICTIONARY
  5
2D1
330
2A2
100
AcDbDictionary
280
     1
281
     1
  3
ACAD_XREC_ROUNDTRIP
360
2D2
  0
DICTIONARY
  5
2D3
330
2A3
100
AcDbDictionary
280
     1
281
     1
  3
ACAD_XREC_ROUNDTRIP
360
2D4
  0
DICTIONARY
  5
2D9
330
2A6
100
AcDbDictionary
280
     1
281
     1
  3
ACAD_XREC_ROUNDTRIP
360
2DA
  0
DICTIONARY
  5
2ED
330
2B0
100
AcDbDictionary
280
     1
281
     1
  3
ACAD_XREC_ROUNDTRIP
360
2EE
  0
DICTIONARY
  5
2E7
330
2AD
100
AcDbDictionary
280
     1
281
     1
  3
ACAD_XREC_ROUNDTRIP
360
2E8
  0
DICTIONARY
  5
2EF
330
2B1
100
AcDbDictionary
280
     1
281
     1
  3
ACAD_XREC_ROUNDTRIP
360
2F0
  0
DICTIONARY
  5
2DD
330
2A8
100
AcDbDictionary
280
     1
281
     1
  3
ACAD_XREC_ROUNDTRIP
360
2DE
  0
DICTIONARY
  5
2FB
330
2B7
100
AcDbDictionary
280
     1
281
     1
  3
ACAD_XREC_ROUNDTRIP
360
2FC
  0
DICTIONARY
  5
2F9
330
2B6
100
AcDbDictionary
280
     1
281
     1
  3
ACAD_XREC_ROUNDTRIP
360
2FA
  0
DICTIONARY
  5
2F3
330
2B3
100
AcDbDictionary
280
     1
281
     1
  3
ACAD_XREC_ROUNDTRIP
360
2F4
  0
DICTIONARY
  5
2F5
330
2B4
100
AcDbDictionary
280
     1
281
     1
  3
ACAD_XREC_ROUNDTRIP
360
2F6
  0
DICTIONARY
  5
2E5
330
2AC
100
AcDbDictionary
280
     1
281
     1
  3
ACAD_XREC_ROUNDTRIP
360
2E6
  0
DICTIONARY
  5
2D7
330
2A5
100
AcDbDictionary
280
     1
281
     1
  3
ACAD_XREC_ROUNDTRIP
360
2D8
  0
DICTIONARY
  5
2F7
330
2B5
100
AcDbDictionary
280
     1
281
     1
  3
ACAD_XREC_ROUNDTRIP
360
2F8
  0
XRECORD
  5
2CA
102
{ACAD_REACTORS
330
2C9
102
}
330
2C9
100
AcDbXrecord
280
     1
102
MATERIAL
148
0.0
149
0.0
149
0.0
 93
        0
 94
      127
282
     0
 72
     1
 77
     1
171
     1
175
     1
179
     1
273
     0
  0
XRECORD
  5
2C8
102
{ACAD_REACTORS
330
2C7
102
}
330
2C7
100
AcDbXrecord
280
     1
102
MATERIAL
148
0.0
149
0.0
149
0.0
 93
        0
 94
      127
282
     0
 72
     1
 77
     1
171
     1
175
     1
179
     1
273
     0
  0
XRECORD
  5
2CC
102
{ACAD_REACTORS
330
2CB
102
}
330
2CB
100
AcDbXrecord
280
     1
102
MATERIAL
148
0.0
149
0.0
149
0.0
 93
        0
 94
      127
282
     0
 72
     1
 77
     1
171
     1
175
     1
179
     1
273
     0
  0
XRECORD
  5
2FF
102
{ACAD_REACTORS
330
2FE
102
}
330
2FE
100
AcDbXrecord
280
     1
102
ACAD_ROUNDTRIP_2010_MLEADER_STYLE
  0
XRECORD
  5
2D6
102
{ACAD_REACTORS
330
2D5
102
}
330
2D5
100
AcDbXrecord
280
     1
102
RTVSPropertyOp0
 70
     1
102
RTVSPropertyOp1
 70
     1
102
RTVSPropertyOp2
 70
     1
102
RTVSPropertyOp3
 70
     1
102
RTVSPropertyOp4
 70
     1
102
RTVSPropertyOp5
 70
     1
102
RTVSPropertyOp6
 70
     1
102
RTVSPropertyOp7
 70
     1
102
RTVSPropertyOp8
 70
     1
102
RTVSPropertyOp9
 70
     1
102
RTVSPropertyOp10
 70
     1
102
RTVSPropertyOp11
 70
     1
102
RTVSPropertyOp12
 70
     1
102
RTVSPropertyOp13
 70
     1
102
RTVSPropertyOp14
 70
     1
102
RTVSPropertyOp15
 70
     1
102
RTVSPropertyOp16
 70
     1
102
RTVSPropertyOp17
 70
     1
102
RTVSPropertyOp18
 70
     1
102
RTVSPropertyOp19
 70
     1
102
RTVSPropertyOp20
 70
     1
102
RTVSPropertyOp21
 70
     1
102
RTVSPropertyOp22
 70
     1
102
RTVSPropertyOp23
 70
     1
102
RTVSPropertyOp24
 70
     1
102
RTVSPropertyOp25
 70
     1
102
RTVSPropertyOp26
 70
     1
102
RTVSPropertyOp27
 70
     1
102
RTVSPropertyOp28
 70
     1
102
RTVSPropertyOp29
 70
     1
102
RTVSPropertyOp30
 70
     1
102
RTVSPropertyOp31
 70
     1
102
RTVSPropertyOp32
 70
     1
102
RTVSPropertyOp33
 70
     1
102
RTVSPropertyOp34
 70
     1
102
RTVSPropertyOp35
 70
     1
102
RTVSPropertyOp36
 70
     1
102
RTVSPropertyOp37
 70
     1
102
RTVSPropertyOp38
 70
     1
102
RTVSPropertyOp39
 70
     1
102
RTVSPropertyOp40
 70
     1
102
RTVSPropertyOp41
 70
     1
102
RTVSPropertyOp42
 70
     1
102
RTVSPropertyOp43
 70
     1
102
RTVSPropertyOp44
 70
     1
102
RTVSPropertyOp45
 70
     1
102
RTVSPropertyOp46
 70
     1
102
RTVSPropertyOp47
 70
     1
102
RTVSPropertyOp48
 70
     1
102
RTVSPropertyOp49
 70
     1
102
RTVSPropertyOp50
 70
     1
102
RTVSPropertyOp51
 70
     0
102
RTVSPropertyOp52
 70
     0
102
RTVSPropertyOp53
 70
     1
102
RTVSPropertyOp54
 70
     1
102
RTVSPropertyOp55
 70
     1
102
RTVSPropertyOp56
 70
     1
102
RTVSPropertyOp57
 70
     1
102
RTVSPost2010Prop28
280
     1
102
RTVSPost2010PropOp28
 70
     1
102
RTVSPost2010Prop29
280
     1
102
RTVSPost2010PropOp29
 70
     1
102
RTVSPost2010Prop30
280
     0
102
RTVSPost2010PropOp30
 70
     1
102
RTVSPost2010Prop31
280
     0
102
RTVSPost2010PropOp31
 70
     1
102
RTVSPost2010Prop32
280
     0
102
RTVSPost2010PropOp32
 70
     1
102
RTVSPost2010Prop33
280
     0
102
RTVSPost2010PropOp33
 70
     1
102
RTVSPost2010Prop34
280
     0
102
RTVSPost2010PropOp34
 70
     1
102
RTVSPost2010Prop35
280
     0
102
RTVSPost2010PropOp35
 70
     1
102
RTVSPost2010Prop36
280
     0
102
RTVSPost2010PropOp36
 70
     1
102
RTVSPost2010Prop37
 90
       50
102
RTVSPost2010PropOp37
 70
     1
102
RTVSPost2010Prop38
140
0.0
102
RTVSPost2010PropOp38
 70
     1
102
RTVSPost2010Prop39
140
1.0
102
RTVSPost2010PropOp39
 70
     1
102
RTVSPost2010Prop40
 90
        0
102
RTVSPost2010PropOp40
 70
     1
102
RTVSPost2010Prop41ColorIndex
 90
       18
102
RTVSPost2010Prop41ColorRGB
 90
        0
102
RTVSPost2010PropOp41
 70
     1
102
RTVSPost2010Prop42
 90
       50
102
RTVSPost2010PropOp42
 70
     1
102
RTVSPost2010Prop43
 90
        3
102
RTVSPost2010PropOp43
 70
     1
102
RTVSPost2010Prop44ColorIndex
 90
        5
102
RTVSPost2010Prop44ColorRGB
 90
      255
102
RTVSPost2010PropOp44
 70
     1
102
RTVSPost2010Prop45
280
     0
102
RTVSPost2010PropOp45
 70
     1
102
RTVSPost2010Prop46
 90
       50
102
RTVSPost2010PropOp46
 70
     1
102
RTVSPost2010Prop47
 90
       50
102
RTVSPost2010PropOp47
 70
     1
102
RTVSPost2010Prop48
 90
       50
102
RTVSPost2010PropOp48
 70
     1
102
RTVSPost2010Prop49
280
     0
102
RTVSPost2010PropOp49
 70
     1
102
RTVSPost2010Prop50
 90
       50
102
RTVSPost2010PropOp50
 70
     1
102
RTVSPost2010Prop51ColorIndex
 90
      256
102
RTVSPost2010Prop51ColorRGB
 90
-16777216
102
RTVSPost2010PropOp51
 70
     0
102
RTVSPost2010Prop52
140
1.0
102
RTVSPost2010PropOp52
 70
     0
102
RTVSPost2010Prop53
 90
        2
102
RTVSPost2010PropOp53
 70
     1
102
RTVSPost2010Prop54
  1
strokes_ogs.tif
102
RTVSPost2010PropOp54
 70
     1
102
RTVSPost2010Prop55
280
     0
102
RTVSPost2010PropOp55
 70
     1
102
RTVSPost2010Prop56
140
1.0
102
RTVSPost2010PropOp56
 70
     1
102
RTVSPost2010Prop57
140
1.0
102
RTVSPost2010PropOp57
 70
     1
  0
XRECORD
  5
2DC
102
{ACAD_REACTORS
330
2DB
102
}
330
2DB
100
AcDbXrecord
280
     1
102
RTVSPropertyOp0
 70
     1
102
RTVSPropertyOp1
 70
     1
102
RTVSPropertyOp2
 70
     1
102
RTVSPropertyOp3
 70
     1
102
RTVSPropertyOp4
 70
     1
102
RTVSPropertyOp5
 70
     1
102
RTVSPropertyOp6
 70
     1
102
RTVSPropertyOp7
 70
     1
102
RTVSPropertyOp8
 70
     1
102
RTVSPropertyOp9
 70
     1
102
RTVSPropertyOp10
 70
     1
102
RTVSPropertyOp11
 70
     1
102
RTVSPropertyOp12
 70
     1
102
RTVSPropertyOp13
 70
     1
102
RTVSPropertyOp14
 70
     1
102
RTVSPropertyOp15
 70
     1
102
RTVSPropertyOp16
 70
     1
102
RTVSPropertyOp17
 70
     1
102
RTVSPropertyOp18
 70
     1
102
RTVSPropertyOp19
 70
     1
102
RTVSPropertyOp20
 70
     1
102
RTVSPropertyOp21
 70
     1
102
RTVSPropertyOp22
 70
     1
102
RTVSPropertyOp23
 70
     1
102
RTVSPropertyOp24
 70
     1
102
RTVSPropertyOp25
 70
     1
102
RTVSPropertyOp26
 70
     1
102
RTVSPropertyOp27
 70
     1
102
RTVSPropertyOp28
 70
     1
102
RTVSPropertyOp29
 70
     1
102
RTVSPropertyOp30
 70
     1
102
RTVSPropertyOp31
 70
     1
102
RTVSPropertyOp32
 70
     1
102
RTVSPropertyOp33
 70
     1
102
RTVSPropertyOp34
 70
     1
102
RTVSPropertyOp35
 70
     1
102
RTVSPropertyOp36
 70
     1
102
RTVSPropertyOp37
 70
     1
102
RTVSPropertyOp38
 70
     1
102
RTVSPropertyOp39
 70
     1
102
RTVSPropertyOp40
 70
     1
102
RTVSPropertyOp41
 70
     1
102
RTVSPropertyOp42
 70
     1
102
RTVSPropertyOp43
 70
     1
102
RTVSPropertyOp44
 70
     1
102
RTVSPropertyOp45
 70
     1
102
RTVSPropertyOp46
 70
     1
102
RTVSPropertyOp47
 70
     1
102
RTVSPropertyOp48
 70
     1
102
RTVSPropertyOp49
 70
     1
102
RTVSPropertyOp50
 70
     1
102
RTVSPropertyOp51
 70
     0
102
RTVSPropertyOp52
 70
     0
102
RTVSPropertyOp53
 70
     1
102
RTVSPropertyOp54
 70
     1
102
RTVSPropertyOp55
 70
     1
102
RTVSPropertyOp56
 70
     1
102
RTVSPropertyOp57
 70
     1
102
RTVSPost2010Prop28
280
     0
102
RTVSPost2010PropOp28
 70
     1
102
RTVSPost2010Prop29
280
     1
102
RTVSPost2010PropOp29
 70
     1
102
RTVSPost2010Prop30
280
     1
102
RTVSPost2010PropOp30
 70
     1
102
RTVSPost2010Prop31
280
     0
102
RTVSPost2010PropOp31
 70
     1
102
RTVSPost2010Prop32
280
     0
102
RTVSPost2010PropOp32
 70
     1
102
RTVSPost2010Prop33
280
     0
102
RTVSPost2010PropOp33
 70
     1
102
RTVSPost2010Prop34
280
     0
102
RTVSPost2010PropOp34
 70
     1
102
RTVSPost2010Prop35
280
     0
102
RTVSPost2010PropOp35
 70
     1
102
RTVSPost2010Prop36
280
     0
102
RTVSPost2010PropOp36
 70
     1
102
RTVSPost2010Prop37
 90
       50
102
RTVSPost2010PropOp37
 70
     1
102
RTVSPost2010Prop38
140
0.0
102
RTVSPost2010PropOp38
 70
     1
102
RTVSPost2010Prop39
140
1.0
102
RTVSPost2010PropOp39
 70
     1
102
RTVSPost2010Prop40
 90
        0
102
RTVSPost2010PropOp40
 70
     1
102
RTVSPost2010Prop41ColorIndex
 90
       18
102
RTVSPost2010Prop41ColorRGB
 90
        0
102
RTVSPost2010PropOp41
 70
     1
102
RTVSPost2010Prop42
 90
       50
102
RTVSPost2010PropOp42
 70
     1
102
RTVSPost2010Prop43
 90
        3
102
RTVSPost2010PropOp43
 70
     1
102
RTVSPost2010Prop44ColorIndex
 90
        5
102
RTVSPost2010Prop44ColorRGB
 90
      255
102
RTVSPost2010PropOp44
 70
     1
102
RTVSPost2010Prop45
280
     0
102
RTVSPost2010PropOp45
 70
     1
102
RTVSPost2010Prop46
 90
       50
102
RTVSPost2010PropOp46
 70
     1
102
RTVSPost2010Prop47
 90
       50
102
RTVSPost2010PropOp47
 70
     1
102
RTVSPost2010Prop48
 90
       50
102
RTVSPost2010PropOp48
 70
     1
102
RTVSPost2010Prop49
280
     0
102
RTVSPost2010PropOp49
 70
     1
102
RTVSPost2010Prop50
 90
       50
102
RTVSPost2010PropOp50
 70
     1
102
RTVSPost2010Prop51ColorIndex
 90
      256
102
RTVSPost2010Prop51ColorRGB
 90
-16777216
102
RTVSPost2010PropOp51
 70
     0
102
RTVSPost2010Prop52
140
1.0
102
RTVSPost2010PropOp52
 70
     0
102
RTVSPost2010Prop53
 90
        2
102
RTVSPost2010PropOp53
 70
     1
102
RTVSPost2010Prop54
  1
strokes_ogs.tif
102
RTVSPost2010PropOp54
 70
     1
102
RTVSPost2010Prop55
280
     0
102
RTVSPost2010PropOp55
 70
     1
102
RTVSPost2010Prop56
140
1.0
102
RTVSPost2010PropOp56
 70
     1
102
RTVSPost2010Prop57
140
1.0
102
RTVSPost2010PropOp57
 70
     1
  0
XRECORD
  5
2E4
102
{ACAD_REACTORS
330
2E3
102
}
330
2E3
100
AcDbXrecord
280
     1
102
RTVSPropertyOp0
 70
     1
102
RTVSPropertyOp1
 70
     1
102
RTVSPropertyOp2
 70
     1
102
RTVSPropertyOp3
 70
     1
102
RTVSPropertyOp4
 70
     1
102
RTVSPropertyOp5
 70
     1
102
RTVSPropertyOp6
 70
     1
102
RTVSPropertyOp7
 70
     1
102
RTVSPropertyOp8
 70
     1
102
RTVSPropertyOp9
 70
     1
102
RTVSPropertyOp10
 70
     1
102
RTVSPropertyOp11
 70
     1
102
RTVSPropertyOp12
 70
     1
102
RTVSPropertyOp13
 70
     1
102
RTVSPropertyOp14
 70
     1
102
RTVSPropertyOp15
 70
     1
102
RTVSPropertyOp16
 70
     1
102
RTVSPropertyOp17
 70
     1
102
RTVSPropertyOp18
 70
     1
102
RTVSPropertyOp19
 70
     1
102
RTVSPropertyOp20
 70
     1
102
RTVSPropertyOp21
 70
     1
102
RTVSPropertyOp22
 70
     1
102
RTVSPropertyOp23
 70
     1
102
RTVSPropertyOp24
 70
     1
102
RTVSPropertyOp25
 70
     1
102
RTVSPropertyOp26
 70
     1
102
RTVSPropertyOp27
 70
     1
102
RTVSPropertyOp28
 70
     1
102
RTVSPropertyOp29
 70
     1
102
RTVSPropertyOp30
 70
     1
102
RTVSPropertyOp31
 70
     1
102
RTVSPropertyOp32
 70
     1
102
RTVSPropertyOp33
 70
     1
102
RTVSPropertyOp34
 70
     1
102
RTVSPropertyOp35
 70
     1
102
RTVSPropertyOp36
 70
     1
102
RTVSPropertyOp37
 70
     1
102
RTVSPropertyOp38
 70
     1
102
RTVSPropertyOp39
 70
     1
102
RTVSPropertyOp40
 70
     1
102
RTVSPropertyOp41
 70
     1
102
RTVSPropertyOp42
 70
     1
102
RTVSPropertyOp43
 70
     1
102
RTVSPropertyOp44
 70
     1
102
RTVSPropertyOp45
 70
     1
102
RTVSPropertyOp46
 70
     1
102
RTVSPropertyOp47
 70
     1
102
RTVSPropertyOp48
 70
     1
102
RTVSPropertyOp49
 70
     1
102
RTVSPropertyOp50
 70
     1
102
RTVSPropertyOp51
 70
     0
102
RTVSPropertyOp52
 70
     0
102
RTVSPropertyOp53
 70
     1
102
RTVSPropertyOp54
 70
     1
102
RTVSPropertyOp55
 70
     1
102
RTVSPropertyOp56
 70
     1
102
RTVSPropertyOp57
 70
     1
102
RTVSPost2010Prop28
280
     0
102
RTVSPost2010PropOp28
 70
     1
102
RTVSPost2010Prop29
280
     1
102
RTVSPost2010PropOp29
 70
     1
102
RTVSPost2010Prop30
280
     1
102
RTVSPost2010PropOp30
 70
     1
102
RTVSPost2010Prop31
280
     0
102
RTVSPost2010PropOp31
 70
     1
102
RTVSPost2010Prop32
280
     0
102
RTVSPost2010PropOp32
 70
     1
102
RTVSPost2010Prop33
280
     0
102
RTVSPost2010PropOp33
 70
     1
102
RTVSPost2010Prop34
280
     0
102
RTVSPost2010PropOp34
 70
     1
102
RTVSPost2010Prop35
280
     0
102
RTVSPost2010PropOp35
 70
     1
102
RTVSPost2010Prop36
280
     0
102
RTVSPost2010PropOp36
 70
     1
102
RTVSPost2010Prop37
 90
       50
102
RTVSPost2010PropOp37
 70
     1
102
RTVSPost2010Prop38
140
0.0
102
RTVSPost2010PropOp38
 70
     1
102
RTVSPost2010Prop39
140
1.0
102
RTVSPost2010PropOp39
 70
     1
102
RTVSPost2010Prop40
 90
        0
102
RTVSPost2010PropOp40
 70
     1
102
RTVSPost2010Prop41ColorIndex
 90
       18
102
RTVSPost2010Prop41ColorRGB
 90
        0
102
RTVSPost2010PropOp41
 70
     1
102
RTVSPost2010Prop42
 90
       50
102
RTVSPost2010PropOp42
 70
     1
102
RTVSPost2010Prop43
 90
        3
102
RTVSPost2010PropOp43
 70
     1
102
RTVSPost2010Prop44ColorIndex
 90
        5
102
RTVSPost2010Prop44ColorRGB
 90
      255
102
RTVSPost2010PropOp44
 70
     1
102
RTVSPost2010Prop45
280
     0
102
RTVSPost2010PropOp45
 70
     1
102
RTVSPost2010Prop46
 90
       50
102
RTVSPost2010PropOp46
 70
     1
102
RTVSPost2010Prop47
 90
       50
102
RTVSPost2010PropOp47
 70
     1
102
RTVSPost2010Prop48
 90
       50
102
RTVSPost2010PropOp48
 70
     1
102
RTVSPost2010Prop49
280
     0
102
RTVSPost2010PropOp49
 70
     1
102
RTVSPost2010Prop50
 90
       50
102
RTVSPost2010PropOp50
 70
     1
102
RTVSPost2010Prop51ColorIndex
 90
      256
102
RTVSPost2010Prop51ColorRGB
 90
-16777216
102
RTVSPost2010PropOp51
 70
     0
102
RTVSPost2010Prop52
140
1.0
102
RTVSPost2010PropOp52
 70
     0
102
RTVSPost2010Prop53
 90
        2
102
RTVSPost2010PropOp53
 70
     1
102
RTVSPost2010Prop54
  1
strokes_ogs.tif
102
RTVSPost2010PropOp54
 70
     1
102
RTVSPost2010Prop55
280
     0
102
RTVSPost2010PropOp55
 70
     1
102
RTVSPost2010Prop56
140
1.0
102
RTVSPost2010PropOp56
 70
     1
102
RTVSPost2010Prop57
140
1.0
102
RTVSPost2010PropOp57
 70
     1
  0
XRECORD
  5
2EC
102
{ACAD_REACTORS
330
2EB
102
}
330
2EB
100
AcDbXrecord
280
     1
102
RTVSPropertyOp0
 70
     1
102
RTVSPropertyOp1
 70
     1
102
RTVSPropertyOp2
 70
     1
102
RTVSPropertyOp3
 70
     1
102
RTVSPropertyOp4
 70
     1
102
RTVSPropertyOp5
 70
     1
102
RTVSPropertyOp6
 70
     1
102
RTVSPropertyOp7
 70
     1
102
RTVSPropertyOp8
 70
     1
102
RTVSPropertyOp9
 70
     1
102
RTVSPropertyOp10
 70
     1
102
RTVSPropertyOp11
 70
     1
102
RTVSPropertyOp12
 70
     1
102
RTVSPropertyOp13
 70
     1
102
RTVSPropertyOp14
 70
     1
102
RTVSPropertyOp15
 70
     1
102
RTVSPropertyOp16
 70
     1
102
RTVSPropertyOp17
 70
     1
102
RTVSPropertyOp18
 70
     1
102
RTVSPropertyOp19
 70
     1
102
RTVSPropertyOp20
 70
     1
102
RTVSPropertyOp21
 70
     1
102
RTVSPropertyOp22
 70
     1
102
RTVSPropertyOp23
 70
     1
102
RTVSPropertyOp24
 70
     1
102
RTVSPropertyOp25
 70
     1
102
RTVSPropertyOp26
 70
     1
102
RTVSPropertyOp27
 70
     1
102
RTVSPropertyOp28
 70
     1
102
RTVSPropertyOp29
 70
     1
102
RTVSPropertyOp30
 70
     1
102
RTVSPropertyOp31
 70
     1
102
RTVSPropertyOp32
 70
     1
102
RTVSPropertyOp33
 70
     1
102
RTVSPropertyOp34
 70
     1
102
RTVSPropertyOp35
 70
     1
102
RTVSPropertyOp36
 70
     1
102
RTVSPropertyOp37
 70
     1
102
RTVSPropertyOp38
 70
     1
102
RTVSPropertyOp39
 70
     1
102
RTVSPropertyOp40
 70
     1
102
RTVSPropertyOp41
 70
     1
102
RTVSPropertyOp42
 70
     1
102
RTVSPropertyOp43
 70
     1
102
RTVSPropertyOp44
 70
     1
102
RTVSPropertyOp45
 70
     1
102
RTVSPropertyOp46
 70
     1
102
RTVSPropertyOp47
 70
     1
102
RTVSPropertyOp48
 70
     1
102
RTVSPropertyOp49
 70
     1
102
RTVSPropertyOp50
 70
     1
102
RTVSPropertyOp51
 70
     0
102
RTVSPropertyOp52
 70
     0
102
RTVSPropertyOp53
 70
     1
102
RTVSPropertyOp54
 70
     1
102
RTVSPropertyOp55
 70
     1
102
RTVSPropertyOp56
 70
     1
102
RTVSPropertyOp57
 70
     1
102
RTVSPost2010Prop28
280
     0
102
RTVSPost2010PropOp28
 70
     1
102
RTVSPost2010Prop29
280
     1
102
RTVSPost2010PropOp29
 70
     1
102
RTVSPost2010Prop30
280
     1
102
RTVSPost2010PropOp30
 70
     1
102
RTVSPost2010Prop31
280
     0
102
RTVSPost2010PropOp31
 70
     1
102
RTVSPost2010Prop32
280
     0
102
RTVSPost2010PropOp32
 70
     1
102
RTVSPost2010Prop33
280
     0
102
RTVSPost2010PropOp33
 70
     1
102
RTVSPost2010Prop34
280
     0
102
RTVSPost2010PropOp34
 70
     1
102
RTVSPost2010Prop35
280
     0
102
RTVSPost2010PropOp35
 70
     1
102
RTVSPost2010Prop36
280
     0
102
RTVSPost2010PropOp36
 70
     1
102
RTVSPost2010Prop37
 90
       50
102
RTVSPost2010PropOp37
 70
     1
102
RTVSPost2010Prop38
140
0.0
102
RTVSPost2010PropOp38
 70
     1
102
RTVSPost2010Prop39
140
1.0
102
RTVSPost2010PropOp39
 70
     1
102
RTVSPost2010Prop40
 90
        0
102
RTVSPost2010PropOp40
 70
     1
102
RTVSPost2010Prop41ColorIndex
 90
       18
102
RTVSPost2010Prop41ColorRGB
 90
        0
102
RTVSPost2010PropOp41
 70
     1
102
RTVSPost2010Prop42
 90
       50
102
RTVSPost2010PropOp42
 70
     1
102
RTVSPost2010Prop43
 90
        3
102
RTVSPost2010PropOp43
 70
     1
102
RTVSPost2010Prop44ColorIndex
 90
        5
102
RTVSPost2010Prop44ColorRGB
 90
      255
102
RTVSPost2010PropOp44
 70
     1
102
RTVSPost2010Prop45
280
     0
102
RTVSPost2010PropOp45
 70
     1
102
RTVSPost2010Prop46
 90
       50
102
RTVSPost2010PropOp46
 70
     1
102
RTVSPost2010Prop47
 90
       50
102
RTVSPost2010PropOp47
 70
     1
102
RTVSPost2010Prop48
 90
       50
102
RTVSPost2010PropOp48
 70
     1
102
RTVSPost2010Prop49
280
     0
102
RTVSPost2010PropOp49
 70
     1
102
RTVSPost2010Prop50
 90
       50
102
RTVSPost2010PropOp50
 70
     1
102
RTVSPost2010Prop51ColorIndex
 90
      256
102
RTVSPost2010Prop51ColorRGB
 90
-16777216
102
RTVSPost2010PropOp51
 70
     0
102
RTVSPost2010Prop52
140
1.0
102
RTVSPost2010PropOp52
 70
     0
102
RTVSPost2010Prop53
 90
        2
102
RTVSPost2010PropOp53
 70
     1
102
RTVSPost2010Prop54
  1
strokes_ogs.tif
102
RTVSPost2010PropOp54
 70
     1
102
RTVSPost2010Prop55
280
     0
102
RTVSPost2010PropOp55
 70
     1
102
RTVSPost2010Prop56
140
1.0
102
RTVSPost2010PropOp56
 70
     1
102
RTVSPost2010Prop57
140
1.0
102
RTVSPost2010PropOp57
 70
     1
  0
XRECORD
  5
2E0
102
{ACAD_REACTORS
330
2DF
102
}
330
2DF
100
AcDbXrecord
280
     1
102
RTVSPropertyOp0
 70
     1
102
RTVSPropertyOp1
 70
     1
102
RTVSPropertyOp2
 70
     1
102
RTVSPropertyOp3
 70
     1
102
RTVSPropertyOp4
 70
     1
102
RTVSPropertyOp5
 70
     1
102
RTVSPropertyOp6
 70
     1
102
RTVSPropertyOp7
 70
     1
102
RTVSPropertyOp8
 70
     1
102
RTVSPropertyOp9
 70
     1
102
RTVSPropertyOp10
 70
     1
102
RTVSPropertyOp11
 70
     1
102
RTVSPropertyOp12
 70
     1
102
RTVSPropertyOp13
 70
     1
102
RTVSPropertyOp14
 70
     1
102
RTVSPropertyOp15
 70
     1
102
RTVSPropertyOp16
 70
     1
102
RTVSPropertyOp17
 70
     1
102
RTVSPropertyOp18
 70
     1
102
RTVSPropertyOp19
 70
     1
102
RTVSPropertyOp20
 70
     1
102
RTVSPropertyOp21
 70
     1
102
RTVSPropertyOp22
 70
     1
102
RTVSPropertyOp23
 70
     1
102
RTVSPropertyOp24
 70
     1
102
RTVSPropertyOp25
 70
     1
102
RTVSPropertyOp26
 70
     1
102
RTVSPropertyOp27
 70
     1
102
RTVSPropertyOp28
 70
     1
102
RTVSPropertyOp29
 70
     1
102
RTVSPropertyOp30
 70
     1
102
RTVSPropertyOp31
 70
     1
102
RTVSPropertyOp32
 70
     1
102
RTVSPropertyOp33
 70
     1
102
RTVSPropertyOp34
 70
     1
102
RTVSPropertyOp35
 70
     1
102
RTVSPropertyOp36
 70
     1
102
RTVSPropertyOp37
 70
     1
102
RTVSPropertyOp38
 70
     1
102
RTVSPropertyOp39
 70
     1
102
RTVSPropertyOp40
 70
     1
102
RTVSPropertyOp41
 70
     1
102
RTVSPropertyOp42
 70
     1
102
RTVSPropertyOp43
 70
     1
102
RTVSPropertyOp44
 70
     1
102
RTVSPropertyOp45
 70
     1
102
RTVSPropertyOp46
 70
     1
102
RTVSPropertyOp47
 70
     1
102
RTVSPropertyOp48
 70
     1
102
RTVSPropertyOp49
 70
     1
102
RTVSPropertyOp50
 70
     1
102
RTVSPropertyOp51
 70
     0
102
RTVSPropertyOp52
 70
     0
102
RTVSPropertyOp53
 70
     1
102
RTVSPropertyOp54
 70
     1
102
RTVSPropertyOp55
 70
     1
102
RTVSPropertyOp56
 70
     1
102
RTVSPropertyOp57
 70
     1
102
RTVSPost2010Prop28
280
     0
102
RTVSPost2010PropOp28
 70
     1
102
RTVSPost2010Prop29
280
     1
102
RTVSPost2010PropOp29
 70
     1
102
RTVSPost2010Prop30
280
     1
102
RTVSPost2010PropOp30
 70
     1
102
RTVSPost2010Prop31
280
     0
102
RTVSPost2010PropOp31
 70
     1
102
RTVSPost2010Prop32
280
     0
102
RTVSPost2010PropOp32
 70
     1
102
RTVSPost2010Prop33
280
     0
102
RTVSPost2010PropOp33
 70
     1
102
RTVSPost2010Prop34
280
     0
102
RTVSPost2010PropOp34
 70
     1
102
RTVSPost2010Prop35
280
     0
102
RTVSPost2010PropOp35
 70
     1
102
RTVSPost2010Prop36
280
     0
102
RTVSPost2010PropOp36
 70
     1
102
RTVSPost2010Prop37
 90
       50
102
RTVSPost2010PropOp37
 70
     1
102
RTVSPost2010Prop38
140
0.0
102
RTVSPost2010PropOp38
 70
     1
102
RTVSPost2010Prop39
140
1.0
102
RTVSPost2010PropOp39
 70
     1
102
RTVSPost2010Prop40
 90
        0
102
RTVSPost2010PropOp40
 70
     1
102
RTVSPost2010Prop41ColorIndex
 90
       18
102
RTVSPost2010Prop41ColorRGB
 90
        0
102
RTVSPost2010PropOp41
 70
     1
102
RTVSPost2010Prop42
 90
       50
102
RTVSPost2010PropOp42
 70
     1
102
RTVSPost2010Prop43
 90
        3
102
RTVSPost2010PropOp43
 70
     1
102
RTVSPost2010Prop44ColorIndex
 90
        5
102
RTVSPost2010Prop44ColorRGB
 90
      255
102
RTVSPost2010PropOp44
 70
     1
102
RTVSPost2010Prop45
280
     0
102
RTVSPost2010PropOp45
 70
     1
102
RTVSPost2010Prop46
 90
       50
102
RTVSPost2010PropOp46
 70
     1
102
RTVSPost2010Prop47
 90
       50
102
RTVSPost2010PropOp47
 70
     1
102
RTVSPost2010Prop48
 90
       50
102
RTVSPost2010PropOp48
 70
     1
102
RTVSPost2010Prop49
280
     0
102
RTVSPost2010PropOp49
 70
     1
102
RTVSPost2010Prop50
 90
       50
102
RTVSPost2010PropOp50
 70
     1
102
RTVSPost2010Prop51ColorIndex
 90
      256
102
RTVSPost2010Prop51ColorRGB
 90
-16777216
102
RTVSPost2010PropOp51
 70
     0
102
RTVSPost2010Prop52
140
1.0
102
RTVSPost2010PropOp52
 70
     0
102
RTVSPost2010Prop53
 90
        2
102
RTVSPost2010PropOp53
 70
     1
102
RTVSPost2010Prop54
  1
strokes_ogs.tif
102
RTVSPost2010PropOp54
 70
     1
102
RTVSPost2010Prop55
280
     0
102
RTVSPost2010PropOp55
 70
     1
102
RTVSPost2010Prop56
140
1.0
102
RTVSPost2010PropOp56
 70
     1
102
RTVSPost2010Prop57
140
1.0
102
RTVSPost2010PropOp57
 70
     1
  0
XRECORD
  5
2E2
102
{ACAD_REACTORS
330
2E1
102
}
330
2E1
100
AcDbXrecord
280
     1
102
RTVSPropertyOp0
 70
     1
102
RTVSPropertyOp1
 70
     1
102
RTVSPropertyOp2
 70
     1
102
RTVSPropertyOp3
 70
     1
102
RTVSPropertyOp4
 70
     1
102
RTVSPropertyOp5
 70
     1
102
RTVSPropertyOp6
 70
     1
102
RTVSPropertyOp7
 70
     1
102
RTVSPropertyOp8
 70
     1
102
RTVSPropertyOp9
 70
     1
102
RTVSPropertyOp10
 70
     1
102
RTVSPropertyOp11
 70
     1
102
RTVSPropertyOp12
 70
     1
102
RTVSPropertyOp13
 70
     1
102
RTVSPropertyOp14
 70
     1
102
RTVSPropertyOp15
 70
     1
102
RTVSPropertyOp16
 70
     1
102
RTVSPropertyOp17
 70
     1
102
RTVSPropertyOp18
 70
     1
102
RTVSPropertyOp19
 70
     1
102
RTVSPropertyOp20
 70
     1
102
RTVSPropertyOp21
 70
     1
102
RTVSPropertyOp22
 70
     1
102
RTVSPropertyOp23
 70
     1
102
RTVSPropertyOp24
 70
     1
102
RTVSPropertyOp25
 70
     1
102
RTVSPropertyOp26
 70
     1
102
RTVSPropertyOp27
 70
     1
102
RTVSPropertyOp28
 70
     1
102
RTVSPropertyOp29
 70
     1
102
RTVSPropertyOp30
 70
     1
102
RTVSPropertyOp31
 70
     1
102
RTVSPropertyOp32
 70
     1
102
RTVSPropertyOp33
 70
     1
102
RTVSPropertyOp34
 70
     1
102
RTVSPropertyOp35
 70
     1
102
RTVSPropertyOp36
 70
     1
102
RTVSPropertyOp37
 70
     1
102
RTVSPropertyOp38
 70
     1
102
RTVSPropertyOp39
 70
     1
102
RTVSPropertyOp40
 70
     1
102
RTVSPropertyOp41
 70
     1
102
RTVSPropertyOp42
 70
     1
102
RTVSPropertyOp43
 70
     1
102
RTVSPropertyOp44
 70
     1
102
RTVSPropertyOp45
 70
     1
102
RTVSPropertyOp46
 70
     1
102
RTVSPropertyOp47
 70
     1
102
RTVSPropertyOp48
 70
     1
102
RTVSPropertyOp49
 70
     1
102
RTVSPropertyOp50
 70
     1
102
RTVSPropertyOp51
 70
     0
102
RTVSPropertyOp52
 70
     0
102
RTVSPropertyOp53
 70
     1
102
RTVSPropertyOp54
 70
     1
102
RTVSPropertyOp55
 70
     1
102
RTVSPropertyOp56
 70
     1
102
RTVSPropertyOp57
 70
     1
102
RTVSPost2010Prop28
280
     0
102
RTVSPost2010PropOp28
 70
     1
102
RTVSPost2010Prop29
280
     1
102
RTVSPost2010PropOp29
 70
     1
102
RTVSPost2010Prop30
280
     1
102
RTVSPost2010PropOp30
 70
     1
102
RTVSPost2010Prop31
280
     0
102
RTVSPost2010PropOp31
 70
     1
102
RTVSPost2010Prop32
280
     0
102
RTVSPost2010PropOp32
 70
     1
102
RTVSPost2010Prop33
280
     0
102
RTVSPost2010PropOp33
 70
     1
102
RTVSPost2010Prop34
280
     0
102
RTVSPost2010PropOp34
 70
     1
102
RTVSPost2010Prop35
280
     0
102
RTVSPost2010PropOp35
 70
     1
102
RTVSPost2010Prop36
280
     0
102
RTVSPost2010PropOp36
 70
     1
102
RTVSPost2010Prop37
 90
       50
102
RTVSPost2010PropOp37
 70
     1
102
RTVSPost2010Prop38
140
0.0
102
RTVSPost2010PropOp38
 70
     1
102
RTVSPost2010Prop39
140
1.0
102
RTVSPost2010PropOp39
 70
     1
102
RTVSPost2010Prop40
 90
        0
102
RTVSPost2010PropOp40
 70
     1
102
RTVSPost2010Prop41ColorIndex
 90
       18
102
RTVSPost2010Prop41ColorRGB
 90
        0
102
RTVSPost2010PropOp41
 70
     1
102
RTVSPost2010Prop42
 90
       50
102
RTVSPost2010PropOp42
 70
     1
102
RTVSPost2010Prop43
 90
        3
102
RTVSPost2010PropOp43
 70
     1
102
RTVSPost2010Prop44ColorIndex
 90
        5
102
RTVSPost2010Prop44ColorRGB
 90
      255
102
RTVSPost2010PropOp44
 70
     1
102
RTVSPost2010Prop45
280
     0
102
RTVSPost2010PropOp45
 70
     1
102
RTVSPost2010Prop46
 90
       50
102
RTVSPost2010PropOp46
 70
     1
102
RTVSPost2010Prop47
 90
       50
102
RTVSPost2010PropOp47
 70
     1
102
RTVSPost2010Prop48
 90
       50
102
RTVSPost2010PropOp48
 70
     1
102
RTVSPost2010Prop49
280
     0
102
RTVSPost2010PropOp49
 70
     1
102
RTVSPost2010Prop50
 90
       50
102
RTVSPost2010PropOp50
 70
     1
102
RTVSPost2010Prop51ColorIndex
 90
      256
102
RTVSPost2010Prop51ColorRGB
 90
-16777216
102
RTVSPost2010PropOp51
 70
     0
102
RTVSPost2010Prop52
140
1.0
102
RTVSPost2010PropOp52
 70
     0
102
RTVSPost2010Prop53
 90
        2
102
RTVSPost2010PropOp53
 70
     1
102
RTVSPost2010Prop54
  1
strokes_ogs.tif
102
RTVSPost2010PropOp54
 70
     1
102
RTVSPost2010Prop55
280
     0
102
RTVSPost2010PropOp55
 70
     1
102
RTVSPost2010Prop56
140
1.0
102
RTVSPost2010PropOp56
 70
     1
102
RTVSPost2010Prop57
140
1.0
102
RTVSPost2010PropOp57
 70
     1
  0
XRECORD
  5
2F2
102
{ACAD_REACTORS
330
2F1
102
}
330
2F1
100
AcDbXrecord
280
     1
102
RTVSPropertyOp0
 70
     0
102
RTVSPropertyOp1
 70
     0
102
RTVSPropertyOp2
 70
     0
102
RTVSPropertyOp3
 70
     0
102
RTVSPropertyOp4
 70
     0
102
RTVSPropertyOp5
 70
     0
102
RTVSPropertyOp6
 70
     0
102
RTVSPropertyOp7
 70
     0
102
RTVSPropertyOp8
 70
     0
102
RTVSPropertyOp9
 70
     0
102
RTVSPropertyOp10
 70
     0
102
RTVSPropertyOp11
 70
     0
102
RTVSPropertyOp12
 70
     0
102
RTVSPropertyOp13
 70
     0
102
RTVSPropertyOp14
 70
     2
102
RTVSPropertyOp15
 70
     0
102
RTVSPropertyOp16
 70
     0
102
RTVSPropertyOp17
 70
     0
102
RTVSPropertyOp18
 70
     0
102
RTVSPropertyOp19
 70
     0
102
RTVSPropertyOp20
 70
     0
102
RTVSPropertyOp21
 70
     0
102
RTVSPropertyOp22
 70
     0
102
RTVSPropertyOp23
 70
     0
102
RTVSPropertyOp24
 70
     0
102
RTVSPropertyOp25
 70
     0
102
RTVSPropertyOp26
 70
     0
102
RTVSPropertyOp27
 70
     0
102
RTVSPropertyOp28
 70
     0
102
RTVSPropertyOp29
 70
     0
102
RTVSPropertyOp30
 70
     0
102
RTVSPropertyOp31
 70
     0
102
RTVSPropertyOp32
 70
     0
102
RTVSPropertyOp33
 70
     0
102
RTVSPropertyOp34
 70
     0
102
RTVSPropertyOp35
 70
     0
102
RTVSPropertyOp36
 70
     0
102
RTVSPropertyOp37
 70
     0
102
RTVSPropertyOp38
 70
     0
102
RTVSPropertyOp39
 70
     0
102
RTVSPropertyOp40
 70
     0
102
RTVSPropertyOp41
 70
     0
102
RTVSPropertyOp42
 70
     0
102
RTVSPropertyOp43
 70
     0
102
RTVSPropertyOp44
 70
     0
102
RTVSPropertyOp45
 70
     0
102
RTVSPropertyOp46
 70
     0
102
RTVSPropertyOp47
 70
     0
102
RTVSPropertyOp48
 70
     0
102
RTVSPropertyOp49
 70
     0
102
RTVSPropertyOp50
 70
     0
102
RTVSPropertyOp51
 70
     0
102
RTVSPropertyOp52
 70
     0
102
RTVSPropertyOp53
 70
     0
102
RTVSPropertyOp54
 70
     0
102
RTVSPropertyOp55
 70
     0
102
RTVSPropertyOp56
 70
     0
102
RTVSPropertyOp57
 70
     0
102
RTVSPost2010Prop28
280
     0
102
RTVSPost2010PropOp28
 70
     0
102
RTVSPost2010Prop29
280
     1
102
RTVSPost2010PropOp29
 70
     0
102
RTVSPost2010Prop30
280
     1
102
RTVSPost2010PropOp30
 70
     0
102
RTVSPost2010Prop31
280
     0
102
RTVSPost2010PropOp31
 70
     0
102
RTVSPost2010Prop32
280
     0
102
RTVSPost2010PropOp32
 70
     0
102
RTVSPost2010Prop33
280
     0
102
RTVSPost2010PropOp33
 70
     0
102
RTVSPost2010Prop34
280
     0
102
RTVSPost2010PropOp34
 70
     0
102
RTVSPost2010Prop35
280
     0
102
RTVSPost2010PropOp35
 70
     0
102
RTVSPost2010Prop36
280
     0
102
RTVSPost2010PropOp36
 70
     0
102
RTVSPost2010Prop37
 90
       50
102
RTVSPost2010PropOp37
 70
     0
102
RTVSPost2010Prop38
140
0.0
102
RTVSPost2010PropOp38
 70
     0
102
RTVSPost2010Prop39
140
1.0
102
RTVSPost2010PropOp39
 70
     0
102
RTVSPost2010Prop40
 90
        0
102
RTVSPost2010PropOp40
 70
     0
102
RTVSPost2010Prop41ColorIndex
 90
       18
102
RTVSPost2010Prop41ColorRGB
 90
        0
102
RTVSPost2010PropOp41
 70
     0
102
RTVSPost2010Prop42
 90
       50
102
RTVSPost2010PropOp42
 70
     0
102
RTVSPost2010Prop43
 90
        3
102
RTVSPost2010PropOp43
 70
     0
102
RTVSPost2010Prop44ColorIndex
 90
        5
102
RTVSPost2010Prop44ColorRGB
 90
      255
102
RTVSPost2010PropOp44
 70
     0
102
RTVSPost2010Prop45
280
     0
102
RTVSPost2010PropOp45
 70
     0
102
RTVSPost2010Prop46
 90
       50
102
RTVSPost2010PropOp46
 70
     0
102
RTVSPost2010Prop47
 90
       50
102
RTVSPost2010PropOp47
 70
     0
102
RTVSPost2010Prop48
 90
       50
102
RTVSPost2010PropOp48
 70
     0
102
RTVSPost2010Prop49
280
     0
102
RTVSPost2010PropOp49
 70
     0
102
RTVSPost2010Prop50
 90
       50
102
RTVSPost2010PropOp50
 70
     0
102
RTVSPost2010Prop51ColorIndex
 90
      256
102
RTVSPost2010Prop51ColorRGB
 90
-16777216
102
RTVSPost2010PropOp51
 70
     0
102
RTVSPost2010Prop52
140
1.0
102
RTVSPost2010PropOp52
 70
     0
102
RTVSPost2010Prop53
 90
        2
102
RTVSPost2010PropOp53
 70
     0
102
RTVSPost2010Prop54
  1
strokes_ogs.tif
102
RTVSPost2010PropOp54
 70
     0
102
RTVSPost2010Prop55
280
     0
102
RTVSPost2010PropOp55
 70
     0
102
RTVSPost2010Prop56
140
1.0
102
RTVSPost2010PropOp56
 70
     0
102
RTVSPost2010Prop57
140
1.0
102
RTVSPost2010PropOp57
 70
     0
  0
XRECORD
  5
2EA
102
{ACAD_REACTORS
330
2E9
102
}
330
2E9
100
AcDbXrecord
280
     1
102
RTVSPropertyOp0
 70
     1
102
RTVSPropertyOp1
 70
     1
102
RTVSPropertyOp2
 70
     1
102
RTVSPropertyOp3
 70
     1
102
RTVSPropertyOp4
 70
     1
102
RTVSPropertyOp5
 70
     1
102
RTVSPropertyOp6
 70
     1
102
RTVSPropertyOp7
 70
     1
102
RTVSPropertyOp8
 70
     1
102
RTVSPropertyOp9
 70
     1
102
RTVSPropertyOp10
 70
     1
102
RTVSPropertyOp11
 70
     1
102
RTVSPropertyOp12
 70
     1
102
RTVSPropertyOp13
 70
     1
102
RTVSPropertyOp14
 70
     1
102
RTVSPropertyOp15
 70
     1
102
RTVSPropertyOp16
 70
     1
102
RTVSPropertyOp17
 70
     1
102
RTVSPropertyOp18
 70
     1
102
RTVSPropertyOp19
 70
     1
102
RTVSPropertyOp20
 70
     1
102
RTVSPropertyOp21
 70
     1
102
RTVSPropertyOp22
 70
     1
102
RTVSPropertyOp23
 70
     1
102
RTVSPropertyOp24
 70
     1
102
RTVSPropertyOp25
 70
     1
102
RTVSPropertyOp26
 70
     1
102
RTVSPropertyOp27
 70
     1
102
RTVSPropertyOp28
 70
     1
102
RTVSPropertyOp29
 70
     1
102
RTVSPropertyOp30
 70
     1
102
RTVSPropertyOp31
 70
     1
102
RTVSPropertyOp32
 70
     1
102
RTVSPropertyOp33
 70
     1
102
RTVSPropertyOp34
 70
     1
102
RTVSPropertyOp35
 70
     1
102
RTVSPropertyOp36
 70
     1
102
RTVSPropertyOp37
 70
     1
102
RTVSPropertyOp38
 70
     1
102
RTVSPropertyOp39
 70
     1
102
RTVSPropertyOp40
 70
     1
102
RTVSPropertyOp41
 70
     1
102
RTVSPropertyOp42
 70
     1
102
RTVSPropertyOp43
 70
     1
102
RTVSPropertyOp44
 70
     1
102
RTVSPropertyOp45
 70
     1
102
RTVSPropertyOp46
 70
     1
102
RTVSPropertyOp47
 70
     1
102
RTVSPropertyOp48
 70
     1
102
RTVSPropertyOp49
 70
     1
102
RTVSPropertyOp50
 70
     1
102
RTVSPropertyOp51
 70
     0
102
RTVSPropertyOp52
 70
     0
102
RTVSPropertyOp53
 70
     1
102
RTVSPropertyOp54
 70
     1
102
RTVSPropertyOp55
 70
     1
102
RTVSPropertyOp56
 70
     1
102
RTVSPropertyOp57
 70
     1
102
RTVSPost2010Prop28
280
     0
102
RTVSPost2010PropOp28
 70
     1
102
RTVSPost2010Prop29
280
     1
102
RTVSPost2010PropOp29
 70
     1
102
RTVSPost2010Prop30
280
     1
102
RTVSPost2010PropOp30
 70
     1
102
RTVSPost2010Prop31
280
     0
102
RTVSPost2010PropOp31
 70
     1
102
RTVSPost2010Prop32
280
     0
102
RTVSPost2010PropOp32
 70
     1
102
RTVSPost2010Prop33
280
     0
102
RTVSPost2010PropOp33
 70
     1
102
RTVSPost2010Prop34
280
     0
102
RTVSPost2010PropOp34
 70
     1
102
RTVSPost2010Prop35
280
     0
102
RTVSPost2010PropOp35
 70
     1
102
RTVSPost2010Prop36
280
     0
102
RTVSPost2010PropOp36
 70
     1
102
RTVSPost2010Prop37
 90
       50
102
RTVSPost2010PropOp37
 70
     1
102
RTVSPost2010Prop38
140
0.0
102
RTVSPost2010PropOp38
 70
     1
102
RTVSPost2010Prop39
140
1.0
102
RTVSPost2010PropOp39
 70
     1
102
RTVSPost2010Prop40
 90
        0
102
RTVSPost2010PropOp40
 70
     1
102
RTVSPost2010Prop41ColorIndex
 90
       18
102
RTVSPost2010Prop41ColorRGB
 90
        0
102
RTVSPost2010PropOp41
 70
     1
102
RTVSPost2010Prop42
 90
       50
102
RTVSPost2010PropOp42
 70
     1
102
RTVSPost2010Prop43
 90
        3
102
RTVSPost2010PropOp43
 70
     1
102
RTVSPost2010Prop44ColorIndex
 90
        5
102
RTVSPost2010Prop44ColorRGB
 90
      255
102
RTVSPost2010PropOp44
 70
     1
102
RTVSPost2010Prop45
280
     0
102
RTVSPost2010PropOp45
 70
     1
102
RTVSPost2010Prop46
 90
       50
102
RTVSPost2010PropOp46
 70
     1
102
RTVSPost2010Prop47
 90
       50
102
RTVSPost2010PropOp47
 70
     1
102
RTVSPost2010Prop48
 90
       50
102
RTVSPost2010PropOp48
 70
     1
102
RTVSPost2010Prop49
280
     0
102
RTVSPost2010PropOp49
 70
     1
102
RTVSPost2010Prop50
 90
       50
102
RTVSPost2010PropOp50
 70
     1
102
RTVSPost2010Prop51ColorIndex
 90
      256
102
RTVSPost2010Prop51ColorRGB
 90
-16777216
102
RTVSPost2010PropOp51
 70
     0
102
RTVSPost2010Prop52
140
1.0
102
RTVSPost2010PropOp52
 70
     0
102
RTVSPost2010Prop53
 90
        2
102
RTVSPost2010PropOp53
 70
     1
102
RTVSPost2010Prop54
  1
strokes_ogs.tif
102
RTVSPost2010PropOp54
 70
     1
102
RTVSPost2010Prop55
280
     0
102
RTVSPost2010PropOp55
 70
     1
102
RTVSPost2010Prop56
140
1.0
102
RTVSPost2010PropOp56
 70
     1
102
RTVSPost2010Prop57
140
1.0
102
RTVSPost2010PropOp57
 70
     1
  0
XRECORD
  5
2CE
102
{ACAD_REACTORS
330
2CD
102
}
330
2CD
100
AcDbXrecord
280
     1
102
RTVSPropertyOp0
 70
     1
102
RTVSPropertyOp1
 70
     1
102
RTVSPropertyOp2
 70
     1
102
RTVSPropertyOp3
 70
     1
102
RTVSPropertyOp4
 70
     1
102
RTVSPropertyOp5
 70
     1
102
RTVSPropertyOp6
 70
     1
102
RTVSPropertyOp7
 70
     1
102
RTVSPropertyOp8
 70
     1
102
RTVSPropertyOp9
 70
     1
102
RTVSPropertyOp10
 70
     1
102
RTVSPropertyOp11
 70
     1
102
RTVSPropertyOp12
 70
     1
102
RTVSPropertyOp13
 70
     1
102
RTVSPropertyOp14
 70
     1
102
RTVSPropertyOp15
 70
     1
102
RTVSPropertyOp16
 70
     1
102
RTVSPropertyOp17
 70
     1
102
RTVSPropertyOp18
 70
     1
102
RTVSPropertyOp19
 70
     1
102
RTVSPropertyOp20
 70
     1
102
RTVSPropertyOp21
 70
     1
102
RTVSPropertyOp22
 70
     1
102
RTVSPropertyOp23
 70
     1
102
RTVSPropertyOp24
 70
     1
102
RTVSPropertyOp25
 70
     1
102
RTVSPropertyOp26
 70
     1
102
RTVSPropertyOp27
 70
     1
102
RTVSPropertyOp28
 70
     1
102
RTVSPropertyOp29
 70
     1
102
RTVSPropertyOp30
 70
     1
102
RTVSPropertyOp31
 70
     1
102
RTVSPropertyOp32
 70
     1
102
RTVSPropertyOp33
 70
     1
102
RTVSPropertyOp34
 70
     1
102
RTVSPropertyOp35
 70
     1
102
RTVSPropertyOp36
 70
     1
102
RTVSPropertyOp37
 70
     1
102
RTVSPropertyOp38
 70
     1
102
RTVSPropertyOp39
 70
     1
102
RTVSPropertyOp40
 70
     1
102
RTVSPropertyOp41
 70
     1
102
RTVSPropertyOp42
 70
     1
102
RTVSPropertyOp43
 70
     1
102
RTVSPropertyOp44
 70
     1
102
RTVSPropertyOp45
 70
     1
102
RTVSPropertyOp46
 70
     1
102
RTVSPropertyOp47
 70
     1
102
RTVSPropertyOp48
 70
     1
102
RTVSPropertyOp49
 70
     1
102
RTVSPropertyOp50
 70
     1
102
RTVSPropertyOp51
 70
     0
102
RTVSPropertyOp52
 70
     0
102
RTVSPropertyOp53
 70
     1
102
RTVSPropertyOp54
 70
     1
102
RTVSPropertyOp55
 70
     1
102
RTVSPropertyOp56
 70
     1
102
RTVSPropertyOp57
 70
     1
102
RTVSPost2010Prop28
280
     0
102
RTVSPost2010PropOp28
 70
     1
102
RTVSPost2010Prop29
280
     1
102
RTVSPost2010PropOp29
 70
     1
102
RTVSPost2010Prop30
280
     1
102
RTVSPost2010PropOp30
 70
     1
102
RTVSPost2010Prop31
280
     0
102
RTVSPost2010PropOp31
 70
     1
102
RTVSPost2010Prop32
280
     0
102
RTVSPost2010PropOp32
 70
     1
102
RTVSPost2010Prop33
280
     0
102
RTVSPost2010PropOp33
 70
     1
102
RTVSPost2010Prop34
280
     0
102
RTVSPost2010PropOp34
 70
     1
102
RTVSPost2010Prop35
280
     0
102
RTVSPost2010PropOp35
 70
     1
102
RTVSPost2010Prop36
280
     0
102
RTVSPost2010PropOp36
 70
     1
102
RTVSPost2010Prop37
 90
       50
102
RTVSPost2010PropOp37
 70
     1
102
RTVSPost2010Prop38
140
0.0
102
RTVSPost2010PropOp38
 70
     1
102
RTVSPost2010Prop39
140
1.0
102
RTVSPost2010PropOp39
 70
     1
102
RTVSPost2010Prop40
 90
        0
102
RTVSPost2010PropOp40
 70
     1
102
RTVSPost2010Prop41ColorIndex
 90
       18
102
RTVSPost2010Prop41ColorRGB
 90
        0
102
RTVSPost2010PropOp41
 70
     1
102
RTVSPost2010Prop42
 90
       50
102
RTVSPost2010PropOp42
 70
     1
102
RTVSPost2010Prop43
 90
        3
102
RTVSPost2010PropOp43
 70
     1
102
RTVSPost2010Prop44ColorIndex
 90
        5
102
RTVSPost2010Prop44ColorRGB
 90
      255
102
RTVSPost2010PropOp44
 70
     1
102
RTVSPost2010Prop45
280
     0
102
RTVSPost2010PropOp45
 70
     1
102
RTVSPost2010Prop46
 90
       50
102
RTVSPost2010PropOp46
 70
     1
102
RTVSPost2010Prop47
 90
       50
102
RTVSPost2010PropOp47
 70
     1
102
RTVSPost2010Prop48
 90
       50
102
RTVSPost2010PropOp48
 70
     1
102
RTVSPost2010Prop49
280
     0
102
RTVSPost2010PropOp49
 70
     1
102
RTVSPost2010Prop50
 90
       50
102
RTVSPost2010PropOp50
 70
     1
102
RTVSPost2010Prop51ColorIndex
 90
      256
102
RTVSPost2010Prop51ColorRGB
 90
-16777216
102
RTVSPost2010PropOp51
 70
     0
102
RTVSPost2010Prop52
140
1.0
102
RTVSPost2010PropOp52
 70
     0
102
RTVSPost2010Prop53
 90
        2
102
RTVSPost2010PropOp53
 70
     1
102
RTVSPost2010Prop54
  1
strokes_ogs.tif
102
RTVSPost2010PropOp54
 70
     1
102
RTVSPost2010Prop55
280
     0
102
RTVSPost2010PropOp55
 70
     1
102
RTVSPost2010Prop56
140
1.0
102
RTVSPost2010PropOp56
 70
     1
102
RTVSPost2010Prop57
140
1.0
102
RTVSPost2010PropOp57
 70
     1
  0
XRECORD
  5
2D0
102
{ACAD_REACTORS
330
2CF
102
}
330
2CF
100
AcDbXrecord
280
     1
102
RTVSPropertyOp0
 70
     1
102
RTVSPropertyOp1
 70
     1
102
RTVSPropertyOp2
 70
     1
102
RTVSPropertyOp3
 70
     1
102
RTVSPropertyOp4
 70
     1
102
RTVSPropertyOp5
 70
     1
102
RTVSPropertyOp6
 70
     1
102
RTVSPropertyOp7
 70
     1
102
RTVSPropertyOp8
 70
     1
102
RTVSPropertyOp9
 70
     1
102
RTVSPropertyOp10
 70
     1
102
RTVSPropertyOp11
 70
     1
102
RTVSPropertyOp12
 70
     1
102
RTVSPropertyOp13
 70
     1
102
RTVSPropertyOp14
 70
     1
102
RTVSPropertyOp15
 70
     1
102
RTVSPropertyOp16
 70
     1
102
RTVSPropertyOp17
 70
     1
102
RTVSPropertyOp18
 70
     1
102
RTVSPropertyOp19
 70
     1
102
RTVSPropertyOp20
 70
     1
102
RTVSPropertyOp21
 70
     1
102
RTVSPropertyOp22
 70
     1
102
RTVSPropertyOp23
 70
     1
102
RTVSPropertyOp24
 70
     1
102
RTVSPropertyOp25
 70
     1
102
RTVSPropertyOp26
 70
     1
102
RTVSPropertyOp27
 70
     1
102
RTVSPropertyOp28
 70
     1
102
RTVSPropertyOp29
 70
     1
102
RTVSPropertyOp30
 70
     1
102
RTVSPropertyOp31
 70
     1
102
RTVSPropertyOp32
 70
     1
102
RTVSPropertyOp33
 70
     1
102
RTVSPropertyOp34
 70
     1
102
RTVSPropertyOp35
 70
     1
102
RTVSPropertyOp36
 70
     1
102
RTVSPropertyOp37
 70
     1
102
RTVSPropertyOp38
 70
     1
102
RTVSPropertyOp39
 70
     1
102
RTVSPropertyOp40
 70
     1
102
RTVSPropertyOp41
 70
     1
102
RTVSPropertyOp42
 70
     1
102
RTVSPropertyOp43
 70
     1
102
RTVSPropertyOp44
 70
     1
102
RTVSPropertyOp45
 70
     1
102
RTVSPropertyOp46
 70
     1
102
RTVSPropertyOp47
 70
     1
102
RTVSPropertyOp48
 70
     1
102
RTVSPropertyOp49
 70
     1
102
RTVSPropertyOp50
 70
     1
102
RTVSPropertyOp51
 70
     0
102
RTVSPropertyOp52
 70
     0
102
RTVSPropertyOp53
 70
     1
102
RTVSPropertyOp54
 70
     1
102
RTVSPropertyOp55
 70
     1
102
RTVSPropertyOp56
 70
     1
102
RTVSPropertyOp57
 70
     1
102
RTVSPost2010Prop28
280
     0
102
RTVSPost2010PropOp28
 70
     1
102
RTVSPost2010Prop29
280
     1
102
RTVSPost2010PropOp29
 70
     1
102
RTVSPost2010Prop30
280
     1
102
RTVSPost2010PropOp30
 70
     1
102
RTVSPost2010Prop31
280
     0
102
RTVSPost2010PropOp31
 70
     1
102
RTVSPost2010Prop32
280
     0
102
RTVSPost2010PropOp32
 70
     1
102
RTVSPost2010Prop33
280
     0
102
RTVSPost2010PropOp33
 70
     1
102
RTVSPost2010Prop34
280
     0
102
RTVSPost2010PropOp34
 70
     1
102
RTVSPost2010Prop35
280
     0
102
RTVSPost2010PropOp35
 70
     1
102
RTVSPost2010Prop36
280
     0
102
RTVSPost2010PropOp36
 70
     1
102
RTVSPost2010Prop37
 90
       50
102
RTVSPost2010PropOp37
 70
     1
102
RTVSPost2010Prop38
140
0.0
102
RTVSPost2010PropOp38
 70
     1
102
RTVSPost2010Prop39
140
1.0
102
RTVSPost2010PropOp39
 70
     1
102
RTVSPost2010Prop40
 90
        0
102
RTVSPost2010PropOp40
 70
     1
102
RTVSPost2010Prop41ColorIndex
 90
       18
102
RTVSPost2010Prop41ColorRGB
 90
        0
102
RTVSPost2010PropOp41
 70
     1
102
RTVSPost2010Prop42
 90
       50
102
RTVSPost2010PropOp42
 70
     1
102
RTVSPost2010Prop43
 90
        3
102
RTVSPost2010PropOp43
 70
     1
102
RTVSPost2010Prop44ColorIndex
 90
        5
102
RTVSPost2010Prop44ColorRGB
 90
      255
102
RTVSPost2010PropOp44
 70
     1
102
RTVSPost2010Prop45
280
     0
102
RTVSPost2010PropOp45
 70
     1
102
RTVSPost2010Prop46
 90
       50
102
RTVSPost2010PropOp46
 70
     1
102
RTVSPost2010Prop47
 90
       50
102
RTVSPost2010PropOp47
 70
     1
102
RTVSPost2010Prop48
 90
       50
102
RTVSPost2010PropOp48
 70
     1
102
RTVSPost2010Prop49
280
     0
102
RTVSPost2010PropOp49
 70
     1
102
RTVSPost2010Prop50
 90
       50
102
RTVSPost2010PropOp50
 70
     1
102
RTVSPost2010Prop51ColorIndex
 90
      256
102
RTVSPost2010Prop51ColorRGB
 90
-16777216
102
RTVSPost2010PropOp51
 70
     0
102
RTVSPost2010Prop52
140
1.0
102
RTVSPost2010PropOp52
 70
     0
102
RTVSPost2010Prop53
 90
        2
102
RTVSPost2010PropOp53
 70
     1
102
RTVSPost2010Prop54
  1
strokes_ogs.tif
102
RTVSPost2010PropOp54
 70
     1
102
RTVSPost2010Prop55
280
     0
102
RTVSPost2010PropOp55
 70
     1
102
RTVSPost2010Prop56
140
1.0
102
RTVSPost2010PropOp56
 70
     1
102
RTVSPost2010Prop57
140
1.0
102
RTVSPost2010PropOp57
 70
     1
  0
XRECORD
  5
2D2
102
{ACAD_REACTORS
330
2D1
102
}
330
2D1
100
AcDbXrecord
280
     1
102
RTVSPropertyOp0
 70
     1
102
RTVSPropertyOp1
 70
     1
102
RTVSPropertyOp2
 70
     1
102
RTVSPropertyOp3
 70
     1
102
RTVSPropertyOp4
 70
     1
102
RTVSPropertyOp5
 70
     1
102
RTVSPropertyOp6
 70
     1
102
RTVSPropertyOp7
 70
     1
102
RTVSPropertyOp8
 70
     1
102
RTVSPropertyOp9
 70
     1
102
RTVSPropertyOp10
 70
     1
102
RTVSPropertyOp11
 70
     1
102
RTVSPropertyOp12
 70
     1
102
RTVSPropertyOp13
 70
     1
102
RTVSPropertyOp14
 70
     1
102
RTVSPropertyOp15
 70
     1
102
RTVSPropertyOp16
 70
     1
102
RTVSPropertyOp17
 70
     1
102
RTVSPropertyOp18
 70
     1
102
RTVSPropertyOp19
 70
     1
102
RTVSPropertyOp20
 70
     1
102
RTVSPropertyOp21
 70
     1
102
RTVSPropertyOp22
 70
     1
102
RTVSPropertyOp23
 70
     1
102
RTVSPropertyOp24
 70
     1
102
RTVSPropertyOp25
 70
     1
102
RTVSPropertyOp26
 70
     1
102
RTVSPropertyOp27
 70
     1
102
RTVSPropertyOp28
 70
     1
102
RTVSPropertyOp29
 70
     1
102
RTVSPropertyOp30
 70
     1
102
RTVSPropertyOp31
 70
     1
102
RTVSPropertyOp32
 70
     1
102
RTVSPropertyOp33
 70
     1
102
RTVSPropertyOp34
 70
     1
102
RTVSPropertyOp35
 70
     1
102
RTVSPropertyOp36
 70
     1
102
RTVSPropertyOp37
 70
     1
102
RTVSPropertyOp38
 70
     1
102
RTVSPropertyOp39
 70
     1
102
RTVSPropertyOp40
 70
     1
102
RTVSPropertyOp41
 70
     1
102
RTVSPropertyOp42
 70
     1
102
RTVSPropertyOp43
 70
     1
102
RTVSPropertyOp44
 70
     1
102
RTVSPropertyOp45
 70
     1
102
RTVSPropertyOp46
 70
     1
102
RTVSPropertyOp47
 70
     1
102
RTVSPropertyOp48
 70
     1
102
RTVSPropertyOp49
 70
     1
102
RTVSPropertyOp50
 70
     1
102
RTVSPropertyOp51
 70
     0
102
RTVSPropertyOp52
 70
     0
102
RTVSPropertyOp53
 70
     1
102
RTVSPropertyOp54
 70
     1
102
RTVSPropertyOp55
 70
     1
102
RTVSPropertyOp56
 70
     1
102
RTVSPropertyOp57
 70
     1
102
RTVSPost2010Prop28
280
     0
102
RTVSPost2010PropOp28
 70
     1
102
RTVSPost2010Prop29
280
     1
102
RTVSPost2010PropOp29
 70
     1
102
RTVSPost2010Prop30
280
     1
102
RTVSPost2010PropOp30
 70
     1
102
RTVSPost2010Prop31
280
     0
102
RTVSPost2010PropOp31
 70
     1
102
RTVSPost2010Prop32
280
     0
102
RTVSPost2010PropOp32
 70
     1
102
RTVSPost2010Prop33
280
     0
102
RTVSPost2010PropOp33
 70
     1
102
RTVSPost2010Prop34
280
     0
102
RTVSPost2010PropOp34
 70
     1
102
RTVSPost2010Prop35
280
     0
102
RTVSPost2010PropOp35
 70
     1
102
RTVSPost2010Prop36
280
     0
102
RTVSPost2010PropOp36
 70
     1
102
RTVSPost2010Prop37
 90
       50
102
RTVSPost2010PropOp37
 70
     1
102
RTVSPost2010Prop38
140
0.0
102
RTVSPost2010PropOp38
 70
     1
102
RTVSPost2010Prop39
140
1.0
102
RTVSPost2010PropOp39
 70
     1
102
RTVSPost2010Prop40
 90
        0
102
RTVSPost2010PropOp40
 70
     1
102
RTVSPost2010Prop41ColorIndex
 90
       18
102
RTVSPost2010Prop41ColorRGB
 90
        0
102
RTVSPost2010PropOp41
 70
     1
102
RTVSPost2010Prop42
 90
       50
102
RTVSPost2010PropOp42
 70
     1
102
RTVSPost2010Prop43
 90
        3
102
RTVSPost2010PropOp43
 70
     1
102
RTVSPost2010Prop44ColorIndex
 90
        5
102
RTVSPost2010Prop44ColorRGB
 90
      255
102
RTVSPost2010PropOp44
 70
     1
102
RTVSPost2010Prop45
280
     0
102
RTVSPost2010PropOp45
 70
     1
102
RTVSPost2010Prop46
 90
       50
102
RTVSPost2010PropOp46
 70
     1
102
RTVSPost2010Prop47
 90
       50
102
RTVSPost2010PropOp47
 70
     1
102
RTVSPost2010Prop48
 90
       50
102
RTVSPost2010PropOp48
 70
     1
102
RTVSPost2010Prop49
280
     0
102
RTVSPost2010PropOp49
 70
     1
102
RTVSPost2010Prop50
 90
       50
102
RTVSPost2010PropOp50
 70
     1
102
RTVSPost2010Prop51ColorIndex
 90
      256
102
RTVSPost2010Prop51ColorRGB
 90
-16777216
102
RTVSPost2010PropOp51
 70
     0
102
RTVSPost2010Prop52
140
1.0
102
RTVSPost2010PropOp52
 70
     0
102
RTVSPost2010Prop53
 90
        2
102
RTVSPost2010PropOp53
 70
     1
102
RTVSPost2010Prop54
  1
strokes_ogs.tif
102
RTVSPost2010PropOp54
 70
     1
102
RTVSPost2010Prop55
280
     0
102
RTVSPost2010PropOp55
 70
     1
102
RTVSPost2010Prop56
140
1.0
102
RTVSPost2010PropOp56
 70
     1
102
RTVSPost2010Prop57
140
1.0
102
RTVSPost2010PropOp57
 70
     1
  0
XRECORD
  5
2D4
102
{ACAD_REACTORS
330
2D3
102
}
330
2D3
100
AcDbXrecord
280
     1
102
RTVSPropertyOp0
 70
     1
102
RTVSPropertyOp1
 70
     1
102
RTVSPropertyOp2
 70
     1
102
RTVSPropertyOp3
 70
     1
102
RTVSPropertyOp4
 70
     1
102
RTVSPropertyOp5
 70
     1
102
RTVSPropertyOp6
 70
     1
102
RTVSPropertyOp7
 70
     1
102
RTVSPropertyOp8
 70
     1
102
RTVSPropertyOp9
 70
     1
102
RTVSPropertyOp10
 70
     1
102
RTVSPropertyOp11
 70
     1
102
RTVSPropertyOp12
 70
     1
102
RTVSPropertyOp13
 70
     1
102
RTVSPropertyOp14
 70
     1
102
RTVSPropertyOp15
 70
     1
102
RTVSPropertyOp16
 70
     1
102
RTVSPropertyOp17
 70
     1
102
RTVSPropertyOp18
 70
     1
102
RTVSPropertyOp19
 70
     1
102
RTVSPropertyOp20
 70
     1
102
RTVSPropertyOp21
 70
     1
102
RTVSPropertyOp22
 70
     1
102
RTVSPropertyOp23
 70
     1
102
RTVSPropertyOp24
 70
     1
102
RTVSPropertyOp25
 70
     1
102
RTVSPropertyOp26
 70
     1
102
RTVSPropertyOp27
 70
     1
102
RTVSPropertyOp28
 70
     1
102
RTVSPropertyOp29
 70
     1
102
RTVSPropertyOp30
 70
     1
102
RTVSPropertyOp31
 70
     1
102
RTVSPropertyOp32
 70
     1
102
RTVSPropertyOp33
 70
     1
102
RTVSPropertyOp34
 70
     1
102
RTVSPropertyOp35
 70
     1
102
RTVSPropertyOp36
 70
     1
102
RTVSPropertyOp37
 70
     1
102
RTVSPropertyOp38
 70
     1
102
RTVSPropertyOp39
 70
     1
102
RTVSPropertyOp40
 70
     1
102
RTVSPropertyOp41
 70
     1
102
RTVSPropertyOp42
 70
     1
102
RTVSPropertyOp43
 70
     1
102
RTVSPropertyOp44
 70
     1
102
RTVSPropertyOp45
 70
     1
102
RTVSPropertyOp46
 70
     1
102
RTVSPropertyOp47
 70
     1
102
RTVSPropertyOp48
 70
     1
102
RTVSPropertyOp49
 70
     1
102
RTVSPropertyOp50
 70
     1
102
RTVSPropertyOp51
 70
     0
102
RTVSPropertyOp52
 70
     0
102
RTVSPropertyOp53
 70
     1
102
RTVSPropertyOp54
 70
     1
102
RTVSPropertyOp55
 70
     1
102
RTVSPropertyOp56
 70
     1
102
RTVSPropertyOp57
 70
     1
102
RTVSPost2010Prop28
280
     0
102
RTVSPost2010PropOp28
 70
     1
102
RTVSPost2010Prop29
280
     1
102
RTVSPost2010PropOp29
 70
     1
102
RTVSPost2010Prop30
280
     1
102
RTVSPost2010PropOp30
 70
     1
102
RTVSPost2010Prop31
280
     0
102
RTVSPost2010PropOp31
 70
     1
102
RTVSPost2010Prop32
280
     0
102
RTVSPost2010PropOp32
 70
     1
102
RTVSPost2010Prop33
280
     0
102
RTVSPost2010PropOp33
 70
     1
102
RTVSPost2010Prop34
280
     0
102
RTVSPost2010PropOp34
 70
     1
102
RTVSPost2010Prop35
280
     0
102
RTVSPost2010PropOp35
 70
     1
102
RTVSPost2010Prop36
280
     0
102
RTVSPost2010PropOp36
 70
     1
102
RTVSPost2010Prop37
 90
       50
102
RTVSPost2010PropOp37
 70
     1
102
RTVSPost2010Prop38
140
0.0
102
RTVSPost2010PropOp38
 70
     1
102
RTVSPost2010Prop39
140
1.0
102
RTVSPost2010PropOp39
 70
     1
102
RTVSPost2010Prop40
 90
        0
102
RTVSPost2010PropOp40
 70
     1
102
RTVSPost2010Prop41ColorIndex
 90
       18
102
RTVSPost2010Prop41ColorRGB
 90
        0
102
RTVSPost2010PropOp41
 70
     1
102
RTVSPost2010Prop42
 90
       50
102
RTVSPost2010PropOp42
 70
     1
102
RTVSPost2010Prop43
 90
        3
102
RTVSPost2010PropOp43
 70
     1
102
RTVSPost2010Prop44ColorIndex
 90
        5
102
RTVSPost2010Prop44ColorRGB
 90
      255
102
RTVSPost2010PropOp44
 70
     1
102
RTVSPost2010Prop45
280
     0
102
RTVSPost2010PropOp45
 70
     1
102
RTVSPost2010Prop46
 90
       50
102
RTVSPost2010PropOp46
 70
     1
102
RTVSPost2010Prop47
 90
       50
102
RTVSPost2010PropOp47
 70
     1
102
RTVSPost2010Prop48
 90
       50
102
RTVSPost2010PropOp48
 70
     1
102
RTVSPost2010Prop49
280
     0
102
RTVSPost2010PropOp49
 70
     1
102
RTVSPost2010Prop50
 90
       50
102
RTVSPost2010PropOp50
 70
     1
102
RTVSPost2010Prop51ColorIndex
 90
      256
102
RTVSPost2010Prop51ColorRGB
 90
-16777216
102
RTVSPost2010PropOp51
 70
     0
102
RTVSPost2010Prop52
140
1.0
102
RTVSPost2010PropOp52
 70
     0
102
RTVSPost2010Prop53
 90
        2
102
RTVSPost2010PropOp53
 70
     1
102
RTVSPost2010Prop54
  1
strokes_ogs.tif
102
RTVSPost2010PropOp54
 70
     1
102
RTVSPost2010Prop55
280
     0
102
RTVSPost2010PropOp55
 70
     1
102
RTVSPost2010Prop56
140
1.0
102
RTVSPost2010PropOp56
 70
     1
102
RTVSPost2010Prop57
140
1.0
102
RTVSPost2010PropOp57
 70
     1
  0
XRECORD
  5
2DA
102
{ACAD_REACTORS
330
2D9
102
}
330
2D9
100
AcDbXrecord
280
     1
102
RTVSPropertyOp0
 70
     1
102
RTVSPropertyOp1
 70
     1
102
RTVSPropertyOp2
 70
     1
102
RTVSPropertyOp3
 70
     1
102
RTVSPropertyOp4
 70
     1
102
RTVSPropertyOp5
 70
     1
102
RTVSPropertyOp6
 70
     1
102
RTVSPropertyOp7
 70
     1
102
RTVSPropertyOp8
 70
     1
102
RTVSPropertyOp9
 70
     1
102
RTVSPropertyOp10
 70
     1
102
RTVSPropertyOp11
 70
     1
102
RTVSPropertyOp12
 70
     1
102
RTVSPropertyOp13
 70
     1
102
RTVSPropertyOp14
 70
     1
102
RTVSPropertyOp15
 70
     1
102
RTVSPropertyOp16
 70
     1
102
RTVSPropertyOp17
 70
     1
102
RTVSPropertyOp18
 70
     1
102
RTVSPropertyOp19
 70
     1
102
RTVSPropertyOp20
 70
     1
102
RTVSPropertyOp21
 70
     1
102
RTVSPropertyOp22
 70
     1
102
RTVSPropertyOp23
 70
     1
102
RTVSPropertyOp24
 70
     1
102
RTVSPropertyOp25
 70
     1
102
RTVSPropertyOp26
 70
     1
102
RTVSPropertyOp27
 70
     1
102
RTVSPropertyOp28
 70
     1
102
RTVSPropertyOp29
 70
     1
102
RTVSPropertyOp30
 70
     1
102
RTVSPropertyOp31
 70
     1
102
RTVSPropertyOp32
 70
     1
102
RTVSPropertyOp33
 70
     1
102
RTVSPropertyOp34
 70
     1
102
RTVSPropertyOp35
 70
     1
102
RTVSPropertyOp36
 70
     1
102
RTVSPropertyOp37
 70
     1
102
RTVSPropertyOp38
 70
     1
102
RTVSPropertyOp39
 70
     1
102
RTVSPropertyOp40
 70
     1
102
RTVSPropertyOp41
 70
     1
102
RTVSPropertyOp42
 70
     1
102
RTVSPropertyOp43
 70
     1
102
RTVSPropertyOp44
 70
     1
102
RTVSPropertyOp45
 70
     1
102
RTVSPropertyOp46
 70
     1
102
RTVSPropertyOp47
 70
     1
102
RTVSPropertyOp48
 70
     1
102
RTVSPropertyOp49
 70
     1
102
RTVSPropertyOp50
 70
     1
102
RTVSPropertyOp51
 70
     0
102
RTVSPropertyOp52
 70
     0
102
RTVSPropertyOp53
 70
     1
102
RTVSPropertyOp54
 70
     1
102
RTVSPropertyOp55
 70
     1
102
RTVSPropertyOp56
 70
     1
102
RTVSPropertyOp57
 70
     1
102
RTVSPost2010Prop28
280
     0
102
RTVSPost2010PropOp28
 70
     1
102
RTVSPost2010Prop29
280
     1
102
RTVSPost2010PropOp29
 70
     1
102
RTVSPost2010Prop30
280
     1
102
RTVSPost2010PropOp30
 70
     1
102
RTVSPost2010Prop31
280
     0
102
RTVSPost2010PropOp31
 70
     1
102
RTVSPost2010Prop32
280
     0
102
RTVSPost2010PropOp32
 70
     1
102
RTVSPost2010Prop33
280
     0
102
RTVSPost2010PropOp33
 70
     1
102
RTVSPost2010Prop34
280
     0
102
RTVSPost2010PropOp34
 70
     1
102
RTVSPost2010Prop35
280
     0
102
RTVSPost2010PropOp35
 70
     1
102
RTVSPost2010Prop36
280
     0
102
RTVSPost2010PropOp36
 70
     1
102
RTVSPost2010Prop37
 90
       50
102
RTVSPost2010PropOp37
 70
     1
102
RTVSPost2010Prop38
140
0.0
102
RTVSPost2010PropOp38
 70
     1
102
RTVSPost2010Prop39
140
1.0
102
RTVSPost2010PropOp39
 70
     1
102
RTVSPost2010Prop40
 90
        0
102
RTVSPost2010PropOp40
 70
     1
102
RTVSPost2010Prop41ColorIndex
 90
       18
102
RTVSPost2010Prop41ColorRGB
 90
        0
102
RTVSPost2010PropOp41
 70
     1
102
RTVSPost2010Prop42
 90
       50
102
RTVSPost2010PropOp42
 70
     1
102
RTVSPost2010Prop43
 90
        3
102
RTVSPost2010PropOp43
 70
     1
102
RTVSPost2010Prop44ColorIndex
 90
        5
102
RTVSPost2010Prop44ColorRGB
 90
      255
102
RTVSPost2010PropOp44
 70
     1
102
RTVSPost2010Prop45
280
     0
102
RTVSPost2010PropOp45
 70
     1
102
RTVSPost2010Prop46
 90
       50
102
RTVSPost2010PropOp46
 70
     1
102
RTVSPost2010Prop47
 90
       50
102
RTVSPost2010PropOp47
 70
     1
102
RTVSPost2010Prop48
 90
       50
102
RTVSPost2010PropOp48
 70
     1
102
RTVSPost2010Prop49
280
     0
102
RTVSPost2010PropOp49
 70
     1
102
RTVSPost2010Prop50
 90
       50
102
RTVSPost2010PropOp50
 70
     1
102
RTVSPost2010Prop51ColorIndex
 90
      256
102
RTVSPost2010Prop51ColorRGB
 90
-16777216
102
RTVSPost2010PropOp51
 70
     0
102
RTVSPost2010Prop52
140
1.0
102
RTVSPost2010PropOp52
 70
     0
102
RTVSPost2010Prop53
 90
        2
102
RTVSPost2010PropOp53
 70
     1
102
RTVSPost2010Prop54
  1
strokes_ogs.tif
102
RTVSPost2010PropOp54
 70
     1
102
RTVSPost2010Prop55
280
     0
102
RTVSPost2010PropOp55
 70
     1
102
RTVSPost2010Prop56
140
1.0
102
RTVSPost2010PropOp56
 70
     1
102
RTVSPost2010Prop57
140
1.0
102
RTVSPost2010PropOp57
 70
     1
  0
XRECORD
  5
2EE
102
{ACAD_REACTORS
330
2ED
102
}
330
2ED
100
AcDbXrecord
280
     1
102
RTVSPropertyOp0
 70
     0
102
RTVSPropertyOp1
 70
     0
102
RTVSPropertyOp2
 70
     0
102
RTVSPropertyOp3
 70
     0
102
RTVSPropertyOp4
 70
     0
102
RTVSPropertyOp5
 70
     0
102
RTVSPropertyOp6
 70
     0
102
RTVSPropertyOp7
 70
     0
102
RTVSPropertyOp8
 70
     0
102
RTVSPropertyOp9
 70
     0
102
RTVSPropertyOp10
 70
     0
102
RTVSPropertyOp11
 70
     0
102
RTVSPropertyOp12
 70
     0
102
RTVSPropertyOp13
 70
     0
102
RTVSPropertyOp14
 70
     2
102
RTVSPropertyOp15
 70
     0
102
RTVSPropertyOp16
 70
     0
102
RTVSPropertyOp17
 70
     0
102
RTVSPropertyOp18
 70
     0
102
RTVSPropertyOp19
 70
     0
102
RTVSPropertyOp20
 70
     0
102
RTVSPropertyOp21
 70
     0
102
RTVSPropertyOp22
 70
     0
102
RTVSPropertyOp23
 70
     0
102
RTVSPropertyOp24
 70
     0
102
RTVSPropertyOp25
 70
     0
102
RTVSPropertyOp26
 70
     0
102
RTVSPropertyOp27
 70
     0
102
RTVSPropertyOp28
 70
     0
102
RTVSPropertyOp29
 70
     0
102
RTVSPropertyOp30
 70
     0
102
RTVSPropertyOp31
 70
     0
102
RTVSPropertyOp32
 70
     0
102
RTVSPropertyOp33
 70
     0
102
RTVSPropertyOp34
 70
     0
102
RTVSPropertyOp35
 70
     0
102
RTVSPropertyOp36
 70
     0
102
RTVSPropertyOp37
 70
     0
102
RTVSPropertyOp38
 70
     0
102
RTVSPropertyOp39
 70
     0
102
RTVSPropertyOp40
 70
     0
102
RTVSPropertyOp41
 70
     0
102
RTVSPropertyOp42
 70
     0
102
RTVSPropertyOp43
 70
     0
102
RTVSPropertyOp44
 70
     0
102
RTVSPropertyOp45
 70
     0
102
RTVSPropertyOp46
 70
     0
102
RTVSPropertyOp47
 70
     0
102
RTVSPropertyOp48
 70
     0
102
RTVSPropertyOp49
 70
     0
102
RTVSPropertyOp50
 70
     0
102
RTVSPropertyOp51
 70
     0
102
RTVSPropertyOp52
 70
     0
102
RTVSPropertyOp53
 70
     0
102
RTVSPropertyOp54
 70
     0
102
RTVSPropertyOp55
 70
     0
102
RTVSPropertyOp56
 70
     0
102
RTVSPropertyOp57
 70
     0
102
RTVSPost2010Prop28
280
     0
102
RTVSPost2010PropOp28
 70
     0
102
RTVSPost2010Prop29
280
     1
102
RTVSPost2010PropOp29
 70
     0
102
RTVSPost2010Prop30
280
     1
102
RTVSPost2010PropOp30
 70
     0
102
RTVSPost2010Prop31
280
     0
102
RTVSPost2010PropOp31
 70
     0
102
RTVSPost2010Prop32
280
     0
102
RTVSPost2010PropOp32
 70
     0
102
RTVSPost2010Prop33
280
     0
102
RTVSPost2010PropOp33
 70
     0
102
RTVSPost2010Prop34
280
     0
102
RTVSPost2010PropOp34
 70
     0
102
RTVSPost2010Prop35
280
     0
102
RTVSPost2010PropOp35
 70
     0
102
RTVSPost2010Prop36
280
     0
102
RTVSPost2010PropOp36
 70
     0
102
RTVSPost2010Prop37
 90
       50
102
RTVSPost2010PropOp37
 70
     0
102
RTVSPost2010Prop38
140
0.0
102
RTVSPost2010PropOp38
 70
     0
102
RTVSPost2010Prop39
140
1.0
102
RTVSPost2010PropOp39
 70
     0
102
RTVSPost2010Prop40
 90
        0
102
RTVSPost2010PropOp40
 70
     0
102
RTVSPost2010Prop41ColorIndex
 90
       18
102
RTVSPost2010Prop41ColorRGB
 90
        0
102
RTVSPost2010PropOp41
 70
     0
102
RTVSPost2010Prop42
 90
       50
102
RTVSPost2010PropOp42
 70
     0
102
RTVSPost2010Prop43
 90
        3
102
RTVSPost2010PropOp43
 70
     0
102
RTVSPost2010Prop44ColorIndex
 90
        5
102
RTVSPost2010Prop44ColorRGB
 90
      255
102
RTVSPost2010PropOp44
 70
     0
102
RTVSPost2010Prop45
280
     0
102
RTVSPost2010PropOp45
 70
     0
102
RTVSPost2010Prop46
 90
       50
102
RTVSPost2010PropOp46
 70
     0
102
RTVSPost2010Prop47
 90
       50
102
RTVSPost2010PropOp47
 70
     0
102
RTVSPost2010Prop48
 90
       50
102
RTVSPost2010PropOp48
 70
     0
102
RTVSPost2010Prop49
280
     0
102
RTVSPost2010PropOp49
 70
     0
102
RTVSPost2010Prop50
 90
       50
102
RTVSPost2010PropOp50
 70
     0
102
RTVSPost2010Prop51ColorIndex
 90
      256
102
RTVSPost2010Prop51ColorRGB
 90
-16777216
102
RTVSPost2010PropOp51
 70
     0
102
RTVSPost2010Prop52
140
1.0
102
RTVSPost2010PropOp52
 70
     0
102
RTVSPost2010Prop53
 90
        2
102
RTVSPost2010PropOp53
 70
     0
102
RTVSPost2010Prop54
  1
strokes_ogs.tif
102
RTVSPost2010PropOp54
 70
     0
102
RTVSPost2010Prop55
280
     0
102
RTVSPost2010PropOp55
 70
     0
102
RTVSPost2010Prop56
140
1.0
102
RTVSPost2010PropOp56
 70
     0
102
RTVSPost2010Prop57
140
1.0
102
RTVSPost2010PropOp57
 70
     0
  0
XRECORD
  5
2E8
102
{ACAD_REACTORS
330
2E7
102
}
330
2E7
100
AcDbXrecord
280
     1
102
RTVSPropertyOp0
 70
     1
102
RTVSPropertyOp1
 70
     1
102
RTVSPropertyOp2
 70
     1
102
RTVSPropertyOp3
 70
     1
102
RTVSPropertyOp4
 70
     1
102
RTVSPropertyOp5
 70
     1
102
RTVSPropertyOp6
 70
     1
102
RTVSPropertyOp7
 70
     1
102
RTVSPropertyOp8
 70
     1
102
RTVSPropertyOp9
 70
     1
102
RTVSPropertyOp10
 70
     1
102
RTVSPropertyOp11
 70
     1
102
RTVSPropertyOp12
 70
     1
102
RTVSPropertyOp13
 70
     1
102
RTVSPropertyOp14
 70
     1
102
RTVSPropertyOp15
 70
     1
102
RTVSPropertyOp16
 70
     1
102
RTVSPropertyOp17
 70
     1
102
RTVSPropertyOp18
 70
     1
102
RTVSPropertyOp19
 70
     1
102
RTVSPropertyOp20
 70
     1
102
RTVSPropertyOp21
 70
     1
102
RTVSPropertyOp22
 70
     1
102
RTVSPropertyOp23
 70
     1
102
RTVSPropertyOp24
 70
     1
102
RTVSPropertyOp25
 70
     1
102
RTVSPropertyOp26
 70
     1
102
RTVSPropertyOp27
 70
     1
102
RTVSPropertyOp28
 70
     1
102
RTVSPropertyOp29
 70
     1
102
RTVSPropertyOp30
 70
     1
102
RTVSPropertyOp31
 70
     1
102
RTVSPropertyOp32
 70
     1
102
RTVSPropertyOp33
 70
     1
102
RTVSPropertyOp34
 70
     1
102
RTVSPropertyOp35
 70
     1
102
RTVSPropertyOp36
 70
     1
102
RTVSPropertyOp37
 70
     1
102
RTVSPropertyOp38
 70
     1
102
RTVSPropertyOp39
 70
     1
102
RTVSPropertyOp40
 70
     1
102
RTVSPropertyOp41
 70
     1
102
RTVSPropertyOp42
 70
     1
102
RTVSPropertyOp43
 70
     1
102
RTVSPropertyOp44
 70
     1
102
RTVSPropertyOp45
 70
     1
102
RTVSPropertyOp46
 70
     1
102
RTVSPropertyOp47
 70
     1
102
RTVSPropertyOp48
 70
     1
102
RTVSPropertyOp49
 70
     1
102
RTVSPropertyOp50
 70
     1
102
RTVSPropertyOp51
 70
     0
102
RTVSPropertyOp52
 70
     0
102
RTVSPropertyOp53
 70
     1
102
RTVSPropertyOp54
 70
     1
102
RTVSPropertyOp55
 70
     1
102
RTVSPropertyOp56
 70
     1
102
RTVSPropertyOp57
 70
     1
102
RTVSPost2010Prop28
280
     0
102
RTVSPost2010PropOp28
 70
     1
102
RTVSPost2010Prop29
280
     1
102
RTVSPost2010PropOp29
 70
     1
102
RTVSPost2010Prop30
280
     1
102
RTVSPost2010PropOp30
 70
     1
102
RTVSPost2010Prop31
280
     0
102
RTVSPost2010PropOp31
 70
     1
102
RTVSPost2010Prop32
280
     0
102
RTVSPost2010PropOp32
 70
     1
102
RTVSPost2010Prop33
280
     0
102
RTVSPost2010PropOp33
 70
     1
102
RTVSPost2010Prop34
280
     0
102
RTVSPost2010PropOp34
 70
     1
102
RTVSPost2010Prop35
280
     0
102
RTVSPost2010PropOp35
 70
     1
102
RTVSPost2010Prop36
280
     0
102
RTVSPost2010PropOp36
 70
     1
102
RTVSPost2010Prop37
 90
       50
102
RTVSPost2010PropOp37
 70
     1
102
RTVSPost2010Prop38
140
0.0
102
RTVSPost2010PropOp38
 70
     1
102
RTVSPost2010Prop39
140
1.0
102
RTVSPost2010PropOp39
 70
     1
102
RTVSPost2010Prop40
 90
        0
102
RTVSPost2010PropOp40
 70
     1
102
RTVSPost2010Prop41ColorIndex
 90
       18
102
RTVSPost2010Prop41ColorRGB
 90
        0
102
RTVSPost2010PropOp41
 70
     1
102
RTVSPost2010Prop42
 90
       50
102
RTVSPost2010PropOp42
 70
     1
102
RTVSPost2010Prop43
 90
        3
102
RTVSPost2010PropOp43
 70
     1
102
RTVSPost2010Prop44ColorIndex
 90
        5
102
RTVSPost2010Prop44ColorRGB
 90
      255
102
RTVSPost2010PropOp44
 70
     1
102
RTVSPost2010Prop45
280
     0
102
RTVSPost2010PropOp45
 70
     1
102
RTVSPost2010Prop46
 90
       50
102
RTVSPost2010PropOp46
 70
     1
102
RTVSPost2010Prop47
 90
       50
102
RTVSPost2010PropOp47
 70
     1
102
RTVSPost2010Prop48
 90
       50
102
RTVSPost2010PropOp48
 70
     1
102
RTVSPost2010Prop49
280
     0
102
RTVSPost2010PropOp49
 70
     1
102
RTVSPost2010Prop50
 90
       50
102
RTVSPost2010PropOp50
 70
     1
102
RTVSPost2010Prop51ColorIndex
 90
      256
102
RTVSPost2010Prop51ColorRGB
 90
-16777216
102
RTVSPost2010PropOp51
 70
     0
102
RTVSPost2010Prop52
140
1.0
102
RTVSPost2010PropOp52
 70
     0
102
RTVSPost2010Prop53
 90
        2
102
RTVSPost2010PropOp53
 70
     1
102
RTVSPost2010Prop54
  1
strokes_ogs.tif
102
RTVSPost2010PropOp54
 70
     1
102
RTVSPost2010Prop55
280
     0
102
RTVSPost2010PropOp55
 70
     1
102
RTVSPost2010Prop56
140
1.0
102
RTVSPost2010PropOp56
 70
     1
102
RTVSPost2010Prop57
140
1.0
102
RTVSPost2010PropOp57
 70
     1
  0
XRECORD
  5
2F0
102
{ACAD_REACTORS
330
2EF
102
}
330
2EF
100
AcDbXrecord
280
     1
102
RTVSPropertyOp0
 70
     0
102
RTVSPropertyOp1
 70
     0
102
RTVSPropertyOp2
 70
     0
102
RTVSPropertyOp3
 70
     0
102
RTVSPropertyOp4
 70
     0
102
RTVSPropertyOp5
 70
     0
102
RTVSPropertyOp6
 70
     0
102
RTVSPropertyOp7
 70
     0
102
RTVSPropertyOp8
 70
     0
102
RTVSPropertyOp9
 70
     0
102
RTVSPropertyOp10
 70
     0
102
RTVSPropertyOp11
 70
     0
102
RTVSPropertyOp12
 70
     0
102
RTVSPropertyOp13
 70
     0
102
RTVSPropertyOp14
 70
     2
102
RTVSPropertyOp15
 70
     0
102
RTVSPropertyOp16
 70
     0
102
RTVSPropertyOp17
 70
     0
102
RTVSPropertyOp18
 70
     0
102
RTVSPropertyOp19
 70
     0
102
RTVSPropertyOp20
 70
     0
102
RTVSPropertyOp21
 70
     0
102
RTVSPropertyOp22
 70
     0
102
RTVSPropertyOp23
 70
     0
102
RTVSPropertyOp24
 70
     0
102
RTVSPropertyOp25
 70
     0
102
RTVSPropertyOp26
 70
     0
102
RTVSPropertyOp27
 70
     0
102
RTVSPropertyOp28
 70
     0
102
RTVSPropertyOp29
 70
     0
102
RTVSPropertyOp30
 70
     0
102
RTVSPropertyOp31
 70
     0
102
RTVSPropertyOp32
 70
     0
102
RTVSPropertyOp33
 70
     0
102
RTVSPropertyOp34
 70
     0
102
RTVSPropertyOp35
 70
     0
102
RTVSPropertyOp36
 70
     0
102
RTVSPropertyOp37
 70
     0
102
RTVSPropertyOp38
 70
     0
102
RTVSPropertyOp39
 70
     0
102
RTVSPropertyOp40
 70
     0
102
RTVSPropertyOp41
 70
     0
102
RTVSPropertyOp42
 70
     0
102
RTVSPropertyOp43
 70
     0
102
RTVSPropertyOp44
 70
     0
102
RTVSPropertyOp45
 70
     0
102
RTVSPropertyOp46
 70
     0
102
RTVSPropertyOp47
 70
     0
102
RTVSPropertyOp48
 70
     0
102
RTVSPropertyOp49
 70
     0
102
RTVSPropertyOp50
 70
     0
102
RTVSPropertyOp51
 70
     0
102
RTVSPropertyOp52
 70
     0
102
RTVSPropertyOp53
 70
     0
102
RTVSPropertyOp54
 70
     0
102
RTVSPropertyOp55
 70
     0
102
RTVSPropertyOp56
 70
     0
102
RTVSPropertyOp57
 70
     0
102
RTVSPost2010Prop28
280
     0
102
RTVSPost2010PropOp28
 70
     0
102
RTVSPost2010Prop29
280
     1
102
RTVSPost2010PropOp29
 70
     0
102
RTVSPost2010Prop30
280
     1
102
RTVSPost2010PropOp30
 70
     0
102
RTVSPost2010Prop31
280
     0
102
RTVSPost2010PropOp31
 70
     0
102
RTVSPost2010Prop32
280
     0
102
RTVSPost2010PropOp32
 70
     0
102
RTVSPost2010Prop33
280
     0
102
RTVSPost2010PropOp33
 70
     0
102
RTVSPost2010Prop34
280
     0
102
RTVSPost2010PropOp34
 70
     0
102
RTVSPost2010Prop35
280
     0
102
RTVSPost2010PropOp35
 70
     0
102
RTVSPost2010Prop36
280
     0
102
RTVSPost2010PropOp36
 70
     0
102
RTVSPost2010Prop37
 90
       50
102
RTVSPost2010PropOp37
 70
     0
102
RTVSPost2010Prop38
140
0.0
102
RTVSPost2010PropOp38
 70
     0
102
RTVSPost2010Prop39
140
1.0
102
RTVSPost2010PropOp39
 70
     0
102
RTVSPost2010Prop40
 90
        0
102
RTVSPost2010PropOp40
 70
     0
102
RTVSPost2010Prop41ColorIndex
 90
       18
102
RTVSPost2010Prop41ColorRGB
 90
        0
102
RTVSPost2010PropOp41
 70
     0
102
RTVSPost2010Prop42
 90
       50
102
RTVSPost2010PropOp42
 70
     0
102
RTVSPost2010Prop43
 90
        3
102
RTVSPost2010PropOp43
 70
     0
102
RTVSPost2010Prop44ColorIndex
 90
        5
102
RTVSPost2010Prop44ColorRGB
 90
      255
102
RTVSPost2010PropOp44
 70
     0
102
RTVSPost2010Prop45
280
     0
102
RTVSPost2010PropOp45
 70
     0
102
RTVSPost2010Prop46
 90
       50
102
RTVSPost2010PropOp46
 70
     0
102
RTVSPost2010Prop47
 90
       50
102
RTVSPost2010PropOp47
 70
     0
102
RTVSPost2010Prop48
 90
       50
102
RTVSPost2010PropOp48
 70
     0
102
RTVSPost2010Prop49
280
     0
102
RTVSPost2010PropOp49
 70
     0
102
RTVSPost2010Prop50
 90
       50
102
RTVSPost2010PropOp50
 70
     0
102
RTVSPost2010Prop51ColorIndex
 90
      256
102
RTVSPost2010Prop51ColorRGB
 90
-16777216
102
RTVSPost2010PropOp51
 70
     0
102
RTVSPost2010Prop52
140
1.0
102
RTVSPost2010PropOp52
 70
     0
102
RTVSPost2010Prop53
 90
        2
102
RTVSPost2010PropOp53
 70
     0
102
RTVSPost2010Prop54
  1
strokes_ogs.tif
102
RTVSPost2010PropOp54
 70
     0
102
RTVSPost2010Prop55
280
     0
102
RTVSPost2010PropOp55
 70
     0
102
RTVSPost2010Prop56
140
1.0
102
RTVSPost2010PropOp56
 70
     0
102
RTVSPost2010Prop57
140
1.0
102
RTVSPost2010PropOp57
 70
     0
  0
XRECORD
  5
2DE
102
{ACAD_REACTORS
330
2DD
102
}
330
2DD
100
AcDbXrecord
280
     1
102
RTVSPropertyOp0
 70
     1
102
RTVSPropertyOp1
 70
     1
102
RTVSPropertyOp2
 70
     1
102
RTVSPropertyOp3
 70
     1
102
RTVSPropertyOp4
 70
     1
102
RTVSPropertyOp5
 70
     1
102
RTVSPropertyOp6
 70
     1
102
RTVSPropertyOp7
 70
     1
102
RTVSPropertyOp8
 70
     1
102
RTVSPropertyOp9
 70
     1
102
RTVSPropertyOp10
 70
     1
102
RTVSPropertyOp11
 70
     1
102
RTVSPropertyOp12
 70
     1
102
RTVSPropertyOp13
 70
     1
102
RTVSPropertyOp14
 70
     1
102
RTVSPropertyOp15
 70
     1
102
RTVSPropertyOp16
 70
     1
102
RTVSPropertyOp17
 70
     1
102
RTVSPropertyOp18
 70
     1
102
RTVSPropertyOp19
 70
     1
102
RTVSPropertyOp20
 70
     1
102
RTVSPropertyOp21
 70
     1
102
RTVSPropertyOp22
 70
     1
102
RTVSPropertyOp23
 70
     1
102
RTVSPropertyOp24
 70
     1
102
RTVSPropertyOp25
 70
     1
102
RTVSPropertyOp26
 70
     1
102
RTVSPropertyOp27
 70
     1
102
RTVSPropertyOp28
 70
     1
102
RTVSPropertyOp29
 70
     1
102
RTVSPropertyOp30
 70
     1
102
RTVSPropertyOp31
 70
     1
102
RTVSPropertyOp32
 70
     1
102
RTVSPropertyOp33
 70
     1
102
RTVSPropertyOp34
 70
     1
102
RTVSPropertyOp35
 70
     1
102
RTVSPropertyOp36
 70
     1
102
RTVSPropertyOp37
 70
     1
102
RTVSPropertyOp38
 70
     1
102
RTVSPropertyOp39
 70
     1
102
RTVSPropertyOp40
 70
     1
102
RTVSPropertyOp41
 70
     1
102
RTVSPropertyOp42
 70
     1
102
RTVSPropertyOp43
 70
     1
102
RTVSPropertyOp44
 70
     1
102
RTVSPropertyOp45
 70
     1
102
RTVSPropertyOp46
 70
     1
102
RTVSPropertyOp47
 70
     1
102
RTVSPropertyOp48
 70
     1
102
RTVSPropertyOp49
 70
     1
102
RTVSPropertyOp50
 70
     1
102
RTVSPropertyOp51
 70
     0
102
RTVSPropertyOp52
 70
     0
102
RTVSPropertyOp53
 70
     1
102
RTVSPropertyOp54
 70
     1
102
RTVSPropertyOp55
 70
     1
102
RTVSPropertyOp56
 70
     1
102
RTVSPropertyOp57
 70
     1
102
RTVSPost2010Prop28
280
     0
102
RTVSPost2010PropOp28
 70
     1
102
RTVSPost2010Prop29
280
     1
102
RTVSPost2010PropOp29
 70
     1
102
RTVSPost2010Prop30
280
     1
102
RTVSPost2010PropOp30
 70
     1
102
RTVSPost2010Prop31
280
     0
102
RTVSPost2010PropOp31
 70
     1
102
RTVSPost2010Prop32
280
     0
102
RTVSPost2010PropOp32
 70
     1
102
RTVSPost2010Prop33
280
     0
102
RTVSPost2010PropOp33
 70
     1
102
RTVSPost2010Prop34
280
     0
102
RTVSPost2010PropOp34
 70
     1
102
RTVSPost2010Prop35
280
     0
102
RTVSPost2010PropOp35
 70
     1
102
RTVSPost2010Prop36
280
     0
102
RTVSPost2010PropOp36
 70
     1
102
RTVSPost2010Prop37
 90
       50
102
RTVSPost2010PropOp37
 70
     1
102
RTVSPost2010Prop38
140
0.0
102
RTVSPost2010PropOp38
 70
     1
102
RTVSPost2010Prop39
140
1.0
102
RTVSPost2010PropOp39
 70
     1
102
RTVSPost2010Prop40
 90
        0
102
RTVSPost2010PropOp40
 70
     1
102
RTVSPost2010Prop41ColorIndex
 90
       18
102
RTVSPost2010Prop41ColorRGB
 90
        0
102
RTVSPost2010PropOp41
 70
     1
102
RTVSPost2010Prop42
 90
       50
102
RTVSPost2010PropOp42
 70
     1
102
RTVSPost2010Prop43
 90
        3
102
RTVSPost2010PropOp43
 70
     1
102
RTVSPost2010Prop44ColorIndex
 90
        5
102
RTVSPost2010Prop44ColorRGB
 90
      255
102
RTVSPost2010PropOp44
 70
     1
102
RTVSPost2010Prop45
280
     0
102
RTVSPost2010PropOp45
 70
     1
102
RTVSPost2010Prop46
 90
       50
102
RTVSPost2010PropOp46
 70
     1
102
RTVSPost2010Prop47
 90
       50
102
RTVSPost2010PropOp47
 70
     1
102
RTVSPost2010Prop48
 90
       50
102
RTVSPost2010PropOp48
 70
     1
102
RTVSPost2010Prop49
280
     0
102
RTVSPost2010PropOp49
 70
     1
102
RTVSPost2010Prop50
 90
       50
102
RTVSPost2010PropOp50
 70
     1
102
RTVSPost2010Prop51ColorIndex
 90
      256
102
RTVSPost2010Prop51ColorRGB
 90
-16777216
102
RTVSPost2010PropOp51
 70
     0
102
RTVSPost2010Prop52
140
1.0
102
RTVSPost2010PropOp52
 70
     0
102
RTVSPost2010Prop53
 90
        2
102
RTVSPost2010PropOp53
 70
     1
102
RTVSPost2010Prop54
  1
strokes_ogs.tif
102
RTVSPost2010PropOp54
 70
     1
102
RTVSPost2010Prop55
280
     0
102
RTVSPost2010PropOp55
 70
     1
102
RTVSPost2010Prop56
140
1.0
102
RTVSPost2010PropOp56
 70
     1
102
RTVSPost2010Prop57
140
1.0
102
RTVSPost2010PropOp57
 70
     1
  0
XRECORD
  5
2FC
102
{ACAD_REACTORS
330
2FB
102
}
330
2FB
100
AcDbXrecord
280
     1
102
RTVSPropertyOp0
 70
     1
102
RTVSPropertyOp1
 70
     1
102
RTVSPropertyOp2
 70
     1
102
RTVSPropertyOp3
 70
     1
102
RTVSPropertyOp4
 70
     1
102
RTVSPropertyOp5
 70
     1
102
RTVSPropertyOp6
 70
     1
102
RTVSPropertyOp7
 70
     1
102
RTVSPropertyOp8
 70
     1
102
RTVSPropertyOp9
 70
     1
102
RTVSPropertyOp10
 70
     1
102
RTVSPropertyOp11
 70
     1
102
RTVSPropertyOp12
 70
     1
102
RTVSPropertyOp13
 70
     1
102
RTVSPropertyOp14
 70
     1
102
RTVSPropertyOp15
 70
     1
102
RTVSPropertyOp16
 70
     1
102
RTVSPropertyOp17
 70
     1
102
RTVSPropertyOp18
 70
     1
102
RTVSPropertyOp19
 70
     1
102
RTVSPropertyOp20
 70
     1
102
RTVSPropertyOp21
 70
     1
102
RTVSPropertyOp22
 70
     1
102
RTVSPropertyOp23
 70
     1
102
RTVSPropertyOp24
 70
     1
102
RTVSPropertyOp25
 70
     1
102
RTVSPropertyOp26
 70
     1
102
RTVSPropertyOp27
 70
     1
102
RTVSPropertyOp28
 70
     1
102
RTVSPropertyOp29
 70
     1
102
RTVSPropertyOp30
 70
     1
102
RTVSPropertyOp31
 70
     1
102
RTVSPropertyOp32
 70
     1
102
RTVSPropertyOp33
 70
     1
102
RTVSPropertyOp34
 70
     1
102
RTVSPropertyOp35
 70
     1
102
RTVSPropertyOp36
 70
     1
102
RTVSPropertyOp37
 70
     1
102
RTVSPropertyOp38
 70
     1
102
RTVSPropertyOp39
 70
     1
102
RTVSPropertyOp40
 70
     1
102
RTVSPropertyOp41
 70
     1
102
RTVSPropertyOp42
 70
     1
102
RTVSPropertyOp43
 70
     1
102
RTVSPropertyOp44
 70
     1
102
RTVSPropertyOp45
 70
     1
102
RTVSPropertyOp46
 70
     1
102
RTVSPropertyOp47
 70
     1
102
RTVSPropertyOp48
 70
     1
102
RTVSPropertyOp49
 70
     1
102
RTVSPropertyOp50
 70
     1
102
RTVSPropertyOp51
 70
     0
102
RTVSPropertyOp52
 70
     0
102
RTVSPropertyOp53
 70
     1
102
RTVSPropertyOp54
 70
     1
102
RTVSPropertyOp55
 70
     1
102
RTVSPropertyOp56
 70
     1
102
RTVSPropertyOp57
 70
     1
102
RTVSPost2010Prop28
280
     0
102
RTVSPost2010PropOp28
 70
     1
102
RTVSPost2010Prop29
280
     1
102
RTVSPost2010PropOp29
 70
     1
102
RTVSPost2010Prop30
280
     1
102
RTVSPost2010PropOp30
 70
     1
102
RTVSPost2010Prop31
280
     0
102
RTVSPost2010PropOp31
 70
     1
102
RTVSPost2010Prop32
280
     0
102
RTVSPost2010PropOp32
 70
     1
102
RTVSPost2010Prop33
280
     0
102
RTVSPost2010PropOp33
 70
     1
102
RTVSPost2010Prop34
280
     0
102
RTVSPost2010PropOp34
 70
     1
102
RTVSPost2010Prop35
280
     0
102
RTVSPost2010PropOp35
 70
     1
102
RTVSPost2010Prop36
280
     0
102
RTVSPost2010PropOp36
 70
     1
102
RTVSPost2010Prop37
 90
       50
102
RTVSPost2010PropOp37
 70
     1
102
RTVSPost2010Prop38
140
0.0
102
RTVSPost2010PropOp38
 70
     1
102
RTVSPost2010Prop39
140
1.0
102
RTVSPost2010PropOp39
 70
     1
102
RTVSPost2010Prop40
 90
        0
102
RTVSPost2010PropOp40
 70
     1
102
RTVSPost2010Prop41ColorIndex
 90
       18
102
RTVSPost2010Prop41ColorRGB
 90
        0
102
RTVSPost2010PropOp41
 70
     1
102
RTVSPost2010Prop42
 90
       50
102
RTVSPost2010PropOp42
 70
     1
102
RTVSPost2010Prop43
 90
        3
102
RTVSPost2010PropOp43
 70
     1
102
RTVSPost2010Prop44ColorIndex
 90
        5
102
RTVSPost2010Prop44ColorRGB
 90
      255
102
RTVSPost2010PropOp44
 70
     1
102
RTVSPost2010Prop45
280
     0
102
RTVSPost2010PropOp45
 70
     1
102
RTVSPost2010Prop46
 90
       50
102
RTVSPost2010PropOp46
 70
     1
102
RTVSPost2010Prop47
 90
       50
102
RTVSPost2010PropOp47
 70
     1
102
RTVSPost2010Prop48
 90
       50
102
RTVSPost2010PropOp48
 70
     1
102
RTVSPost2010Prop49
280
     0
102
RTVSPost2010PropOp49
 70
     1
102
RTVSPost2010Prop50
 90
       50
102
RTVSPost2010PropOp50
 70
     1
102
RTVSPost2010Prop51ColorIndex
 90
      256
102
RTVSPost2010Prop51ColorRGB
 90
-16777216
102
RTVSPost2010PropOp51
 70
     0
102
RTVSPost2010Prop52
140
1.0
102
RTVSPost2010PropOp52
 70
     0
102
RTVSPost2010Prop53
 90
        2
102
RTVSPost2010PropOp53
 70
     1
102
RTVSPost2010Prop54
  1
strokes_ogs.tif
102
RTVSPost2010PropOp54
 70
     1
102
RTVSPost2010Prop55
280
     0
102
RTVSPost2010PropOp55
 70
     1
102
RTVSPost2010Prop56
140
1.0
102
RTVSPost2010PropOp56
 70
     1
102
RTVSPost2010Prop57
140
1.0
102
RTVSPost2010PropOp57
 70
     1
  0
XRECORD
  5
2FA
102
{ACAD_REACTORS
330
2F9
102
}
330
2F9
100
AcDbXrecord
280
     1
102
RTVSPropertyOp0
 70
     1
102
RTVSPropertyOp1
 70
     1
102
RTVSPropertyOp2
 70
     1
102
RTVSPropertyOp3
 70
     1
102
RTVSPropertyOp4
 70
     1
102
RTVSPropertyOp5
 70
     1
102
RTVSPropertyOp6
 70
     1
102
RTVSPropertyOp7
 70
     1
102
RTVSPropertyOp8
 70
     1
102
RTVSPropertyOp9
 70
     1
102
RTVSPropertyOp10
 70
     1
102
RTVSPropertyOp11
 70
     1
102
RTVSPropertyOp12
 70
     1
102
RTVSPropertyOp13
 70
     1
102
RTVSPropertyOp14
 70
     1
102
RTVSPropertyOp15
 70
     1
102
RTVSPropertyOp16
 70
     1
102
RTVSPropertyOp17
 70
     1
102
RTVSPropertyOp18
 70
     1
102
RTVSPropertyOp19
 70
     1
102
RTVSPropertyOp20
 70
     1
102
RTVSPropertyOp21
 70
     1
102
RTVSPropertyOp22
 70
     1
102
RTVSPropertyOp23
 70
     1
102
RTVSPropertyOp24
 70
     1
102
RTVSPropertyOp25
 70
     1
102
RTVSPropertyOp26
 70
     1
102
RTVSPropertyOp27
 70
     1
102
RTVSPropertyOp28
 70
     1
102
RTVSPropertyOp29
 70
     1
102
RTVSPropertyOp30
 70
     1
102
RTVSPropertyOp31
 70
     1
102
RTVSPropertyOp32
 70
     1
102
RTVSPropertyOp33
 70
     1
102
RTVSPropertyOp34
 70
     1
102
RTVSPropertyOp35
 70
     1
102
RTVSPropertyOp36
 70
     1
102
RTVSPropertyOp37
 70
     1
102
RTVSPropertyOp38
 70
     1
102
RTVSPropertyOp39
 70
     1
102
RTVSPropertyOp40
 70
     1
102
RTVSPropertyOp41
 70
     1
102
RTVSPropertyOp42
 70
     1
102
RTVSPropertyOp43
 70
     1
102
RTVSPropertyOp44
 70
     1
102
RTVSPropertyOp45
 70
     1
102
RTVSPropertyOp46
 70
     1
102
RTVSPropertyOp47
 70
     1
102
RTVSPropertyOp48
 70
     1
102
RTVSPropertyOp49
 70
     1
102
RTVSPropertyOp50
 70
     1
102
RTVSPropertyOp51
 70
     0
102
RTVSPropertyOp52
 70
     0
102
RTVSPropertyOp53
 70
     1
102
RTVSPropertyOp54
 70
     1
102
RTVSPropertyOp55
 70
     1
102
RTVSPropertyOp56
 70
     1
102
RTVSPropertyOp57
 70
     1
102
RTVSPost2010Prop28
280
     0
102
RTVSPost2010PropOp28
 70
     1
102
RTVSPost2010Prop29
280
     1
102
RTVSPost2010PropOp29
 70
     1
102
RTVSPost2010Prop30
280
     1
102
RTVSPost2010PropOp30
 70
     1
102
RTVSPost2010Prop31
280
     0
102
RTVSPost2010PropOp31
 70
     1
102
RTVSPost2010Prop32
280
     0
102
RTVSPost2010PropOp32
 70
     1
102
RTVSPost2010Prop33
280
     0
102
RTVSPost2010PropOp33
 70
     1
102
RTVSPost2010Prop34
280
     0
102
RTVSPost2010PropOp34
 70
     1
102
RTVSPost2010Prop35
280
     0
102
RTVSPost2010PropOp35
 70
     1
102
RTVSPost2010Prop36
280
     0
102
RTVSPost2010PropOp36
 70
     1
102
RTVSPost2010Prop37
 90
       50
102
RTVSPost2010PropOp37
 70
     1
102
RTVSPost2010Prop38
140
0.0
102
RTVSPost2010PropOp38
 70
     1
102
RTVSPost2010Prop39
140
1.0
102
RTVSPost2010PropOp39
 70
     1
102
RTVSPost2010Prop40
 90
        0
102
RTVSPost2010PropOp40
 70
     1
102
RTVSPost2010Prop41ColorIndex
 90
       18
102
RTVSPost2010Prop41ColorRGB
 90
        0
102
RTVSPost2010PropOp41
 70
     1
102
RTVSPost2010Prop42
 90
       50
102
RTVSPost2010PropOp42
 70
     1
102
RTVSPost2010Prop43
 90
        3
102
RTVSPost2010PropOp43
 70
     1
102
RTVSPost2010Prop44ColorIndex
 90
        5
102
RTVSPost2010Prop44ColorRGB
 90
      255
102
RTVSPost2010PropOp44
 70
     1
102
RTVSPost2010Prop45
280
     0
102
RTVSPost2010PropOp45
 70
     1
102
RTVSPost2010Prop46
 90
       50
102
RTVSPost2010PropOp46
 70
     1
102
RTVSPost2010Prop47
 90
       50
102
RTVSPost2010PropOp47
 70
     1
102
RTVSPost2010Prop48
 90
       50
102
RTVSPost2010PropOp48
 70
     1
102
RTVSPost2010Prop49
280
     0
102
RTVSPost2010PropOp49
 70
     1
102
RTVSPost2010Prop50
 90
       50
102
RTVSPost2010PropOp50
 70
     1
102
RTVSPost2010Prop51ColorIndex
 90
      256
102
RTVSPost2010Prop51ColorRGB
 90
-16777216
102
RTVSPost2010PropOp51
 70
     0
102
RTVSPost2010Prop52
140
1.0
102
RTVSPost2010PropOp52
 70
     0
102
RTVSPost2010Prop53
 90
        2
102
RTVSPost2010PropOp53
 70
     1
102
RTVSPost2010Prop54
  1
strokes_ogs.tif
102
RTVSPost2010PropOp54
 70
     1
102
RTVSPost2010Prop55
280
     0
102
RTVSPost2010PropOp55
 70
     1
102
RTVSPost2010Prop56
140
1.0
102
RTVSPost2010PropOp56
 70
     1
102
RTVSPost2010Prop57
140
1.0
102
RTVSPost2010PropOp57
 70
     1
  0
XRECORD
  5
2F4
102
{ACAD_REACTORS
330
2F3
102
}
330
2F3
100
AcDbXrecord
280
     1
102
RTVSPropertyOp0
 70
     1
102
RTVSPropertyOp1
 70
     1
102
RTVSPropertyOp2
 70
     1
102
RTVSPropertyOp3
 70
     1
102
RTVSPropertyOp4
 70
     1
102
RTVSPropertyOp5
 70
     1
102
RTVSPropertyOp6
 70
     1
102
RTVSPropertyOp7
 70
     1
102
RTVSPropertyOp8
 70
     1
102
RTVSPropertyOp9
 70
     1
102
RTVSPropertyOp10
 70
     1
102
RTVSPropertyOp11
 70
     1
102
RTVSPropertyOp12
 70
     1
102
RTVSPropertyOp13
 70
     1
102
RTVSPropertyOp14
 70
     1
102
RTVSPropertyOp15
 70
     1
102
RTVSPropertyOp16
 70
     1
102
RTVSPropertyOp17
 70
     1
102
RTVSPropertyOp18
 70
     1
102
RTVSPropertyOp19
 70
     1
102
RTVSPropertyOp20
 70
     1
102
RTVSPropertyOp21
 70
     1
102
RTVSPropertyOp22
 70
     1
102
RTVSPropertyOp23
 70
     1
102
RTVSPropertyOp24
 70
     1
102
RTVSPropertyOp25
 70
     1
102
RTVSPropertyOp26
 70
     1
102
RTVSPropertyOp27
 70
     1
102
RTVSPropertyOp28
 70
     1
102
RTVSPropertyOp29
 70
     1
102
RTVSPropertyOp30
 70
     1
102
RTVSPropertyOp31
 70
     1
102
RTVSPropertyOp32
 70
     1
102
RTVSPropertyOp33
 70
     1
102
RTVSPropertyOp34
 70
     1
102
RTVSPropertyOp35
 70
     1
102
RTVSPropertyOp36
 70
     1
102
RTVSPropertyOp37
 70
     1
102
RTVSPropertyOp38
 70
     1
102
RTVSPropertyOp39
 70
     1
102
RTVSPropertyOp40
 70
     1
102
RTVSPropertyOp41
 70
     1
102
RTVSPropertyOp42
 70
     1
102
RTVSPropertyOp43
 70
     1
102
RTVSPropertyOp44
 70
     1
102
RTVSPropertyOp45
 70
     1
102
RTVSPropertyOp46
 70
     1
102
RTVSPropertyOp47
 70
     1
102
RTVSPropertyOp48
 70
     1
102
RTVSPropertyOp49
 70
     1
102
RTVSPropertyOp50
 70
     1
102
RTVSPropertyOp51
 70
     0
102
RTVSPropertyOp52
 70
     0
102
RTVSPropertyOp53
 70
     1
102
RTVSPropertyOp54
 70
     1
102
RTVSPropertyOp55
 70
     1
102
RTVSPropertyOp56
 70
     1
102
RTVSPropertyOp57
 70
     1
102
RTVSPost2010Prop28
280
     0
102
RTVSPost2010PropOp28
 70
     1
102
RTVSPost2010Prop29
280
     1
102
RTVSPost2010PropOp29
 70
     1
102
RTVSPost2010Prop30
280
     1
102
RTVSPost2010PropOp30
 70
     1
102
RTVSPost2010Prop31
280
     0
102
RTVSPost2010PropOp31
 70
     1
102
RTVSPost2010Prop32
280
     0
102
RTVSPost2010PropOp32
 70
     1
102
RTVSPost2010Prop33
280
     0
102
RTVSPost2010PropOp33
 70
     1
102
RTVSPost2010Prop34
280
     0
102
RTVSPost2010PropOp34
 70
     1
102
RTVSPost2010Prop35
280
     0
102
RTVSPost2010PropOp35
 70
     1
102
RTVSPost2010Prop36
280
     0
102
RTVSPost2010PropOp36
 70
     1
102
RTVSPost2010Prop37
 90
       50
102
RTVSPost2010PropOp37
 70
     1
102
RTVSPost2010Prop38
140
0.0
102
RTVSPost2010PropOp38
 70
     1
102
RTVSPost2010Prop39
140
1.0
102
RTVSPost2010PropOp39
 70
     1
102
RTVSPost2010Prop40
 90
        0
102
RTVSPost2010PropOp40
 70
     1
102
RTVSPost2010Prop41ColorIndex
 90
       18
102
RTVSPost2010Prop41ColorRGB
 90
        0
102
RTVSPost2010PropOp41
 70
     1
102
RTVSPost2010Prop42
 90
       50
102
RTVSPost2010PropOp42
 70
     1
102
RTVSPost2010Prop43
 90
        3
102
RTVSPost2010PropOp43
 70
     1
102
RTVSPost2010Prop44ColorIndex
 90
        5
102
RTVSPost2010Prop44ColorRGB
 90
      255
102
RTVSPost2010PropOp44
 70
     1
102
RTVSPost2010Prop45
280
     0
102
RTVSPost2010PropOp45
 70
     1
102
RTVSPost2010Prop46
 90
       50
102
RTVSPost2010PropOp46
 70
     1
102
RTVSPost2010Prop47
 90
       50
102
RTVSPost2010PropOp47
 70
     1
102
RTVSPost2010Prop48
 90
       50
102
RTVSPost2010PropOp48
 70
     1
102
RTVSPost2010Prop49
280
     0
102
RTVSPost2010PropOp49
 70
     1
102
RTVSPost2010Prop50
 90
       50
102
RTVSPost2010PropOp50
 70
     1
102
RTVSPost2010Prop51ColorIndex
 90
      256
102
RTVSPost2010Prop51ColorRGB
 90
-16777216
102
RTVSPost2010PropOp51
 70
     0
102
RTVSPost2010Prop52
140
1.0
102
RTVSPost2010PropOp52
 70
     0
102
RTVSPost2010Prop53
 90
        2
102
RTVSPost2010PropOp53
 70
     1
102
RTVSPost2010Prop54
  1
strokes_ogs.tif
102
RTVSPost2010PropOp54
 70
     1
102
RTVSPost2010Prop55
280
     0
102
RTVSPost2010PropOp55
 70
     1
102
RTVSPost2010Prop56
140
1.0
102
RTVSPost2010PropOp56
 70
     1
102
RTVSPost2010Prop57
140
1.0
102
RTVSPost2010PropOp57
 70
     1
  0
XRECORD
  5
2F6
102
{ACAD_REACTORS
330
2F5
102
}
330
2F5
100
AcDbXrecord
280
     1
102
RTVSPropertyOp0
 70
     1
102
RTVSPropertyOp1
 70
     1
102
RTVSPropertyOp2
 70
     1
102
RTVSPropertyOp3
 70
     1
102
RTVSPropertyOp4
 70
     1
102
RTVSPropertyOp5
 70
     1
102
RTVSPropertyOp6
 70
     1
102
RTVSPropertyOp7
 70
     1
102
RTVSPropertyOp8
 70
     1
102
RTVSPropertyOp9
 70
     1
102
RTVSPropertyOp10
 70
     1
102
RTVSPropertyOp11
 70
     1
102
RTVSPropertyOp12
 70
     1
102
RTVSPropertyOp13
 70
     1
102
RTVSPropertyOp14
 70
     1
102
RTVSPropertyOp15
 70
     1
102
RTVSPropertyOp16
 70
     1
102
RTVSPropertyOp17
 70
     1
102
RTVSPropertyOp18
 70
     1
102
RTVSPropertyOp19
 70
     1
102
RTVSPropertyOp20
 70
     1
102
RTVSPropertyOp21
 70
     1
102
RTVSPropertyOp22
 70
     1
102
RTVSPropertyOp23
 70
     1
102
RTVSPropertyOp24
 70
     1
102
RTVSPropertyOp25
 70
     1
102
RTVSPropertyOp26
 70
     1
102
RTVSPropertyOp27
 70
     1
102
RTVSPropertyOp28
 70
     1
102
RTVSPropertyOp29
 70
     1
102
RTVSPropertyOp30
 70
     1
102
RTVSPropertyOp31
 70
     1
102
RTVSPropertyOp32
 70
     1
102
RTVSPropertyOp33
 70
     1
102
RTVSPropertyOp34
 70
     1
102
RTVSPropertyOp35
 70
     1
102
RTVSPropertyOp36
 70
     1
102
RTVSPropertyOp37
 70
     1
102
RTVSPropertyOp38
 70
     1
102
RTVSPropertyOp39
 70
     1
102
RTVSPropertyOp40
 70
     1
102
RTVSPropertyOp41
 70
     1
102
RTVSPropertyOp42
 70
     1
102
RTVSPropertyOp43
 70
     1
102
RTVSPropertyOp44
 70
     1
102
RTVSPropertyOp45
 70
     1
102
RTVSPropertyOp46
 70
     1
102
RTVSPropertyOp47
 70
     1
102
RTVSPropertyOp48
 70
     1
102
RTVSPropertyOp49
 70
     1
102
RTVSPropertyOp50
 70
     1
102
RTVSPropertyOp51
 70
     0
102
RTVSPropertyOp52
 70
     0
102
RTVSPropertyOp53
 70
     1
102
RTVSPropertyOp54
 70
     1
102
RTVSPropertyOp55
 70
     1
102
RTVSPropertyOp56
 70
     1
102
RTVSPropertyOp57
 70
     1
102
RTVSPost2010Prop28
280
     0
102
RTVSPost2010PropOp28
 70
     1
102
RTVSPost2010Prop29
280
     1
102
RTVSPost2010PropOp29
 70
     1
102
RTVSPost2010Prop30
280
     1
102
RTVSPost2010PropOp30
 70
     1
102
RTVSPost2010Prop31
280
     0
102
RTVSPost2010PropOp31
 70
     1
102
RTVSPost2010Prop32
280
     0
102
RTVSPost2010PropOp32
 70
     1
102
RTVSPost2010Prop33
280
     0
102
RTVSPost2010PropOp33
 70
     1
102
RTVSPost2010Prop34
280
     0
102
RTVSPost2010PropOp34
 70
     1
102
RTVSPost2010Prop35
280
     0
102
RTVSPost2010PropOp35
 70
     1
102
RTVSPost2010Prop36
280
     0
102
RTVSPost2010PropOp36
 70
     1
102
RTVSPost2010Prop37
 90
       50
102
RTVSPost2010PropOp37
 70
     1
102
RTVSPost2010Prop38
140
0.0
102
RTVSPost2010PropOp38
 70
     1
102
RTVSPost2010Prop39
140
1.0
102
RTVSPost2010PropOp39
 70
     1
102
RTVSPost2010Prop40
 90
        0
102
RTVSPost2010PropOp40
 70
     1
102
RTVSPost2010Prop41ColorIndex
 90
       18
102
RTVSPost2010Prop41ColorRGB
 90
        0
102
RTVSPost2010PropOp41
 70
     1
102
RTVSPost2010Prop42
 90
       50
102
RTVSPost2010PropOp42
 70
     1
102
RTVSPost2010Prop43
 90
        3
102
RTVSPost2010PropOp43
 70
     1
102
RTVSPost2010Prop44ColorIndex
 90
        5
102
RTVSPost2010Prop44ColorRGB
 90
      255
102
RTVSPost2010PropOp44
 70
     1
102
RTVSPost2010Prop45
280
     0
102
RTVSPost2010PropOp45
 70
     1
102
RTVSPost2010Prop46
 90
       50
102
RTVSPost2010PropOp46
 70
     1
102
RTVSPost2010Prop47
 90
       50
102
RTVSPost2010PropOp47
 70
     1
102
RTVSPost2010Prop48
 90
       50
102
RTVSPost2010PropOp48
 70
     1
102
RTVSPost2010Prop49
280
     0
102
RTVSPost2010PropOp49
 70
     1
102
RTVSPost2010Prop50
 90
       50
102
RTVSPost2010PropOp50
 70
     1
102
RTVSPost2010Prop51ColorIndex
 90
      256
102
RTVSPost2010Prop51ColorRGB
 90
-16777216
102
RTVSPost2010PropOp51
 70
     0
102
RTVSPost2010Prop52
140
1.0
102
RTVSPost2010PropOp52
 70
     0
102
RTVSPost2010Prop53
 90
        2
102
RTVSPost2010PropOp53
 70
     1
102
RTVSPost2010Prop54
  1
strokes_ogs.tif
102
RTVSPost2010PropOp54
 70
     1
102
RTVSPost2010Prop55
280
     0
102
RTVSPost2010PropOp55
 70
     1
102
RTVSPost2010Prop56
140
1.0
102
RTVSPost2010PropOp56
 70
     1
102
RTVSPost2010Prop57
140
1.0
102
RTVSPost2010PropOp57
 70
     1
  0
XRECORD
  5
2E6
102
{ACAD_REACTORS
330
2E5
102
}
330
2E5
100
AcDbXrecord
280
     1
102
RTVSPropertyOp0
 70
     1
102
RTVSPropertyOp1
 70
     1
102
RTVSPropertyOp2
 70
     1
102
RTVSPropertyOp3
 70
     1
102
RTVSPropertyOp4
 70
     1
102
RTVSPropertyOp5
 70
     1
102
RTVSPropertyOp6
 70
     1
102
RTVSPropertyOp7
 70
     1
102
RTVSPropertyOp8
 70
     1
102
RTVSPropertyOp9
 70
     1
102
RTVSPropertyOp10
 70
     1
102
RTVSPropertyOp11
 70
     1
102
RTVSPropertyOp12
 70
     1
102
RTVSPropertyOp13
 70
     1
102
RTVSPropertyOp14
 70
     1
102
RTVSPropertyOp15
 70
     1
102
RTVSPropertyOp16
 70
     1
102
RTVSPropertyOp17
 70
     1
102
RTVSPropertyOp18
 70
     1
102
RTVSPropertyOp19
 70
     1
102
RTVSPropertyOp20
 70
     1
102
RTVSPropertyOp21
 70
     1
102
RTVSPropertyOp22
 70
     1
102
RTVSPropertyOp23
 70
     1
102
RTVSPropertyOp24
 70
     1
102
RTVSPropertyOp25
 70
     1
102
RTVSPropertyOp26
 70
     1
102
RTVSPropertyOp27
 70
     1
102
RTVSPropertyOp28
 70
     1
102
RTVSPropertyOp29
 70
     1
102
RTVSPropertyOp30
 70
     1
102
RTVSPropertyOp31
 70
     1
102
RTVSPropertyOp32
 70
     1
102
RTVSPropertyOp33
 70
     1
102
RTVSPropertyOp34
 70
     1
102
RTVSPropertyOp35
 70
     1
102
RTVSPropertyOp36
 70
     1
102
RTVSPropertyOp37
 70
     1
102
RTVSPropertyOp38
 70
     1
102
RTVSPropertyOp39
 70
     1
102
RTVSPropertyOp40
 70
     1
102
RTVSPropertyOp41
 70
     1
102
RTVSPropertyOp42
 70
     1
102
RTVSPropertyOp43
 70
     1
102
RTVSPropertyOp44
 70
     1
102
RTVSPropertyOp45
 70
     1
102
RTVSPropertyOp46
 70
     1
102
RTVSPropertyOp47
 70
     1
102
RTVSPropertyOp48
 70
     1
102
RTVSPropertyOp49
 70
     1
102
RTVSPropertyOp50
 70
     1
102
RTVSPropertyOp51
 70
     0
102
RTVSPropertyOp52
 70
     0
102
RTVSPropertyOp53
 70
     1
102
RTVSPropertyOp54
 70
     1
102
RTVSPropertyOp55
 70
     1
102
RTVSPropertyOp56
 70
     1
102
RTVSPropertyOp57
 70
     1
102
RTVSPost2010Prop28
280
     0
102
RTVSPost2010PropOp28
 70
     1
102
RTVSPost2010Prop29
280
     1
102
RTVSPost2010PropOp29
 70
     1
102
RTVSPost2010Prop30
280
     1
102
RTVSPost2010PropOp30
 70
     1
102
RTVSPost2010Prop31
280
     0
102
RTVSPost2010PropOp31
 70
     1
102
RTVSPost2010Prop32
280
     0
102
RTVSPost2010PropOp32
 70
     1
102
RTVSPost2010Prop33
280
     0
102
RTVSPost2010PropOp33
 70
     1
102
RTVSPost2010Prop34
280
     0
102
RTVSPost2010PropOp34
 70
     1
102
RTVSPost2010Prop35
280
     0
102
RTVSPost2010PropOp35
 70
     1
102
RTVSPost2010Prop36
280
     0
102
RTVSPost2010PropOp36
 70
     1
102
RTVSPost2010Prop37
 90
       50
102
RTVSPost2010PropOp37
 70
     1
102
RTVSPost2010Prop38
140
0.0
102
RTVSPost2010PropOp38
 70
     1
102
RTVSPost2010Prop39
140
1.0
102
RTVSPost2010PropOp39
 70
     1
102
RTVSPost2010Prop40
 90
        0
102
RTVSPost2010PropOp40
 70
     1
102
RTVSPost2010Prop41ColorIndex
 90
       18
102
RTVSPost2010Prop41ColorRGB
 90
        0
102
RTVSPost2010PropOp41
 70
     1
102
RTVSPost2010Prop42
 90
       50
102
RTVSPost2010PropOp42
 70
     1
102
RTVSPost2010Prop43
 90
        3
102
RTVSPost2010PropOp43
 70
     1
102
RTVSPost2010Prop44ColorIndex
 90
        5
102
RTVSPost2010Prop44ColorRGB
 90
      255
102
RTVSPost2010PropOp44
 70
     1
102
RTVSPost2010Prop45
280
     0
102
RTVSPost2010PropOp45
 70
     1
102
RTVSPost2010Prop46
 90
       50
102
RTVSPost2010PropOp46
 70
     1
102
RTVSPost2010Prop47
 90
       50
102
RTVSPost2010PropOp47
 70
     1
102
RTVSPost2010Prop48
 90
       50
102
RTVSPost2010PropOp48
 70
     1
102
RTVSPost2010Prop49
280
     0
102
RTVSPost2010PropOp49
 70
     1
102
RTVSPost2010Prop50
 90
       50
102
RTVSPost2010PropOp50
 70
     1
102
RTVSPost2010Prop51ColorIndex
 90
      256
102
RTVSPost2010Prop51ColorRGB
 90
-16777216
102
RTVSPost2010PropOp51
 70
     0
102
RTVSPost2010Prop52
140
1.0
102
RTVSPost2010PropOp52
 70
     0
102
RTVSPost2010Prop53
 90
        2
102
RTVSPost2010PropOp53
 70
     1
102
RTVSPost2010Prop54
  1
strokes_ogs.tif
102
RTVSPost2010PropOp54
 70
     1
102
RTVSPost2010Prop55
280
     0
102
RTVSPost2010PropOp55
 70
     1
102
RTVSPost2010Prop56
140
1.0
102
RTVSPost2010PropOp56
 70
     1
102
RTVSPost2010Prop57
140
1.0
102
RTVSPost2010PropOp57
 70
     1
  0
XRECORD
  5
2D8
102
{ACAD_REACTORS
330
2D7
102
}
330
2D7
100
AcDbXrecord
280
     1
102
RTVSPropertyOp0
 70
     1
102
RTVSPropertyOp1
 70
     1
102
RTVSPropertyOp2
 70
     1
102
RTVSPropertyOp3
 70
     1
102
RTVSPropertyOp4
 70
     1
102
RTVSPropertyOp5
 70
     1
102
RTVSPropertyOp6
 70
     1
102
RTVSPropertyOp7
 70
     1
102
RTVSPropertyOp8
 70
     1
102
RTVSPropertyOp9
 70
     1
102
RTVSPropertyOp10
 70
     1
102
RTVSPropertyOp11
 70
     1
102
RTVSPropertyOp12
 70
     1
102
RTVSPropertyOp13
 70
     1
102
RTVSPropertyOp14
 70
     1
102
RTVSPropertyOp15
 70
     1
102
RTVSPropertyOp16
 70
     1
102
RTVSPropertyOp17
 70
     1
102
RTVSPropertyOp18
 70
     1
102
RTVSPropertyOp19
 70
     1
102
RTVSPropertyOp20
 70
     1
102
RTVSPropertyOp21
 70
     1
102
RTVSPropertyOp22
 70
     1
102
RTVSPropertyOp23
 70
     1
102
RTVSPropertyOp24
 70
     1
102
RTVSPropertyOp25
 70
     1
102
RTVSPropertyOp26
 70
     1
102
RTVSPropertyOp27
 70
     1
102
RTVSPropertyOp28
 70
     1
102
RTVSPropertyOp29
 70
     1
102
RTVSPropertyOp30
 70
     1
102
RTVSPropertyOp31
 70
     1
102
RTVSPropertyOp32
 70
     1
102
RTVSPropertyOp33
 70
     1
102
RTVSPropertyOp34
 70
     1
102
RTVSPropertyOp35
 70
     1
102
RTVSPropertyOp36
 70
     1
102
RTVSPropertyOp37
 70
     1
102
RTVSPropertyOp38
 70
     1
102
RTVSPropertyOp39
 70
     1
102
RTVSPropertyOp40
 70
     1
102
RTVSPropertyOp41
 70
     1
102
RTVSPropertyOp42
 70
     1
102
RTVSPropertyOp43
 70
     1
102
RTVSPropertyOp44
 70
     1
102
RTVSPropertyOp45
 70
     1
102
RTVSPropertyOp46
 70
     1
102
RTVSPropertyOp47
 70
     1
102
RTVSPropertyOp48
 70
     1
102
RTVSPropertyOp49
 70
     1
102
RTVSPropertyOp50
 70
     1
102
RTVSPropertyOp51
 70
     0
102
RTVSPropertyOp52
 70
     0
102
RTVSPropertyOp53
 70
     1
102
RTVSPropertyOp54
 70
     1
102
RTVSPropertyOp55
 70
     1
102
RTVSPropertyOp56
 70
     1
102
RTVSPropertyOp57
 70
     1
102
RTVSPost2010Prop28
280
     0
102
RTVSPost2010PropOp28
 70
     1
102
RTVSPost2010Prop29
280
     1
102
RTVSPost2010PropOp29
 70
     1
102
RTVSPost2010Prop30
280
     1
102
RTVSPost2010PropOp30
 70
     1
102
RTVSPost2010Prop31
280
     0
102
RTVSPost2010PropOp31
 70
     1
102
RTVSPost2010Prop32
280
     0
102
RTVSPost2010PropOp32
 70
     1
102
RTVSPost2010Prop33
280
     0
102
RTVSPost2010PropOp33
 70
     1
102
RTVSPost2010Prop34
280
     0
102
RTVSPost2010PropOp34
 70
     1
102
RTVSPost2010Prop35
280
     0
102
RTVSPost2010PropOp35
 70
     1
102
RTVSPost2010Prop36
280
     0
102
RTVSPost2010PropOp36
 70
     1
102
RTVSPost2010Prop37
 90
       50
102
RTVSPost2010PropOp37
 70
     1
102
RTVSPost2010Prop38
140
0.0
102
RTVSPost2010PropOp38
 70
     1
102
RTVSPost2010Prop39
140
1.0
102
RTVSPost2010PropOp39
 70
     1
102
RTVSPost2010Prop40
 90
        0
102
RTVSPost2010PropOp40
 70
     1
102
RTVSPost2010Prop41ColorIndex
 90
       18
102
RTVSPost2010Prop41ColorRGB
 90
        0
102
RTVSPost2010PropOp41
 70
     1
102
RTVSPost2010Prop42
 90
       50
102
RTVSPost2010PropOp42
 70
     1
102
RTVSPost2010Prop43
 90
        3
102
RTVSPost2010PropOp43
 70
     1
102
RTVSPost2010Prop44ColorIndex
 90
        5
102
RTVSPost2010Prop44ColorRGB
 90
      255
102
RTVSPost2010PropOp44
 70
     1
102
RTVSPost2010Prop45
280
     0
102
RTVSPost2010PropOp45
 70
     1
102
RTVSPost2010Prop46
 90
       50
102
RTVSPost2010PropOp46
 70
     1
102
RTVSPost2010Prop47
 90
       50
102
RTVSPost2010PropOp47
 70
     1
102
RTVSPost2010Prop48
 90
       50
102
RTVSPost2010PropOp48
 70
     1
102
RTVSPost2010Prop49
280
     0
102
RTVSPost2010PropOp49
 70
     1
102
RTVSPost2010Prop50
 90
       50
102
RTVSPost2010PropOp50
 70
     1
102
RTVSPost2010Prop51ColorIndex
 90
      256
102
RTVSPost2010Prop51ColorRGB
 90
-16777216
102
RTVSPost2010PropOp51
 70
     0
102
RTVSPost2010Prop52
140
1.0
102
RTVSPost2010PropOp52
 70
     0
102
RTVSPost2010Prop53
 90
        2
102
RTVSPost2010PropOp53
 70
     1
102
RTVSPost2010Prop54
  1
strokes_ogs.tif
102
RTVSPost2010PropOp54
 70
     1
102
RTVSPost2010Prop55
280
     0
102
RTVSPost2010PropOp55
 70
     1
102
RTVSPost2010Prop56
140
1.0
102
RTVSPost2010PropOp56
 70
     1
102
RTVSPost2010Prop57
140
1.0
102
RTVSPost2010PropOp57
 70
     1
  0
XRECORD
  5
2F8
102
{ACAD_REACTORS
330
2F7
102
}
330
2F7
100
AcDbXrecord
280
     1
102
RTVSPropertyOp0
 70
     1
102
RTVSPropertyOp1
 70
     1
102
RTVSPropertyOp2
 70
     1
102
RTVSPropertyOp3
 70
     1
102
RTVSPropertyOp4
 70
     1
102
RTVSPropertyOp5
 70
     1
102
RTVSPropertyOp6
 70
     1
102
RTVSPropertyOp7
 70
     1
102
RTVSPropertyOp8
 70
     1
102
RTVSPropertyOp9
 70
     1
102
RTVSPropertyOp10
 70
     1
102
RTVSPropertyOp11
 70
     1
102
RTVSPropertyOp12
 70
     1
102
RTVSPropertyOp13
 70
     1
102
RTVSPropertyOp14
 70
     1
102
RTVSPropertyOp15
 70
     1
102
RTVSPropertyOp16
 70
     1
102
RTVSPropertyOp17
 70
     1
102
RTVSPropertyOp18
 70
     1
102
RTVSPropertyOp19
 70
     1
102
RTVSPropertyOp20
 70
     1
102
RTVSPropertyOp21
 70
     1
102
RTVSPropertyOp22
 70
     1
102
RTVSPropertyOp23
 70
     1
102
RTVSPropertyOp24
 70
     1
102
RTVSPropertyOp25
 70
     1
102
RTVSPropertyOp26
 70
     1
102
RTVSPropertyOp27
 70
     1
102
RTVSPropertyOp28
 70
     1
102
RTVSPropertyOp29
 70
     1
102
RTVSPropertyOp30
 70
     1
102
RTVSPropertyOp31
 70
     1
102
RTVSPropertyOp32
 70
     1
102
RTVSPropertyOp33
 70
     1
102
RTVSPropertyOp34
 70
     1
102
RTVSPropertyOp35
 70
     1
102
RTVSPropertyOp36
 70
     1
102
RTVSPropertyOp37
 70
     1
102
RTVSPropertyOp38
 70
     1
102
RTVSPropertyOp39
 70
     1
102
RTVSPropertyOp40
 70
     1
102
RTVSPropertyOp41
 70
     1
102
RTVSPropertyOp42
 70
     1
102
RTVSPropertyOp43
 70
     1
102
RTVSPropertyOp44
 70
     1
102
RTVSPropertyOp45
 70
     1
102
RTVSPropertyOp46
 70
     1
102
RTVSPropertyOp47
 70
     1
102
RTVSPropertyOp48
 70
     1
102
RTVSPropertyOp49
 70
     1
102
RTVSPropertyOp50
 70
     1
102
RTVSPropertyOp51
 70
     0
102
RTVSPropertyOp52
 70
     0
102
RTVSPropertyOp53
 70
     1
102
RTVSPropertyOp54
 70
     1
102
RTVSPropertyOp55
 70
     1
102
RTVSPropertyOp56
 70
     1
102
RTVSPropertyOp57
 70
     1
102
RTVSPost2010Prop28
280
     0
102
RTVSPost2010PropOp28
 70
     1
102
RTVSPost2010Prop29
280
     1
102
RTVSPost2010PropOp29
 70
     1
102
RTVSPost2010Prop30
280
     1
102
RTVSPost2010PropOp30
 70
     1
102
RTVSPost2010Prop31
280
     0
102
RTVSPost2010PropOp31
 70
     1
102
RTVSPost2010Prop32
280
     0
102
RTVSPost2010PropOp32
 70
     1
102
RTVSPost2010Prop33
280
     0
102
RTVSPost2010PropOp33
 70
     1
102
RTVSPost2010Prop34
280
     0
102
RTVSPost2010PropOp34
 70
     1
102
RTVSPost2010Prop35
280
     0
102
RTVSPost2010PropOp35
 70
     1
102
RTVSPost2010Prop36
280
     0
102
RTVSPost2010PropOp36
 70
     1
102
RTVSPost2010Prop37
 90
       50
102
RTVSPost2010PropOp37
 70
     1
102
RTVSPost2010Prop38
140
0.0
102
RTVSPost2010PropOp38
 70
     1
102
RTVSPost2010Prop39
140
1.0
102
RTVSPost2010PropOp39
 70
     1
102
RTVSPost2010Prop40
 90
        0
102
RTVSPost2010PropOp40
 70
     1
102
RTVSPost2010Prop41ColorIndex
 90
       18
102
RTVSPost2010Prop41ColorRGB
 90
        0
102
RTVSPost2010PropOp41
 70
     1
102
RTVSPost2010Prop42
 90
       50
102
RTVSPost2010PropOp42
 70
     1
102
RTVSPost2010Prop43
 90
        3
102
RTVSPost2010PropOp43
 70
     1
102
RTVSPost2010Prop44ColorIndex
 90
        5
102
RTVSPost2010Prop44ColorRGB
 90
      255
102
RTVSPost2010PropOp44
 70
     1
102
RTVSPost2010Prop45
280
     0
102
RTVSPost2010PropOp45
 70
     1
102
RTVSPost2010Prop46
 90
       50
102
RTVSPost2010PropOp46
 70
     1
102
RTVSPost2010Prop47
 90
       50
102
RTVSPost2010PropOp47
 70
     1
102
RTVSPost2010Prop48
 90
       50
102
RTVSPost2010PropOp48
 70
     1
102
RTVSPost2010Prop49
280
     0
102
RTVSPost2010PropOp49
 70
     1
102
RTVSPost2010Prop50
 90
       50
102
RTVSPost2010PropOp50
 70
     1
102
RTVSPost2010Prop51ColorIndex
 90
      256
102
RTVSPost2010Prop51ColorRGB
 90
-16777216
102
RTVSPost2010PropOp51
 70
     0
102
RTVSPost2010Prop52
140
1.0
102
RTVSPost2010PropOp52
 70
     0
102
RTVSPost2010Prop53
 90
        2
102
RTVSPost2010PropOp53
 70
     1
102
RTVSPost2010Prop54
  1
strokes_ogs.tif
102
RTVSPost2010PropOp54
 70
     1
102
RTVSPost2010Prop55
280
     0
102
RTVSPost2010PropOp55
 70
     1
102
RTVSPost2010Prop56
140
1.0
102
RTVSPost2010PropOp56
 70
     1
102
RTVSPost2010Prop57
140
1.0
102
RTVSPost2010PropOp57
 70
     1
  0
ENDSEC
  0
EOF
