  0
SECTION
  2
HEADER
  9
$ACADVER
  1
AC1015
  9
$ACADMAINTVER
 70
     6
  9
$DWGCODEPAGE
  3
ANSI_932
  9
$INSBASE
 10
0.0
 20
0.0
 30
0.0
  9
$EXTMIN
 10
-210.0
 20
-148.5
 30
0.0
  9
$EXTMAX
 10
210.0
 20
148.5
 30
0.0
  9
$LIMMIN
 10
-210.0
 20
-148.5
  9
$LIMMAX
 10
210.0
 20
148.5
  9
$ORTHOMODE
 70
     0
  9
$REGENMODE
 70
     1
  9
$FILLMODE
 70
     1
  9
$QTEXTMODE
 70
     0
  9
$MIRRTEXT
 70
     1
  9
$LTSCALE
 40
1.0
  9
$ATTMODE
 70
     1
  9
$TEXTSIZE
 40
1.0
  9
$TRACEWID
 40
0.05
  9
$TEXTSTYLE
  7
STANDARD
  9
$CLAYER
  8
0
  9
$CELTYPE
  6
ByBlock
  9
$CECOLOR
 62
   256
  9
$CELTSCALE
 40
1.0
  9
$DISPSILH
 70
     0
  9
$DIMSCALE
 40
1.0
  9
$DIMASZ
 40
2.0
  9
$DIMEXO
 40
0.5
  9
$DIMDLI
 40
0.38
  9
$DIMRND
 40
0.0
  9
$DIMDLE
 40
0.0
  9
$DIMEXE
 40
2.0
  9
$DIMTP
 40
0.0
  9
$DIMTM
 40
0.0
  9
$DIMTXT
 40
2.5
  9
$DIMCEN
 40
0.09
  9
$DIMTSZ
 40
0.0
  9
$DIMTOL
 70
     0
  9
$DIMLIM
 70
     0
  9
$DIMTIH
 70
     0
  9
$DIMTOH
 70
     0
  9
$DIMSE1
 70
     0
  9
$DIMSE2
 70
     0
  9
$DIMTAD
 70
     1
  9
$DIMZIN
 70
     0
  9
$DIMBLK
  1

  9
$DIMASO
 70
     1
  9
$DIMSHO
 70
     1
  9
$DIMPOST
  1

  9
$DIMAPOST
  1

  9
$DIMALT
 70
     0
  9
$DIMALTD
 70
     2
  9
$DIMALTF
 40
25.4
  9
$DIMLFAC
 40
1.0
  9
$DIMTOFL
 70
     0
  9
$DIMTVP
 40
0.0
  9
$DIMTIX
 70
     0
  9
$DIMSOXD
 70
     0
  9
$DIMSAH
 70
     0
  9
$DIMBLK1
  1

  9
$DIMBLK2
  1

  9
$DIMSTYLE
  2
Standard
  9
$DIMCLRD
 70
     0
  9
$DIMCLRE
 70
     0
  9
$DIMCLRT
 70
     0
  9
$DIMTFAC
 40
1.0
  9
$DIMGAP
 40
0.5
  9
$DIMJUST
 70
     0
  9
$DIMSD1
 70
     0
  9
$DIMSD2
 70
     0
  9
$DIMTOLJ
 70
     1
  9
$DIMTZIN
 70
     0
  9
$DIMALTZ
 70
     0
  9
$DIMALTTZ
 70
     0
  9
$DIMUPT
 70
     0
  9
$DIMDEC
 70
     4
  9
$DIMTDEC
 70
     4
  9
$DIMALTU
 70
     2
  9
$DIMALTTD
 70
     2
  9
$DIMTXSTY
  7
STANDARD
  9
$DIMAUNIT
 70
     0
  9
$DIMADEC
 70
     2
  9
$DIMALTRND
 40
0.0
  9
$DIMAZIN
 70
     0
  9
$DIMDSEP
 70
    46
  9
$DIMATFIT
 70
     3
  9
$DIMFRAC
 70
     0
  9
$DIMLDRBLK
  1

  9
$DIMLUNIT
 70
     2
  9
$DIMLWD
 70
    -2
  9
$DIMLWE
 70
    -2
  9
$DIMTMOVE
 70
     2
  9
$LUNITS
 70
     2
  9
$LUPREC
 70
     4
  9
$SKETCHINC
 40
0.1
  9
$FILLETRAD
 40
0.5
  9
$AUNITS
 70
     0
  9
$AUPREC
 70
     0
  9
$MENU
  1
.
  9
$ELEVATION
 40
0.0
  9
$PELEVATION
 40
0.0
  9
$THICKNESS
 40
0.0
  9
$LIMCHECK
 70
     0
  9
$CHAMFERA
 40
0.0
  9
$CHAMFERB
 40
0.0
  9
$CHAMFERC
 40
0.0
  9
$CHAMFERD
 40
0.0
  9
$SKPOLY
 70
     0
  9
$TDCREATE
 40
2457913.0
  9
$TDUCREATE
 40
2457912.625
  9
$TDUPDATE
 40
2459928.714514618
  9
$TDUUPDATE
 40
2459928.339514618
  9
$TDINDWG
 40
0.0000000116
  9
$TDUSRTIMER
 40
0.0000000116
  9
$USRTIMER
 70
     1
  9
$ANGBASE
 50
0.0
  9
$ANGDIR
 70
     0
  9
$PDMODE
 70
     0
  9
$PDSIZE
 40
0.0
  9
$PLINEWID
 40
0.0
  9
$SPLFRAME
 70
     0
  9
$SPLINETYPE
 70
     6
  9
$SPLINESEGS
 70
     8
  9
$HANDSEED
  5
283
  9
$SURFTAB1
 70
     6
  9
$SURFTAB2
 70
     6
  9
$SURFTYPE
 70
     6
  9
$SURFU
 70
     6
  9
$SURFV
 70
     6
  9
$UCSBASE
  2

  9
$UCSNAME
  2

  9
$UCSORG
 10
0.0
 20
0.0
 30
0.0
  9
$UCSXDIR
 10
1.0
 20
0.0
 30
0.0
  9
$UCSYDIR
 10
0.0
 20
1.0
 30
0.0
  9
$UCSORTHOREF
  2

  9
$UCSORTHOVIEW
 70
     0
  9
$UCSORGTOP
 10
0.0
 20
0.0
 30
0.0
  9
$UCSORGBOTTOM
 10
0.0
 20
0.0
 30
0.0
  9
$UCSORGLEFT
 10
0.0
 20
0.0
 30
0.0
  9
$UCSORGRIGHT
 10
0.0
 20
0.0
 30
0.0
  9
$UCSORGFRONT
 10
0.0
 20
0.0
 30
0.0
  9
$UCSORGBACK
 10
0.0
 20
0.0
 30
0.0
  9
$PUCSBASE
  2

  9
$PUCSNAME
  2

  9
$PUCSORG
 10
0.0
 20
0.0
 30
0.0
  9
$PUCSXDIR
 10
1.0
 20
0.0
 30
0.0
  9
$PUCSYDIR
 10
0.0
 20
1.0
 30
0.0
  9
$PUCSORTHOREF
  2

  9
$PUCSORTHOVIEW
 70
     0
  9
$PUCSORGTOP
 10
0.0
 20
0.0
 30
0.0
  9
$PUCSORGBOTTOM
 10
0.0
 20
0.0
 30
0.0
  9
$PUCSORGLEFT
 10
0.0
 20
0.0
 30
0.0
  9
$PUCSORGRIGHT
 10
0.0
 20
0.0
 30
0.0
  9
$PUCSORGFRONT
 10
0.0
 20
0.0
 30
0.0
  9
$PUCSORGBACK
 10
0.0
 20
0.0
 30
0.0
  9
$USERI1
 70
     0
  9
$USERI2
 70
     0
  9
$USERI3
 70
     0
  9
$USERI4
 70
     0
  9
$USERI5
 70
     0
  9
$USERR1
 40
0.0
  9
$USERR2
 40
0.0
  9
$USERR3
 40
0.0
  9
$USERR4
 40
0.0
  9
$USERR5
 40
0.0
  9
$WORLDVIEW
 70
     1
  9
$SHADEDGE
 70
     3
  9
$SHADEDIF
 70
    70
  9
$TILEMODE
 70
     1
  9
$MAXACTVP
 70
    64
  9
$PINSBASE
 10
0.0
 20
0.0
 30
0.0
  9
$PLIMCHECK
 70
     0
  9
$PEXTMIN
 10
1.000000000000000E+20
 20
1.000000000000000E+20
 30
1.000000000000000E+20
  9
$PEXTMAX
 10
-1.000000000000000E+20
 20
-1.000000000000000E+20
 30
-1.000000000000000E+20
  9
$PLIMMIN
 10
0.0
 20
0.0
  9
$PLIMMAX
 10
12.0
 20
9.0
  9
$UNITMODE
 70
     0
  9
$VISRETAIN
 70
     1
  9
$PLINEGEN
 70
     0
  9
$PSLTSCALE
 70
     1
  9
$TREEDEPTH
 70
  3020
  9
$CMLSTYLE
  2
Standard
  9
$CMLJUST
 70
     0
  9
$CMLSCALE
 40
1.0
  9
$PROXYGRAPHICS
 70
     1
  9
$MEASUREMENT
 70
     0
  9
$CELWEIGHT
370
    -1
  9
$ENDCAPS
280
     0
  9
$JOINSTYLE
280
     0
  9
$LWDISPLAY
290
     0
  9
$INSUNITS
 70
     0
  9
$HYPERLINKBASE
  1

  9
$STYLESHEET
  1

  9
$XEDIT
290
     1
  9
$CEPSNTYPE
380
     0
  9
$PSTYLEMODE
290
     1
  9
$FINGERPRINTGUID
  2
{43d76fe9-86bd-4016-b969-71ffe45be121}
  9
$VERSIONGUID
  2
{FAEB1C32-E019-11D5-929B-00C0DF256EC4}
  9
$EXTNAMES
290
     1
  9
$PSVPSCALE
 40
0.0
  9
$OLESTARTUP
290
     0
  0
ENDSEC
  0
SECTION
  2
CLASSES
  0
CLASS
  1
ACDBDICTIONARYWDFLT
  2
AcDbDictionaryWithDefault
  3
ObjectDBX Classes
 90
        0
280
     0
281
     0
  0
CLASS
  1
MATERIAL
  2
AcDbMaterial
  3
ObjectDBX Classes
 90
     1153
280
     0
281
     0
  0
CLASS
  1
SCALE
  2
AcDbScale
  3
ObjectDBX Classes
 90
     1153
280
     0
281
     0
  0
CLASS
  1
VISUALSTYLE
  2
AcDbVisualStyle
  3
ObjectDBX Classes
 90
     4095
280
     0
281
     0
  0
CLASS
  1
TABLESTYLE
  2
AcDbTableStyle
  3
ObjectDBX Classes
 90
     4095
280
     0
281
     0
  0
CLASS
  1
MLEADERSTYLE
  2
AcDbMLeaderStyle
  3
ACDB_MLEADERSTYLE_CLASS
 90
     4095
280
     0
281
     0
  0
CLASS
  1
DICTIONARYVAR
  2
AcDbDictionaryVar
  3
ObjectDBX Classes
 90
        0
280
     0
281
     0
  0
CLASS
  1
ACDBPLACEHOLDER
  2
AcDbPlaceHolder
  3
ObjectDBX Classes
 90
        0
280
     0
281
     0
  0
CLASS
  1
LAYOUT
  2
AcDbLayout
  3
ObjectDBX Classes
 90
        0
280
     0
281
     0
  0
ENDSEC
  0
SECTION
  2
TABLES
  0
TABLE
  2
VPORT
  5
8
102
{ACAD_XDICTIONARY
360
247
102
}
330
0
100
AcDbSymbolTable
 70
     1
  0
VPORT
  5
20
330
8
100
AcDbSymbolTableRecord
100
AcDbViewportTableRecord
  2
*ACTIVE
 70
     0
 10
0.0
 20
0.0
 11
1.0
 21
1.0
 12
0.0
 22
0.0
 13
0.0
 23
0.0
 14
1.0
 24
1.0
 15
0.0
 25
0.0
 16
0.0
 26
0.0
 36
1.0
 17
0.0
 27
0.0
 37
0.0
 40
297.0
 41
1.414141
 42
50.0
 43
0.0
 44
0.0
 50
0.0
 51
0.0
 71
     0
 72
   500
 73
     1
 74
     1
 75
     0
 76
     0
 77
     0
 78
     0
281
     0
 65
     0
110
0.0
120
0.0
130
0.0
111
1.0
121
0.0
131
0.0
112
0.0
122
1.0
132
0.0
 79
     0
146
0.0
  0
ENDTAB
  0
TABLE
  2
LTYPE
  5
5
330
0
100
AcDbSymbolTable
 70
     7
  0
LTYPE
  5
14
330
5
100
AcDbSymbolTableRecord
100
AcDbLinetypeTableRecord
  2
ByBlock
 70
     0
  3

 72
    65
 73
     0
 40
0.0
  0
LTYPE
  5
15
330
5
100
AcDbSymbolTableRecord
100
AcDbLinetypeTableRecord
  2
ByLayer
 70
     0
  3

 72
    65
 73
     0
 40
0.0
  0
LTYPE
  5
16
330
5
100
AcDbSymbolTableRecord
100
AcDbLinetypeTableRecord
  2
CONTINUOUS
 70
     0
  3
Solid line
 72
    65
 73
     0
 40
0.0
  0
LTYPE
  5
22
330
5
100
AcDbSymbolTableRecord
100
AcDbLinetypeTableRecord
  2
DASHED
 70
     0
  3
__ __ __ __ __ __ __ __ __ __ __ __ __ __ __
 72
    65
 73
     2
 40
2.0
 49
1.2
 74
     0
 49
-0.8
 74
     0
  0
LTYPE
  5
23
330
5
100
AcDbSymbolTableRecord
100
AcDbLinetypeTableRecord
  2
CENTER
 70
     0
  3
____ _ ____ _ ____ _ ____ _ ____ _ ____ _ ____
 72
    65
 73
     4
 40
12.0
 49
9.0
 74
     0
 49
-1.0
 74
     0
 49
1.0
 74
     0
 49
-1.0
 74
     0
  0
LTYPE
  5
24
330
5
100
AcDbSymbolTableRecord
100
AcDbLinetypeTableRecord
  2
HIDDEN
 70
     0
  3
_ _ _ _ _ _ _ _ _ _ _ _ _ _ _ _ _ _ _ _ _ _ _
 72
    65
 73
     2
 40
3.2
 49
1.3
 74
     0
 49
-1.9
 74
     0
  0
LTYPE
  5
25
330
5
100
AcDbSymbolTableRecord
100
AcDbLinetypeTableRecord
  2
PHANTOM
 70
     0
  3
_____ _ _ _____ _ _ _____ _ _ _____ _ _ _____
 72
    65
 73
     6
 40
12.5
 49
9.0
 74
     0
 49
-1.0
 74
     0
 49
0.5
 74
     0
 49
-0.5
 74
     0
 49
0.5
 74
     0
 49
-1.0
 74
     0
  0
LTYPE
  5
26
330
5
100
AcDbSymbolTableRecord
100
AcDbLinetypeTableRecord
  2
DOT
 70
     0
  3
...............................................
 72
    65
 73
     2
 40
1.0
 49
0.5
 74
     0
 49
-0.5
 74
     0
  0
LTYPE
  5
27
330
5
100
AcDbSymbolTableRecord
100
AcDbLinetypeTableRecord
  2
DASHDOT
 70
     0
  3
__ . __ . __ . __ . __ . __ . __ . __ . __ . __
 72
    65
 73
     4
 40
8.0
 49
5.0
 74
     0
 49
-1.0
 74
     0
 49
1.0
 74
     0
 49
-1.0
 74
     0
  0
ENDTAB
  0
TABLE
  2
LAYER
  5
2
330
0
100
AcDbSymbolTable
 70
     4
  0
LAYER
  5
10
330
2
100
AcDbSymbolTableRecord
100
AcDbLayerTableRecord
  2
0
 70
     0
 62
     8
  6
CONTINUOUS
370
    -3
390
F
  0
LAYER
  5
2D
330
2
100
AcDbSymbolTableRecord
100
AcDbLayerTableRecord
  2
1
 70
     0
 62
     2
  6
CONTINUOUS
370
    -3
390
F
  0
LAYER
  5
2E
330
2
100
AcDbSymbolTableRecord
100
AcDbLayerTableRecord
  2
2
 70
     0
 62
     3
  6
CONTINUOUS
370
    -3
390
F
  0
LAYER
  5
2F
330
2
100
AcDbSymbolTableRecord
100
AcDbLayerTableRecord
  2
3
 70
     0
 62
     4
  6
CONTINUOUS
370
    -3
390
F
  0
ENDTAB
  0
TABLE
  2
STYLE
  5
3
330
0
100
AcDbSymbolTable
 70
     1
  0
STYLE
  5
11
330
3
100
AcDbSymbolTableRecord
100
AcDbTextStyleTableRecord
  2
STANDARD
 70
     0
 40
0.0
 41
1.0
 50
0.0
 71
     0
 42
1.0
  3
txt
  4
BIGFONT
  0
ENDTAB
  0
TABLE
  2
VIEW
  5
6
330
0
100
AcDbSymbolTable
 70
     0
  0
ENDTAB
  0
TABLE
  2
UCS
  5
7
330
0
100
AcDbSymbolTable
 70
     0
  0
ENDTAB
  0
TABLE
  2
APPID
  5
9
330
0
100
AcDbSymbolTable
 70
     2
  0
APPID
  5
12
330
9
100
AcDbSymbolTableRecord
100
AcDbRegAppTableRecord
  2
ACAD
 70
     0
  0
APPID
  5
280
330
9
100
AcDbSymbolTableRecord
100
AcDbRegAppTableRecord
  2
ACAD_MLEADERVER
 70
     0
  0
ENDTAB
  0
TABLE
  2
DIMSTYLE
  5
A
330
0
100
AcDbSymbolTable
 70
     1
100
AcDbDimStyleTable
  0
DIMSTYLE
105
31
330
A
100
AcDbSymbolTableRecord
100
AcDbDimStyleTableRecord
  2
Standard
 70
     0
178
     0
340
11
  0
ENDTAB
  0
TABLE
  2
BLOCK_RECORD
  5
1
330
0
100
AcDbSymbolTable
 70
    21
  0
BLOCK_RECORD
  5
1D
330
1
100
AcDbSymbolTableRecord
100
AcDbBlockTableRecord
  2
*Model_Space
340
1E
  0
BLOCK_RECORD
  5
1B
330
1
100
AcDbSymbolTableRecord
100
AcDbBlockTableRecord
  2
*Paper_Space
340
1C
  0
BLOCK_RECORD
  5
33
330
1
100
AcDbSymbolTableRecord
100
AcDbBlockTableRecord
  2
*D0
340
0
  0
BLOCK_RECORD
  5
3C
330
1
100
AcDbSymbolTableRecord
100
AcDbBlockTableRecord
  2
*D1
340
0
  0
BLOCK_RECORD
  5
47
330
1
100
AcDbSymbolTableRecord
100
AcDbBlockTableRecord
  2
*D2
340
0
  0
BLOCK_RECORD
  5
52
330
1
100
AcDbSymbolTableRecord
100
AcDbBlockTableRecord
  2
*D3
340
0
  0
BLOCK_RECORD
  5
5D
330
1
100
AcDbSymbolTableRecord
100
AcDbBlockTableRecord
  2
*D4
340
0
  0
BLOCK_RECORD
  5
68
330
1
100
AcDbSymbolTableRecord
100
AcDbBlockTableRecord
  2
*D5
340
0
  0
BLOCK_RECORD
  5
73
330
1
100
AcDbSymbolTableRecord
100
AcDbBlockTableRecord
  2
*D6
340
0
  0
BLOCK_RECORD
  5
7E
330
1
100
AcDbSymbolTableRecord
100
AcDbBlockTableRecord
  2
*D7
340
0
  0
BLOCK_RECORD
  5
89
330
1
100
AcDbSymbolTableRecord
100
AcDbBlockTableRecord
  2
*D8
340
0
  0
BLOCK_RECORD
  5
94
330
1
100
AcDbSymbolTableRecord
100
AcDbBlockTableRecord
  2
*D9
340
0
  0
BLOCK_RECORD
  5
9E
330
1
100
AcDbSymbolTableRecord
100
AcDbBlockTableRecord
  2
*D10
340
0
  0
BLOCK_RECORD
  5
A8
330
1
100
AcDbSymbolTableRecord
100
AcDbBlockTableRecord
  2
*D11
340
0
  0
BLOCK_RECORD
  5
B3
330
1
100
AcDbSymbolTableRecord
100
AcDbBlockTableRecord
  2
*D12
340
0
  0
BLOCK_RECORD
  5
BE
330
1
100
AcDbSymbolTableRecord
100
AcDbBlockTableRecord
  2
*D13
340
0
  0
BLOCK_RECORD
  5
C8
330
1
100
AcDbSymbolTableRecord
100
AcDbBlockTableRecord
  2
*D14
340
0
  0
BLOCK_RECORD
  5
D3
330
1
100
AcDbSymbolTableRecord
100
AcDbBlockTableRecord
  2
*D15
340
0
  0
BLOCK_RECORD
  5
DE
330
1
100
AcDbSymbolTableRecord
100
AcDbBlockTableRecord
  2
*D16
340
0
  0
BLOCK_RECORD
  5
E8
330
1
100
AcDbSymbolTableRecord
100
AcDbBlockTableRecord
  2
*D17
340
0
  0
BLOCK_RECORD
  5
F3
330
1
100
AcDbSymbolTableRecord
100
AcDbBlockTableRecord
  2
*D18
340
0
  0
BLOCK_RECORD
  5
FE
330
1
100
AcDbSymbolTableRecord
100
AcDbBlockTableRecord
  2
*D19
340
0
  0
BLOCK_RECORD
  5
109
330
1
100
AcDbSymbolTableRecord
100
AcDbBlockTableRecord
  2
*D20
340
0
  0
ENDTAB
  0
ENDSEC
  0
SECTION
  2
BLOCKS
  0
BLOCK
  5
21E
330
1D
100
AcDbEntity
  8
0
100
AcDbBlockBegin
  2
*Model_Space
 70
     0
 10
0.0
 20
0.0
 30
0.0
  3
*Model_Space
  1

  0
ENDBLK
  5
21F
330
1D
100
AcDbEntity
  8
0
100
AcDbBlockEnd
  0
BLOCK
  5
220
330
1B
100
AcDbEntity
 67
     1
  8
0
100
AcDbBlockBegin
  2
*Paper_Space
 70
     0
 10
0.0
 20
0.0
 30
0.0
  3
*Paper_Space
  1

  0
ENDBLK
  5
221
330
1B
100
AcDbEntity
 67
     1
  8
0
100
AcDbBlockEnd
  0
BLOCK
  5
32
330
33
100
AcDbEntity
  8
2
100
AcDbBlockBegin
  2
*D0
 70
     1
 10
0.0
 20
0.0
 30
0.0
  3
*D0
  1

  0
TEXT
  5
34
330
33
100
AcDbEntity
  8
2
370
    18
100
AcDbText
 10
-15.173027
 20
13.33404
 30
0.0
 40
2.5
  1
21
 50
90.0
 41
2.0
 72
     5
 11
-15.173027
 21
17.33404
 31
0.0
100
AcDbText
  0
LINE
  5
35
330
33
100
AcDbEntity
  8
2
370
    25
100
AcDbLine
 10
-14.673027
 20
5.33404
 30
0.0
 11
-14.155389
 21
7.265892
 31
0.0
  0
LINE
  5
36
330
33
100
AcDbEntity
  8
2
370
    25
100
AcDbLine
 10
-14.673027
 20
5.33404
 30
0.0
 11
-15.190665
 21
7.265892
 31
0.0
  0
LINE
  5
37
330
33
100
AcDbEntity
  8
2
370
    25
100
AcDbLine
 10
-14.673027
 20
5.33404
 30
0.0
 11
-14.673027
 21
26.334039
 31
0.0
  0
LINE
  5
38
330
33
100
AcDbEntity
  8
2
370
    25
100
AcDbLine
 10
-14.673027
 20
26.334039
 30
0.0
 11
-15.190665
 21
24.402187
 31
0.0
  0
LINE
  5
39
330
33
100
AcDbEntity
  8
2
370
    25
100
AcDbLine
 10
-14.673027
 20
26.334039
 30
0.0
 11
-14.155389
 21
24.402187
 31
0.0
  0
ENDBLK
  5
3A
330
33
100
AcDbEntity
  8
2
100
AcDbBlockEnd
  0
BLOCK
  5
3B
330
3C
100
AcDbEntity
  8
2
100
AcDbBlockBegin
  2
*D1
 70
     1
 10
0.0
 20
0.0
 30
0.0
  3
*D1
  1

  0
TEXT
  5
3D
330
3C
100
AcDbEntity
  8
2
370
    18
100
AcDbText
 10
52.589615
 20
23.83405
 30
0.0
 40
2.5
  1
49
 50
90.0
 41
2.0
 72
     5
 11
52.589615
 21
27.83405
 31
0.0
100
AcDbText
  0
LINE
  5
3E
330
3C
100
AcDbEntity
  8
2
370
    25
100
AcDbLine
 10
31.919067
 20
1.83404
 30
0.0
 11
54.089615
 21
1.83404
 31
0.0
  0
LINE
  5
3F
330
3C
100
AcDbEntity
  8
2
370
    25
100
AcDbLine
 10
53.089615
 20
1.83404
 30
0.0
 11
53.607253
 21
3.765892
 31
0.0
  0
LINE
  5
40
330
3C
100
AcDbEntity
  8
2
370
    25
100
AcDbLine
 10
53.089615
 20
1.83404
 30
0.0
 11
52.571977
 21
3.765892
 31
0.0
  0
LINE
  5
41
330
3C
100
AcDbEntity
  8
2
370
    25
100
AcDbLine
 10
53.089615
 20
1.83404
 30
0.0
 11
53.089615
 21
50.83406
 31
0.0
  0
LINE
  5
42
330
3C
100
AcDbEntity
  8
2
370
    25
100
AcDbLine
 10
53.089615
 20
50.83406
 30
0.0
 11
52.571977
 21
48.902208
 31
0.0
  0
LINE
  5
43
330
3C
100
AcDbEntity
  8
2
370
    25
100
AcDbLine
 10
53.089615
 20
50.83406
 30
0.0
 11
53.607253
 21
48.902208
 31
0.0
  0
LINE
  5
44
330
3C
100
AcDbEntity
  8
2
370
    25
100
AcDbLine
 10
31.919067
 20
50.83406
 30
0.0
 11
54.089615
 21
50.83406
 31
0.0
  0
ENDBLK
  5
45
330
3C
100
AcDbEntity
  8
2
100
AcDbBlockEnd
  0
BLOCK
  5
46
330
47
100
AcDbEntity
  8
2
100
AcDbBlockBegin
  2
*D2
 70
     1
 10
0.0
 20
0.0
 30
0.0
  3
*D2
  1

  0
TEXT
  5
48
330
47
100
AcDbEntity
  8
2
370
    18
100
AcDbText
 10
56.412514
 20
12.584029
 30
0.0
 40
2.5
  1
68
 50
90.0
 41
2.0
 72
     5
 11
56.412514
 21
16.584029
 31
0.0
100
AcDbText
  0
LINE
  5
49
330
47
100
AcDbEntity
  8
2
370
    25
100
AcDbLine
 10
34.919067
 20
-7.665971
 30
0.0
 11
57.912514
 21
-7.665971
 31
0.0
  0
LINE
  5
4A
330
47
100
AcDbEntity
  8
2
370
    25
100
AcDbLine
 10
56.912514
 20
-7.665971
 30
0.0
 11
57.430152
 21
-5.734119
 31
0.0
  0
LINE
  5
4B
330
47
100
AcDbEntity
  8
2
370
    25
100
AcDbLine
 10
56.912514
 20
-7.665971
 30
0.0
 11
56.394876
 21
-5.734119
 31
0.0
  0
LINE
  5
4C
330
47
100
AcDbEntity
  8
2
370
    25
100
AcDbLine
 10
56.912514
 20
-7.665971
 30
0.0
 11
56.912514
 21
60.334029
 31
0.0
  0
LINE
  5
4D
330
47
100
AcDbEntity
  8
2
370
    25
100
AcDbLine
 10
56.912514
 20
60.334029
 30
0.0
 11
56.394876
 21
58.402178
 31
0.0
  0
LINE
  5
4E
330
47
100
AcDbEntity
  8
2
370
    25
100
AcDbLine
 10
56.912514
 20
60.334029
 30
0.0
 11
57.430152
 21
58.402178
 31
0.0
  0
LINE
  5
4F
330
47
100
AcDbEntity
  8
2
370
    25
100
AcDbLine
 10
34.919067
 20
60.334029
 30
0.0
 11
57.912514
 21
60.334029
 31
0.0
  0
ENDBLK
  5
50
330
47
100
AcDbEntity
  8
2
100
AcDbBlockEnd
  0
BLOCK
  5
51
330
52
100
AcDbEntity
  8
2
100
AcDbBlockBegin
  2
*D3
 70
     1
 10
0.0
 20
0.0
 30
0.0
  3
*D3
  1

  0
TEXT
  5
53
330
52
100
AcDbEntity
  8
2
370
    18
100
AcDbText
 10
163.298889
 20
21.084018
 30
0.0
 40
2.5
  1
8
 50
90.0
 41
2.0
 72
     5
 11
163.298889
 21
22.584018
 31
0.0
100
AcDbText
  0
LINE
  5
54
330
52
100
AcDbEntity
  8
2
370
    25
100
AcDbLine
 10
151.664215
 20
18.334007
 30
0.0
 11
164.798889
 21
18.334007
 31
0.0
  0
LINE
  5
55
330
52
100
AcDbEntity
  8
2
370
    25
100
AcDbLine
 10
163.798889
 20
18.334007
 30
0.0
 11
164.316527
 21
20.265859
 31
0.0
  0
LINE
  5
56
330
52
100
AcDbEntity
  8
2
370
    25
100
AcDbLine
 10
163.798889
 20
18.334007
 30
0.0
 11
163.281251
 21
20.265859
 31
0.0
  0
LINE
  5
57
330
52
100
AcDbEntity
  8
2
370
    25
100
AcDbLine
 10
163.798889
 20
18.334007
 30
0.0
 11
163.798889
 21
26.334029
 31
0.0
  0
LINE
  5
58
330
52
100
AcDbEntity
  8
2
370
    25
100
AcDbLine
 10
163.798889
 20
26.334029
 30
0.0
 11
163.281251
 21
24.402178
 31
0.0
  0
LINE
  5
59
330
52
100
AcDbEntity
  8
2
370
    25
100
AcDbLine
 10
163.798889
 20
26.334029
 30
0.0
 11
164.316527
 21
24.402178
 31
0.0
  0
LINE
  5
5A
330
52
100
AcDbEntity
  8
2
370
    25
100
AcDbLine
 10
156.231583
 20
26.334029
 30
0.0
 11
164.798889
 21
26.334029
 31
0.0
  0
ENDBLK
  5
5B
330
52
100
AcDbEntity
  8
2
100
AcDbBlockEnd
  0
BLOCK
  5
5C
330
5D
100
AcDbEntity
  8
2
100
AcDbBlockBegin
  2
*D4
 70
     1
 10
0.0
 20
0.0
 30
0.0
  3
*D4
  1

  0
TEXT
  5
5E
330
5D
100
AcDbEntity
  8
2
370
    18
100
AcDbText
 10
67.664215
 20
83.484917
 30
0.0
 40
2.5
  1
3.5
 41
2.0
 72
     5
 11
74.164215
 21
83.484917
 31
0.0
100
AcDbText
  0
LINE
  5
5F
330
5D
100
AcDbEntity
  8
2
370
    25
100
AcDbLine
 10
79.164215
 20
77.268537
 30
0.0
 11
79.164215
 21
83.984917
 31
0.0
  0
LINE
  5
60
330
5D
100
AcDbEntity
  8
2
370
    25
100
AcDbLine
 10
79.164215
 20
82.984917
 30
0.0
 11
77.232363
 21
83.502555
 31
0.0
  0
LINE
  5
61
330
5D
100
AcDbEntity
  8
2
370
    25
100
AcDbLine
 10
79.164215
 20
82.984917
 30
0.0
 11
77.232363
 21
82.467279
 31
0.0
  0
LINE
  5
62
330
5D
100
AcDbEntity
  8
2
370
    25
100
AcDbLine
 10
66.664215
 20
82.984917
 30
0.0
 11
87.664215
 21
82.984917
 31
0.0
  0
LINE
  5
63
330
5D
100
AcDbEntity
  8
2
370
    25
100
AcDbLine
 10
82.664215
 20
82.984917
 30
0.0
 11
84.596067
 21
82.467279
 31
0.0
  0
LINE
  5
64
330
5D
100
AcDbEntity
  8
2
370
    25
100
AcDbLine
 10
82.664215
 20
82.984917
 30
0.0
 11
84.596067
 21
83.502555
 31
0.0
  0
LINE
  5
65
330
5D
100
AcDbEntity
  8
2
370
    25
100
AcDbLine
 10
82.664215
 20
68.334038
 30
0.0
 11
82.664215
 21
83.984917
 31
0.0
  0
ENDBLK
  5
66
330
5D
100
AcDbEntity
  8
2
100
AcDbBlockEnd
  0
BLOCK
  5
67
330
68
100
AcDbEntity
  8
2
100
AcDbBlockBegin
  2
*D5
 70
     1
 10
0.0
 20
0.0
 30
0.0
  3
*D5
  1

  0
TEXT
  5
69
330
68
100
AcDbEntity
  8
2
370
    18
100
AcDbText
 10
113.164215
 20
103.673584
 30
0.0
 40
2.5
  1
73
 41
2.0
 72
     5
 11
117.164215
 21
103.673584
 31
0.0
100
AcDbText
  0
LINE
  5
6A
330
68
100
AcDbEntity
  8
2
370
    25
100
AcDbLine
 10
79.164215
 20
77.268537
 30
0.0
 11
79.164215
 21
104.173584
 31
0.0
  0
LINE
  5
6B
330
68
100
AcDbEntity
  8
2
370
    25
100
AcDbLine
 10
79.164215
 20
103.173584
 30
0.0
 11
81.096067
 21
102.655946
 31
0.0
  0
LINE
  5
6C
330
68
100
AcDbEntity
  8
2
370
    25
100
AcDbLine
 10
79.164215
 20
103.173584
 30
0.0
 11
81.096067
 21
103.691222
 31
0.0
  0
LINE
  5
6D
330
68
100
AcDbEntity
  8
2
370
    25
100
AcDbLine
 10
79.164215
 20
103.173584
 30
0.0
 11
152.164215
 21
103.173584
 31
0.0
  0
LINE
  5
6E
330
68
100
AcDbEntity
  8
2
370
    25
100
AcDbLine
 10
152.164215
 20
103.173584
 30
0.0
 11
150.232363
 21
103.691222
 31
0.0
  0
LINE
  5
6F
330
68
100
AcDbEntity
  8
2
370
    25
100
AcDbLine
 10
152.164215
 20
103.173584
 30
0.0
 11
150.232363
 21
102.655946
 31
0.0
  0
LINE
  5
70
330
68
100
AcDbEntity
  8
2
370
    25
100
AcDbLine
 10
152.164215
 20
51.33406
 30
0.0
 11
152.164215
 21
104.173584
 31
0.0
  0
ENDBLK
  5
71
330
68
100
AcDbEntity
  8
2
100
AcDbBlockEnd
  0
BLOCK
  5
72
330
73
100
AcDbEntity
  8
2
100
AcDbBlockBegin
  2
*D6
 70
     1
 10
0.0
 20
0.0
 30
0.0
  3
*D6
  1

  0
TEXT
  5
74
330
73
100
AcDbEntity
  8
2
370
    18
100
AcDbText
 10
26.419067
 20
74.184881
 30
0.0
 40
2.5
  1
(15)
 41
2.0
 72
     5
 11
35.419067
 21
74.184881
 31
0.0
100
AcDbText
  0
LINE
  5
75
330
73
100
AcDbEntity
  8
2
370
    25
100
AcDbLine
 10
23.919067
 20
43.83406
 30
0.0
 11
23.919067
 21
74.684881
 31
0.0
  0
LINE
  5
76
330
73
100
AcDbEntity
  8
2
370
    25
100
AcDbLine
 10
23.919067
 20
73.684881
 30
0.0
 11
25.850919
 21
73.167242
 31
0.0
  0
LINE
  5
77
330
73
100
AcDbEntity
  8
2
370
    25
100
AcDbLine
 10
23.919067
 20
73.684881
 30
0.0
 11
25.850919
 21
74.202519
 31
0.0
  0
LINE
  5
78
330
73
100
AcDbEntity
  8
2
370
    25
100
AcDbLine
 10
23.919067
 20
73.684881
 30
0.0
 11
38.919067
 21
73.684881
 31
0.0
  0
LINE
  5
79
330
73
100
AcDbEntity
  8
2
370
    25
100
AcDbLine
 10
38.919067
 20
73.684881
 30
0.0
 11
36.987216
 21
74.202519
 31
0.0
  0
LINE
  5
7A
330
73
100
AcDbEntity
  8
2
370
    25
100
AcDbLine
 10
38.919067
 20
73.684881
 30
0.0
 11
36.987216
 21
73.167242
 31
0.0
  0
LINE
  5
7B
330
73
100
AcDbEntity
  8
2
370
    25
100
AcDbLine
 10
38.919067
 20
43.83406
 30
0.0
 11
38.919067
 21
74.684881
 31
0.0
  0
ENDBLK
  5
7C
330
73
100
AcDbEntity
  8
2
100
AcDbBlockEnd
  0
BLOCK
  5
7D
330
7E
100
AcDbEntity
  8
2
100
AcDbBlockBegin
  2
*D7
 70
     1
 10
0.0
 20
0.0
 30
0.0
  3
*D7
  1

  0
TEXT
  5
7F
330
7E
100
AcDbEntity
  8
2
370
    25
100
AcDbText
 10
28.919067
 20
78.500737
 30
0.0
 40
2.5
  1
18
 41
2.0
 72
     5
 11
32.919067
 21
78.500737
 31
0.0
100
AcDbText
  0
LINE
  5
80
330
7E
100
AcDbEntity
  8
2
370
    25
100
AcDbLine
 10
22.419067
 20
62.334039
 30
0.0
 11
22.419067
 21
79.000737
 31
0.0
  0
LINE
  5
81
330
7E
100
AcDbEntity
  8
2
370
    25
100
AcDbLine
 10
22.419067
 20
78.000737
 30
0.0
 11
24.350919
 21
77.483099
 31
0.0
  0
LINE
  5
82
330
7E
100
AcDbEntity
  8
2
370
    25
100
AcDbLine
 10
22.419067
 20
78.000737
 30
0.0
 11
24.350919
 21
78.518376
 31
0.0
  0
LINE
  5
83
330
7E
100
AcDbEntity
  8
2
370
    25
100
AcDbLine
 10
22.419067
 20
78.000737
 30
0.0
 11
40.419067
 21
78.000737
 31
0.0
  0
LINE
  5
84
330
7E
100
AcDbEntity
  8
2
370
    25
100
AcDbLine
 10
40.419067
 20
78.000737
 30
0.0
 11
38.487216
 21
78.518376
 31
0.0
  0
LINE
  5
85
330
7E
100
AcDbEntity
  8
2
370
    25
100
AcDbLine
 10
40.419067
 20
78.000737
 30
0.0
 11
38.487216
 21
77.483099
 31
0.0
  0
LINE
  5
86
330
7E
100
AcDbEntity
  8
2
370
    25
100
AcDbLine
 10
40.419067
 20
62.334039
 30
0.0
 11
40.419067
 21
79.000737
 31
0.0
  0
ENDBLK
  5
87
330
7E
100
AcDbEntity
  8
2
100
AcDbBlockEnd
  0
BLOCK
  5
88
330
89
100
AcDbEntity
  8
2
100
AcDbBlockBegin
  2
*D8
 70
     1
 10
0.0
 20
0.0
 30
0.0
  3
*D8
  1

  0
TEXT
  5
8A
330
89
100
AcDbEntity
  8
2
370
    25
100
AcDbText
 10
61.085175
 20
23.834039
 30
0.0
 40
2.5
  1
83
 50
90.0
 41
2.0
 72
     5
 11
61.085175
 21
27.834039
 31
0.0
100
AcDbText
  0
LINE
  5
8B
330
89
100
AcDbEntity
  8
2
370
    25
100
AcDbLine
 10
34.919067
 20
-15.165961
 30
0.0
 11
62.585175
 21
-15.165961
 31
0.0
  0
LINE
  5
8C
330
89
100
AcDbEntity
  8
2
370
    25
100
AcDbLine
 10
61.585175
 20
-15.165961
 30
0.0
 11
62.102813
 21
-13.234109
 31
0.0
  0
LINE
  5
8D
330
89
100
AcDbEntity
  8
2
370
    25
100
AcDbLine
 10
61.585175
 20
-15.165961
 30
0.0
 11
61.067536
 21
-13.234109
 31
0.0
  0
LINE
  5
8E
330
89
100
AcDbEntity
  8
2
370
    25
100
AcDbLine
 10
61.585175
 20
-15.165961
 30
0.0
 11
61.585175
 21
67.834039
 31
0.0
  0
LINE
  5
8F
330
89
100
AcDbEntity
  8
2
370
    25
100
AcDbLine
 10
61.585175
 20
67.834039
 30
0.0
 11
61.067536
 21
65.902187
 31
0.0
  0
LINE
  5
90
330
89
100
AcDbEntity
  8
2
370
    25
100
AcDbLine
 10
61.585175
 20
67.834039
 30
0.0
 11
62.102813
 21
65.902187
 31
0.0
  0
LINE
  5
91
330
89
100
AcDbEntity
  8
2
370
    25
100
AcDbLine
 10
34.919067
 20
67.834039
 30
0.0
 11
62.585175
 21
67.834039
 31
0.0
  0
ENDBLK
  5
92
330
89
100
AcDbEntity
  8
2
100
AcDbBlockEnd
  0
BLOCK
  5
93
330
94
100
AcDbEntity
  8
2
100
AcDbBlockBegin
  2
*D9
 70
     1
 10
0.0
 20
0.0
 30
0.0
  3
*D9
  1

  0
TEXT
  5
95
330
94
100
AcDbEntity
  8
2
370
    18
100
AcDbText
 10
112.164215
 20
98.705688
 30
0.0
 40
2.5
  1
51
 41
2.0
 72
     5
 11
116.164215
 21
98.705688
 31
0.0
100
AcDbText
  0
LINE
  5
96
330
94
100
AcDbEntity
  8
2
370
    25
100
AcDbLine
 10
79.164215
 20
98.205688
 30
0.0
 11
81.096067
 21
97.68805
 31
0.0
  0
LINE
  5
97
330
94
100
AcDbEntity
  8
2
370
    25
100
AcDbLine
 10
79.164215
 20
98.205688
 30
0.0
 11
81.096067
 21
98.723327
 31
0.0
  0
LINE
  5
98
330
94
100
AcDbEntity
  8
2
370
    25
100
AcDbLine
 10
79.164215
 20
98.205688
 30
0.0
 11
130.164215
 21
98.205688
 31
0.0
  0
LINE
  5
99
330
94
100
AcDbEntity
  8
2
370
    25
100
AcDbLine
 10
130.164215
 20
98.205688
 30
0.0
 11
128.232363
 21
98.723327
 31
0.0
  0
LINE
  5
9A
330
94
100
AcDbEntity
  8
2
370
    25
100
AcDbLine
 10
130.164215
 20
98.205688
 30
0.0
 11
128.232363
 21
97.68805
 31
0.0
  0
LINE
  5
9B
330
94
100
AcDbEntity
  8
2
370
    25
100
AcDbLine
 10
130.164215
 20
39.834007
 30
0.0
 11
130.164215
 21
99.205688
 31
0.0
  0
ENDBLK
  5
9C
330
94
100
AcDbEntity
  8
2
100
AcDbBlockEnd
  0
BLOCK
  5
9D
330
9E
100
AcDbEntity
  8
2
100
AcDbBlockBegin
  2
*D10
 70
     1
 10
0.0
 20
0.0
 30
0.0
  3
*D10
  1

  0
TEXT
  5
9F
330
9E
100
AcDbEntity
  8
2
370
    25
100
AcDbText
 10
80.664215
 20
77.110222
 30
0.0
 40
2.5
  1
3.5
 41
2.0
 72
     5
 11
87.164215
 21
77.110222
 31
0.0
100
AcDbText
  0
LINE
  5
A0
330
9E
100
AcDbEntity
  8
2
370
    25
100
AcDbLine
 10
92.164215
 20
76.610222
 30
0.0
 11
90.232363
 21
77.12786
 31
0.0
  0
LINE
  5
A1
330
9E
100
AcDbEntity
  8
2
370
    25
100
AcDbLine
 10
92.164215
 20
76.610222
 30
0.0
 11
90.232363
 21
76.092584
 31
0.0
  0
LINE
  5
A2
330
9E
100
AcDbEntity
  8
2
370
    25
100
AcDbLine
 10
79.664215
 20
76.610222
 30
0.0
 11
100.664215
 21
76.610222
 31
0.0
  0
LINE
  5
A3
330
9E
100
AcDbEntity
  8
2
370
    25
100
AcDbLine
 10
95.664215
 20
76.610222
 30
0.0
 11
97.596067
 21
76.092584
 31
0.0
  0
LINE
  5
A4
330
9E
100
AcDbEntity
  8
2
370
    25
100
AcDbLine
 10
95.664215
 20
76.610222
 30
0.0
 11
97.596067
 21
77.12786
 31
0.0
  0
LINE
  5
A5
330
9E
100
AcDbEntity
  8
2
370
    25
100
AcDbLine
 10
95.664215
 20
63.814964
 30
0.0
 11
95.664215
 21
77.610222
 31
0.0
  0
ENDBLK
  5
A6
330
9E
100
AcDbEntity
  8
2
100
AcDbBlockEnd
  0
BLOCK
  5
A7
330
A8
100
AcDbEntity
  8
2
100
AcDbBlockBegin
  2
*D11
 70
     1
 10
0.0
 20
0.0
 30
0.0
  3
*D11
  1

  0
TEXT
  5
A9
330
A8
100
AcDbEntity
  8
2
370
    25
100
AcDbText
 10
116.164215
 20
93.392036
 30
0.0
 40
2.5
  1
38
 41
2.0
 72
     5
 11
120.164215
 21
93.392036
 31
0.0
100
AcDbText
  0
LINE
  5
AA
330
A8
100
AcDbEntity
  8
2
370
    25
100
AcDbLine
 10
92.164215
 20
77.268537
 30
0.0
 11
92.164215
 21
93.892036
 31
0.0
  0
LINE
  5
AB
330
A8
100
AcDbEntity
  8
2
370
    25
100
AcDbLine
 10
92.164215
 20
92.892036
 30
0.0
 11
94.096067
 21
92.374398
 31
0.0
  0
LINE
  5
AC
330
A8
100
AcDbEntity
  8
2
370
    25
100
AcDbLine
 10
92.164215
 20
92.892036
 30
0.0
 11
94.096067
 21
93.409675
 31
0.0
  0
LINE
  5
AD
330
A8
100
AcDbEntity
  8
2
370
    25
100
AcDbLine
 10
92.164215
 20
92.892036
 30
0.0
 11
130.164215
 21
92.892036
 31
0.0
  0
LINE
  5
AE
330
A8
100
AcDbEntity
  8
2
370
    25
100
AcDbLine
 10
130.164215
 20
92.892036
 30
0.0
 11
128.232363
 21
93.409675
 31
0.0
  0
LINE
  5
AF
330
A8
100
AcDbEntity
  8
2
370
    25
100
AcDbLine
 10
130.164215
 20
92.892036
 30
0.0
 11
128.232363
 21
92.374398
 31
0.0
  0
LINE
  5
B0
330
A8
100
AcDbEntity
  8
2
370
    25
100
AcDbLine
 10
130.164215
 20
39.834007
 30
0.0
 11
130.164215
 21
93.892036
 31
0.0
  0
ENDBLK
  5
B1
330
A8
100
AcDbEntity
  8
2
100
AcDbBlockEnd
  0
BLOCK
  5
B2
330
B3
100
AcDbEntity
  8
2
100
AcDbBlockBegin
  2
*D12
 70
     1
 10
0.0
 20
0.0
 30
0.0
  3
*D12
  1

  0
TEXT
  5
B4
330
B3
100
AcDbEntity
  8
2
370
    25
100
AcDbText
 10
119.664215
 20
86.896393
 30
0.0
 40
2.5
  1
60
 41
2.0
 72
     5
 11
123.664215
 21
86.896393
 31
0.0
100
AcDbText
  0
LINE
  5
B5
330
B3
100
AcDbEntity
  8
2
370
    25
100
AcDbLine
 10
92.164215
 20
77.268537
 30
0.0
 11
92.164215
 21
87.396393
 31
0.0
  0
LINE
  5
B6
330
B3
100
AcDbEntity
  8
2
370
    25
100
AcDbLine
 10
92.164215
 20
86.396393
 30
0.0
 11
94.096067
 21
85.878755
 31
0.0
  0
LINE
  5
B7
330
B3
100
AcDbEntity
  8
2
370
    25
100
AcDbLine
 10
92.164215
 20
86.396393
 30
0.0
 11
94.096067
 21
86.914031
 31
0.0
  0
LINE
  5
B8
330
B3
100
AcDbEntity
  8
2
370
    25
100
AcDbLine
 10
92.164215
 20
86.396393
 30
0.0
 11
152.164215
 21
86.396393
 31
0.0
  0
LINE
  5
B9
330
B3
100
AcDbEntity
  8
2
370
    25
100
AcDbLine
 10
152.164215
 20
86.396393
 30
0.0
 11
150.232363
 21
86.914031
 31
0.0
  0
LINE
  5
BA
330
B3
100
AcDbEntity
  8
2
370
    25
100
AcDbLine
 10
152.164215
 20
86.396393
 30
0.0
 11
150.232363
 21
85.878755
 31
0.0
  0
LINE
  5
BB
330
B3
100
AcDbEntity
  8
2
370
    25
100
AcDbLine
 10
152.164215
 20
51.33406
 30
0.0
 11
152.164215
 21
87.396393
 31
0.0
  0
ENDBLK
  5
BC
330
B3
100
AcDbEntity
  8
2
100
AcDbBlockEnd
  0
BLOCK
  5
BD
330
BE
100
AcDbEntity
  8
2
100
AcDbBlockBegin
  2
*D13
 70
     1
 10
0.0
 20
0.0
 30
0.0
  3
*D13
  1

  0
LINE
  5
BF
330
BE
100
AcDbEntity
  8
2
370
    25
100
AcDbLine
 10
16.419067
 20
75.415276
 30
0.0
 11
16.419067
 21
84.177071
 31
0.0
  0
LINE
  5
C0
330
BE
100
AcDbEntity
  8
2
370
    25
100
AcDbLine
 10
16.419067
 20
83.177071
 30
0.0
 11
18.350919
 21
82.659433
 31
0.0
  0
LINE
  5
C1
330
BE
100
AcDbEntity
  8
2
370
    25
100
AcDbLine
 10
16.419067
 20
83.177071
 30
0.0
 11
18.350919
 21
83.694709
 31
0.0
  0
LINE
  5
C2
330
BE
100
AcDbEntity
  8
2
370
    25
100
AcDbLine
 10
16.419067
 20
83.177071
 30
0.0
 11
46.419067
 21
83.177071
 31
0.0
  0
LINE
  5
C3
330
BE
100
AcDbEntity
  8
2
370
    25
100
AcDbLine
 10
46.419067
 20
83.177071
 30
0.0
 11
44.487216
 21
83.694709
 31
0.0
  0
LINE
  5
C4
330
BE
100
AcDbEntity
  8
2
370
    25
100
AcDbLine
 10
46.419067
 20
83.177071
 30
0.0
 11
44.487216
 21
82.659433
 31
0.0
  0
LINE
  5
C5
330
BE
100
AcDbEntity
  8
2
370
    25
100
AcDbLine
 10
46.419067
 20
75.415276
 30
0.0
 11
46.419067
 21
84.177071
 31
0.0
  0
ENDBLK
  5
C6
330
BE
100
AcDbEntity
  8
2
100
AcDbBlockEnd
  0
BLOCK
  5
C7
330
C8
100
AcDbEntity
  8
2
100
AcDbBlockBegin
  2
*D14
 70
     1
 10
0.0
 20
0.0
 30
0.0
  3
*D14
  1

  0
TEXT
  5
C9
330
C8
100
AcDbEntity
  8
2
370
    18
100
AcDbText
 10
-49.752472
 20
84.997879
 30
0.0
 40
3.0
  1
18
 41
2.0
 72
     5
 11
-44.952472
 21
84.997879
 31
0.0
100
AcDbText
  0
LINE
  5
CA
330
C8
100
AcDbEntity
  8
2
370
    25
100
AcDbLine
 10
-55.752472
 20
43.83404
 30
0.0
 11
-55.752472
 21
85.497879
 31
0.0
  0
LINE
  5
CB
330
C8
100
AcDbEntity
  8
2
370
    25
100
AcDbLine
 10
-55.752472
 20
84.497879
 30
0.0
 11
-53.82062
 21
83.980241
 31
0.0
  0
LINE
  5
CC
330
C8
100
AcDbEntity
  8
2
370
    25
100
AcDbLine
 10
-55.752472
 20
84.497879
 30
0.0
 11
-53.82062
 21
85.015517
 31
0.0
  0
LINE
  5
CD
330
C8
100
AcDbEntity
  8
2
370
    25
100
AcDbLine
 10
-55.752472
 20
84.497879
 30
0.0
 11
-37.752472
 21
84.497879
 31
0.0
  0
LINE
  5
CE
330
C8
100
AcDbEntity
  8
2
370
    25
100
AcDbLine
 10
-37.752472
 20
84.497879
 30
0.0
 11
-39.684324
 21
85.015517
 31
0.0
  0
LINE
  5
CF
330
C8
100
AcDbEntity
  8
2
370
    25
100
AcDbLine
 10
-37.752472
 20
84.497879
 30
0.0
 11
-39.684324
 21
83.980241
 31
0.0
  0
LINE
  5
D0
330
C8
100
AcDbEntity
  8
2
370
    25
100
AcDbLine
 10
-37.752472
 20
43.83404
 30
0.0
 11
-37.752472
 21
85.497879
 31
0.0
  0
ENDBLK
  5
D1
330
C8
100
AcDbEntity
  8
2
100
AcDbBlockEnd
  0
BLOCK
  5
D2
330
D3
100
AcDbEntity
  8
2
100
AcDbBlockBegin
  2
*D15
 70
     1
 10
0.0
 20
0.0
 30
0.0
  3
*D15
  1

  0
TEXT
  5
D4
330
D3
100
AcDbEntity
  8
2
370
    18
100
AcDbText
 10
-49.752472
 20
89.313087
 30
0.0
 40
3.0
  1
24
 41
2.0
 72
     5
 11
-44.952472
 21
89.313087
 31
0.0
100
AcDbText
  0
LINE
  5
D5
330
D3
100
AcDbEntity
  8
2
370
    25
100
AcDbLine
 10
-58.752472
 20
69.83404
 30
0.0
 11
-58.752472
 21
89.813087
 31
0.0
  0
LINE
  5
D6
330
D3
100
AcDbEntity
  8
2
370
    25
100
AcDbLine
 10
-58.752472
 20
88.813087
 30
0.0
 11
-56.82062
 21
88.295449
 31
0.0
  0
LINE
  5
D7
330
D3
100
AcDbEntity
  8
2
370
    25
100
AcDbLine
 10
-58.752472
 20
88.813087
 30
0.0
 11
-56.82062
 21
89.330726
 31
0.0
  0
LINE
  5
D8
330
D3
100
AcDbEntity
  8
2
370
    25
100
AcDbLine
 10
-58.752472
 20
88.813087
 30
0.0
 11
-34.752472
 21
88.813087
 31
0.0
  0
LINE
  5
D9
330
D3
100
AcDbEntity
  8
2
370
    25
100
AcDbLine
 10
-34.752472
 20
88.813087
 30
0.0
 11
-36.684324
 21
89.330726
 31
0.0
  0
LINE
  5
DA
330
D3
100
AcDbEntity
  8
2
370
    25
100
AcDbLine
 10
-34.752472
 20
88.813087
 30
0.0
 11
-36.684324
 21
88.295449
 31
0.0
  0
LINE
  5
DB
330
D3
100
AcDbEntity
  8
2
370
    25
100
AcDbLine
 10
-34.752472
 20
69.83404
 30
0.0
 11
-34.752472
 21
89.813087
 31
0.0
  0
ENDBLK
  5
DC
330
D3
100
AcDbEntity
  8
2
100
AcDbBlockEnd
  0
BLOCK
  5
DD
330
DE
100
AcDbEntity
  8
2
100
AcDbBlockBegin
  2
*D16
 70
     1
 10
0.0
 20
0.0
 30
0.0
  3
*D16
  1

  0
TEXT
  5
DF
330
DE
100
AcDbEntity
  8
2
370
    18
100
AcDbText
 10
-94.277154
 20
82.277959
 30
0.0
 40
3.0
  1
3
 41
2.0
 72
     5
 11
-92.477154
 21
82.277959
 31
0.0
100
AcDbText
  0
LINE
  5
E0
330
DE
100
AcDbEntity
  8
2
370
    25
100
AcDbLine
 10
-98.277154
 20
81.777959
 30
0.0
 11
-96.345303
 21
81.260321
 31
0.0
  0
LINE
  5
E1
330
DE
100
AcDbEntity
  8
2
370
    25
100
AcDbLine
 10
-98.277154
 20
81.777959
 30
0.0
 11
-96.345303
 21
82.295597
 31
0.0
  0
LINE
  5
E2
330
DE
100
AcDbEntity
  8
2
370
    25
100
AcDbLine
 10
-90.277154
 20
81.777959
 30
0.0
 11
-106.277154
 21
81.777959
 31
0.0
  0
LINE
  5
E3
330
DE
100
AcDbEntity
  8
2
370
    25
100
AcDbLine
 10
-101.277154
 20
81.777959
 30
0.0
 11
-103.209006
 21
82.295597
 31
0.0
  0
LINE
  5
E4
330
DE
100
AcDbEntity
  8
2
370
    25
100
AcDbLine
 10
-101.277154
 20
81.777959
 30
0.0
 11
-103.209006
 21
81.260321
 31
0.0
  0
LINE
  5
E5
330
DE
100
AcDbEntity
  8
2
370
    25
100
AcDbLine
 10
-101.277154
 20
75.83404
 30
0.0
 11
-101.277154
 21
82.777959
 31
0.0
  0
ENDBLK
  5
E6
330
DE
100
AcDbEntity
  8
2
100
AcDbBlockEnd
  0
BLOCK
  5
E7
330
E8
100
AcDbEntity
  8
2
100
AcDbBlockBegin
  2
*D17
 70
     1
 10
0.0
 20
0.0
 30
0.0
  3
*D17
  1

  0
TEXT
  5
E9
330
E8
100
AcDbEntity
  8
2
370
    18
100
AcDbText
 10
-85.817764
 20
0.83404
 30
0.0
 40
3.0
  1
140
 50
90.0
 41
2.0
 72
     5
 11
-85.817764
 21
8.63404
 31
0.0
100
AcDbText
  0
LINE
  5
EA
330
E8
100
AcDbEntity
  8
2
370
    25
100
AcDbLine
 10
-53.252472
 20
-64.66596
 30
0.0
 11
-86.317764
 21
-64.66596
 31
0.0
  0
LINE
  5
EB
330
E8
100
AcDbEntity
  8
2
370
    25
100
AcDbLine
 10
-85.317764
 20
-64.66596
 30
0.0
 11
-84.800126
 21
-62.734108
 31
0.0
  0
LINE
  5
EC
330
E8
100
AcDbEntity
  8
2
370
    25
100
AcDbLine
 10
-85.317764
 20
-64.66596
 30
0.0
 11
-85.835402
 21
-62.734108
 31
0.0
  0
LINE
  5
ED
330
E8
100
AcDbEntity
  8
2
370
    25
100
AcDbLine
 10
-85.317764
 20
-64.66596
 30
0.0
 11
-85.317764
 21
75.33404
 31
0.0
  0
LINE
  5
EE
330
E8
100
AcDbEntity
  8
2
370
    25
100
AcDbLine
 10
-85.317764
 20
75.33404
 30
0.0
 11
-85.835402
 21
73.402189
 31
0.0
  0
LINE
  5
EF
330
E8
100
AcDbEntity
  8
2
370
    25
100
AcDbLine
 10
-85.317764
 20
75.33404
 30
0.0
 11
-84.800126
 21
73.402189
 31
0.0
  0
LINE
  5
F0
330
E8
100
AcDbEntity
  8
2
370
    25
100
AcDbLine
 10
-53.252472
 20
75.33404
 30
0.0
 11
-86.317764
 21
75.33404
 31
0.0
  0
ENDBLK
  5
F1
330
E8
100
AcDbEntity
  8
2
100
AcDbBlockEnd
  0
BLOCK
  5
F2
330
F3
100
AcDbEntity
  8
2
100
AcDbBlockBegin
  2
*D18
 70
     1
 10
0.0
 20
0.0
 30
0.0
  3
*D18
  1

  0
TEXT
  5
F4
330
F3
100
AcDbEntity
  8
2
370
    18
100
AcDbText
 10
-70.762848
 20
2.33404
 30
0.0
 40
3.0
  1
94
 50
90.0
 41
2.0
 72
     5
 11
-70.762848
 21
7.13404
 31
0.0
100
AcDbText
  0
LINE
  5
F5
330
F3
100
AcDbEntity
  8
2
370
    25
100
AcDbLine
 10
-47.252472
 20
-41.66596
 30
0.0
 11
-71.262848
 21
-41.66596
 31
0.0
  0
LINE
  5
F6
330
F3
100
AcDbEntity
  8
2
370
    25
100
AcDbLine
 10
-70.262848
 20
-41.66596
 30
0.0
 11
-69.74521
 21
-39.734108
 31
0.0
  0
LINE
  5
F7
330
F3
100
AcDbEntity
  8
2
370
    25
100
AcDbLine
 10
-70.262848
 20
-41.66596
 30
0.0
 11
-70.780486
 21
-39.734108
 31
0.0
  0
LINE
  5
F8
330
F3
100
AcDbEntity
  8
2
370
    25
100
AcDbLine
 10
-70.262848
 20
-41.66596
 30
0.0
 11
-70.262848
 21
52.33404
 31
0.0
  0
LINE
  5
F9
330
F3
100
AcDbEntity
  8
2
370
    25
100
AcDbLine
 10
-70.262848
 20
52.33404
 30
0.0
 11
-70.780486
 21
50.402189
 31
0.0
  0
LINE
  5
FA
330
F3
100
AcDbEntity
  8
2
370
    25
100
AcDbLine
 10
-70.262848
 20
52.33404
 30
0.0
 11
-69.74521
 21
50.402189
 31
0.0
  0
LINE
  5
FB
330
F3
100
AcDbEntity
  8
2
370
    25
100
AcDbLine
 10
-47.252472
 20
52.33404
 30
0.0
 11
-71.262848
 21
52.33404
 31
0.0
  0
ENDBLK
  5
FC
330
F3
100
AcDbEntity
  8
2
100
AcDbBlockEnd
  0
BLOCK
  5
FD
330
FE
100
AcDbEntity
  8
2
100
AcDbBlockBegin
  2
*D19
 70
     1
 10
0.0
 20
0.0
 30
0.0
  3
*D19
  1

  0
TEXT
  5
FF
330
FE
100
AcDbEntity
  8
2
370
    18
100
AcDbText
 10
-108.777154
 20
89.650388
 30
0.0
 40
3.0
  1
15
 41
2.0
 72
     5
 11
-103.977154
 21
89.650388
 31
0.0
100
AcDbText
  0
LINE
  5
100
330
FE
100
AcDbEntity
  8
2
370
    25
100
AcDbLine
 10
-98.277154
 20
87.650388
 30
0.0
 11
-98.277154
 21
90.150388
 31
0.0
  0
LINE
  5
101
330
FE
100
AcDbEntity
  8
2
370
    25
100
AcDbLine
 10
-98.277154
 20
89.150388
 30
0.0
 11
-100.209006
 21
89.668026
 31
0.0
  0
LINE
  5
102
330
FE
100
AcDbEntity
  8
2
370
    25
100
AcDbLine
 10
-98.277154
 20
89.150388
 30
0.0
 11
-100.209006
 21
88.63275
 31
0.0
  0
LINE
  5
103
330
FE
100
AcDbEntity
  8
2
370
    25
100
AcDbLine
 10
-98.277154
 20
89.150388
 30
0.0
 11
-113.277154
 21
89.150388
 31
0.0
  0
LINE
  5
104
330
FE
100
AcDbEntity
  8
2
370
    25
100
AcDbLine
 10
-113.277154
 20
89.150388
 30
0.0
 11
-111.345303
 21
88.63275
 31
0.0
  0
LINE
  5
105
330
FE
100
AcDbEntity
  8
2
370
    25
100
AcDbLine
 10
-113.277154
 20
89.150388
 30
0.0
 11
-111.345303
 21
89.668026
 31
0.0
  0
LINE
  5
106
330
FE
100
AcDbEntity
  8
2
370
    25
100
AcDbLine
 10
-113.277154
 20
52.83404
 30
0.0
 11
-113.277154
 21
90.150388
 31
0.0
  0
ENDBLK
  5
107
330
FE
100
AcDbEntity
  8
2
100
AcDbBlockEnd
  0
BLOCK
  5
108
330
109
100
AcDbEntity
  8
2
100
AcDbBlockBegin
  2
*D20
 70
     1
 10
0.0
 20
0.0
 30
0.0
  3
*D20
  1

  0
TEXT
  5
10A
330
109
100
AcDbEntity
  8
2
370
    18
100
AcDbText
 10
-77.143707
 20
-12.66596
 30
0.0
 40
3.0
  1
120
 50
90.0
 41
2.0
 72
     5
 11
-77.143707
 21
-4.86596
 31
0.0
100
AcDbText
  0
LINE
  5
10B
330
109
100
AcDbEntity
  8
2
370
    25
100
AcDbLine
 10
-53.265502
 20
-54.665958
 30
0.0
 11
-77.643707
 21
-54.665958
 31
0.0
  0
LINE
  5
10C
330
109
100
AcDbEntity
  8
2
370
    25
100
AcDbLine
 10
-76.643707
 20
-54.665958
 30
0.0
 11
-76.126069
 21
-52.734107
 31
0.0
  0
LINE
  5
10D
330
109
100
AcDbEntity
  8
2
370
    25
100
AcDbLine
 10
-76.643707
 20
-54.665958
 30
0.0
 11
-77.161345
 21
-52.734107
 31
0.0
  0
LINE
  5
10E
330
109
100
AcDbEntity
  8
2
370
    25
100
AcDbLine
 10
-76.643707
 20
-54.665958
 30
0.0
 11
-76.643707
 21
65.334039
 31
0.0
  0
LINE
  5
10F
330
109
100
AcDbEntity
  8
2
370
    25
100
AcDbLine
 10
-76.643707
 20
65.334039
 30
0.0
 11
-77.161345
 21
63.402188
 31
0.0
  0
LINE
  5
110
330
109
100
AcDbEntity
  8
2
370
    25
100
AcDbLine
 10
-76.643707
 20
65.334039
 30
0.0
 11
-76.126069
 21
63.402188
 31
0.0
  0
LINE
  5
111
330
109
100
AcDbEntity
  8
2
370
    25
100
AcDbLine
 10
-53.265502
 20
65.334039
 30
0.0
 11
-77.643707
 21
65.334039
 31
0.0
  0
ENDBLK
  5
112
330
109
100
AcDbEntity
  8
2
100
AcDbBlockEnd
  0
ENDSEC
  0
SECTION
  2
ENTITIES
  0
CIRCLE
  5
113
330
1D
100
AcDbEntity
  8
1
370
   100
100
AcDbCircle
 10
130.164215
 20
18.334007
 30
0.0
 40
18.0
  0
LINE
  5
114
330
1D
100
AcDbEntity
  8
1
370
   100
100
AcDbLine
 10
46.419067
 20
-64.66596
 30
0.0
 11
46.419067
 21
74.915276
 31
0.0
  0
LINE
  5
115
330
1D
100
AcDbEntity
  8
1
370
   100
100
AcDbLine
 10
16.419067
 20
-64.66596
 30
0.0
 11
16.419067
 21
74.915276
 31
0.0
  0
LINE
  5
116
330
1D
100
AcDbEntity
  8
1
370
   100
100
AcDbLine
 10
40.419067
 20
-15.165961
 30
0.0
 11
40.419067
 21
67.834039
 31
0.0
  0
LINE
  5
117
330
1D
100
AcDbEntity
  8
1
370
   100
100
AcDbLine
 10
22.419067
 20
-15.165961
 30
0.0
 11
22.419067
 21
67.834039
 31
0.0
  0
LINE
  5
118
330
1D
100
AcDbEntity
  8
1
370
   100
100
AcDbLine
 10
23.919067
 20
9.33404
 30
0.0
 11
23.919067
 21
43.33406
 31
0.0
  0
LINE
  5
119
330
1D
100
AcDbEntity
  8
1
370
   100
100
AcDbLine
 10
38.919067
 20
9.33404
 30
0.0
 11
38.919067
 21
43.33406
 31
0.0
  0
LINE
  5
11A
330
1D
100
AcDbEntity
  8
1
370
   100
100
AcDbLine
 10
28.419067
 20
-7.665971
 30
0.0
 11
34.419067
 21
-7.665971
 31
0.0
  0
LINE
  5
11B
330
1D
100
AcDbEntity
  8
1
370
   100
100
AcDbLine
 10
28.419067
 20
60.334029
 30
0.0
 11
34.419067
 21
60.334029
 31
0.0
  0
LINE
  5
11C
330
1D
100
AcDbEntity
  8
1
370
   100
100
AcDbLine
 10
31.419067
 20
57.334029
 30
0.0
 11
31.419067
 21
63.334029
 31
0.0
  0
LINE
  5
11D
330
1D
100
AcDbEntity
  8
1
370
   100
100
AcDbLine
 10
31.419067
 20
-10.665971
 30
0.0
 11
31.419067
 21
-4.665971
 31
0.0
  0
ARC
  5
11E
330
1D
100
AcDbEntity
  8
1
370
   100
100
AcDbCircle
 10
31.419067
 20
43.33406
 30
0.0
 40
7.5
100
AcDbArc
 50
0.0
 51
180.0
  0
ARC
  5
11F
330
1D
100
AcDbEntity
  8
1
370
   100
100
AcDbCircle
 10
31.419067
 20
9.33404
 30
0.0
 40
7.5
100
AcDbArc
 50
180.0
 51
0.0
  0
LINE
  5
120
330
1D
100
AcDbEntity
  8
1
370
    25
100
AcDbLine
 10
23.919067
 20
9.33404
 30
0.0
 11
31.419067
 21
1.83404
 31
0.0
  0
LINE
  5
121
330
1D
100
AcDbEntity
  8
1
370
    25
100
AcDbLine
 10
24.088078
 20
7.750816
 30
0.0
 11
29.835843
 21
2.003051
 31
0.0
  0
LINE
  5
122
330
1D
100
AcDbEntity
  8
1
370
    25
100
AcDbLine
 10
25.048248
 20
5.376433
 30
0.0
 11
27.46146
 21
2.963221
 31
0.0
  0
LINE
  5
123
330
1D
100
AcDbEntity
  8
1
370
    25
100
AcDbLine
 10
23.919067
 20
10.748254
 30
0.0
 11
32.719652
 21
1.947669
 31
0.0
  0
LINE
  5
124
330
1D
100
AcDbEntity
  8
1
370
    25
100
AcDbLine
 10
23.919067
 20
12.162467
 30
0.0
 11
33.844489
 21
2.237046
 31
0.0
  0
LINE
  5
125
330
1D
100
AcDbEntity
  8
1
370
    25
100
AcDbLine
 10
23.919067
 20
13.576681
 30
0.0
 11
34.837407
 21
2.658341
 31
0.0
  0
LINE
  5
126
330
1D
100
AcDbEntity
  8
1
370
    25
100
AcDbLine
 10
23.919067
 20
14.990894
 30
0.0
 11
35.720109
 21
3.189853
 31
0.0
  0
LINE
  5
127
330
1D
100
AcDbEntity
  8
1
370
    25
100
AcDbLine
 10
23.919067
 20
16.405108
 30
0.0
 11
36.503564
 21
3.820612
 31
0.0
  0
LINE
  5
128
330
1D
100
AcDbEntity
  8
1
370
    25
100
AcDbLine
 10
23.919067
 20
17.819322
 30
0.0
 11
37.192078
 21
4.546311
 31
0.0
  0
LINE
  5
129
330
1D
100
AcDbEntity
  8
1
370
    25
100
AcDbLine
 10
23.919067
 20
19.233535
 30
0.0
 11
37.784626
 21
5.367976
 31
0.0
  0
LINE
  5
12A
330
1D
100
AcDbEntity
  8
1
370
    25
100
AcDbLine
 10
23.919067
 20
20.647749
 30
0.0
 11
38.274548
 21
6.292268
 31
0.0
  0
LINE
  5
12B
330
1D
100
AcDbEntity
  8
1
370
    25
100
AcDbLine
 10
23.919067
 20
22.061962
 30
0.0
 11
38.647376
 21
7.333653
 31
0.0
  0
LINE
  5
12C
330
1D
100
AcDbEntity
  8
1
370
    25
100
AcDbLine
 10
23.919067
 20
23.476176
 30
0.0
 11
38.874807
 21
8.520436
 31
0.0
  0
LINE
  5
12D
330
1D
100
AcDbEntity
  8
1
370
    25
100
AcDbLine
 10
38.919067
 20
9.890389
 30
0.0
 11
23.919067
 21
24.890389
 31
0.0
  0
LINE
  5
12E
330
1D
100
AcDbEntity
  8
1
370
    25
100
AcDbLine
 10
38.919067
 20
11.304603
 30
0.0
 11
23.919067
 21
26.304603
 31
0.0
  0
LINE
  5
12F
330
1D
100
AcDbEntity
  8
1
370
    25
100
AcDbLine
 10
38.919067
 20
12.718816
 30
0.0
 11
23.919067
 21
27.718816
 31
0.0
  0
LINE
  5
130
330
1D
100
AcDbEntity
  8
1
370
    25
100
AcDbLine
 10
38.919067
 20
14.13303
 30
0.0
 11
23.919067
 21
29.13303
 31
0.0
  0
LINE
  5
131
330
1D
100
AcDbEntity
  8
1
370
    25
100
AcDbLine
 10
38.919067
 20
15.547244
 30
0.0
 11
23.919067
 21
30.547244
 31
0.0
  0
LINE
  5
132
330
1D
100
AcDbEntity
  8
1
370
    25
100
AcDbLine
 10
38.919067
 20
16.961457
 30
0.0
 11
23.919067
 21
31.961457
 31
0.0
  0
LINE
  5
133
330
1D
100
AcDbEntity
  8
1
370
    25
100
AcDbLine
 10
38.919067
 20
18.375671
 30
0.0
 11
23.919067
 21
33.375671
 31
0.0
  0
LINE
  5
134
330
1D
100
AcDbEntity
  8
1
370
    25
100
AcDbLine
 10
38.919067
 20
19.789884
 30
0.0
 11
23.919067
 21
34.789884
 31
0.0
  0
LINE
  5
135
330
1D
100
AcDbEntity
  8
1
370
    25
100
AcDbLine
 10
38.919067
 20
21.204098
 30
0.0
 11
23.919067
 21
36.204098
 31
0.0
  0
LINE
  5
136
330
1D
100
AcDbEntity
  8
1
370
    25
100
AcDbLine
 10
38.919067
 20
22.618311
 30
0.0
 11
23.919067
 21
37.618311
 31
0.0
  0
LINE
  5
137
330
1D
100
AcDbEntity
  8
1
370
    25
100
AcDbLine
 10
38.919067
 20
24.032525
 30
0.0
 11
23.919067
 21
39.032525
 31
0.0
  0
LINE
  5
138
330
1D
100
AcDbEntity
  8
1
370
    25
100
AcDbLine
 10
38.919067
 20
25.446739
 30
0.0
 11
23.919067
 21
40.446739
 31
0.0
  0
LINE
  5
139
330
1D
100
AcDbEntity
  8
1
370
    25
100
AcDbLine
 10
38.919067
 20
26.860952
 30
0.0
 11
23.919067
 21
41.860952
 31
0.0
  0
LINE
  5
13A
330
1D
100
AcDbEntity
  8
1
370
    25
100
AcDbLine
 10
38.919067
 20
28.275166
 30
0.0
 11
23.919067
 21
43.275166
 31
0.0
  0
LINE
  5
13B
330
1D
100
AcDbEntity
  8
1
370
    25
100
AcDbLine
 10
38.919067
 20
29.689379
 30
0.0
 11
24.024028
 21
44.584418
 31
0.0
  0
LINE
  5
13C
330
1D
100
AcDbEntity
  8
1
370
    25
100
AcDbLine
 10
38.919067
 20
31.103593
 30
0.0
 11
24.307186
 21
45.715475
 31
0.0
  0
LINE
  5
13D
330
1D
100
AcDbEntity
  8
1
370
    25
100
AcDbLine
 10
38.919067
 20
32.517806
 30
0.0
 11
24.723519
 21
46.713355
 31
0.0
  0
LINE
  5
13E
330
1D
100
AcDbEntity
  8
1
370
    25
100
AcDbLine
 10
38.919067
 20
33.93202
 30
0.0
 11
25.250715
 21
47.600373
 31
0.0
  0
LINE
  5
13F
330
1D
100
AcDbEntity
  8
1
370
    25
100
AcDbLine
 10
38.919067
 20
35.346233
 30
0.0
 11
25.877465
 21
48.387835
 31
0.0
  0
LINE
  5
140
330
1D
100
AcDbEntity
  8
1
370
    25
100
AcDbLine
 10
38.919067
 20
36.760447
 30
0.0
 11
26.599227
 21
49.080288
 31
0.0
  0
LINE
  5
141
330
1D
100
AcDbEntity
  8
1
370
    25
100
AcDbLine
 10
38.919067
 20
38.174661
 30
0.0
 11
27.416806
 21
49.676922
 31
0.0
  0
LINE
  5
142
330
1D
100
AcDbEntity
  8
1
370
    25
100
AcDbLine
 10
38.919067
 20
39.588874
 30
0.0
 11
28.336601
 21
50.17134
 31
0.0
  0
LINE
  5
143
330
1D
100
AcDbEntity
  8
1
370
    25
100
AcDbLine
 10
38.919067
 20
41.003088
 30
0.0
 11
29.372676
 21
50.549479
 31
0.0
  0
LINE
  5
144
330
1D
100
AcDbEntity
  8
1
370
    25
100
AcDbLine
 10
38.919067
 20
42.417301
 30
0.0
 11
30.552536
 21
50.783833
 31
0.0
  0
LINE
  5
145
330
1D
100
AcDbEntity
  8
1
370
    25
100
AcDbLine
 10
31.934237
 20
50.816346
 30
0.0
 11
38.901353
 21
43.849229
 31
0.0
  0
LINE
  5
146
330
1D
100
AcDbEntity
  8
1
370
    25
100
AcDbLine
 10
33.679473
 20
50.485323
 30
0.0
 11
38.570331
 21
45.594465
 31
0.0
  0
LINE
  5
148
330
1D
100
AcDbEntity
  8
1
370
   100
100
AcDbLine
 10
22.419067
 20
67.834039
 30
0.0
 11
40.419067
 21
67.834039
 31
0.0
  0
LINE
  5
149
330
1D
100
AcDbEntity
  8
1
370
   100
100
AcDbLine
 10
22.419067
 20
-15.165961
 30
0.0
 11
40.419067
 21
-15.165961
 31
0.0
  0
ARC
  5
14A
330
1D
100
AcDbEntity
  8
1
  6
DASHED
370
    50
100
AcDbCircle
 10
34.419067
 20
61.834039
 30
0.0
 40
6.0
100
AcDbArc
 50
0.0
 51
90.0
  0
ARC
  5
14B
330
1D
100
AcDbEntity
  8
1
  6
DASHED
370
    50
100
AcDbCircle
 10
28.419067
 20
61.834039
 30
0.0
 40
6.0
100
AcDbArc
 50
90.0
 51
180.0
  0
LINE
  5
14C
330
1D
100
AcDbEntity
  8
1
  6
DASHED
370
    18
100
AcDbLine
 10
82.664215
 20
50.83406
 30
0.0
 11
152.164215
 21
50.83406
 31
0.0
  0
LINE
  5
14D
330
1D
100
AcDbEntity
  8
1
  6
DASHED
370
    18
100
AcDbLine
 10
82.664215
 20
1.83404
 30
0.0
 11
152.164215
 21
1.83404
 31
0.0
  0
LINE
  5
14E
330
1D
100
AcDbEntity
  8
1
  6
DASHED
370
    18
100
AcDbLine
 10
152.164215
 20
1.83404
 30
0.0
 11
152.164215
 21
50.83406
 31
0.0
  0
LINE
  5
14F
330
1D
100
AcDbEntity
  8
1
  6
DASHED
370
    18
100
AcDbLine
 10
46.419067
 20
0.334007
 30
0.0
 11
16.419067
 21
0.334007
 31
0.0
  0
LINE
  5
150
330
1D
100
AcDbEntity
  8
1
  6
DASHED
370
    18
100
AcDbLine
 10
16.419067
 20
36.334007
 30
0.0
 11
23.919067
 21
36.334007
 31
0.0
  0
LINE
  5
151
330
1D
100
AcDbEntity
  8
1
  6
DASHED
370
    18
100
AcDbLine
 10
38.919067
 20
36.334007
 30
0.0
 11
46.419067
 21
36.334007
 31
0.0
  0
LINE
  5
152
330
1D
100
AcDbEntity
  8
1
  6
CENTER
370
    18
100
AcDbLine
 10
74.620865
 20
26.334029
 30
0.0
 11
155.731583
 21
26.334029
 31
0.0
  0
LINE
  5
153
330
1D
100
AcDbEntity
  8
1
  6
CENTER
370
    18
100
AcDbLine
 10
109.164215
 20
18.334007
 30
0.0
 11
151.164215
 21
18.334007
 31
0.0
  0
LINE
  5
154
330
1D
100
AcDbEntity
  8
1
  6
CENTER
370
    18
100
AcDbLine
 10
-17.86879
 20
26.334039
 30
0.0
 11
79.344421
 21
26.334039
 31
0.0
  0
LINE
  5
155
330
1D
100
AcDbEntity
  8
1
  6
CENTER
370
    18
100
AcDbLine
 10
20.919067
 20
43.33406
 30
0.0
 11
41.919067
 21
43.33406
 31
0.0
  0
LINE
  5
156
330
1D
100
AcDbEntity
  8
1
  6
CENTER
370
    18
100
AcDbLine
 10
20.919067
 20
9.33404
 30
0.0
 11
41.919067
 21
9.33404
 31
0.0
  0
LINE
  5
157
330
1D
100
AcDbEntity
  8
1
  6
CENTER
370
    18
100
AcDbLine
 10
31.419067
 20
63.334029
 30
0.0
 11
31.419067
 21
70.834038
 31
0.0
  0
LINE
  5
158
330
1D
100
AcDbEntity
  8
1
  6
CENTER
370
    18
100
AcDbLine
 10
31.419067
 20
-64.66596
 30
0.0
 11
31.419067
 21
-62.727198
 31
0.0
  0
LINE
  5
159
330
1D
100
AcDbEntity
  8
1
  6
CENTER
370
    18
100
AcDbLine
 10
31.419067
 20
-43.54336
 30
0.0
 11
31.419067
 21
-10.665971
 31
0.0
  0
LINE
  5
15A
330
1D
100
AcDbEntity
  8
1
  6
CENTER
370
    18
100
AcDbLine
 10
31.419067
 20
57.334029
 30
0.0
 11
31.419067
 21
-4.665971
 31
0.0
  0
ARC
  5
15B
330
1D
100
AcDbEntity
  8
1
  6
DASHED
370
    50
100
AcDbCircle
 10
34.419067
 20
-9.165961
 30
0.0
 40
6.0
100
AcDbArc
 50
270.0
 51
0.0
  0
ARC
  5
15C
330
1D
100
AcDbEntity
  8
1
  6
DASHED
370
    50
100
AcDbCircle
 10
28.419067
 20
-9.165961
 30
0.0
 40
6.0
100
AcDbArc
 50
180.0
 51
270.0
  0
LINE
  5
15D
330
1D
100
AcDbEntity
  8
1
  6
CENTER
370
    18
100
AcDbLine
 10
130.164215
 20
-7.590205
 30
0.0
 11
130.164215
 21
39.334007
 31
0.0
  0
POINT
  5
15E
330
1D
100
AcDbEntity
  8
1
370
    50
100
AcDbPoint
 10
-17.86879
 20
26.334039
 30
0.0
  0
POINT
  5
15F
330
1D
100
AcDbEntity
  8
1
370
    50
100
AcDbPoint
 10
-9.999619
 20
5.33404
 30
0.0
  0
LINE
  5
160
330
1D
100
AcDbEntity
  8
1
370
   100
100
AcDbLine
 10
79.164215
 20
-64.66596
 30
0.0
 11
79.164215
 21
76.768537
 31
0.0
  0
LINE
  5
161
330
1D
100
AcDbEntity
  8
1
  6
DASHED
370
    18
100
AcDbLine
 10
79.164215
 20
67.834038
 30
0.0
 11
82.664215
 21
67.834038
 31
0.0
  0
LINE
  5
162
330
1D
100
AcDbEntity
  8
1
  6
DASHED
370
    18
100
AcDbLine
 10
79.164215
 20
-15.165962
 30
0.0
 11
82.664215
 21
-15.165962
 31
0.0
  0
LINE
  5
163
330
1D
100
AcDbEntity
  8
1
  6
DASHED
370
    18
100
AcDbLine
 10
82.664215
 20
67.834038
 30
0.0
 11
82.664215
 21
-15.165962
 31
0.0
  0
LINE
  5
164
330
1D
100
AcDbEntity
  8
1
370
   100
100
AcDbLine
 10
92.164215
 20
-64.66596
 30
0.0
 11
92.164215
 21
76.768537
 31
0.0
  0
LINE
  5
165
330
1D
100
AcDbEntity
  8
1
  6
DASHED
370
    18
100
AcDbLine
 10
92.164215
 20
67.834038
 30
0.0
 11
95.664215
 21
67.834038
 31
0.0
  0
LINE
  5
166
330
1D
100
AcDbEntity
  8
1
  6
DASHED
370
    18
100
AcDbLine
 10
92.164215
 20
-15.165962
 30
0.0
 11
95.664215
 21
-15.165962
 31
0.0
  0
LINE
  5
167
330
1D
100
AcDbEntity
  8
1
  6
DASHED
370
    18
100
AcDbLine
 10
95.664215
 20
67.834038
 30
0.0
 11
95.664215
 21
-15.165962
 31
0.0
  0
LINE
  5
168
330
1D
100
AcDbEntity
  8
1
370
    50
100
AcDbLine
 10
-58.752472
 20
75.33404
 30
0.0
 11
-58.752472
 21
-64.66596
 31
0.0
  0
LINE
  5
169
330
1D
100
AcDbEntity
  8
1
370
    50
100
AcDbLine
 10
-34.752472
 20
75.33404
 30
0.0
 11
-34.752472
 21
-64.66596
 31
0.0
  0
LINE
  5
16A
330
1D
100
AcDbEntity
  8
1
370
    50
100
AcDbLine
 10
-58.752472
 20
75.33404
 30
0.0
 11
-34.752472
 21
75.33404
 31
0.0
  0
LINE
  5
16B
330
1D
100
AcDbEntity
  8
1
370
    50
100
AcDbLine
 10
-58.752472
 20
-64.66596
 30
0.0
 11
-34.752472
 21
-64.66596
 31
0.0
  0
ARC
  5
16C
330
1D
100
AcDbEntity
  8
1
  6
DASHED
370
    50
100
AcDbCircle
 10
-40.752472
 20
69.33404
 30
0.0
 40
6.0
100
AcDbArc
 50
0.0
 51
90.0
  0
ARC
  5
16D
330
1D
100
AcDbEntity
  8
1
  6
DASHED
370
    50
100
AcDbCircle
 10
-52.752472
 20
69.33404
 30
0.0
 40
6.0
100
AcDbArc
 50
90.0
 51
180.0
  0
ARC
  5
16E
330
1D
100
AcDbEntity
  8
1
  6
DASHED
370
    50
100
AcDbCircle
 10
-40.752472
 20
-58.66596
 30
0.0
 40
6.0
100
AcDbArc
 50
270.0
 51
0.0
  0
ARC
  5
16F
330
1D
100
AcDbEntity
  8
1
  6
DASHED
370
    50
100
AcDbCircle
 10
-52.752472
 20
-58.66596
 30
0.0
 40
6.0
100
AcDbArc
 50
180.0
 51
270.0
  0
LINE
  5
170
330
1D
100
AcDbEntity
  8
1
370
    50
100
AcDbLine
 10
-55.752472
 20
43.33404
 30
0.0
 11
-55.752472
 21
-32.66596
 31
0.0
  0
LINE
  5
171
330
1D
100
AcDbEntity
  8
1
370
    50
100
AcDbLine
 10
-37.752472
 20
43.33404
 30
0.0
 11
-37.752472
 21
-32.66596
 31
0.0
  0
ARC
  5
172
330
1D
100
AcDbEntity
  8
1
370
    50
100
AcDbCircle
 10
-46.752472
 20
-32.66596
 30
0.0
 40
9.0
100
AcDbArc
 50
180.0
 51
0.0
  0
ARC
  5
173
330
1D
100
AcDbEntity
  8
1
370
    50
100
AcDbCircle
 10
-46.752472
 20
43.33404
 30
0.0
 40
9.0
100
AcDbArc
 50
0.0
 51
180.0
  0
LINE
  5
174
330
1D
100
AcDbEntity
  8
1
370
    50
100
AcDbLine
 10
-98.277154
 20
91.873937
 30
0.0
 11
-98.277154
 21
-76.609004
 31
0.0
  0
LINE
  5
175
330
1D
100
AcDbEntity
  8
1
370
    50
100
AcDbLine
 10
-98.277154
 20
75.33404
 30
0.0
 11
-101.277154
 21
75.33404
 31
0.0
  0
LINE
  5
176
330
1D
100
AcDbEntity
  8
1
  6
DASHED
370
    50
100
AcDbLine
 10
-98.277154
 20
-64.66596
 30
0.0
 11
-101.277154
 21
-64.66596
 31
0.0
  0
LINE
  5
177
330
1D
100
AcDbEntity
  8
1
  6
DASHED
370
    50
100
AcDbLine
 10
-101.277154
 20
-41.66596
 30
0.0
 11
-113.277154
 21
-41.66596
 31
0.0
  0
LINE
  5
178
330
1D
100
AcDbEntity
  8
1
  6
DASHED
370
    50
100
AcDbLine
 10
-101.277154
 20
52.33404
 30
0.0
 11
-113.277154
 21
52.33404
 31
0.0
  0
LINE
  5
179
330
1D
100
AcDbEntity
  8
1
  6
DASHED
370
    50
100
AcDbLine
 10
-101.277154
 20
75.33404
 30
0.0
 11
-101.277154
 21
-64.66596
 31
0.0
  0
LINE
  5
17A
330
1D
100
AcDbEntity
  8
1
  6
DASHED
370
    50
100
AcDbLine
 10
-113.277154
 20
52.33404
 30
0.0
 11
-113.277154
 21
-41.66596
 31
0.0
  0
LINE
  5
17B
330
1D
100
AcDbEntity
  8
1
  6
CENTER
370
    18
100
AcDbLine
 10
-41.794905
 20
-54.665958
 30
0.0
 11
-52.765502
 21
-54.665958
 31
0.0
  0
LINE
  5
17C
330
1D
100
AcDbEntity
  8
1
  6
CENTER
370
    18
100
AcDbLine
 10
-41.794905
 20
65.334039
 30
0.0
 11
-52.765502
 21
65.334039
 31
0.0
  0
LINE
  5
17D
330
1D
100
AcDbEntity
  8
1
  6
CENTER
370
    18
100
AcDbLine
 10
-91.254487
 20
65.334038
 30
0.0
 11
-116.823611
 21
65.334038
 31
0.0
  0
LINE
  5
17E
330
1D
100
AcDbEntity
  8
1
  6
CENTER
370
    18
100
AcDbLine
 10
-91.254487
 20
-54.665962
 30
0.0
 11
-116.823611
 21
-54.665962
 31
0.0
  0
LINE
  5
17F
330
1D
100
AcDbEntity
  8
1
  6
CENTER
370
    18
100
AcDbLine
 10
-91.254487
 20
5.334038
 30
0.0
 11
-116.823611
 21
5.334038
 31
0.0
  0
LINE
  5
180
330
1D
100
AcDbEntity
  8
1
  6
CENTER
370
    18
100
AcDbLine
 10
-61.734085
 20
5.33404
 30
0.0
 11
-9.999619
 21
5.33404
 31
0.0
  0
LINE
  5
181
330
1D
100
AcDbEntity
  8
1
  6
CENTER
370
    18
100
AcDbLine
 10
-41.794905
 20
-54.665958
 30
0.0
 11
-52.765502
 21
-54.665958
 31
0.0
  0
LINE
  5
182
330
1D
100
AcDbEntity
  8
1
  6
CENTER
370
    18
100
AcDbLine
 10
-41.794905
 20
65.334039
 30
0.0
 11
-52.765502
 21
65.334039
 31
0.0
  0
LINE
  5
183
330
1D
100
AcDbEntity
  8
1
  6
CENTER
370
    18
100
AcDbLine
 10
-91.254487
 20
65.334038
 30
0.0
 11
-116.823611
 21
65.334038
 31
0.0
  0
LINE
  5
184
330
1D
100
AcDbEntity
  8
1
  6
CENTER
370
    18
100
AcDbLine
 10
-91.254487
 20
-54.665962
 30
0.0
 11
-116.823611
 21
-54.665962
 31
0.0
  0
LINE
  5
185
330
1D
100
AcDbEntity
  8
1
370
   100
100
AcDbLine
 10
-65.752472
 20
76.070035
 30
0.0
 11
-65.752472
 21
-74.133466
 31
0.0
  0
LINE
  5
186
330
1D
100
AcDbEntity
  8
1
370
   100
100
AcDbLine
 10
-27.752472
 20
76.070035
 30
0.0
 11
-27.752472
 21
-74.133466
 31
0.0
  0
LINE
  5
187
330
1D
100
AcDbEntity
  8
1
  6
CENTER
370
    18
100
AcDbLine
 10
-46.752472
 20
-67.796767
 30
0.0
 11
-46.752472
 21
-33.317304
 31
0.0
  0
LINE
  5
188
330
1D
100
AcDbEntity
  8
1
  6
CENTER
370
    18
100
AcDbLine
 10
-46.752472
 20
-14.133466
 30
0.0
 11
-46.752472
 21
78.464848
 31
0.0
  0
DIMENSION
  5
189
330
1D
100
AcDbEntity
  8
2
370
    25
100
AcDbDimension
  2
*D0
 10
-14.673027
 20
26.334039
 30
0.0
 11
-17.673027
 21
15.83404
 31
0.0
 70
    32
 71
     5
 42
-1.0
  3
Standard
100
AcDbAlignedDimension
 13
-14.673027
 23
5.33404
 33
0.0
 14
-14.673027
 24
26.334039
 34
0.0
 50
90.0
100
AcDbRotatedDimension
  0
DIMENSION
  5
18A
330
1D
100
AcDbEntity
  8
2
370
    25
100
AcDbDimension
  2
*D1
 10
53.089615
 20
50.83406
 30
0.0
 11
50.089615
 21
26.33405
 31
0.0
 70
    32
 71
     5
 42
-1.0
  3
Standard
100
AcDbAlignedDimension
 13
31.419067
 23
1.83404
 33
0.0
 14
31.419067
 24
50.83406
 34
0.0
 50
90.0
100
AcDbRotatedDimension
  0
LINE
  5
18B
330
1D
100
AcDbEntity
  8
2
370
    18
100
AcDbLine
 10
31.419067
 20
43.33406
 30
0.0
 11
24.933632
 21
47.100905
 31
0.0
  0
LWPOLYLINE
  5
18C
330
1D
100
AcDbEntity
  8
2
370
    18
100
AcDbPolyline
 90
        3
 70
     0
 43
0.0
 10
24.933632
 20
47.100905
 10
13.545271
 20
53.715448
 10
-6.454729
 20
53.715448
  0
LINE
  5
191
330
1D
100
AcDbEntity
  8
2
370
    25
100
AcDbLine
 10
23.00313
 20
47.623555
 30
0.0
 11
24.933632
 21
47.100905
 31
0.0
  0
LINE
  5
192
330
1D
100
AcDbEntity
  8
2
370
    25
100
AcDbLine
 10
24.933632
 20
47.100905
 30
0.0
 11
23.523093
 21
48.518784
 31
0.0
  0
TEXT
  5
193
330
1D
100
AcDbEntity
  8
2
370
    18
100
AcDbText
 10
-0.454729
 20
54.215448
 30
0.0
 40
2.5
  1
R7.5
 41
2.0
 72
     5
 11
8.545271
 21
54.215448
 31
0.0
100
AcDbText
  0
TEXT
  5
194
330
1D
100
AcDbEntity
  8
2
370
    18
100
AcDbText
 10
-5.454729
 20
54.215448
 30
0.0
 40
2.5
  1
２－
 72
     5
 11
-0.954729
 21
54.215448
 31
0.0
100
AcDbText
  0
TEXT
  5
195
330
1D
100
AcDbEntity
  8
2
370
    18
100
AcDbText
 10
56.412514
 20
17.584029
 30
0.0
 40
2.5
  1
（取付ネジピッチ）
 50
90.0
 72
     5
 11
56.412514
 21
39.584029
 31
0.0
100
AcDbText
  0
DIMENSION
  5
196
330
1D
100
AcDbEntity
  8
2
370
    25
100
AcDbDimension
  2
*D2
 10
56.912514
 20
60.334029
 30
0.0
 11
53.912514
 21
15.084029
 31
0.0
 70
    32
 71
     5
 42
-1.0
  3
Standard
100
AcDbAlignedDimension
 13
34.419067
 23
-7.665971
 33
0.0
 14
34.419067
 24
60.334029
 34
0.0
 50
90.0
100
AcDbRotatedDimension
  0
TEXT
  5
197
330
1D
100
AcDbEntity
  8
2
370
    18
100
AcDbText
 10
29.819067
 20
-48.543359
 30
0.0
 40
3.2
  1
扉
 72
     5
 11
32.379067
 21
-48.543359
 31
0.0
100
AcDbText
  0
TEXT
  5
198
330
1D
100
AcDbEntity
  8
2
370
    18
100
AcDbText
 10
29.819067
 20
-52.743359
 30
0.0
 40
3.2
  1
厚
 72
     5
 11
32.379067
 21
-52.743359
 31
0.0
100
AcDbText
  0
TEXT
  5
199
330
1D
100
AcDbEntity
  8
2
370
    18
100
AcDbText
 10
29.819067
 20
-56.943359
 30
0.0
 40
3.2
  1
中
 72
     5
 11
32.379067
 21
-56.943359
 31
0.0
100
AcDbText
  0
TEXT
  5
19A
330
1D
100
AcDbEntity
  8
2
370
    18
100
AcDbText
 10
29.819067
 20
-61.143359
 30
0.0
 40
3.2
  1
心
 72
     5
 11
32.379067
 21
-61.143359
 31
0.0
100
AcDbText
  0
DIMENSION
  5
19B
330
1D
100
AcDbEntity
  8
2
370
    25
100
AcDbDimension
  2
*D3
 10
163.798889
 20
26.334029
 30
0.0
 11
162.048889
 21
23.584018
 31
0.0
 70
    32
 71
     5
 42
-1.0
  3
Standard
100
AcDbAlignedDimension
 13
151.164215
 23
18.334007
 33
0.0
 14
155.731583
 24
26.334029
 34
0.0
 50
90.0
100
AcDbRotatedDimension
  0
LWPOLYLINE
  5
19C
330
1D
100
AcDbEntity
  8
2
370
    18
100
AcDbPolyline
 90
        3
 70
     0
 43
0.0
 10
141.633266
 20
32.207034
 10
159.683594
 20
54.040807
 10
172.183594
 20
54.040807
  0
LINE
  5
1A1
330
1D
100
AcDbEntity
  8
2
370
    25
100
AcDbLine
 10
142.465227
 20
34.025781
 30
0.0
 11
141.633266
 21
32.207034
 31
0.0
  0
LINE
  5
1A2
330
1D
100
AcDbEntity
  8
2
370
    25
100
AcDbLine
 10
141.633266
 20
32.207034
 30
0.0
 11
143.263139
 21
33.366134
 31
0.0
  0
TEXT
  5
1A3
330
1D
100
AcDbEntity
  8
2
370
    18
100
AcDbText
 10
163.683594
 20
54.540807
 30
0.0
 40
2.5
  1
%%c36
 41
2.0
 72
     5
 11
170.183594
 21
54.540807
 31
0.0
100
AcDbText
  0
TEXT
  5
1A4
330
1D
100
AcDbEntity
  8
2
370
    18
100
AcDbText
 10
-48.244238
 20
-19.133466
 30
0.0
 40
3.2
  1
扉
 72
     5
 11
-45.684238
 21
-19.133466
 31
0.0
100
AcDbText
  0
TEXT
  5
1A5
330
1D
100
AcDbEntity
  8
2
370
    18
100
AcDbText
 10
-48.244238
 20
-23.333466
 30
0.0
 40
3.2
  1
厚
 72
     5
 11
-45.684238
 21
-23.333466
 31
0.0
100
AcDbText
  0
TEXT
  5
1A6
330
1D
100
AcDbEntity
  8
2
370
    18
100
AcDbText
 10
-48.244238
 20
-27.533466
 30
0.0
 40
3.2
  1
中
 72
     5
 11
-45.684238
 21
-27.533466
 31
0.0
100
AcDbText
  0
TEXT
  5
1A7
330
1D
100
AcDbEntity
  8
2
370
    18
100
AcDbText
 10
-48.244238
 20
-31.733466
 30
0.0
 40
3.2
  1
心
 72
     5
 11
-45.684238
 21
-31.733466
 31
0.0
100
AcDbText
  0
TEXT
  5
1A8
330
1D
100
AcDbEntity
  8
2
370
    18
100
AcDbText
 10
22.76712
 20
96.271779
 30
0.0
 40
2.5
  1
錠前フロント部の切欠き
 72
     5
 11
49.76712
 21
96.271779
 31
0.0
100
AcDbText
  0
LINE
  5
1A9
330
1D
100
AcDbEntity
  8
2
370
    50
100
AcDbLine
 10
22.76712
 20
95.771779
 30
0.0
 11
50.26712
 21
95.771779
 31
0.0
  0
LINE
  5
1AA
330
1D
100
AcDbEntity
  8
2
370
    50
100
AcDbLine
 10
22.76712
 20
95.271779
 30
0.0
 11
50.26712
 21
95.271779
 31
0.0
  0
LINE
  5
1AB
330
1D
100
AcDbEntity
  8
2
370
    50
100
AcDbLine
 10
-68.343895
 20
95.771779
 30
0.0
 11
-33.343895
 21
95.771779
 31
0.0
  0
LINE
  5
1AC
330
1D
100
AcDbEntity
  8
2
370
    50
100
AcDbLine
 10
-68.343895
 20
95.271779
 30
0.0
 11
-33.343895
 21
95.271779
 31
0.0
  0
TEXT
  5
1AD
330
1D
100
AcDbEntity
  8
2
370
    18
100
AcDbText
 10
-68.343895
 20
96.271779
 30
0.0
 40
2.5
  1
ストライクフロント部の切欠き
 72
     5
 11
-33.843895
 21
96.271779
 31
0.0
100
AcDbText
  0
DIMENSION
  5
1AE
330
1D
100
AcDbEntity
  8
2
370
    25
100
AcDbDimension
  2
*D4
 10
82.664215
 20
82.984917
 30
0.0
 11
71.414215
 21
84.734917
 31
0.0
 70
    32
 71
     5
 42
-1.0
  3
Standard
100
AcDbAlignedDimension
 13
79.164215
 23
76.768537
 33
0.0
 14
82.664215
 24
67.834038
 34
0.0
100
AcDbRotatedDimension
  0
DIMENSION
  5
1AF
330
1D
100
AcDbEntity
  8
2
370
    25
100
AcDbDimension
  2
*D5
 10
152.164215
 20
103.173584
 30
0.0
 11
115.664215
 21
104.923584
 31
0.0
 70
    32
 71
     5
 42
-1.0
  3
Standard
100
AcDbAlignedDimension
 13
79.164215
 23
76.768537
 33
0.0
 14
152.164215
 24
50.83406
 34
0.0
100
AcDbRotatedDimension
  0
DIMENSION
  5
1B0
330
1D
100
AcDbEntity
  8
2
370
    25
100
AcDbDimension
  2
*D6
 10
38.919067
 20
73.684881
 30
0.0
 11
31.419067
 21
75.434881
 31
0.0
 70
    32
 71
     5
 42
-1.0
  3
Standard
100
AcDbAlignedDimension
 13
23.919067
 23
43.33406
 33
0.0
 14
38.919067
 24
43.33406
 34
0.0
100
AcDbRotatedDimension
  0
DIMENSION
  5
1B1
330
1D
100
AcDbEntity
  8
2
370
    25
100
AcDbDimension
  2
*D7
 10
40.419067
 20
78.000737
 30
0.0
 11
31.419067
 21
79.750737
 31
0.0
 70
    32
 71
     5
 42
-1.0
  3
Standard
100
AcDbAlignedDimension
 13
22.419067
 23
61.834039
 33
0.0
 14
40.419067
 24
61.834039
 34
0.0
100
AcDbRotatedDimension
  0
DIMENSION
  5
1B2
330
1D
100
AcDbEntity
  8
2
370
    25
100
AcDbDimension
  2
*D8
 10
61.585175
 20
67.834039
 30
0.0
 11
58.585175
 21
26.334039
 31
0.0
 70
    32
 71
     5
 42
-1.0
  3
Standard
100
AcDbAlignedDimension
 13
34.419067
 23
-15.165961
 33
0.0
 14
34.419067
 24
67.834039
 34
0.0
 50
90.0
100
AcDbRotatedDimension
  0
TEXT
  5
1B3
330
1D
100
AcDbEntity
  8
2
370
    18
100
AcDbText
 10
97.164215
 20
98.705688
 30
0.0
 40
2.5
  1
バックセット
 72
     5
 11
111.664215
 21
98.705688
 31
0.0
100
AcDbText
  0
DIMENSION
  5
1B4
330
1D
100
AcDbEntity
  8
2
370
    25
100
AcDbDimension
  2
*D9
 10
130.164215
 20
98.205688
 30
0.0
 11
114.664215
 21
99.955688
 31
0.0
 70
    32
 71
     5
 42
-1.0
  3
Standard
100
AcDbAlignedDimension
 13
79.164215
 23
98.205688
 33
0.0
 14
130.164215
 24
39.334007
 34
0.0
100
AcDbRotatedDimension
  0
DIMENSION
  5
1B5
330
1D
100
AcDbEntity
  8
2
370
    25
100
AcDbDimension
  2
*D10
 10
95.664215
 20
76.610222
 30
0.0
 11
84.414215
 21
78.360222
 31
0.0
 70
    32
 71
     5
 42
-1.0
  3
Standard
100
AcDbAlignedDimension
 13
92.164215
 23
76.610222
 33
0.0
 14
95.664215
 24
63.314964
 34
0.0
100
AcDbRotatedDimension
  0
TEXT
  5
1B6
330
1D
100
AcDbEntity
  8
2
370
    18
100
AcDbText
 10
101.164215
 20
93.392036
 30
0.0
 40
2.5
  1
バックセット
 72
     5
 11
115.664215
 21
93.392036
 31
0.0
100
AcDbText
  0
DIMENSION
  5
1B7
330
1D
100
AcDbEntity
  8
2
370
    25
100
AcDbDimension
  2
*D11
 10
130.164215
 20
92.892036
 30
0.0
 11
118.664215
 21
94.642036
 31
0.0
 70
    32
 71
     5
 42
-1.0
  3
Standard
100
AcDbAlignedDimension
 13
92.164215
 23
76.768537
 33
0.0
 14
130.164215
 24
39.334007
 34
0.0
100
AcDbRotatedDimension
  0
DIMENSION
  5
1B8
330
1D
100
AcDbEntity
  8
2
370
    25
100
AcDbDimension
  2
*D12
 10
152.164215
 20
86.396393
 30
0.0
 11
122.164215
 21
88.146393
 31
0.0
 70
    32
 71
     5
 42
-1.0
  3
Standard
100
AcDbAlignedDimension
 13
92.164215
 23
76.768537
 33
0.0
 14
152.164215
 24
50.83406
 34
0.0
100
AcDbRotatedDimension
  0
TEXT
  5
1B9
330
1D
100
AcDbEntity
  8
2
370
    18
100
AcDbText
 10
-184.999863
 20
-103.979164
 30
0.0
 40
6.0
  1
※錠・ストライクの隅形状は現品に合わせて、角又はＲ６で加工してください。
 72
     5
 11
29.800137
 21
-103.979164
 31
0.0
100
AcDbText
  0
LINE
  5
1BA
330
1D
100
AcDbEntity
  8
2
370
   100
100
AcDbLine
 10
-179.240829
 20
-103.857307
 30
0.0
 11
28.528135
 21
-103.857307
 31
0.0
  0
LINE
  5
1BB
330
1D
100
AcDbEntity
  8
2
370
   100
100
AcDbLine
 10
-179.240829
 20
-104.857307
 30
0.0
 11
28.528135
 21
-104.857307
 31
0.0
  0
LWPOLYLINE
  5
1BC
330
1D
100
AcDbEntity
  8
2
370
    25
100
AcDbPolyline
 90
        3
 70
     0
 43
0.0
 10
22.419067
 20
67.834039
 10
14.928773
 20
79.456497
 10
0.153691
 20
79.456497
  0
LINE
  5
1C1
330
1D
100
AcDbEntity
  8
2
370
    25
100
AcDbLine
 10
20.937447
 20
69.177468
 30
0.0
 11
22.419067
 21
67.834039
 31
0.0
  0
LINE
  5
1C2
330
1D
100
AcDbEntity
  8
2
370
    25
100
AcDbLine
 10
22.419067
 20
67.834039
 30
0.0
 11
21.807662
 21
69.738293
 31
0.0
  0
TEXT
  5
1C3
330
1D
100
AcDbEntity
  8
2
370
    18
100
AcDbText
 10
1.103595
 20
79.811546
 30
0.0
 40
2.5
  1
角又は６Ｒ
 72
     5
 11
13.103595
 21
79.811546
 31
0.0
100
AcDbText
  0
LWPOLYLINE
  5
1C4
330
1D
100
AcDbEntity
  8
2
370
    25
100
AcDbPolyline
 90
        3
 70
     0
 43
0.0
 10
-58.644238
 20
75.33404
 10
-66.134532
 20
86.956499
 10
-80.909614
 20
86.956499
  0
LINE
  5
1C9
330
1D
100
AcDbEntity
  8
2
370
    25
100
AcDbLine
 10
-60.125857
 20
76.67747
 30
0.0
 11
-58.644238
 21
75.33404
 31
0.0
  0
LINE
  5
1CA
330
1D
100
AcDbEntity
  8
2
370
    25
100
AcDbLine
 10
-58.644238
 20
75.33404
 30
0.0
 11
-59.255643
 21
77.238294
 31
0.0
  0
TEXT
  5
1CB
330
1D
100
AcDbEntity
  8
2
370
    18
100
AcDbText
 10
-79.95971
 20
87.311548
 30
0.0
 40
2.5
  1
角又は６Ｒ
 72
     5
 11
-67.95971
 21
87.311548
 31
0.0
100
AcDbText
  0
TEXT
  5
1CC
330
1D
100
AcDbEntity
  8
2
370
    18
100
AcDbText
 10
22.669067
 20
83.677071
 30
0.0
 40
2.5
  1
扉厚２８～３６
 72
     5
 11
39.669067
 21
83.677071
 31
0.0
100
AcDbText
  0
DIMENSION
  5
1CD
330
1D
100
AcDbEntity
  8
2
370
    25
100
AcDbDimension
  2
*D13
 10
46.419067
 20
83.177071
 30
0.0
 11
31.419067
 21
85.177071
 31
0.0
 70
    32
 71
     5
 42
-1.0
  3
Standard
100
AcDbAlignedDimension
 13
16.419067
 23
74.915276
 33
0.0
 14
46.419067
 24
74.915276
 34
0.0
100
AcDbRotatedDimension
  0
DIMENSION
  5
1CE
330
1D
100
AcDbEntity
  8
2
370
    25
100
AcDbDimension
  2
*D14
 10
-37.752472
 20
84.497879
 30
0.0
 11
-46.752472
 21
86.497879
 31
0.0
 70
    32
 71
     5
 42
-1.0
  3
Standard
100
AcDbAlignedDimension
 13
-55.752472
 23
43.33404
 33
0.0
 14
-37.752472
 24
43.33404
 34
0.0
100
AcDbRotatedDimension
  0
DIMENSION
  5
1CF
330
1D
100
AcDbEntity
  8
2
370
    25
100
AcDbDimension
  2
*D15
 10
-34.752472
 20
88.813087
 30
0.0
 11
-46.752472
 21
90.813087
 31
0.0
 70
    32
 71
     5
 42
-1.0
  3
Standard
100
AcDbAlignedDimension
 13
-58.752472
 23
69.33404
 33
0.0
 14
-34.752472
 24
69.33404
 34
0.0
100
AcDbRotatedDimension
  0
LWPOLYLINE
  5
1D0
330
1D
100
AcDbEntity
  8
2
370
    18
100
AcDbPolyline
 90
        3
 70
     0
 43
0.0
 10
-39.119633
 20
-37.434584
 10
-31.168844
 20
-42.401848
 10
-20.168844
 20
-42.401848
  0
LINE
  5
1D5
330
1D
100
AcDbEntity
  8
2
370
    25
100
AcDbLine
 10
-37.206974
 20
-38.019164
 30
0.0
 11
-39.119633
 21
-37.434584
 31
0.0
  0
LINE
  5
1D6
330
1D
100
AcDbEntity
  8
2
370
    25
100
AcDbLine
 10
-39.119633
 20
-37.434584
 30
0.0
 11
-37.755512
 21
-38.897175
 31
0.0
  0
TEXT
  5
1D7
330
1D
100
AcDbEntity
  8
2
370
    18
100
AcDbText
 10
-27.168844
 20
-41.901848
 30
0.0
 40
3.0
  1
R9
 41
2.0
 72
     5
 11
-22.368844
 21
-41.901848
 31
0.0
100
AcDbText
  0
DIMENSION
  5
1D8
330
1D
100
AcDbEntity
  8
2
370
    25
100
AcDbDimension
  2
*D16
 10
-101.277154
 20
81.777959
 30
0.0
 11
-92.777154
 21
83.777959
 31
0.0
 70
    33
 71
     5
 42
-1.0
 51
270.0
  3
Standard
100
AcDbAlignedDimension
 13
-98.277154
 23
81.777959
 33
0.0
 14
-101.277154
 24
75.33404
 34
0.0
  0
DIMENSION
  5
1D9
330
1D
100
AcDbEntity
  8
2
370
    25
100
AcDbDimension
  2
*D17
 10
-85.317764
 20
75.33404
 30
0.0
 11
-90.317764
 21
3.83404
 31
0.0
 70
    32
 71
     5
 42
-1.0
  3
Standard
100
AcDbAlignedDimension
 13
-52.752472
 23
-64.66596
 33
0.0
 14
-52.752472
 24
75.33404
 34
0.0
 50
90.0
100
AcDbRotatedDimension
  0
DIMENSION
  5
1DA
330
1D
100
AcDbEntity
  8
2
370
    25
100
AcDbDimension
  2
*D18
 10
-70.262848
 20
52.33404
 30
0.0
 11
-73.762848
 21
5.33404
 31
0.0
 70
    32
 71
     5
 42
-1.0
  3
Standard
100
AcDbAlignedDimension
 13
-46.752472
 23
-41.66596
 33
0.0
 14
-46.752472
 24
52.33404
 34
0.0
 50
90.0
100
AcDbRotatedDimension
  0
DIMENSION
  5
1DB
330
1D
100
AcDbEntity
  8
2
370
    25
100
AcDbDimension
  2
*D19
 10
-113.277154
 20
89.150388
 30
0.0
 11
-105.777154
 21
91.150388
 31
0.0
 70
    33
 71
     5
 42
-1.0
 51
270.0
  3
Standard
100
AcDbAlignedDimension
 13
-98.277154
 23
87.150388
 33
0.0
 14
-113.277154
 24
52.33404
 34
0.0
  0
TEXT
  5
1DC
330
1D
100
AcDbEntity
  8
2
370
    18
100
AcDbText
 10
-77.143707
 20
-3.66596
 30
0.0
 40
3.0
  1
（取付ネジピッチ）
 50
90.0
 72
     5
 11
-77.143707
 21
22.73404
 31
0.0
100
AcDbText
  0
DIMENSION
  5
1DD
330
1D
100
AcDbEntity
  8
2
370
    25
100
AcDbDimension
  2
*D20
 10
-76.643707
 20
65.334039
 30
0.0
 11
-81.643707
 21
-9.66596
 31
0.0
 70
    32
 71
     5
 42
-1.0
  3
Standard
100
AcDbAlignedDimension
 13
-52.765502
 23
-54.665958
 33
0.0
 14
-52.765502
 24
65.334039
 34
0.0
 50
90.0
100
AcDbRotatedDimension
  0
LINE
  5
1DE
330
1D
100
AcDbEntity
  8
3
370
   100
100
AcDbLine
 10
-190.0
 20
138.0
 30
0.0
 11
-190.0
 21
-138.0
 31
0.0
  0
LINE
  5
1DF
330
1D
100
AcDbEntity
  8
3
370
   100
100
AcDbLine
 10
200.0
 20
138.0
 30
0.0
 11
200.0
 21
-138.0
 31
0.0
  0
LINE
  5
1E0
330
1D
100
AcDbEntity
  8
3
370
   100
100
AcDbLine
 10
-190.0
 20
138.0
 30
0.0
 11
200.0
 21
138.0
 31
0.0
  0
LINE
  5
1E1
330
1D
100
AcDbEntity
  8
3
370
   100
100
AcDbLine
 10
-190.0
 20
-138.0
 30
0.0
 11
200.0
 21
-138.0
 31
0.0
  0
LINE
  5
1E2
330
1D
100
AcDbEntity
  8
3
370
    50
100
AcDbLine
 10
-190.0
 20
-108.0
 30
0.0
 11
200.0
 21
-108.0
 31
0.0
  0
LINE
  5
1E3
330
1D
100
AcDbEntity
  8
3
370
    25
100
AcDbLine
 10
10.0
 20
-112.999949
 30
0.0
 11
108.000527
 21
-112.999865
 31
0.0
  0
LINE
  5
1E4
330
1D
100
AcDbEntity
  8
3
370
   100
100
AcDbLine
 10
-190.3
 20
138.3
 30
0.0
 11
200.3
 21
138.3
 31
0.0
  0
LINE
  5
1E5
330
1D
100
AcDbEntity
  8
3
370
   100
100
AcDbLine
 10
200.3
 20
138.3
 30
0.0
 11
200.3
 21
-138.3
 31
0.0
  0
LINE
  5
1E6
330
1D
100
AcDbEntity
  8
3
370
   100
100
AcDbLine
 10
200.3
 20
-138.3
 30
0.0
 11
-190.3
 21
-138.3
 31
0.0
  0
LINE
  5
1E7
330
1D
100
AcDbEntity
  8
3
370
   100
100
AcDbLine
 10
-190.3
 20
-138.3
 30
0.0
 11
-190.3
 21
138.3
 31
0.0
  0
LINE
  5
1E8
330
1D
100
AcDbEntity
  8
3
370
    25
100
AcDbLine
 10
108.000527
 20
-112.999865
 30
0.0
 11
108.000527
 21
-108.0
 31
0.0
  0
LINE
  5
1E9
330
1D
100
AcDbEntity
  8
3
370
    25
100
AcDbLine
 10
90.0
 20
-129.999865
 30
0.0
 11
108.000527
 21
-129.999865
 31
0.0
  0
LINE
  5
1EA
330
1D
100
AcDbEntity
  8
3
370
    25
100
AcDbLine
 10
108.000527
 20
-129.999865
 30
0.0
 11
108.000527
 21
-125.0
 31
0.0
  0
LINE
  5
1EB
330
1D
100
AcDbEntity
  8
3
370
    50
100
AcDbLine
 10
10.0
 20
-108.0
 30
0.0
 11
10.0
 21
-138.0
 31
0.0
  0
TEXT
  5
1EC
330
1D
100
AcDbEntity
  8
3
370
   100
100
AcDbText
 10
22.0
 20
-135.5
 30
0.0
 40
8.0
  1
（株）川口技研
 72
     5
 11
76.4
 21
-135.5
 31
0.0
100
AcDbText
  0
TEXT
  5
1ED
330
1D
100
AcDbEntity
  8
3
370
    25
100
AcDbText
 10
91.800263
 20
-112.29994
 30
0.0
 40
3.6
  1
図面名称
 72
     5
 11
105.480263
 21
-112.29994
 31
0.0
100
AcDbText
  0
TEXT
  5
1EE
330
1D
100
AcDbEntity
  8
3
370
    25
100
AcDbText
 10
91.800263
 20
-129.299925
 30
0.0
 40
3.6
  1
図面番号
 72
     5
 11
105.480263
 21
-129.299925
 31
0.0
100
AcDbText
  0
TEXT
  5
1EF
330
1D
100
AcDbEntity
  8
3
370
    25
100
AcDbText
 10
16.133333
 20
-112.299991
 30
0.0
 40
3.6
  1
図　　法
 72
     5
 11
29.813333
 21
-112.299991
 31
0.0
100
AcDbText
  0
TEXT
  5
1F0
330
1D
100
AcDbEntity
  8
3
370
    25
100
AcDbText
 10
42.8
 20
-112.299974
 30
0.0
 40
3.6
  1
単　　位
 72
     5
 11
56.48
 21
-112.299974
 31
0.0
100
AcDbText
  0
TEXT
  5
1F1
330
1D
100
AcDbEntity
  8
3
370
    25
100
AcDbText
 10
69.466667
 20
-112.299957
 30
0.0
 40
3.6
  1
尺　　度
 72
     5
 11
83.146667
 21
-112.299957
 31
0.0
100
AcDbText
  0
TEXT
  5
1F2
330
1D
100
AcDbEntity
  8
3
370
    25
100
AcDbText
 10
46.0
 20
-120.999957
 30
0.0
 40
4.0
  1
ｍｍ
 72
     5
 11
53.2
 21
-120.999957
 31
0.0
100
AcDbText
  0
TEXT
  5
1F3
330
1D
100
AcDbEntity
  8
3
370
    25
100
AcDbText
 10
17.333333
 20
-120.999957
 30
0.0
 40
4.0
  1
３角法
 72
     5
 11
28.533333
 21
-120.999957
 31
0.0
100
AcDbText
  0
LINE
  5
1F4
330
1D
100
AcDbEntity
  8
3
370
    50
100
AcDbLine
 10
90.0
 20
-138.0
 30
0.0
 11
90.0
 21
-108.0
 31
0.0
  0
LINE
  5
1F5
330
1D
100
AcDbEntity
  8
3
370
    50
100
AcDbLine
 10
10.0
 20
-125.0
 30
0.0
 11
90.0
 21
-125.0
 31
0.0
  0
LINE
  5
1F6
330
1D
100
AcDbEntity
  8
3
370
    50
100
AcDbLine
 10
90.0
 20
-125.0
 30
0.0
 11
200.0
 21
-125.0
 31
0.0
  0
LINE
  5
1F7
330
1D
100
AcDbEntity
  8
3
370
    50
100
AcDbLine
 10
36.666667
 20
-125.0
 30
0.0
 11
36.666667
 21
-108.0
 31
0.0
  0
LINE
  5
1F8
330
1D
100
AcDbEntity
  8
3
370
    50
100
AcDbLine
 10
63.333333
 20
-125.0
 30
0.0
 11
63.333333
 21
-108.0
 31
0.0
  0
TEXT
  5
1F9
330
1D
100
AcDbEntity
  8
3
370
    25
100
AcDbText
 10
70.666667
 20
-120.999957
 30
0.0
 40
4.0
  1
１／１
 72
     5
 11
81.866667
 21
-120.999957
 31
0.0
100
AcDbText
  0
TEXT
  5
1FA
330
1D
100
AcDbEntity
  8
3
370
   100
100
AcDbText
 10
124.421455
 20
-134.545471
 30
0.0
 40
6.0
  1
ＤＺ－１９７３－０１
 72
     5
 11
183.221455
 21
-134.545471
 31
0.0
100
AcDbText
  0
TEXT
  5
1FB
330
1D
100
AcDbEntity
  8
3
370
    50
100
AcDbText
 10
112.778885
 20
-122.279037
 30
0.0
 40
4.5
  1
Ｄ２-Ｙ　セパレートタイプ用鎌錠　切欠図
 41
0.9
 72
     5
 11
190.943885
 21
-122.279037
 31
0.0
100
AcDbText
  0
ENDSEC
  0
SECTION
  2
OBJECTS
  0
DICTIONARY
  5
C
330
0
100
AcDbDictionary
281
     1
  3
ACAD_GROUP
350
D
  3
ACAD_LAYOUT
350
1A
  3
ACAD_MATERIAL
350
29
  3
ACAD_MLEADERSTYLE
350
23D
  3
ACAD_MLINESTYLE
350
17
  3
ACAD_PLOTSETTINGS
350
19
  3
ACAD_PLOTSTYLENAME
350
E
  3
ACAD_SCALELIST
350
1FC
  3
ACAD_TABLESTYLE
350
23B
  3
ACAD_VISUALSTYLE
350
222
  3
AcDbVariableDictionary
350
23F
  0
DICTIONARY
  5
247
330
8
100
AcDbDictionary
280
     1
281
     1
  3
ACAD_XREC_ROUNDTRIP
360
248
  0
DICTIONARY
  5
D
102
{ACAD_REACTORS
330
C
102
}
330
C
100
AcDbDictionary
281
     1
  0
DICTIONARY
  5
1A
102
{ACAD_REACTORS
330
C
102
}
330
C
100
AcDbDictionary
281
     1
  3
Layout1
350
1C
  3
Model
350
1E
  0
DICTIONARY
  5
29
102
{ACAD_REACTORS
330
C
102
}
330
C
100
AcDbDictionary
281
     1
  3
ByBlock
350
2B
  3
ByLayer
350
2A
  3
Global
350
2C
  0
DICTIONARY
  5
23D
102
{ACAD_REACTORS
330
C
102
}
330
C
100
AcDbDictionary
281
     1
  3
Standard
350
23E
  0
DICTIONARY
  5
17
102
{ACAD_REACTORS
330
C
102
}
330
C
100
AcDbDictionary
281
     1
  3
Standard
350
18
  0
DICTIONARY
  5
19
102
{ACAD_REACTORS
330
C
102
}
330
C
100
AcDbDictionary
281
     1
  0
ACDBDICTIONARYWDFLT
  5
E
102
{ACAD_REACTORS
330
C
102
}
330
C
100
AcDbDictionary
281
     1
  3
Normal
350
F
100
AcDbDictionaryWithDefault
340
F
  0
DICTIONARY
  5
1FC
102
{ACAD_REACTORS
330
C
102
}
330
C
100
AcDbDictionary
281
     1
  3
A0
350
1FD
  3
A1
350
1FE
  3
A2
350
1FF
  3
A3
350
200
  3
A4
350
201
  3
A5
350
202
  3
A6
350
203
  3
A7
350
204
  3
A8
350
205
  3
A9
350
206
  3
B0
350
207
  3
B1
350
208
  3
B2
350
209
  3
B3
350
20A
  3
B4
350
20B
  3
B5
350
20C
  3
B6
350
20D
  3
B7
350
20E
  3
B8
350
20F
  3
B9
350
210
  3
C0
350
211
  3
C1
350
212
  3
C2
350
213
  3
C3
350
214
  3
C4
350
215
  3
C5
350
216
  3
C6
350
217
  3
C7
350
218
  3
C8
350
219
  3
C9
350
21A
  3
D0
350
21B
  3
D1
350
21C
  3
D2
350
21D
  0
DICTIONARY
  5
23B
102
{ACAD_REACTORS
330
C
102
}
330
C
100
AcDbDictionary
281
     1
  3
Standard
350
23C
  0
DICTIONARY
  5
222
102
{ACAD_REACTORS
330
C
102
}
330
C
100
AcDbDictionary
281
     1
  3
2dWireframe
350
227
  3
Basic
350
22A
  3
Brighten
350
22E
  3
ColorChange
350
232
  3
Conceptual
350
22C
  3
Dim
350
22D
  3
EdgeColorOff
350
235
  3
Facepattern
350
231
  3
Flat
350
223
  3
FlatWithEdges
350
224
  3
Gouraud
350
225
  3
GouraudWithEdges
350
226
  3
Hidden
350
229
  3
JitterOff
350
233
  3
Linepattern
350
230
  3
OverhangOff
350
234
  3
Realistic
350
22B
  3
Shaded
350
23A
  3
Shaded with edges
350
239
  3
Shades of Gray
350
236
  3
Sketchy
350
237
  3
Thicken
350
22F
  3
Wireframe
350
228
  3
X-Ray
350
238
  0
DICTIONARY
  5
23F
102
{ACAD_REACTORS
330
C
102
}
330
C
100
AcDbDictionary
281
     1
  3
CANNOSCALE
350
249
  3
CMLEADERSTYLE
350
241
  3
CTABLESTYLE
350
240
  3
DIMASSOC
350
245
  3
HIDETEXT
350
246
  3
MSLTSCALE
350
242
  0
XRECORD
  5
248
102
{ACAD_REACTORS
330
247
102
}
330
247
100
AcDbXrecord
280
     1
102
VTR_0.000_0.000_1.000_1.000_VISUALSTYLE
340
227
102
VTR_0.000_0.000_1.000_1.000_GRIDDISPLAY
 70
     3
102
VTR_0.000_0.000_1.000_1.000_GRIDMAJOR
 70
     5
102
VTR_0.000_0.000_1.000_1.000_DEFAULTLIGHTING
280
     1
102
VTR_0.000_0.000_1.000_1.000_DEFAULTLIGHTINGTYPE
 70
     1
102
VTR_0.000_0.000_1.000_1.000_BRIGHTNESS
141
0.0
102
VTR_0.000_0.000_1.000_1.000_CONTRAST
142
0.0
  0
LAYOUT
  5
1C
102
{ACAD_REACTORS
330
1A
102
}
330
1A
100
AcDbPlotSettings
  1

  2
none_device
  4

  6

 40
0.0
 41
0.0
 42
0.0
 43
0.0
 44
0.0
 45
0.0
 46
0.0
 47
0.0
 48
0.0
 49
0.0
140
0.0
141
0.0
142
1.0
143
1.0
 70
   688
 72
     0
 73
     0
 74
     5
  7

 75
    16
147
1.0
148
0.0
149
0.0
100
AcDbLayout
  1
Layout1
 70
     1
 71
     1
 10
0.0
 20
0.0
 11
12.0
 21
9.0
 12
0.0
 22
0.0
 32
0.0
 14
1.000000000000000E+20
 24
1.000000000000000E+20
 34
1.000000000000000E+20
 15
-1.000000000000000E+20
 25
-1.000000000000000E+20
 35
-1.000000000000000E+20
146
0.0
 13
0.0
 23
0.0
 33
0.0
 16
1.0
 26
0.0
 36
0.0
 17
0.0
 27
1.0
 37
0.0
 76
     0
330
1B
  0
LAYOUT
  5
1E
102
{ACAD_REACTORS
330
1A
102
}
330
1A
100
AcDbPlotSettings
  1

  2
none_device
  4
Letter_(8.50_x_11.00_Inches)
  6

 40
6.35
 41
6.35
 42
6.35000508
 43
6.35000508
 44
215.9
 45
279.4
 46
0.0
 47
0.0
 48
0.0
 49
0.0
140
0.0
141
0.0
142
1.0
143
1.0
 70
  1712
 72
     0
 73
     0
 74
     0
  7

 75
     0
147
1.0
148
0.0
149
0.0
100
AcDbLayout
  1
Model
 70
     1
 71
     0
 10
0.0
 20
0.0
 11
12.0
 21
9.0
 12
0.0
 22
0.0
 32
0.0
 14
-210.0
 24
-148.5
 34
0.0
 15
210.0
 25
148.5
 35
0.0
146
0.0
 13
0.0
 23
0.0
 33
0.0
 16
1.0
 26
0.0
 36
0.0
 17
0.0
 27
1.0
 37
0.0
 76
     0
330
1D
331
20
  0
MATERIAL
  5
2B
102
{ACAD_REACTORS
330
29
102
}
102
{ACAD_XDICTIONARY
360
24C
102
}
330
29
100
AcDbMaterial
  1
ByBlock
  0
MATERIAL
  5
2A
102
{ACAD_REACTORS
330
29
102
}
102
{ACAD_XDICTIONARY
360
24A
102
}
330
29
100
AcDbMaterial
  1
ByLayer
  0
MATERIAL
  5
2C
102
{ACAD_REACTORS
330
29
102
}
102
{ACAD_XDICTIONARY
360
24E
102
}
330
29
100
AcDbMaterial
  1
Global
  0
MLEADERSTYLE
  5
23E
102
{ACAD_REACTORS
330
23D
102
}
102
{ACAD_XDICTIONARY
360
281
102
}
330
23D
100
AcDbMLeaderStyle
170
     2
171
     1
172
     0
 90
        2
 40
0.0
 41
0.0
173
     1
 91
-1056964608
340
14
 92
       -2
290
     1
 42
0.09
291
     1
 43
0.36
  3
Standard
341
0
 44
0.18
300

342
11
174
     1
178
     6
175
     1
176
     0
 93
-1056964608
 45
0.18
292
     0
297
     0
 46
0.18
343
0
 94
-1056964608
 47
1.0
 49
1.0
140
1.0
293
     1
141
0.0
294
     1
177
     0
142
1.0
295
     0
296
     0
143
0.125
1001
ACAD_MLEADERVER
1070
     2
  0
MLINESTYLE
  5
18
102
{ACAD_REACTORS
330
17
102
}
330
17
100
AcDbMlineStyle
  2
Standard
 70
     0
  3

 62
   256
 51
90.0
 52
90.0
 71
     2
 49
0.5
 62
   256
  6
BYLAYER
 49
-0.5
 62
   256
  6
BYLAYER
  0
ACDBPLACEHOLDER
  5
F
102
{ACAD_REACTORS
330
E
102
}
330
E
  0
SCALE
  5
1FD
102
{ACAD_REACTORS
330
1FC
102
}
330
1FC
100
AcDbScale
 70
     0
300
1:1
140
1.0
141
1.0
290
     1
  0
SCALE
  5
1FE
102
{ACAD_REACTORS
330
1FC
102
}
330
1FC
100
AcDbScale
 70
     0
300
1:2
140
1.0
141
2.0
290
     0
  0
SCALE
  5
1FF
102
{ACAD_REACTORS
330
1FC
102
}
330
1FC
100
AcDbScale
 70
     0
300
1:4
140
1.0
141
4.0
290
     0
  0
SCALE
  5
200
102
{ACAD_REACTORS
330
1FC
102
}
330
1FC
100
AcDbScale
 70
     0
300
1:5
140
1.0
141
5.0
290
     0
  0
SCALE
  5
201
102
{ACAD_REACTORS
330
1FC
102
}
330
1FC
100
AcDbScale
 70
     0
300
1:8
140
1.0
141
8.0
290
     0
  0
SCALE
  5
202
102
{ACAD_REACTORS
330
1FC
102
}
330
1FC
100
AcDbScale
 70
     0
300
1:10
140
1.0
141
10.0
290
     0
  0
SCALE
  5
203
102
{ACAD_REACTORS
330
1FC
102
}
330
1FC
100
AcDbScale
 70
     0
300
1:16
140
1.0
141
16.0
290
     0
  0
SCALE
  5
204
102
{ACAD_REACTORS
330
1FC
102
}
330
1FC
100
AcDbScale
 70
     0
300
1:20
140
1.0
141
20.0
290
     0
  0
SCALE
  5
205
102
{ACAD_REACTORS
330
1FC
102
}
330
1FC
100
AcDbScale
 70
     0
300
1:30
140
1.0
141
30.0
290
     0
  0
SCALE
  5
206
102
{ACAD_REACTORS
330
1FC
102
}
330
1FC
100
AcDbScale
 70
     0
300
1:40
140
1.0
141
40.0
290
     0
  0
SCALE
  5
207
102
{ACAD_REACTORS
330
1FC
102
}
330
1FC
100
AcDbScale
 70
     0
300
1:50
140
1.0
141
50.0
290
     0
  0
SCALE
  5
208
102
{ACAD_REACTORS
330
1FC
102
}
330
1FC
100
AcDbScale
 70
     0
300
1:100
140
1.0
141
100.0
290
     0
  0
SCALE
  5
209
102
{ACAD_REACTORS
330
1FC
102
}
330
1FC
100
AcDbScale
 70
     0
300
2:1
140
2.0
141
1.0
290
     0
  0
SCALE
  5
20A
102
{ACAD_REACTORS
330
1FC
102
}
330
1FC
100
AcDbScale
 70
     0
300
4:1
140
4.0
141
1.0
290
     0
  0
SCALE
  5
20B
102
{ACAD_REACTORS
330
1FC
102
}
330
1FC
100
AcDbScale
 70
     0
300
8:1
140
8.0
141
1.0
290
     0
  0
SCALE
  5
20C
102
{ACAD_REACTORS
330
1FC
102
}
330
1FC
100
AcDbScale
 70
     0
300
10:1
140
10.0
141
1.0
290
     0
  0
SCALE
  5
20D
102
{ACAD_REACTORS
330
1FC
102
}
330
1FC
100
AcDbScale
 70
     0
300
100:1
140
100.0
141
1.0
290
     0
  0
SCALE
  5
20E
102
{ACAD_REACTORS
330
1FC
102
}
330
1FC
100
AcDbScale
 70
     0
300
1/128" = 1'-0"
140
0.0078125
141
12.0
290
     0
  0
SCALE
  5
20F
102
{ACAD_REACTORS
330
1FC
102
}
330
1FC
100
AcDbScale
 70
     0
300
1/64" = 1'-0"
140
0.015625
141
12.0
290
     0
  0
SCALE
  5
210
102
{ACAD_REACTORS
330
1FC
102
}
330
1FC
100
AcDbScale
 70
     0
300
1/32" = 1'-0"
140
0.03125
141
12.0
290
     0
  0
SCALE
  5
211
102
{ACAD_REACTORS
330
1FC
102
}
330
1FC
100
AcDbScale
 70
     0
300
1/16" = 1'-0"
140
0.0625
141
12.0
290
     0
  0
SCALE
  5
212
102
{ACAD_REACTORS
330
1FC
102
}
330
1FC
100
AcDbScale
 70
     0
300
3/32" = 1'-0"
140
0.09375
141
12.0
290
     0
  0
SCALE
  5
213
102
{ACAD_REACTORS
330
1FC
102
}
330
1FC
100
AcDbScale
 70
     0
300
1/8" = 1'-0"
140
0.125
141
12.0
290
     0
  0
SCALE
  5
214
102
{ACAD_REACTORS
330
1FC
102
}
330
1FC
100
AcDbScale
 70
     0
300
3/16" = 1'-0"
140
0.1875
141
12.0
290
     0
  0
SCALE
  5
215
102
{ACAD_REACTORS
330
1FC
102
}
330
1FC
100
AcDbScale
 70
     0
300
1/4" = 1'-0"
140
0.25
141
12.0
290
     0
  0
SCALE
  5
216
102
{ACAD_REACTORS
330
1FC
102
}
330
1FC
100
AcDbScale
 70
     0
300
3/8" = 1'-0"
140
0.375
141
12.0
290
     0
  0
SCALE
  5
217
102
{ACAD_REACTORS
330
1FC
102
}
330
1FC
100
AcDbScale
 70
     0
300
1/2" = 1'-0"
140
0.5
141
12.0
290
     0
  0
SCALE
  5
218
102
{ACAD_REACTORS
330
1FC
102
}
330
1FC
100
AcDbScale
 70
     0
300
3/4" = 1'-0"
140
0.75
141
12.0
290
     0
  0
SCALE
  5
219
102
{ACAD_REACTORS
330
1FC
102
}
330
1FC
100
AcDbScale
 70
     0
300
1" = 1'-0"
140
1.0
141
12.0
290
     0
  0
SCALE
  5
21A
102
{ACAD_REACTORS
330
1FC
102
}
330
1FC
100
AcDbScale
 70
     0
300
1-1/2" = 1'-0"
140
1.5
141
12.0
290
     0
  0
SCALE
  5
21B
102
{ACAD_REACTORS
330
1FC
102
}
330
1FC
100
AcDbScale
 70
     0
300
3" = 1'-0"
140
3.0
141
12.0
290
     0
  0
SCALE
  5
21C
102
{ACAD_REACTORS
330
1FC
102
}
330
1FC
100
AcDbScale
 70
     0
300
6" = 1'-0"
140
6.0
141
12.0
290
     0
  0
SCALE
  5
21D
102
{ACAD_REACTORS
330
1FC
102
}
330
1FC
100
AcDbScale
 70
     0
300
1'-0" = 1'-0"
140
12.0
141
12.0
290
     0
  0
TABLESTYLE
  5
23C
102
{ACAD_REACTORS
330
23B
102
}
330
23B
100
AcDbTableStyle
  3
Standard
 70
     0
 71
     0
 40
0.06
 41
0.06
280
     0
281
     0
  7
STANDARD
140
0.18
170
     2
 62
     0
 63
   257
283
     0
274
    -2
284
     1
 64
     0
275
    -2
285
     1
 65
     0
276
    -2
286
     1
 66
     0
277
    -2
287
     1
 67
     0
278
    -2
288
     1
 68
     0
279
    -2
289
     1
 69
     0
  7
STANDARD
140
0.25
170
     5
 62
     0
 63
   257
283
     0
274
    -2
284
     1
 64
     0
275
    -2
285
     1
 65
     0
276
    -2
286
     1
 66
     0
277
    -2
287
     1
 67
     0
278
    -2
288
     1
 68
     0
279
    -2
289
     1
 69
     0
  7
STANDARD
140
0.18
170
     5
 62
     0
 63
   257
283
     0
274
    -2
284
     1
 64
     0
275
    -2
285
     1
 65
     0
276
    -2
286
     1
 66
     0
277
    -2
287
     1
 67
     0
278
    -2
288
     1
 68
     0
279
    -2
289
     1
 69
     0
  0
VISUALSTYLE
  5
227
102
{ACAD_REACTORS
330
222
102
}
102
{ACAD_XDICTIONARY
360
258
102
}
330
222
100
AcDbVisualStyle
  2
2dWireframe
 70
     4
 71
     0
 72
     2
 73
     0
 90
        0
 40
0.6
 41
30.0
 62
     5
 63
     7
 74
     1
 91
        4
 64
     7
 65
   257
 75
     1
175
     1
 42
1.0
 92
        0
 66
   257
 43
1.0
 76
     1
 77
     6
 78
     2
 67
     7
 79
     5
170
     0
171
     0
290
     0
174
     0
 93
        1
 44
0.0
173
     0
291
     0
 45
0.0
1001
ACAD
1000
AcDbSavedByObjectVersion
1070
     0
  0
VISUALSTYLE
  5
22A
102
{ACAD_REACTORS
330
222
102
}
102
{ACAD_XDICTIONARY
360
25E
102
}
330
222
100
AcDbVisualStyle
  2
Basic
 70
     7
 71
     1
 72
     0
 73
     1
 90
        0
 40
0.6
 41
30.0
 62
     5
 63
     7
 74
     0
 91
        4
 64
     7
 65
   257
 75
     1
175
     1
 42
1.0
 92
        8
 66
     7
 43
1.0
 76
     1
 77
     6
 78
     2
 67
     7
 79
     5
170
     0
171
     0
290
     0
174
     0
 93
        1
 44
0.0
173
     0
291
     1
 45
0.0
1001
ACAD
1000
AcDbSavedByObjectVersion
1070
     0
  0
VISUALSTYLE
  5
22E
102
{ACAD_REACTORS
330
222
102
}
102
{ACAD_XDICTIONARY
360
266
102
}
330
222
100
AcDbVisualStyle
  2
Brighten
 70
    12
 71
     2
 72
     2
 73
     0
 90
        0
 40
0.6
 41
30.0
 62
     5
 63
     7
 74
     1
 91
        4
 64
     7
 65
   257
 75
     1
175
     1
 42
1.0
 92
        8
 66
     7
 43
1.0
 76
     1
 77
     6
 78
     2
 67
     7
 79
     5
170
     0
171
     0
290
     0
174
     0
 93
        1
 44
50.0
173
     0
291
     1
 45
0.0
1001
ACAD
1000
AcDbSavedByObjectVersion
1070
     0
  0
VISUALSTYLE
  5
232
102
{ACAD_REACTORS
330
222
102
}
102
{ACAD_XDICTIONARY
360
26E
102
}
330
222
100
AcDbVisualStyle
  2
ColorChange
 70
    16
 71
     2
 72
     2
 73
     3
 90
        0
 40
0.6
 41
30.0
 62
     5
 63
     8
 74
     1
 91
        4
 64
     7
 65
   257
 75
     1
175
     1
 42
1.0
 92
        8
 66
     8
 43
1.0
 76
     1
 77
     6
 78
     2
 67
     7
 79
     5
170
     0
171
     0
290
     0
174
     0
 93
        1
 44
0.0
173
     0
291
     1
 45
0.0
1001
ACAD
1000
AcDbSavedByObjectVersion
1070
     0
  0
VISUALSTYLE
  5
22C
102
{ACAD_REACTORS
330
222
102
}
102
{ACAD_XDICTIONARY
360
262
102
}
330
222
100
AcDbVisualStyle
  2
Conceptual
 70
     9
 71
     3
 72
     2
 73
     0
 90
        0
 40
0.6
 41
30.0
 62
     5
 63
     7
 74
     2
 91
        2
 64
     7
 65
   257
 75
     1
175
     1
 42
179.0
 92
        8
 66
     7
 43
1.0
 76
     1
 77
     6
 78
     2
 67
     7
 79
     3
170
     0
171
     0
290
     0
174
     0
 93
        1
 44
0.0
173
     0
291
     0
 45
0.0
1001
ACAD
1000
AcDbSavedByObjectVersion
1070
     0
  0
VISUALSTYLE
  5
22D
102
{ACAD_REACTORS
330
222
102
}
102
{ACAD_XDICTIONARY
360
264
102
}
330
222
100
AcDbVisualStyle
  2
Dim
 70
    11
 71
     2
 72
     2
 73
     0
 90
        0
 40
0.6
 41
30.0
 62
     5
 63
     7
 74
     1
 91
        4
 64
     7
 65
   257
 75
     1
175
     1
 42
1.0
 92
        8
 66
     7
 43
1.0
 76
     1
 77
     6
 78
     2
 67
     7
 79
     5
170
     0
171
     0
290
     0
174
     0
 93
        1
 44
-50.0
173
     0
291
     1
 45
0.0
1001
ACAD
1000
AcDbSavedByObjectVersion
1070
     0
  0
VISUALSTYLE
  5
235
102
{ACAD_REACTORS
330
222
102
}
102
{ACAD_XDICTIONARY
360
274
102
}
330
222
100
AcDbVisualStyle
  2
EdgeColorOff
 70
    22
 71
     2
 72
     2
 73
     0
 90
        0
 40
0.6
 41
30.0
 62
     5
 63
     7
 74
     1
 91
        4
 64
     7
 65
   257
 75
     1
175
     1
 42
1.0
 92
        8
 66
     7
 43
1.0
 76
     1
 77
     6
 78
     2
 67
     7
 79
     5
170
     0
171
     0
290
     0
174
     0
 93
        1
 44
0.0
173
     0
291
     1
 45
0.0
1001
ACAD
1000
AcDbSavedByObjectVersion
1070
     0
  0
VISUALSTYLE
  5
231
102
{ACAD_REACTORS
330
222
102
}
102
{ACAD_XDICTIONARY
360
26C
102
}
330
222
100
AcDbVisualStyle
  2
Facepattern
 70
    15
 71
     2
 72
     2
 73
     0
 90
        0
 40
0.6
 41
30.0
 62
     5
 63
     7
 74
     1
 91
        4
 64
     7
 65
   257
 75
     1
175
     1
 42
1.0
 92
        8
 66
     7
 43
1.0
 76
     1
 77
     6
 78
     2
 67
     7
 79
     5
170
     0
171
     0
290
     0
174
     0
 93
        1
 44
0.0
173
     0
291
     1
 45
0.0
1001
ACAD
1000
AcDbSavedByObjectVersion
1070
     0
  0
VISUALSTYLE
  5
223
102
{ACAD_REACTORS
330
222
102
}
102
{ACAD_XDICTIONARY
360
250
102
}
330
222
100
AcDbVisualStyle
  2
Flat
 70
     0
 71
     2
 72
     1
 73
     1
 90
        2
 40
0.6
 41
30.0
 62
     5
 63
     7
 74
     0
 91
        0
 64
     7
 65
   257
 75
     1
175
     1
 42
1.0
 92
        8
 66
     7
 43
1.0
 76
     1
 77
     6
 78
     2
 67
     7
 79
     5
170
     0
171
     0
290
     0
174
     0
 93
       13
 44
0.0
173
     0
291
     1
 45
0.0
1001
ACAD
1000
AcDbSavedByObjectVersion
1070
     0
  0
VISUALSTYLE
  5
224
102
{ACAD_REACTORS
330
222
102
}
102
{ACAD_XDICTIONARY
360
252
102
}
330
222
100
AcDbVisualStyle
  2
FlatWithEdges
 70
     1
 71
     2
 72
     1
 73
     1
 90
        2
 40
0.6
 41
30.0
 62
     5
 63
     7
 74
     1
 91
        0
 64
     7
 65
   257
 75
     1
175
     1
 42
1.0
 92
        0
 66
   257
 43
1.0
 76
     1
 77
     6
 78
     2
 67
     7
 79
     5
170
     0
171
     0
290
     0
174
     0
 93
       13
 44
0.0
173
     0
291
     1
 45
0.0
1001
ACAD
1000
AcDbSavedByObjectVersion
1070
     0
  0
VISUALSTYLE
  5
225
102
{ACAD_REACTORS
330
222
102
}
102
{ACAD_XDICTIONARY
360
254
102
}
330
222
100
AcDbVisualStyle
  2
Gouraud
 70
     2
 71
     2
 72
     2
 73
     1
 90
        2
 40
0.6
 41
30.0
 62
     5
 63
     7
 74
     0
 91
        0
 64
     7
 65
   257
 75
     1
175
     1
 42
1.0
 92
        0
 66
     7
 43
1.0
 76
     1
 77
     6
 78
     2
 67
     7
 79
     5
170
     0
171
     0
290
     0
174
     0
 93
       13
 44
0.0
173
     0
291
     1
 45
0.0
1001
ACAD
1000
AcDbSavedByObjectVersion
1070
     0
  0
VISUALSTYLE
  5
226
102
{ACAD_REACTORS
330
222
102
}
102
{ACAD_XDICTIONARY
360
256
102
}
330
222
100
AcDbVisualStyle
  2
GouraudWithEdges
 70
     3
 71
     2
 72
     2
 73
     1
 90
        2
 40
0.6
 41
30.0
 62
     5
 63
     7
 74
     1
 91
        0
 64
     7
 65
   257
 75
     1
175
     1
 42
1.0
 92
        0
 66
   257
 43
1.0
 76
     1
 77
     6
 78
     2
 67
     7
 79
     5
170
     0
171
     0
290
     0
174
     0
 93
       13
 44
0.0
173
     0
291
     1
 45
0.0
1001
ACAD
1000
AcDbSavedByObjectVersion
1070
     0
  0
VISUALSTYLE
  5
229
102
{ACAD_REACTORS
330
222
102
}
102
{ACAD_XDICTIONARY
360
25C
102
}
330
222
100
AcDbVisualStyle
  2
Hidden
 70
     6
 71
     1
 72
     2
 73
     2
 90
        0
 40
0.6
 41
30.0
 62
     5
 63
     7
 74
     2
 91
        2
 64
     7
 65
   257
 75
     2
175
     1
 42
40.0
 92
        0
 66
   257
 43
1.0
 76
     1
 77
     6
 78
     2
 67
     7
 79
     3
170
     0
171
     0
290
     0
174
     0
 93
        1
 44
0.0
173
     0
291
     0
 45
0.0
1001
ACAD
1000
AcDbSavedByObjectVersion
1070
     0
  0
VISUALSTYLE
  5
233
102
{ACAD_REACTORS
330
222
102
}
102
{ACAD_XDICTIONARY
360
270
102
}
330
222
100
AcDbVisualStyle
  2
JitterOff
 70
    20
 71
     2
 72
     2
 73
     0
 90
        0
 40
0.6
 41
30.0
 62
     5
 63
     7
 74
     1
 91
        4
 64
     7
 65
   257
 75
     1
175
     1
 42
1.0
 92
       10
 66
     7
 43
1.0
 76
     1
 77
     6
 78
     2
 67
     7
 79
     5
170
     0
171
     0
290
     0
174
     0
 93
        1
 44
0.0
173
     0
291
     1
 45
0.0
1001
ACAD
1000
AcDbSavedByObjectVersion
1070
     0
  0
VISUALSTYLE
  5
230
102
{ACAD_REACTORS
330
222
102
}
102
{ACAD_XDICTIONARY
360
26A
102
}
330
222
100
AcDbVisualStyle
  2
Linepattern
 70
    14
 71
     2
 72
     2
 73
     0
 90
        0
 40
0.6
 41
30.0
 62
     5
 63
     7
 74
     1
 91
        4
 64
     7
 65
   257
 75
     7
175
     7
 42
1.0
 92
        8
 66
     7
 43
1.0
 76
     1
 77
     6
 78
     2
 67
     7
 79
     5
170
     0
171
     0
290
     0
174
     0
 93
        1
 44
0.0
173
     0
291
     1
 45
0.0
1001
ACAD
1000
AcDbSavedByObjectVersion
1070
     0
  0
VISUALSTYLE
  5
234
102
{ACAD_REACTORS
330
222
102
}
102
{ACAD_XDICTIONARY
360
272
102
}
330
222
100
AcDbVisualStyle
  2
OverhangOff
 70
    21
 71
     2
 72
     2
 73
     0
 90
        0
 40
0.6
 41
30.0
 62
     5
 63
     7
 74
     1
 91
        4
 64
     7
 65
   257
 75
     1
175
     1
 42
1.0
 92
        9
 66
     7
 43
1.0
 76
     1
 77
     6
 78
     2
 67
     7
 79
     5
170
     0
171
     0
290
     0
174
     0
 93
        1
 44
0.0
173
     0
291
     1
 45
0.0
1001
ACAD
1000
AcDbSavedByObjectVersion
1070
     0
  0
VISUALSTYLE
  5
22B
102
{ACAD_REACTORS
330
222
102
}
102
{ACAD_XDICTIONARY
360
260
102
}
330
222
100
AcDbVisualStyle
  2
Realistic
 70
     8
 71
     2
 72
     3
 73
     0
 90
        2
 40
0.6
 41
30.0
 62
     5
 63
     7
 74
     0
 91
        0
 64
     7
 65
   257
 75
     1
175
     1
 42
1.0
 92
        8
 66
   257
 43
1.0
 76
     1
 77
     6
 78
     2
 67
     7
 79
     3
170
     0
171
     0
290
     0
174
     0
 93
       13
 44
0.0
173
     0
291
     0
 45
0.0
1001
ACAD
1000
AcDbSavedByObjectVersion
1070
     0
  0
VISUALSTYLE
  5
23A
102
{ACAD_REACTORS
330
222
102
}
102
{ACAD_XDICTIONARY
360
27E
102
}
330
222
100
AcDbVisualStyle
  2
Shaded
 70
    27
 71
     2
 72
     2
 73
     1
 90
        2
 40
0.6
 41
30.0
 62
     5
 63
     7
 74
     0
 91
        4
 64
     7
 65
   257
 75
     1
175
     1
 42
1.0
 92
        8
 66
   257
 43
1.0
 76
     1
 77
     6
 78
     2
 67
     8
 79
     3
170
     0
171
     0
290
     0
174
     0
 93
        5
 44
0.0
173
     0
291
     0
 45
0.0
1001
ACAD
1000
AcDbSavedByObjectVersion
1070
     0
  0
VISUALSTYLE
  5
239
102
{ACAD_REACTORS
330
222
102
}
102
{ACAD_XDICTIONARY
360
27C
102
}
330
222
100
AcDbVisualStyle
  2
Shaded with edges
 70
    26
 71
     2
 72
     2
 73
     1
 90
        2
 40
0.6
 41
30.0
 62
     5
 63
     7
 74
     1
 91
       10
 64
     7
 65
   257
 75
     2
175
     1
 42
1.0
 92
        8
 66
   257
 43
1.0
 76
     1
 77
     6
 78
     2
 67
     7
 79
     3
170
     0
171
     0
290
     0
174
     0
 93
        5
 44
0.0
173
     0
291
     0
 45
0.0
1001
ACAD
1000
AcDbSavedByObjectVersion
1070
     0
  0
VISUALSTYLE
  5
236
102
{ACAD_REACTORS
330
222
102
}
102
{ACAD_XDICTIONARY
360
276
102
}
330
222
100
AcDbVisualStyle
  2
Shades of Gray
 70
    23
 71
     2
 72
     2
 73
     3
 90
        0
 40
0.6
 41
30.0
 62
     5
 63
     7
 74
     2
 91
        2
 64
     7
 65
     7
 75
     1
175
     1
 42
40.0
 92
        8
 66
     7
 43
1.0
 76
     1
 77
     6
 78
     2
 67
     7
 79
     3
170
     0
171
     0
290
     0
174
     0
 93
        1
 44
0.0
173
     0
291
     0
 45
0.0
1001
ACAD
1000
AcDbSavedByObjectVersion
1070
     0
  0
VISUALSTYLE
  5
237
102
{ACAD_REACTORS
330
222
102
}
102
{ACAD_XDICTIONARY
360
278
102
}
330
222
100
AcDbVisualStyle
  2
Sketchy
 70
    24
 71
     1
 72
     2
 73
     2
 90
        0
 40
0.6
 41
30.0
 62
     5
 63
     7
 74
     2
 91
        2
 64
     7
 65
     7
 75
     1
175
     1
 42
40.0
 92
       11
 66
     7
 43
1.0
 76
     1
 77
     6
 78
     2
 67
     7
 79
     6
170
     0
171
     0
290
     0
174
     0
 93
        1
 44
0.0
173
     0
291
     0
 45
0.0
1001
ACAD
1000
AcDbSavedByObjectVersion
1070
     0
  0
VISUALSTYLE
  5
22F
102
{ACAD_REACTORS
330
222
102
}
102
{ACAD_XDICTIONARY
360
268
102
}
330
222
100
AcDbVisualStyle
  2
Thicken
 70
    13
 71
     2
 72
     2
 73
     0
 90
        0
 40
0.6
 41
30.0
 62
     5
 63
     7
 74
     1
 91
        4
 64
     7
 65
   257
 75
     1
175
     1
 42
1.0
 92
       12
 66
     7
 43
1.0
 76
     1
 77
     6
 78
     2
 67
     7
 79
     5
170
     0
171
     0
290
     0
174
     0
 93
        1
 44
0.0
173
     0
291
     1
 45
0.0
1001
ACAD
1000
AcDbSavedByObjectVersion
1070
     0
  0
VISUALSTYLE
  5
228
102
{ACAD_REACTORS
330
222
102
}
102
{ACAD_XDICTIONARY
360
25A
102
}
330
222
100
AcDbVisualStyle
  2
Wireframe
 70
     5
 71
     0
 72
     2
 73
     0
 90
        0
 40
0.6
 41
30.0
 62
     5
 63
     7
 74
     1
 91
        4
 64
     7
 65
   257
 75
     1
175
     1
 42
1.0
 92
        0
 66
   257
 43
1.0
 76
     1
 77
     6
 78
     2
 67
     7
 79
     3
170
     0
171
     0
290
     0
174
     0
 93
        1
 44
0.0
173
     0
291
     0
 45
0.0
1001
ACAD
1000
AcDbSavedByObjectVersion
1070
     0
  0
VISUALSTYLE
  5
238
102
{ACAD_REACTORS
330
222
102
}
102
{ACAD_XDICTIONARY
360
27A
102
}
330
222
100
AcDbVisualStyle
  2
X-Ray
 70
    25
 71
     2
 72
     2
 73
     1
 90
        1
 40
0.5
 41
30.0
 62
     5
 63
     7
 74
     1
 91
        0
 64
     7
 65
   257
 75
     1
175
     1
 42
1.0
 92
        8
 66
     7
 43
1.0
 76
     1
 77
     6
 78
     2
 67
     7
 79
     3
170
     0
171
     0
290
     0
174
     0
 93
       13
 44
0.0
173
     0
291
     0
 45
0.0
1001
ACAD
1000
AcDbSavedByObjectVersion
1070
     0
  0
DICTIONARYVAR
  5
249
102
{ACAD_REACTORS
330
23F
102
}
330
23F
100
DictionaryVariables
280
     0
  1
1:1
  0
DICTIONARYVAR
  5
241
102
{ACAD_REACTORS
330
23F
102
}
330
23F
100
DictionaryVariables
280
     0
  1
Standard
  0
DICTIONARYVAR
  5
240
102
{ACAD_REACTORS
330
23F
102
}
330
23F
100
DictionaryVariables
280
     0
  1
Standard
  0
DICTIONARYVAR
  5
245
102
{ACAD_REACTORS
330
23F
102
}
330
23F
100
DictionaryVariables
280
     0
  1
2
  0
DICTIONARYVAR
  5
246
102
{ACAD_REACTORS
330
23F
102
}
330
23F
100
DictionaryVariables
280
     0
  1
1
  0
DICTIONARYVAR
  5
242
102
{ACAD_REACTORS
330
23F
102
}
330
23F
100
DictionaryVariables
280
     0
  1
0
  0
DICTIONARY
  5
24C
330
2B
100
AcDbDictionary
280
     1
281
     1
  3
ACAD_XREC_ROUNDTRIP
360
24D
  0
DICTIONARY
  5
24A
330
2A
100
AcDbDictionary
280
     1
281
     1
  3
ACAD_XREC_ROUNDTRIP
360
24B
  0
DICTIONARY
  5
24E
330
2C
100
AcDbDictionary
280
     1
281
     1
  3
ACAD_XREC_ROUNDTRIP
360
24F
  0
DICTIONARY
  5
281
330
23E
100
AcDbDictionary
280
     1
281
     1
  3
ACAD_XREC_ROUNDTRIP
360
282
  0
DICTIONARY
  5
258
330
227
100
AcDbDictionary
280
     1
281
     1
  3
ACAD_XREC_ROUNDTRIP
360
259
  0
DICTIONARY
  5
25E
330
22A
100
AcDbDictionary
280
     1
281
     1
  3
ACAD_XREC_ROUNDTRIP
360
25F
  0
DICTIONARY
  5
266
330
22E
100
AcDbDictionary
280
     1
281
     1
  3
ACAD_XREC_ROUNDTRIP
360
267
  0
DICTIONARY
  5
26E
330
232
100
AcDbDictionary
280
     1
281
     1
  3
ACAD_XREC_ROUNDTRIP
360
26F
  0
DICTIONARY
  5
262
330
22C
100
AcDbDictionary
280
     1
281
     1
  3
ACAD_XREC_ROUNDTRIP
360
263
  0
DICTIONARY
  5
264
330
22D
100
AcDbDictionary
280
     1
281
     1
  3
ACAD_XREC_ROUNDTRIP
360
265
  0
DICTIONARY
  5
274
330
235
100
AcDbDictionary
280
     1
281
     1
  3
ACAD_XREC_ROUNDTRIP
360
275
  0
DICTIONARY
  5
26C
330
231
100
AcDbDictionary
280
     1
281
     1
  3
ACAD_XREC_ROUNDTRIP
360
26D
  0
DICTIONARY
  5
250
330
223
100
AcDbDictionary
280
     1
281
     1
  3
ACAD_XREC_ROUNDTRIP
360
251
  0
DICTIONARY
  5
252
330
224
100
AcDbDictionary
280
     1
281
     1
  3
ACAD_XREC_ROUNDTRIP
360
253
  0
DICTIONARY
  5
254
330
225
100
AcDbDictionary
280
     1
281
     1
  3
ACAD_XREC_ROUNDTRIP
360
255
  0
DICTIONARY
  5
256
330
226
100
AcDbDictionary
280
     1
281
     1
  3
ACAD_XREC_ROUNDTRIP
360
257
  0
DICTIONARY
  5
25C
330
229
100
AcDbDictionary
280
     1
281
     1
  3
ACAD_XREC_ROUNDTRIP
360
25D
  0
DICTIONARY
  5
270
330
233
100
AcDbDictionary
280
     1
281
     1
  3
ACAD_XREC_ROUNDTRIP
360
271
  0
DICTIONARY
  5
26A
330
230
100
AcDbDictionary
280
     1
281
     1
  3
ACAD_XREC_ROUNDTRIP
360
26B
  0
DICTIONARY
  5
272
330
234
100
AcDbDictionary
280
     1
281
     1
  3
ACAD_XREC_ROUNDTRIP
360
273
  0
DICTIONARY
  5
260
330
22B
100
AcDbDictionary
280
     1
281
     1
  3
ACAD_XREC_ROUNDTRIP
360
261
  0
DICTIONARY
  5
27E
330
23A
100
AcDbDictionary
280
     1
281
     1
  3
ACAD_XREC_ROUNDTRIP
360
27F
  0
DICTIONARY
  5
27C
330
239
100
AcDbDictionary
280
     1
281
     1
  3
ACAD_XREC_ROUNDTRIP
360
27D
  0
DICTIONARY
  5
276
330
236
100
AcDbDictionary
280
     1
281
     1
  3
ACAD_XREC_ROUNDTRIP
360
277
  0
DICTIONARY
  5
278
330
237
100
AcDbDictionary
280
     1
281
     1
  3
ACAD_XREC_ROUNDTRIP
360
279
  0
DICTIONARY
  5
268
330
22F
100
AcDbDictionary
280
     1
281
     1
  3
ACAD_XREC_ROUNDTRIP
360
269
  0
DICTIONARY
  5
25A
330
228
100
AcDbDictionary
280
     1
281
     1
  3
ACAD_XREC_ROUNDTRIP
360
25B
  0
DICTIONARY
  5
27A
330
238
100
AcDbDictionary
280
     1
281
     1
  3
ACAD_XREC_ROUNDTRIP
360
27B
  0
XRECORD
  5
24D
102
{ACAD_REACTORS
330
24C
102
}
330
24C
100
AcDbXrecord
280
     1
102
MATERIAL
148
0.0
149
0.0
149
0.0
 93
        0
 94
      127
282
     0
 72
     1
 77
     1
171
     1
175
     1
179
     1
273
     0
  0
XRECORD
  5
24B
102
{ACAD_REACTORS
330
24A
102
}
330
24A
100
AcDbXrecord
280
     1
102
MATERIAL
148
0.0
149
0.0
149
0.0
 93
        0
 94
      127
282
     0
 72
     1
 77
     1
171
     1
175
     1
179
     1
273
     0
  0
XRECORD
  5
24F
102
{ACAD_REACTORS
330
24E
102
}
330
24E
100
AcDbXrecord
280
     1
102
MATERIAL
148
0.0
149
0.0
149
0.0
 93
        0
 94
      127
282
     0
 72
     1
 77
     1
171
     1
175
     1
179
     1
273
     0
  0
XRECORD
  5
282
102
{ACAD_REACTORS
330
281
102
}
330
281
100
AcDbXrecord
280
     1
102
ACAD_ROUNDTRIP_2010_MLEADER_STYLE
  0
XRECORD
  5
259
102
{ACAD_REACTORS
330
258
102
}
330
258
100
AcDbXrecord
280
     1
102
RTVSPropertyOp0
 70
     1
102
RTVSPropertyOp1
 70
     1
102
RTVSPropertyOp2
 70
     1
102
RTVSPropertyOp3
 70
     1
102
RTVSPropertyOp4
 70
     1
102
RTVSPropertyOp5
 70
     1
102
RTVSPropertyOp6
 70
     1
102
RTVSPropertyOp7
 70
     1
102
RTVSPropertyOp8
 70
     1
102
RTVSPropertyOp9
 70
     1
102
RTVSPropertyOp10
 70
     1
102
RTVSPropertyOp11
 70
     1
102
RTVSPropertyOp12
 70
     1
102
RTVSPropertyOp13
 70
     1
102
RTVSPropertyOp14
 70
     1
102
RTVSPropertyOp15
 70
     1
102
RTVSPropertyOp16
 70
     1
102
RTVSPropertyOp17
 70
     1
102
RTVSPropertyOp18
 70
     1
102
RTVSPropertyOp19
 70
     1
102
RTVSPropertyOp20
 70
     1
102
RTVSPropertyOp21
 70
     1
102
RTVSPropertyOp22
 70
     1
102
RTVSPropertyOp23
 70
     1
102
RTVSPropertyOp24
 70
     1
102
RTVSPropertyOp25
 70
     1
102
RTVSPropertyOp26
 70
     1
102
RTVSPropertyOp27
 70
     1
102
RTVSPropertyOp28
 70
     1
102
RTVSPropertyOp29
 70
     1
102
RTVSPropertyOp30
 70
     1
102
RTVSPropertyOp31
 70
     1
102
RTVSPropertyOp32
 70
     1
102
RTVSPropertyOp33
 70
     1
102
RTVSPropertyOp34
 70
     1
102
RTVSPropertyOp35
 70
     1
102
RTVSPropertyOp36
 70
     1
102
RTVSPropertyOp37
 70
     1
102
RTVSPropertyOp38
 70
     1
102
RTVSPropertyOp39
 70
     1
102
RTVSPropertyOp40
 70
     1
102
RTVSPropertyOp41
 70
     1
102
RTVSPropertyOp42
 70
     1
102
RTVSPropertyOp43
 70
     1
102
RTVSPropertyOp44
 70
     1
102
RTVSPropertyOp45
 70
     1
102
RTVSPropertyOp46
 70
     1
102
RTVSPropertyOp47
 70
     1
102
RTVSPropertyOp48
 70
     1
102
RTVSPropertyOp49
 70
     1
102
RTVSPropertyOp50
 70
     1
102
RTVSPropertyOp51
 70
     0
102
RTVSPropertyOp52
 70
     0
102
RTVSPropertyOp53
 70
     1
102
RTVSPropertyOp54
 70
     1
102
RTVSPropertyOp55
 70
     1
102
RTVSPropertyOp56
 70
     1
102
RTVSPropertyOp57
 70
     1
102
RTVSPost2010Prop28
280
     1
102
RTVSPost2010PropOp28
 70
     1
102
RTVSPost2010Prop29
280
     1
102
RTVSPost2010PropOp29
 70
     1
102
RTVSPost2010Prop30
280
     0
102
RTVSPost2010PropOp30
 70
     1
102
RTVSPost2010Prop31
280
     0
102
RTVSPost2010PropOp31
 70
     1
102
RTVSPost2010Prop32
280
     0
102
RTVSPost2010PropOp32
 70
     1
102
RTVSPost2010Prop33
280
     0
102
RTVSPost2010PropOp33
 70
     1
102
RTVSPost2010Prop34
280
     0
102
RTVSPost2010PropOp34
 70
     1
102
RTVSPost2010Prop35
280
     0
102
RTVSPost2010PropOp35
 70
     1
102
RTVSPost2010Prop36
280
     0
102
RTVSPost2010PropOp36
 70
     1
102
RTVSPost2010Prop37
 90
       50
102
RTVSPost2010PropOp37
 70
     1
102
RTVSPost2010Prop38
140
0.0
102
RTVSPost2010PropOp38
 70
     1
102
RTVSPost2010Prop39
140
1.0
102
RTVSPost2010PropOp39
 70
     1
102
RTVSPost2010Prop40
 90
        0
102
RTVSPost2010PropOp40
 70
     1
102
RTVSPost2010Prop41ColorIndex
 90
       18
102
RTVSPost2010Prop41ColorRGB
 90
        0
102
RTVSPost2010PropOp41
 70
     1
102
RTVSPost2010Prop42
 90
       50
102
RTVSPost2010PropOp42
 70
     1
102
RTVSPost2010Prop43
 90
        3
102
RTVSPost2010PropOp43
 70
     1
102
RTVSPost2010Prop44ColorIndex
 90
        5
102
RTVSPost2010Prop44ColorRGB
 90
      255
102
RTVSPost2010PropOp44
 70
     1
102
RTVSPost2010Prop45
280
     0
102
RTVSPost2010PropOp45
 70
     1
102
RTVSPost2010Prop46
 90
       50
102
RTVSPost2010PropOp46
 70
     1
102
RTVSPost2010Prop47
 90
       50
102
RTVSPost2010PropOp47
 70
     1
102
RTVSPost2010Prop48
 90
       50
102
RTVSPost2010PropOp48
 70
     1
102
RTVSPost2010Prop49
280
     0
102
RTVSPost2010PropOp49
 70
     1
102
RTVSPost2010Prop50
 90
       50
102
RTVSPost2010PropOp50
 70
     1
102
RTVSPost2010Prop51ColorIndex
 90
      256
102
RTVSPost2010Prop51ColorRGB
 90
-16777216
102
RTVSPost2010PropOp51
 70
     0
102
RTVSPost2010Prop52
140
1.0
102
RTVSPost2010PropOp52
 70
     0
102
RTVSPost2010Prop53
 90
        2
102
RTVSPost2010PropOp53
 70
     1
102
RTVSPost2010Prop54
  1
strokes_ogs.tif
102
RTVSPost2010PropOp54
 70
     1
102
RTVSPost2010Prop55
280
     0
102
RTVSPost2010PropOp55
 70
     1
102
RTVSPost2010Prop56
140
1.0
102
RTVSPost2010PropOp56
 70
     1
102
RTVSPost2010Prop57
140
1.0
102
RTVSPost2010PropOp57
 70
     1
  0
XRECORD
  5
25F
102
{ACAD_REACTORS
330
25E
102
}
330
25E
100
AcDbXrecord
280
     1
102
RTVSPropertyOp0
 70
     1
102
RTVSPropertyOp1
 70
     1
102
RTVSPropertyOp2
 70
     1
102
RTVSPropertyOp3
 70
     1
102
RTVSPropertyOp4
 70
     1
102
RTVSPropertyOp5
 70
     1
102
RTVSPropertyOp6
 70
     1
102
RTVSPropertyOp7
 70
     1
102
RTVSPropertyOp8
 70
     1
102
RTVSPropertyOp9
 70
     1
102
RTVSPropertyOp10
 70
     1
102
RTVSPropertyOp11
 70
     1
102
RTVSPropertyOp12
 70
     1
102
RTVSPropertyOp13
 70
     1
102
RTVSPropertyOp14
 70
     1
102
RTVSPropertyOp15
 70
     1
102
RTVSPropertyOp16
 70
     1
102
RTVSPropertyOp17
 70
     1
102
RTVSPropertyOp18
 70
     1
102
RTVSPropertyOp19
 70
     1
102
RTVSPropertyOp20
 70
     1
102
RTVSPropertyOp21
 70
     1
102
RTVSPropertyOp22
 70
     1
102
RTVSPropertyOp23
 70
     1
102
RTVSPropertyOp24
 70
     1
102
RTVSPropertyOp25
 70
     1
102
RTVSPropertyOp26
 70
     1
102
RTVSPropertyOp27
 70
     1
102
RTVSPropertyOp28
 70
     1
102
RTVSPropertyOp29
 70
     1
102
RTVSPropertyOp30
 70
     1
102
RTVSPropertyOp31
 70
     1
102
RTVSPropertyOp32
 70
     1
102
RTVSPropertyOp33
 70
     1
102
RTVSPropertyOp34
 70
     1
102
RTVSPropertyOp35
 70
     1
102
RTVSPropertyOp36
 70
     1
102
RTVSPropertyOp37
 70
     1
102
RTVSPropertyOp38
 70
     1
102
RTVSPropertyOp39
 70
     1
102
RTVSPropertyOp40
 70
     1
102
RTVSPropertyOp41
 70
     1
102
RTVSPropertyOp42
 70
     1
102
RTVSPropertyOp43
 70
     1
102
RTVSPropertyOp44
 70
     1
102
RTVSPropertyOp45
 70
     1
102
RTVSPropertyOp46
 70
     1
102
RTVSPropertyOp47
 70
     1
102
RTVSPropertyOp48
 70
     1
102
RTVSPropertyOp49
 70
     1
102
RTVSPropertyOp50
 70
     1
102
RTVSPropertyOp51
 70
     0
102
RTVSPropertyOp52
 70
     0
102
RTVSPropertyOp53
 70
     1
102
RTVSPropertyOp54
 70
     1
102
RTVSPropertyOp55
 70
     1
102
RTVSPropertyOp56
 70
     1
102
RTVSPropertyOp57
 70
     1
102
RTVSPost2010Prop28
280
     0
102
RTVSPost2010PropOp28
 70
     1
102
RTVSPost2010Prop29
280
     1
102
RTVSPost2010PropOp29
 70
     1
102
RTVSPost2010Prop30
280
     1
102
RTVSPost2010PropOp30
 70
     1
102
RTVSPost2010Prop31
280
     0
102
RTVSPost2010PropOp31
 70
     1
102
RTVSPost2010Prop32
280
     0
102
RTVSPost2010PropOp32
 70
     1
102
RTVSPost2010Prop33
280
     0
102
RTVSPost2010PropOp33
 70
     1
102
RTVSPost2010Prop34
280
     0
102
RTVSPost2010PropOp34
 70
     1
102
RTVSPost2010Prop35
280
     0
102
RTVSPost2010PropOp35
 70
     1
102
RTVSPost2010Prop36
280
     0
102
RTVSPost2010PropOp36
 70
     1
102
RTVSPost2010Prop37
 90
       50
102
RTVSPost2010PropOp37
 70
     1
102
RTVSPost2010Prop38
140
0.0
102
RTVSPost2010PropOp38
 70
     1
102
RTVSPost2010Prop39
140
1.0
102
RTVSPost2010PropOp39
 70
     1
102
RTVSPost2010Prop40
 90
        0
102
RTVSPost2010PropOp40
 70
     1
102
RTVSPost2010Prop41ColorIndex
 90
       18
102
RTVSPost2010Prop41ColorRGB
 90
        0
102
RTVSPost2010PropOp41
 70
     1
102
RTVSPost2010Prop42
 90
       50
102
RTVSPost2010PropOp42
 70
     1
102
RTVSPost2010Prop43
 90
        3
102
RTVSPost2010PropOp43
 70
     1
102
RTVSPost2010Prop44ColorIndex
 90
        5
102
RTVSPost2010Prop44ColorRGB
 90
      255
102
RTVSPost2010PropOp44
 70
     1
102
RTVSPost2010Prop45
280
     0
102
RTVSPost2010PropOp45
 70
     1
102
RTVSPost2010Prop46
 90
       50
102
RTVSPost2010PropOp46
 70
     1
102
RTVSPost2010Prop47
 90
       50
102
RTVSPost2010PropOp47
 70
     1
102
RTVSPost2010Prop48
 90
       50
102
RTVSPost2010PropOp48
 70
     1
102
RTVSPost2010Prop49
280
     0
102
RTVSPost2010PropOp49
 70
     1
102
RTVSPost2010Prop50
 90
       50
102
RTVSPost2010PropOp50
 70
     1
102
RTVSPost2010Prop51ColorIndex
 90
      256
102
RTVSPost2010Prop51ColorRGB
 90
-16777216
102
RTVSPost2010PropOp51
 70
     0
102
RTVSPost2010Prop52
140
1.0
102
RTVSPost2010PropOp52
 70
     0
102
RTVSPost2010Prop53
 90
        2
102
RTVSPost2010PropOp53
 70
     1
102
RTVSPost2010Prop54
  1
strokes_ogs.tif
102
RTVSPost2010PropOp54
 70
     1
102
RTVSPost2010Prop55
280
     0
102
RTVSPost2010PropOp55
 70
     1
102
RTVSPost2010Prop56
140
1.0
102
RTVSPost2010PropOp56
 70
     1
102
RTVSPost2010Prop57
140
1.0
102
RTVSPost2010PropOp57
 70
     1
  0
XRECORD
  5
267
102
{ACAD_REACTORS
330
266
102
}
330
266
100
AcDbXrecord
280
     1
102
RTVSPropertyOp0
 70
     1
102
RTVSPropertyOp1
 70
     1
102
RTVSPropertyOp2
 70
     1
102
RTVSPropertyOp3
 70
     1
102
RTVSPropertyOp4
 70
     1
102
RTVSPropertyOp5
 70
     1
102
RTVSPropertyOp6
 70
     1
102
RTVSPropertyOp7
 70
     1
102
RTVSPropertyOp8
 70
     1
102
RTVSPropertyOp9
 70
     1
102
RTVSPropertyOp10
 70
     1
102
RTVSPropertyOp11
 70
     1
102
RTVSPropertyOp12
 70
     1
102
RTVSPropertyOp13
 70
     1
102
RTVSPropertyOp14
 70
     1
102
RTVSPropertyOp15
 70
     1
102
RTVSPropertyOp16
 70
     1
102
RTVSPropertyOp17
 70
     1
102
RTVSPropertyOp18
 70
     1
102
RTVSPropertyOp19
 70
     1
102
RTVSPropertyOp20
 70
     1
102
RTVSPropertyOp21
 70
     1
102
RTVSPropertyOp22
 70
     1
102
RTVSPropertyOp23
 70
     1
102
RTVSPropertyOp24
 70
     1
102
RTVSPropertyOp25
 70
     1
102
RTVSPropertyOp26
 70
     1
102
RTVSPropertyOp27
 70
     1
102
RTVSPropertyOp28
 70
     1
102
RTVSPropertyOp29
 70
     1
102
RTVSPropertyOp30
 70
     1
102
RTVSPropertyOp31
 70
     1
102
RTVSPropertyOp32
 70
     1
102
RTVSPropertyOp33
 70
     1
102
RTVSPropertyOp34
 70
     1
102
RTVSPropertyOp35
 70
     1
102
RTVSPropertyOp36
 70
     1
102
RTVSPropertyOp37
 70
     1
102
RTVSPropertyOp38
 70
     1
102
RTVSPropertyOp39
 70
     1
102
RTVSPropertyOp40
 70
     1
102
RTVSPropertyOp41
 70
     1
102
RTVSPropertyOp42
 70
     1
102
RTVSPropertyOp43
 70
     1
102
RTVSPropertyOp44
 70
     1
102
RTVSPropertyOp45
 70
     1
102
RTVSPropertyOp46
 70
     1
102
RTVSPropertyOp47
 70
     1
102
RTVSPropertyOp48
 70
     1
102
RTVSPropertyOp49
 70
     1
102
RTVSPropertyOp50
 70
     1
102
RTVSPropertyOp51
 70
     0
102
RTVSPropertyOp52
 70
     0
102
RTVSPropertyOp53
 70
     1
102
RTVSPropertyOp54
 70
     1
102
RTVSPropertyOp55
 70
     1
102
RTVSPropertyOp56
 70
     1
102
RTVSPropertyOp57
 70
     1
102
RTVSPost2010Prop28
280
     0
102
RTVSPost2010PropOp28
 70
     1
102
RTVSPost2010Prop29
280
     1
102
RTVSPost2010PropOp29
 70
     1
102
RTVSPost2010Prop30
280
     1
102
RTVSPost2010PropOp30
 70
     1
102
RTVSPost2010Prop31
280
     0
102
RTVSPost2010PropOp31
 70
     1
102
RTVSPost2010Prop32
280
     0
102
RTVSPost2010PropOp32
 70
     1
102
RTVSPost2010Prop33
280
     0
102
RTVSPost2010PropOp33
 70
     1
102
RTVSPost2010Prop34
280
     0
102
RTVSPost2010PropOp34
 70
     1
102
RTVSPost2010Prop35
280
     0
102
RTVSPost2010PropOp35
 70
     1
102
RTVSPost2010Prop36
280
     0
102
RTVSPost2010PropOp36
 70
     1
102
RTVSPost2010Prop37
 90
       50
102
RTVSPost2010PropOp37
 70
     1
102
RTVSPost2010Prop38
140
0.0
102
RTVSPost2010PropOp38
 70
     1
102
RTVSPost2010Prop39
140
1.0
102
RTVSPost2010PropOp39
 70
     1
102
RTVSPost2010Prop40
 90
        0
102
RTVSPost2010PropOp40
 70
     1
102
RTVSPost2010Prop41ColorIndex
 90
       18
102
RTVSPost2010Prop41ColorRGB
 90
        0
102
RTVSPost2010PropOp41
 70
     1
102
RTVSPost2010Prop42
 90
       50
102
RTVSPost2010PropOp42
 70
     1
102
RTVSPost2010Prop43
 90
        3
102
RTVSPost2010PropOp43
 70
     1
102
RTVSPost2010Prop44ColorIndex
 90
        5
102
RTVSPost2010Prop44ColorRGB
 90
      255
102
RTVSPost2010PropOp44
 70
     1
102
RTVSPost2010Prop45
280
     0
102
RTVSPost2010PropOp45
 70
     1
102
RTVSPost2010Prop46
 90
       50
102
RTVSPost2010PropOp46
 70
     1
102
RTVSPost2010Prop47
 90
       50
102
RTVSPost2010PropOp47
 70
     1
102
RTVSPost2010Prop48
 90
       50
102
RTVSPost2010PropOp48
 70
     1
102
RTVSPost2010Prop49
280
     0
102
RTVSPost2010PropOp49
 70
     1
102
RTVSPost2010Prop50
 90
       50
102
RTVSPost2010PropOp50
 70
     1
102
RTVSPost2010Prop51ColorIndex
 90
      256
102
RTVSPost2010Prop51ColorRGB
 90
-16777216
102
RTVSPost2010PropOp51
 70
     0
102
RTVSPost2010Prop52
140
1.0
102
RTVSPost2010PropOp52
 70
     0
102
RTVSPost2010Prop53
 90
        2
102
RTVSPost2010PropOp53
 70
     1
102
RTVSPost2010Prop54
  1
strokes_ogs.tif
102
RTVSPost2010PropOp54
 70
     1
102
RTVSPost2010Prop55
280
     0
102
RTVSPost2010PropOp55
 70
     1
102
RTVSPost2010Prop56
140
1.0
102
RTVSPost2010PropOp56
 70
     1
102
RTVSPost2010Prop57
140
1.0
102
RTVSPost2010PropOp57
 70
     1
  0
XRECORD
  5
26F
102
{ACAD_REACTORS
330
26E
102
}
330
26E
100
AcDbXrecord
280
     1
102
RTVSPropertyOp0
 70
     1
102
RTVSPropertyOp1
 70
     1
102
RTVSPropertyOp2
 70
     1
102
RTVSPropertyOp3
 70
     1
102
RTVSPropertyOp4
 70
     1
102
RTVSPropertyOp5
 70
     1
102
RTVSPropertyOp6
 70
     1
102
RTVSPropertyOp7
 70
     1
102
RTVSPropertyOp8
 70
     1
102
RTVSPropertyOp9
 70
     1
102
RTVSPropertyOp10
 70
     1
102
RTVSPropertyOp11
 70
     1
102
RTVSPropertyOp12
 70
     1
102
RTVSPropertyOp13
 70
     1
102
RTVSPropertyOp14
 70
     1
102
RTVSPropertyOp15
 70
     1
102
RTVSPropertyOp16
 70
     1
102
RTVSPropertyOp17
 70
     1
102
RTVSPropertyOp18
 70
     1
102
RTVSPropertyOp19
 70
     1
102
RTVSPropertyOp20
 70
     1
102
RTVSPropertyOp21
 70
     1
102
RTVSPropertyOp22
 70
     1
102
RTVSPropertyOp23
 70
     1
102
RTVSPropertyOp24
 70
     1
102
RTVSPropertyOp25
 70
     1
102
RTVSPropertyOp26
 70
     1
102
RTVSPropertyOp27
 70
     1
102
RTVSPropertyOp28
 70
     1
102
RTVSPropertyOp29
 70
     1
102
RTVSPropertyOp30
 70
     1
102
RTVSPropertyOp31
 70
     1
102
RTVSPropertyOp32
 70
     1
102
RTVSPropertyOp33
 70
     1
102
RTVSPropertyOp34
 70
     1
102
RTVSPropertyOp35
 70
     1
102
RTVSPropertyOp36
 70
     1
102
RTVSPropertyOp37
 70
     1
102
RTVSPropertyOp38
 70
     1
102
RTVSPropertyOp39
 70
     1
102
RTVSPropertyOp40
 70
     1
102
RTVSPropertyOp41
 70
     1
102
RTVSPropertyOp42
 70
     1
102
RTVSPropertyOp43
 70
     1
102
RTVSPropertyOp44
 70
     1
102
RTVSPropertyOp45
 70
     1
102
RTVSPropertyOp46
 70
     1
102
RTVSPropertyOp47
 70
     1
102
RTVSPropertyOp48
 70
     1
102
RTVSPropertyOp49
 70
     1
102
RTVSPropertyOp50
 70
     1
102
RTVSPropertyOp51
 70
     0
102
RTVSPropertyOp52
 70
     0
102
RTVSPropertyOp53
 70
     1
102
RTVSPropertyOp54
 70
     1
102
RTVSPropertyOp55
 70
     1
102
RTVSPropertyOp56
 70
     1
102
RTVSPropertyOp57
 70
     1
102
RTVSPost2010Prop28
280
     0
102
RTVSPost2010PropOp28
 70
     1
102
RTVSPost2010Prop29
280
     1
102
RTVSPost2010PropOp29
 70
     1
102
RTVSPost2010Prop30
280
     1
102
RTVSPost2010PropOp30
 70
     1
102
RTVSPost2010Prop31
280
     0
102
RTVSPost2010PropOp31
 70
     1
102
RTVSPost2010Prop32
280
     0
102
RTVSPost2010PropOp32
 70
     1
102
RTVSPost2010Prop33
280
     0
102
RTVSPost2010PropOp33
 70
     1
102
RTVSPost2010Prop34
280
     0
102
RTVSPost2010PropOp34
 70
     1
102
RTVSPost2010Prop35
280
     0
102
RTVSPost2010PropOp35
 70
     1
102
RTVSPost2010Prop36
280
     0
102
RTVSPost2010PropOp36
 70
     1
102
RTVSPost2010Prop37
 90
       50
102
RTVSPost2010PropOp37
 70
     1
102
RTVSPost2010Prop38
140
0.0
102
RTVSPost2010PropOp38
 70
     1
102
RTVSPost2010Prop39
140
1.0
102
RTVSPost2010PropOp39
 70
     1
102
RTVSPost2010Prop40
 90
        0
102
RTVSPost2010PropOp40
 70
     1
102
RTVSPost2010Prop41ColorIndex
 90
       18
102
RTVSPost2010Prop41ColorRGB
 90
        0
102
RTVSPost2010PropOp41
 70
     1
102
RTVSPost2010Prop42
 90
       50
102
RTVSPost2010PropOp42
 70
     1
102
RTVSPost2010Prop43
 90
        3
102
RTVSPost2010PropOp43
 70
     1
102
RTVSPost2010Prop44ColorIndex
 90
        5
102
RTVSPost2010Prop44ColorRGB
 90
      255
102
RTVSPost2010PropOp44
 70
     1
102
RTVSPost2010Prop45
280
     0
102
RTVSPost2010PropOp45
 70
     1
102
RTVSPost2010Prop46
 90
       50
102
RTVSPost2010PropOp46
 70
     1
102
RTVSPost2010Prop47
 90
       50
102
RTVSPost2010PropOp47
 70
     1
102
RTVSPost2010Prop48
 90
       50
102
RTVSPost2010PropOp48
 70
     1
102
RTVSPost2010Prop49
280
     0
102
RTVSPost2010PropOp49
 70
     1
102
RTVSPost2010Prop50
 90
       50
102
RTVSPost2010PropOp50
 70
     1
102
RTVSPost2010Prop51ColorIndex
 90
      256
102
RTVSPost2010Prop51ColorRGB
 90
-16777216
102
RTVSPost2010PropOp51
 70
     0
102
RTVSPost2010Prop52
140
1.0
102
RTVSPost2010PropOp52
 70
     0
102
RTVSPost2010Prop53
 90
        2
102
RTVSPost2010PropOp53
 70
     1
102
RTVSPost2010Prop54
  1
strokes_ogs.tif
102
RTVSPost2010PropOp54
 70
     1
102
RTVSPost2010Prop55
280
     0
102
RTVSPost2010PropOp55
 70
     1
102
RTVSPost2010Prop56
140
1.0
102
RTVSPost2010PropOp56
 70
     1
102
RTVSPost2010Prop57
140
1.0
102
RTVSPost2010PropOp57
 70
     1
  0
XRECORD
  5
263
102
{ACAD_REACTORS
330
262
102
}
330
262
100
AcDbXrecord
280
     1
102
RTVSPropertyOp0
 70
     1
102
RTVSPropertyOp1
 70
     1
102
RTVSPropertyOp2
 70
     1
102
RTVSPropertyOp3
 70
     1
102
RTVSPropertyOp4
 70
     1
102
RTVSPropertyOp5
 70
     1
102
RTVSPropertyOp6
 70
     1
102
RTVSPropertyOp7
 70
     1
102
RTVSPropertyOp8
 70
     1
102
RTVSPropertyOp9
 70
     1
102
RTVSPropertyOp10
 70
     1
102
RTVSPropertyOp11
 70
     1
102
RTVSPropertyOp12
 70
     1
102
RTVSPropertyOp13
 70
     1
102
RTVSPropertyOp14
 70
     1
102
RTVSPropertyOp15
 70
     1
102
RTVSPropertyOp16
 70
     1
102
RTVSPropertyOp17
 70
     1
102
RTVSPropertyOp18
 70
     1
102
RTVSPropertyOp19
 70
     1
102
RTVSPropertyOp20
 70
     1
102
RTVSPropertyOp21
 70
     1
102
RTVSPropertyOp22
 70
     1
102
RTVSPropertyOp23
 70
     1
102
RTVSPropertyOp24
 70
     1
102
RTVSPropertyOp25
 70
     1
102
RTVSPropertyOp26
 70
     1
102
RTVSPropertyOp27
 70
     1
102
RTVSPropertyOp28
 70
     1
102
RTVSPropertyOp29
 70
     1
102
RTVSPropertyOp30
 70
     1
102
RTVSPropertyOp31
 70
     1
102
RTVSPropertyOp32
 70
     1
102
RTVSPropertyOp33
 70
     1
102
RTVSPropertyOp34
 70
     1
102
RTVSPropertyOp35
 70
     1
102
RTVSPropertyOp36
 70
     1
102
RTVSPropertyOp37
 70
     1
102
RTVSPropertyOp38
 70
     1
102
RTVSPropertyOp39
 70
     1
102
RTVSPropertyOp40
 70
     1
102
RTVSPropertyOp41
 70
     1
102
RTVSPropertyOp42
 70
     1
102
RTVSPropertyOp43
 70
     1
102
RTVSPropertyOp44
 70
     1
102
RTVSPropertyOp45
 70
     1
102
RTVSPropertyOp46
 70
     1
102
RTVSPropertyOp47
 70
     1
102
RTVSPropertyOp48
 70
     1
102
RTVSPropertyOp49
 70
     1
102
RTVSPropertyOp50
 70
     1
102
RTVSPropertyOp51
 70
     0
102
RTVSPropertyOp52
 70
     0
102
RTVSPropertyOp53
 70
     1
102
RTVSPropertyOp54
 70
     1
102
RTVSPropertyOp55
 70
     1
102
RTVSPropertyOp56
 70
     1
102
RTVSPropertyOp57
 70
     1
102
RTVSPost2010Prop28
280
     0
102
RTVSPost2010PropOp28
 70
     1
102
RTVSPost2010Prop29
280
     1
102
RTVSPost2010PropOp29
 70
     1
102
RTVSPost2010Prop30
280
     1
102
RTVSPost2010PropOp30
 70
     1
102
RTVSPost2010Prop31
280
     0
102
RTVSPost2010PropOp31
 70
     1
102
RTVSPost2010Prop32
280
     0
102
RTVSPost2010PropOp32
 70
     1
102
RTVSPost2010Prop33
280
     0
102
RTVSPost2010PropOp33
 70
     1
102
RTVSPost2010Prop34
280
     0
102
RTVSPost2010PropOp34
 70
     1
102
RTVSPost2010Prop35
280
     0
102
RTVSPost2010PropOp35
 70
     1
102
RTVSPost2010Prop36
280
     0
102
RTVSPost2010PropOp36
 70
     1
102
RTVSPost2010Prop37
 90
       50
102
RTVSPost2010PropOp37
 70
     1
102
RTVSPost2010Prop38
140
0.0
102
RTVSPost2010PropOp38
 70
     1
102
RTVSPost2010Prop39
140
1.0
102
RTVSPost2010PropOp39
 70
     1
102
RTVSPost2010Prop40
 90
        0
102
RTVSPost2010PropOp40
 70
     1
102
RTVSPost2010Prop41ColorIndex
 90
       18
102
RTVSPost2010Prop41ColorRGB
 90
        0
102
RTVSPost2010PropOp41
 70
     1
102
RTVSPost2010Prop42
 90
       50
102
RTVSPost2010PropOp42
 70
     1
102
RTVSPost2010Prop43
 90
        3
102
RTVSPost2010PropOp43
 70
     1
102
RTVSPost2010Prop44ColorIndex
 90
        5
102
RTVSPost2010Prop44ColorRGB
 90
      255
102
RTVSPost2010PropOp44
 70
     1
102
RTVSPost2010Prop45
280
     0
102
RTVSPost2010PropOp45
 70
     1
102
RTVSPost2010Prop46
 90
       50
102
RTVSPost2010PropOp46
 70
     1
102
RTVSPost2010Prop47
 90
       50
102
RTVSPost2010PropOp47
 70
     1
102
RTVSPost2010Prop48
 90
       50
102
RTVSPost2010PropOp48
 70
     1
102
RTVSPost2010Prop49
280
     0
102
RTVSPost2010PropOp49
 70
     1
102
RTVSPost2010Prop50
 90
       50
102
RTVSPost2010PropOp50
 70
     1
102
RTVSPost2010Prop51ColorIndex
 90
      256
102
RTVSPost2010Prop51ColorRGB
 90
-16777216
102
RTVSPost2010PropOp51
 70
     0
102
RTVSPost2010Prop52
140
1.0
102
RTVSPost2010PropOp52
 70
     0
102
RTVSPost2010Prop53
 90
        2
102
RTVSPost2010PropOp53
 70
     1
102
RTVSPost2010Prop54
  1
strokes_ogs.tif
102
RTVSPost2010PropOp54
 70
     1
102
RTVSPost2010Prop55
280
     0
102
RTVSPost2010PropOp55
 70
     1
102
RTVSPost2010Prop56
140
1.0
102
RTVSPost2010PropOp56
 70
     1
102
RTVSPost2010Prop57
140
1.0
102
RTVSPost2010PropOp57
 70
     1
  0
XRECORD
  5
265
102
{ACAD_REACTORS
330
264
102
}
330
264
100
AcDbXrecord
280
     1
102
RTVSPropertyOp0
 70
     1
102
RTVSPropertyOp1
 70
     1
102
RTVSPropertyOp2
 70
     1
102
RTVSPropertyOp3
 70
     1
102
RTVSPropertyOp4
 70
     1
102
RTVSPropertyOp5
 70
     1
102
RTVSPropertyOp6
 70
     1
102
RTVSPropertyOp7
 70
     1
102
RTVSPropertyOp8
 70
     1
102
RTVSPropertyOp9
 70
     1
102
RTVSPropertyOp10
 70
     1
102
RTVSPropertyOp11
 70
     1
102
RTVSPropertyOp12
 70
     1
102
RTVSPropertyOp13
 70
     1
102
RTVSPropertyOp14
 70
     1
102
RTVSPropertyOp15
 70
     1
102
RTVSPropertyOp16
 70
     1
102
RTVSPropertyOp17
 70
     1
102
RTVSPropertyOp18
 70
     1
102
RTVSPropertyOp19
 70
     1
102
RTVSPropertyOp20
 70
     1
102
RTVSPropertyOp21
 70
     1
102
RTVSPropertyOp22
 70
     1
102
RTVSPropertyOp23
 70
     1
102
RTVSPropertyOp24
 70
     1
102
RTVSPropertyOp25
 70
     1
102
RTVSPropertyOp26
 70
     1
102
RTVSPropertyOp27
 70
     1
102
RTVSPropertyOp28
 70
     1
102
RTVSPropertyOp29
 70
     1
102
RTVSPropertyOp30
 70
     1
102
RTVSPropertyOp31
 70
     1
102
RTVSPropertyOp32
 70
     1
102
RTVSPropertyOp33
 70
     1
102
RTVSPropertyOp34
 70
     1
102
RTVSPropertyOp35
 70
     1
102
RTVSPropertyOp36
 70
     1
102
RTVSPropertyOp37
 70
     1
102
RTVSPropertyOp38
 70
     1
102
RTVSPropertyOp39
 70
     1
102
RTVSPropertyOp40
 70
     1
102
RTVSPropertyOp41
 70
     1
102
RTVSPropertyOp42
 70
     1
102
RTVSPropertyOp43
 70
     1
102
RTVSPropertyOp44
 70
     1
102
RTVSPropertyOp45
 70
     1
102
RTVSPropertyOp46
 70
     1
102
RTVSPropertyOp47
 70
     1
102
RTVSPropertyOp48
 70
     1
102
RTVSPropertyOp49
 70
     1
102
RTVSPropertyOp50
 70
     1
102
RTVSPropertyOp51
 70
     0
102
RTVSPropertyOp52
 70
     0
102
RTVSPropertyOp53
 70
     1
102
RTVSPropertyOp54
 70
     1
102
RTVSPropertyOp55
 70
     1
102
RTVSPropertyOp56
 70
     1
102
RTVSPropertyOp57
 70
     1
102
RTVSPost2010Prop28
280
     0
102
RTVSPost2010PropOp28
 70
     1
102
RTVSPost2010Prop29
280
     1
102
RTVSPost2010PropOp29
 70
     1
102
RTVSPost2010Prop30
280
     1
102
RTVSPost2010PropOp30
 70
     1
102
RTVSPost2010Prop31
280
     0
102
RTVSPost2010PropOp31
 70
     1
102
RTVSPost2010Prop32
280
     0
102
RTVSPost2010PropOp32
 70
     1
102
RTVSPost2010Prop33
280
     0
102
RTVSPost2010PropOp33
 70
     1
102
RTVSPost2010Prop34
280
     0
102
RTVSPost2010PropOp34
 70
     1
102
RTVSPost2010Prop35
280
     0
102
RTVSPost2010PropOp35
 70
     1
102
RTVSPost2010Prop36
280
     0
102
RTVSPost2010PropOp36
 70
     1
102
RTVSPost2010Prop37
 90
       50
102
RTVSPost2010PropOp37
 70
     1
102
RTVSPost2010Prop38
140
0.0
102
RTVSPost2010PropOp38
 70
     1
102
RTVSPost2010Prop39
140
1.0
102
RTVSPost2010PropOp39
 70
     1
102
RTVSPost2010Prop40
 90
        0
102
RTVSPost2010PropOp40
 70
     1
102
RTVSPost2010Prop41ColorIndex
 90
       18
102
RTVSPost2010Prop41ColorRGB
 90
        0
102
RTVSPost2010PropOp41
 70
     1
102
RTVSPost2010Prop42
 90
       50
102
RTVSPost2010PropOp42
 70
     1
102
RTVSPost2010Prop43
 90
        3
102
RTVSPost2010PropOp43
 70
     1
102
RTVSPost2010Prop44ColorIndex
 90
        5
102
RTVSPost2010Prop44ColorRGB
 90
      255
102
RTVSPost2010PropOp44
 70
     1
102
RTVSPost2010Prop45
280
     0
102
RTVSPost2010PropOp45
 70
     1
102
RTVSPost2010Prop46
 90
       50
102
RTVSPost2010PropOp46
 70
     1
102
RTVSPost2010Prop47
 90
       50
102
RTVSPost2010PropOp47
 70
     1
102
RTVSPost2010Prop48
 90
       50
102
RTVSPost2010PropOp48
 70
     1
102
RTVSPost2010Prop49
280
     0
102
RTVSPost2010PropOp49
 70
     1
102
RTVSPost2010Prop50
 90
       50
102
RTVSPost2010PropOp50
 70
     1
102
RTVSPost2010Prop51ColorIndex
 90
      256
102
RTVSPost2010Prop51ColorRGB
 90
-16777216
102
RTVSPost2010PropOp51
 70
     0
102
RTVSPost2010Prop52
140
1.0
102
RTVSPost2010PropOp52
 70
     0
102
RTVSPost2010Prop53
 90
        2
102
RTVSPost2010PropOp53
 70
     1
102
RTVSPost2010Prop54
  1
strokes_ogs.tif
102
RTVSPost2010PropOp54
 70
     1
102
RTVSPost2010Prop55
280
     0
102
RTVSPost2010PropOp55
 70
     1
102
RTVSPost2010Prop56
140
1.0
102
RTVSPost2010PropOp56
 70
     1
102
RTVSPost2010Prop57
140
1.0
102
RTVSPost2010PropOp57
 70
     1
  0
XRECORD
  5
275
102
{ACAD_REACTORS
330
274
102
}
330
274
100
AcDbXrecord
280
     1
102
RTVSPropertyOp0
 70
     0
102
RTVSPropertyOp1
 70
     0
102
RTVSPropertyOp2
 70
     0
102
RTVSPropertyOp3
 70
     0
102
RTVSPropertyOp4
 70
     0
102
RTVSPropertyOp5
 70
     0
102
RTVSPropertyOp6
 70
     0
102
RTVSPropertyOp7
 70
     0
102
RTVSPropertyOp8
 70
     0
102
RTVSPropertyOp9
 70
     0
102
RTVSPropertyOp10
 70
     0
102
RTVSPropertyOp11
 70
     0
102
RTVSPropertyOp12
 70
     0
102
RTVSPropertyOp13
 70
     0
102
RTVSPropertyOp14
 70
     2
102
RTVSPropertyOp15
 70
     0
102
RTVSPropertyOp16
 70
     0
102
RTVSPropertyOp17
 70
     0
102
RTVSPropertyOp18
 70
     0
102
RTVSPropertyOp19
 70
     0
102
RTVSPropertyOp20
 70
     0
102
RTVSPropertyOp21
 70
     0
102
RTVSPropertyOp22
 70
     0
102
RTVSPropertyOp23
 70
     0
102
RTVSPropertyOp24
 70
     0
102
RTVSPropertyOp25
 70
     0
102
RTVSPropertyOp26
 70
     0
102
RTVSPropertyOp27
 70
     0
102
RTVSPropertyOp28
 70
     0
102
RTVSPropertyOp29
 70
     0
102
RTVSPropertyOp30
 70
     0
102
RTVSPropertyOp31
 70
     0
102
RTVSPropertyOp32
 70
     0
102
RTVSPropertyOp33
 70
     0
102
RTVSPropertyOp34
 70
     0
102
RTVSPropertyOp35
 70
     0
102
RTVSPropertyOp36
 70
     0
102
RTVSPropertyOp37
 70
     0
102
RTVSPropertyOp38
 70
     0
102
RTVSPropertyOp39
 70
     0
102
RTVSPropertyOp40
 70
     0
102
RTVSPropertyOp41
 70
     0
102
RTVSPropertyOp42
 70
     0
102
RTVSPropertyOp43
 70
     0
102
RTVSPropertyOp44
 70
     0
102
RTVSPropertyOp45
 70
     0
102
RTVSPropertyOp46
 70
     0
102
RTVSPropertyOp47
 70
     0
102
RTVSPropertyOp48
 70
     0
102
RTVSPropertyOp49
 70
     0
102
RTVSPropertyOp50
 70
     0
102
RTVSPropertyOp51
 70
     0
102
RTVSPropertyOp52
 70
     0
102
RTVSPropertyOp53
 70
     0
102
RTVSPropertyOp54
 70
     0
102
RTVSPropertyOp55
 70
     0
102
RTVSPropertyOp56
 70
     0
102
RTVSPropertyOp57
 70
     0
102
RTVSPost2010Prop28
280
     0
102
RTVSPost2010PropOp28
 70
     0
102
RTVSPost2010Prop29
280
     1
102
RTVSPost2010PropOp29
 70
     0
102
RTVSPost2010Prop30
280
     1
102
RTVSPost2010PropOp30
 70
     0
102
RTVSPost2010Prop31
280
     0
102
RTVSPost2010PropOp31
 70
     0
102
RTVSPost2010Prop32
280
     0
102
RTVSPost2010PropOp32
 70
     0
102
RTVSPost2010Prop33
280
     0
102
RTVSPost2010PropOp33
 70
     0
102
RTVSPost2010Prop34
280
     0
102
RTVSPost2010PropOp34
 70
     0
102
RTVSPost2010Prop35
280
     0
102
RTVSPost2010PropOp35
 70
     0
102
RTVSPost2010Prop36
280
     0
102
RTVSPost2010PropOp36
 70
     0
102
RTVSPost2010Prop37
 90
       50
102
RTVSPost2010PropOp37
 70
     0
102
RTVSPost2010Prop38
140
0.0
102
RTVSPost2010PropOp38
 70
     0
102
RTVSPost2010Prop39
140
1.0
102
RTVSPost2010PropOp39
 70
     0
102
RTVSPost2010Prop40
 90
        0
102
RTVSPost2010PropOp40
 70
     0
102
RTVSPost2010Prop41ColorIndex
 90
       18
102
RTVSPost2010Prop41ColorRGB
 90
        0
102
RTVSPost2010PropOp41
 70
     0
102
RTVSPost2010Prop42
 90
       50
102
RTVSPost2010PropOp42
 70
     0
102
RTVSPost2010Prop43
 90
        3
102
RTVSPost2010PropOp43
 70
     0
102
RTVSPost2010Prop44ColorIndex
 90
        5
102
RTVSPost2010Prop44ColorRGB
 90
      255
102
RTVSPost2010PropOp44
 70
     0
102
RTVSPost2010Prop45
280
     0
102
RTVSPost2010PropOp45
 70
     0
102
RTVSPost2010Prop46
 90
       50
102
RTVSPost2010PropOp46
 70
     0
102
RTVSPost2010Prop47
 90
       50
102
RTVSPost2010PropOp47
 70
     0
102
RTVSPost2010Prop48
 90
       50
102
RTVSPost2010PropOp48
 70
     0
102
RTVSPost2010Prop49
280
     0
102
RTVSPost2010PropOp49
 70
     0
102
RTVSPost2010Prop50
 90
       50
102
RTVSPost2010PropOp50
 70
     0
102
RTVSPost2010Prop51ColorIndex
 90
      256
102
RTVSPost2010Prop51ColorRGB
 90
-16777216
102
RTVSPost2010PropOp51
 70
     0
102
RTVSPost2010Prop52
140
1.0
102
RTVSPost2010PropOp52
 70
     0
102
RTVSPost2010Prop53
 90
        2
102
RTVSPost2010PropOp53
 70
     0
102
RTVSPost2010Prop54
  1
strokes_ogs.tif
102
RTVSPost2010PropOp54
 70
     0
102
RTVSPost2010Prop55
280
     0
102
RTVSPost2010PropOp55
 70
     0
102
RTVSPost2010Prop56
140
1.0
102
RTVSPost2010PropOp56
 70
     0
102
RTVSPost2010Prop57
140
1.0
102
RTVSPost2010PropOp57
 70
     0
  0
XRECORD
  5
26D
102
{ACAD_REACTORS
330
26C
102
}
330
26C
100
AcDbXrecord
280
     1
102
RTVSPropertyOp0
 70
     1
102
RTVSPropertyOp1
 70
     1
102
RTVSPropertyOp2
 70
     1
102
RTVSPropertyOp3
 70
     1
102
RTVSPropertyOp4
 70
     1
102
RTVSPropertyOp5
 70
     1
102
RTVSPropertyOp6
 70
     1
102
RTVSPropertyOp7
 70
     1
102
RTVSPropertyOp8
 70
     1
102
RTVSPropertyOp9
 70
     1
102
RTVSPropertyOp10
 70
     1
102
RTVSPropertyOp11
 70
     1
102
RTVSPropertyOp12
 70
     1
102
RTVSPropertyOp13
 70
     1
102
RTVSPropertyOp14
 70
     1
102
RTVSPropertyOp15
 70
     1
102
RTVSPropertyOp16
 70
     1
102
RTVSPropertyOp17
 70
     1
102
RTVSPropertyOp18
 70
     1
102
RTVSPropertyOp19
 70
     1
102
RTVSPropertyOp20
 70
     1
102
RTVSPropertyOp21
 70
     1
102
RTVSPropertyOp22
 70
     1
102
RTVSPropertyOp23
 70
     1
102
RTVSPropertyOp24
 70
     1
102
RTVSPropertyOp25
 70
     1
102
RTVSPropertyOp26
 70
     1
102
RTVSPropertyOp27
 70
     1
102
RTVSPropertyOp28
 70
     1
102
RTVSPropertyOp29
 70
     1
102
RTVSPropertyOp30
 70
     1
102
RTVSPropertyOp31
 70
     1
102
RTVSPropertyOp32
 70
     1
102
RTVSPropertyOp33
 70
     1
102
RTVSPropertyOp34
 70
     1
102
RTVSPropertyOp35
 70
     1
102
RTVSPropertyOp36
 70
     1
102
RTVSPropertyOp37
 70
     1
102
RTVSPropertyOp38
 70
     1
102
RTVSPropertyOp39
 70
     1
102
RTVSPropertyOp40
 70
     1
102
RTVSPropertyOp41
 70
     1
102
RTVSPropertyOp42
 70
     1
102
RTVSPropertyOp43
 70
     1
102
RTVSPropertyOp44
 70
     1
102
RTVSPropertyOp45
 70
     1
102
RTVSPropertyOp46
 70
     1
102
RTVSPropertyOp47
 70
     1
102
RTVSPropertyOp48
 70
     1
102
RTVSPropertyOp49
 70
     1
102
RTVSPropertyOp50
 70
     1
102
RTVSPropertyOp51
 70
     0
102
RTVSPropertyOp52
 70
     0
102
RTVSPropertyOp53
 70
     1
102
RTVSPropertyOp54
 70
     1
102
RTVSPropertyOp55
 70
     1
102
RTVSPropertyOp56
 70
     1
102
RTVSPropertyOp57
 70
     1
102
RTVSPost2010Prop28
280
     0
102
RTVSPost2010PropOp28
 70
     1
102
RTVSPost2010Prop29
280
     1
102
RTVSPost2010PropOp29
 70
     1
102
RTVSPost2010Prop30
280
     1
102
RTVSPost2010PropOp30
 70
     1
102
RTVSPost2010Prop31
280
     0
102
RTVSPost2010PropOp31
 70
     1
102
RTVSPost2010Prop32
280
     0
102
RTVSPost2010PropOp32
 70
     1
102
RTVSPost2010Prop33
280
     0
102
RTVSPost2010PropOp33
 70
     1
102
RTVSPost2010Prop34
280
     0
102
RTVSPost2010PropOp34
 70
     1
102
RTVSPost2010Prop35
280
     0
102
RTVSPost2010PropOp35
 70
     1
102
RTVSPost2010Prop36
280
     0
102
RTVSPost2010PropOp36
 70
     1
102
RTVSPost2010Prop37
 90
       50
102
RTVSPost2010PropOp37
 70
     1
102
RTVSPost2010Prop38
140
0.0
102
RTVSPost2010PropOp38
 70
     1
102
RTVSPost2010Prop39
140
1.0
102
RTVSPost2010PropOp39
 70
     1
102
RTVSPost2010Prop40
 90
        0
102
RTVSPost2010PropOp40
 70
     1
102
RTVSPost2010Prop41ColorIndex
 90
       18
102
RTVSPost2010Prop41ColorRGB
 90
        0
102
RTVSPost2010PropOp41
 70
     1
102
RTVSPost2010Prop42
 90
       50
102
RTVSPost2010PropOp42
 70
     1
102
RTVSPost2010Prop43
 90
        3
102
RTVSPost2010PropOp43
 70
     1
102
RTVSPost2010Prop44ColorIndex
 90
        5
102
RTVSPost2010Prop44ColorRGB
 90
      255
102
RTVSPost2010PropOp44
 70
     1
102
RTVSPost2010Prop45
280
     0
102
RTVSPost2010PropOp45
 70
     1
102
RTVSPost2010Prop46
 90
       50
102
RTVSPost2010PropOp46
 70
     1
102
RTVSPost2010Prop47
 90
       50
102
RTVSPost2010PropOp47
 70
     1
102
RTVSPost2010Prop48
 90
       50
102
RTVSPost2010PropOp48
 70
     1
102
RTVSPost2010Prop49
280
     0
102
RTVSPost2010PropOp49
 70
     1
102
RTVSPost2010Prop50
 90
       50
102
RTVSPost2010PropOp50
 70
     1
102
RTVSPost2010Prop51ColorIndex
 90
      256
102
RTVSPost2010Prop51ColorRGB
 90
-16777216
102
RTVSPost2010PropOp51
 70
     0
102
RTVSPost2010Prop52
140
1.0
102
RTVSPost2010PropOp52
 70
     0
102
RTVSPost2010Prop53
 90
        2
102
RTVSPost2010PropOp53
 70
     1
102
RTVSPost2010Prop54
  1
strokes_ogs.tif
102
RTVSPost2010PropOp54
 70
     1
102
RTVSPost2010Prop55
280
     0
102
RTVSPost2010PropOp55
 70
     1
102
RTVSPost2010Prop56
140
1.0
102
RTVSPost2010PropOp56
 70
     1
102
RTVSPost2010Prop57
140
1.0
102
RTVSPost2010PropOp57
 70
     1
  0
XRECORD
  5
251
102
{ACAD_REACTORS
330
250
102
}
330
250
100
AcDbXrecord
280
     1
102
RTVSPropertyOp0
 70
     1
102
RTVSPropertyOp1
 70
     1
102
RTVSPropertyOp2
 70
     1
102
RTVSPropertyOp3
 70
     1
102
RTVSPropertyOp4
 70
     1
102
RTVSPropertyOp5
 70
     1
102
RTVSPropertyOp6
 70
     1
102
RTVSPropertyOp7
 70
     1
102
RTVSPropertyOp8
 70
     1
102
RTVSPropertyOp9
 70
     1
102
RTVSPropertyOp10
 70
     1
102
RTVSPropertyOp11
 70
     1
102
RTVSPropertyOp12
 70
     1
102
RTVSPropertyOp13
 70
     1
102
RTVSPropertyOp14
 70
     1
102
RTVSPropertyOp15
 70
     1
102
RTVSPropertyOp16
 70
     1
102
RTVSPropertyOp17
 70
     1
102
RTVSPropertyOp18
 70
     1
102
RTVSPropertyOp19
 70
     1
102
RTVSPropertyOp20
 70
     1
102
RTVSPropertyOp21
 70
     1
102
RTVSPropertyOp22
 70
     1
102
RTVSPropertyOp23
 70
     1
102
RTVSPropertyOp24
 70
     1
102
RTVSPropertyOp25
 70
     1
102
RTVSPropertyOp26
 70
     1
102
RTVSPropertyOp27
 70
     1
102
RTVSPropertyOp28
 70
     1
102
RTVSPropertyOp29
 70
     1
102
RTVSPropertyOp30
 70
     1
102
RTVSPropertyOp31
 70
     1
102
RTVSPropertyOp32
 70
     1
102
RTVSPropertyOp33
 70
     1
102
RTVSPropertyOp34
 70
     1
102
RTVSPropertyOp35
 70
     1
102
RTVSPropertyOp36
 70
     1
102
RTVSPropertyOp37
 70
     1
102
RTVSPropertyOp38
 70
     1
102
RTVSPropertyOp39
 70
     1
102
RTVSPropertyOp40
 70
     1
102
RTVSPropertyOp41
 70
     1
102
RTVSPropertyOp42
 70
     1
102
RTVSPropertyOp43
 70
     1
102
RTVSPropertyOp44
 70
     1
102
RTVSPropertyOp45
 70
     1
102
RTVSPropertyOp46
 70
     1
102
RTVSPropertyOp47
 70
     1
102
RTVSPropertyOp48
 70
     1
102
RTVSPropertyOp49
 70
     1
102
RTVSPropertyOp50
 70
     1
102
RTVSPropertyOp51
 70
     0
102
RTVSPropertyOp52
 70
     0
102
RTVSPropertyOp53
 70
     1
102
RTVSPropertyOp54
 70
     1
102
RTVSPropertyOp55
 70
     1
102
RTVSPropertyOp56
 70
     1
102
RTVSPropertyOp57
 70
     1
102
RTVSPost2010Prop28
280
     0
102
RTVSPost2010PropOp28
 70
     1
102
RTVSPost2010Prop29
280
     1
102
RTVSPost2010PropOp29
 70
     1
102
RTVSPost2010Prop30
280
     1
102
RTVSPost2010PropOp30
 70
     1
102
RTVSPost2010Prop31
280
     0
102
RTVSPost2010PropOp31
 70
     1
102
RTVSPost2010Prop32
280
     0
102
RTVSPost2010PropOp32
 70
     1
102
RTVSPost2010Prop33
280
     0
102
RTVSPost2010PropOp33
 70
     1
102
RTVSPost2010Prop34
280
     0
102
RTVSPost2010PropOp34
 70
     1
102
RTVSPost2010Prop35
280
     0
102
RTVSPost2010PropOp35
 70
     1
102
RTVSPost2010Prop36
280
     0
102
RTVSPost2010PropOp36
 70
     1
102
RTVSPost2010Prop37
 90
       50
102
RTVSPost2010PropOp37
 70
     1
102
RTVSPost2010Prop38
140
0.0
102
RTVSPost2010PropOp38
 70
     1
102
RTVSPost2010Prop39
140
1.0
102
RTVSPost2010PropOp39
 70
     1
102
RTVSPost2010Prop40
 90
        0
102
RTVSPost2010PropOp40
 70
     1
102
RTVSPost2010Prop41ColorIndex
 90
       18
102
RTVSPost2010Prop41ColorRGB
 90
        0
102
RTVSPost2010PropOp41
 70
     1
102
RTVSPost2010Prop42
 90
       50
102
RTVSPost2010PropOp42
 70
     1
102
RTVSPost2010Prop43
 90
        3
102
RTVSPost2010PropOp43
 70
     1
102
RTVSPost2010Prop44ColorIndex
 90
        5
102
RTVSPost2010Prop44ColorRGB
 90
      255
102
RTVSPost2010PropOp44
 70
     1
102
RTVSPost2010Prop45
280
     0
102
RTVSPost2010PropOp45
 70
     1
102
RTVSPost2010Prop46
 90
       50
102
RTVSPost2010PropOp46
 70
     1
102
RTVSPost2010Prop47
 90
       50
102
RTVSPost2010PropOp47
 70
     1
102
RTVSPost2010Prop48
 90
       50
102
RTVSPost2010PropOp48
 70
     1
102
RTVSPost2010Prop49
280
     0
102
RTVSPost2010PropOp49
 70
     1
102
RTVSPost2010Prop50
 90
       50
102
RTVSPost2010PropOp50
 70
     1
102
RTVSPost2010Prop51ColorIndex
 90
      256
102
RTVSPost2010Prop51ColorRGB
 90
-16777216
102
RTVSPost2010PropOp51
 70
     0
102
RTVSPost2010Prop52
140
1.0
102
RTVSPost2010PropOp52
 70
     0
102
RTVSPost2010Prop53
 90
        2
102
RTVSPost2010PropOp53
 70
     1
102
RTVSPost2010Prop54
  1
strokes_ogs.tif
102
RTVSPost2010PropOp54
 70
     1
102
RTVSPost2010Prop55
280
     0
102
RTVSPost2010PropOp55
 70
     1
102
RTVSPost2010Prop56
140
1.0
102
RTVSPost2010PropOp56
 70
     1
102
RTVSPost2010Prop57
140
1.0
102
RTVSPost2010PropOp57
 70
     1
  0
XRECORD
  5
253
102
{ACAD_REACTORS
330
252
102
}
330
252
100
AcDbXrecord
280
     1
102
RTVSPropertyOp0
 70
     1
102
RTVSPropertyOp1
 70
     1
102
RTVSPropertyOp2
 70
     1
102
RTVSPropertyOp3
 70
     1
102
RTVSPropertyOp4
 70
     1
102
RTVSPropertyOp5
 70
     1
102
RTVSPropertyOp6
 70
     1
102
RTVSPropertyOp7
 70
     1
102
RTVSPropertyOp8
 70
     1
102
RTVSPropertyOp9
 70
     1
102
RTVSPropertyOp10
 70
     1
102
RTVSPropertyOp11
 70
     1
102
RTVSPropertyOp12
 70
     1
102
RTVSPropertyOp13
 70
     1
102
RTVSPropertyOp14
 70
     1
102
RTVSPropertyOp15
 70
     1
102
RTVSPropertyOp16
 70
     1
102
RTVSPropertyOp17
 70
     1
102
RTVSPropertyOp18
 70
     1
102
RTVSPropertyOp19
 70
     1
102
RTVSPropertyOp20
 70
     1
102
RTVSPropertyOp21
 70
     1
102
RTVSPropertyOp22
 70
     1
102
RTVSPropertyOp23
 70
     1
102
RTVSPropertyOp24
 70
     1
102
RTVSPropertyOp25
 70
     1
102
RTVSPropertyOp26
 70
     1
102
RTVSPropertyOp27
 70
     1
102
RTVSPropertyOp28
 70
     1
102
RTVSPropertyOp29
 70
     1
102
RTVSPropertyOp30
 70
     1
102
RTVSPropertyOp31
 70
     1
102
RTVSPropertyOp32
 70
     1
102
RTVSPropertyOp33
 70
     1
102
RTVSPropertyOp34
 70
     1
102
RTVSPropertyOp35
 70
     1
102
RTVSPropertyOp36
 70
     1
102
RTVSPropertyOp37
 70
     1
102
RTVSPropertyOp38
 70
     1
102
RTVSPropertyOp39
 70
     1
102
RTVSPropertyOp40
 70
     1
102
RTVSPropertyOp41
 70
     1
102
RTVSPropertyOp42
 70
     1
102
RTVSPropertyOp43
 70
     1
102
RTVSPropertyOp44
 70
     1
102
RTVSPropertyOp45
 70
     1
102
RTVSPropertyOp46
 70
     1
102
RTVSPropertyOp47
 70
     1
102
RTVSPropertyOp48
 70
     1
102
RTVSPropertyOp49
 70
     1
102
RTVSPropertyOp50
 70
     1
102
RTVSPropertyOp51
 70
     0
102
RTVSPropertyOp52
 70
     0
102
RTVSPropertyOp53
 70
     1
102
RTVSPropertyOp54
 70
     1
102
RTVSPropertyOp55
 70
     1
102
RTVSPropertyOp56
 70
     1
102
RTVSPropertyOp57
 70
     1
102
RTVSPost2010Prop28
280
     0
102
RTVSPost2010PropOp28
 70
     1
102
RTVSPost2010Prop29
280
     1
102
RTVSPost2010PropOp29
 70
     1
102
RTVSPost2010Prop30
280
     1
102
RTVSPost2010PropOp30
 70
     1
102
RTVSPost2010Prop31
280
     0
102
RTVSPost2010PropOp31
 70
     1
102
RTVSPost2010Prop32
280
     0
102
RTVSPost2010PropOp32
 70
     1
102
RTVSPost2010Prop33
280
     0
102
RTVSPost2010PropOp33
 70
     1
102
RTVSPost2010Prop34
280
     0
102
RTVSPost2010PropOp34
 70
     1
102
RTVSPost2010Prop35
280
     0
102
RTVSPost2010PropOp35
 70
     1
102
RTVSPost2010Prop36
280
     0
102
RTVSPost2010PropOp36
 70
     1
102
RTVSPost2010Prop37
 90
       50
102
RTVSPost2010PropOp37
 70
     1
102
RTVSPost2010Prop38
140
0.0
102
RTVSPost2010PropOp38
 70
     1
102
RTVSPost2010Prop39
140
1.0
102
RTVSPost2010PropOp39
 70
     1
102
RTVSPost2010Prop40
 90
        0
102
RTVSPost2010PropOp40
 70
     1
102
RTVSPost2010Prop41ColorIndex
 90
       18
102
RTVSPost2010Prop41ColorRGB
 90
        0
102
RTVSPost2010PropOp41
 70
     1
102
RTVSPost2010Prop42
 90
       50
102
RTVSPost2010PropOp42
 70
     1
102
RTVSPost2010Prop43
 90
        3
102
RTVSPost2010PropOp43
 70
     1
102
RTVSPost2010Prop44ColorIndex
 90
        5
102
RTVSPost2010Prop44ColorRGB
 90
      255
102
RTVSPost2010PropOp44
 70
     1
102
RTVSPost2010Prop45
280
     0
102
RTVSPost2010PropOp45
 70
     1
102
RTVSPost2010Prop46
 90
       50
102
RTVSPost2010PropOp46
 70
     1
102
RTVSPost2010Prop47
 90
       50
102
RTVSPost2010PropOp47
 70
     1
102
RTVSPost2010Prop48
 90
       50
102
RTVSPost2010PropOp48
 70
     1
102
RTVSPost2010Prop49
280
     0
102
RTVSPost2010PropOp49
 70
     1
102
RTVSPost2010Prop50
 90
       50
102
RTVSPost2010PropOp50
 70
     1
102
RTVSPost2010Prop51ColorIndex
 90
      256
102
RTVSPost2010Prop51ColorRGB
 90
-16777216
102
RTVSPost2010PropOp51
 70
     0
102
RTVSPost2010Prop52
140
1.0
102
RTVSPost2010PropOp52
 70
     0
102
RTVSPost2010Prop53
 90
        2
102
RTVSPost2010PropOp53
 70
     1
102
RTVSPost2010Prop54
  1
strokes_ogs.tif
102
RTVSPost2010PropOp54
 70
     1
102
RTVSPost2010Prop55
280
     0
102
RTVSPost2010PropOp55
 70
     1
102
RTVSPost2010Prop56
140
1.0
102
RTVSPost2010PropOp56
 70
     1
102
RTVSPost2010Prop57
140
1.0
102
RTVSPost2010PropOp57
 70
     1
  0
XRECORD
  5
255
102
{ACAD_REACTORS
330
254
102
}
330
254
100
AcDbXrecord
280
     1
102
RTVSPropertyOp0
 70
     1
102
RTVSPropertyOp1
 70
     1
102
RTVSPropertyOp2
 70
     1
102
RTVSPropertyOp3
 70
     1
102
RTVSPropertyOp4
 70
     1
102
RTVSPropertyOp5
 70
     1
102
RTVSPropertyOp6
 70
     1
102
RTVSPropertyOp7
 70
     1
102
RTVSPropertyOp8
 70
     1
102
RTVSPropertyOp9
 70
     1
102
RTVSPropertyOp10
 70
     1
102
RTVSPropertyOp11
 70
     1
102
RTVSPropertyOp12
 70
     1
102
RTVSPropertyOp13
 70
     1
102
RTVSPropertyOp14
 70
     1
102
RTVSPropertyOp15
 70
     1
102
RTVSPropertyOp16
 70
     1
102
RTVSPropertyOp17
 70
     1
102
RTVSPropertyOp18
 70
     1
102
RTVSPropertyOp19
 70
     1
102
RTVSPropertyOp20
 70
     1
102
RTVSPropertyOp21
 70
     1
102
RTVSPropertyOp22
 70
     1
102
RTVSPropertyOp23
 70
     1
102
RTVSPropertyOp24
 70
     1
102
RTVSPropertyOp25
 70
     1
102
RTVSPropertyOp26
 70
     1
102
RTVSPropertyOp27
 70
     1
102
RTVSPropertyOp28
 70
     1
102
RTVSPropertyOp29
 70
     1
102
RTVSPropertyOp30
 70
     1
102
RTVSPropertyOp31
 70
     1
102
RTVSPropertyOp32
 70
     1
102
RTVSPropertyOp33
 70
     1
102
RTVSPropertyOp34
 70
     1
102
RTVSPropertyOp35
 70
     1
102
RTVSPropertyOp36
 70
     1
102
RTVSPropertyOp37
 70
     1
102
RTVSPropertyOp38
 70
     1
102
RTVSPropertyOp39
 70
     1
102
RTVSPropertyOp40
 70
     1
102
RTVSPropertyOp41
 70
     1
102
RTVSPropertyOp42
 70
     1
102
RTVSPropertyOp43
 70
     1
102
RTVSPropertyOp44
 70
     1
102
RTVSPropertyOp45
 70
     1
102
RTVSPropertyOp46
 70
     1
102
RTVSPropertyOp47
 70
     1
102
RTVSPropertyOp48
 70
     1
102
RTVSPropertyOp49
 70
     1
102
RTVSPropertyOp50
 70
     1
102
RTVSPropertyOp51
 70
     0
102
RTVSPropertyOp52
 70
     0
102
RTVSPropertyOp53
 70
     1
102
RTVSPropertyOp54
 70
     1
102
RTVSPropertyOp55
 70
     1
102
RTVSPropertyOp56
 70
     1
102
RTVSPropertyOp57
 70
     1
102
RTVSPost2010Prop28
280
     0
102
RTVSPost2010PropOp28
 70
     1
102
RTVSPost2010Prop29
280
     1
102
RTVSPost2010PropOp29
 70
     1
102
RTVSPost2010Prop30
280
     1
102
RTVSPost2010PropOp30
 70
     1
102
RTVSPost2010Prop31
280
     0
102
RTVSPost2010PropOp31
 70
     1
102
RTVSPost2010Prop32
280
     0
102
RTVSPost2010PropOp32
 70
     1
102
RTVSPost2010Prop33
280
     0
102
RTVSPost2010PropOp33
 70
     1
102
RTVSPost2010Prop34
280
     0
102
RTVSPost2010PropOp34
 70
     1
102
RTVSPost2010Prop35
280
     0
102
RTVSPost2010PropOp35
 70
     1
102
RTVSPost2010Prop36
280
     0
102
RTVSPost2010PropOp36
 70
     1
102
RTVSPost2010Prop37
 90
       50
102
RTVSPost2010PropOp37
 70
     1
102
RTVSPost2010Prop38
140
0.0
102
RTVSPost2010PropOp38
 70
     1
102
RTVSPost2010Prop39
140
1.0
102
RTVSPost2010PropOp39
 70
     1
102
RTVSPost2010Prop40
 90
        0
102
RTVSPost2010PropOp40
 70
     1
102
RTVSPost2010Prop41ColorIndex
 90
       18
102
RTVSPost2010Prop41ColorRGB
 90
        0
102
RTVSPost2010PropOp41
 70
     1
102
RTVSPost2010Prop42
 90
       50
102
RTVSPost2010PropOp42
 70
     1
102
RTVSPost2010Prop43
 90
        3
102
RTVSPost2010PropOp43
 70
     1
102
RTVSPost2010Prop44ColorIndex
 90
        5
102
RTVSPost2010Prop44ColorRGB
 90
      255
102
RTVSPost2010PropOp44
 70
     1
102
RTVSPost2010Prop45
280
     0
102
RTVSPost2010PropOp45
 70
     1
102
RTVSPost2010Prop46
 90
       50
102
RTVSPost2010PropOp46
 70
     1
102
RTVSPost2010Prop47
 90
       50
102
RTVSPost2010PropOp47
 70
     1
102
RTVSPost2010Prop48
 90
       50
102
RTVSPost2010PropOp48
 70
     1
102
RTVSPost2010Prop49
280
     0
102
RTVSPost2010PropOp49
 70
     1
102
RTVSPost2010Prop50
 90
       50
102
RTVSPost2010PropOp50
 70
     1
102
RTVSPost2010Prop51ColorIndex
 90
      256
102
RTVSPost2010Prop51ColorRGB
 90
-16777216
102
RTVSPost2010PropOp51
 70
     0
102
RTVSPost2010Prop52
140
1.0
102
RTVSPost2010PropOp52
 70
     0
102
RTVSPost2010Prop53
 90
        2
102
RTVSPost2010PropOp53
 70
     1
102
RTVSPost2010Prop54
  1
strokes_ogs.tif
102
RTVSPost2010PropOp54
 70
     1
102
RTVSPost2010Prop55
280
     0
102
RTVSPost2010PropOp55
 70
     1
102
RTVSPost2010Prop56
140
1.0
102
RTVSPost2010PropOp56
 70
     1
102
RTVSPost2010Prop57
140
1.0
102
RTVSPost2010PropOp57
 70
     1
  0
XRECORD
  5
257
102
{ACAD_REACTORS
330
256
102
}
330
256
100
AcDbXrecord
280
     1
102
RTVSPropertyOp0
 70
     1
102
RTVSPropertyOp1
 70
     1
102
RTVSPropertyOp2
 70
     1
102
RTVSPropertyOp3
 70
     1
102
RTVSPropertyOp4
 70
     1
102
RTVSPropertyOp5
 70
     1
102
RTVSPropertyOp6
 70
     1
102
RTVSPropertyOp7
 70
     1
102
RTVSPropertyOp8
 70
     1
102
RTVSPropertyOp9
 70
     1
102
RTVSPropertyOp10
 70
     1
102
RTVSPropertyOp11
 70
     1
102
RTVSPropertyOp12
 70
     1
102
RTVSPropertyOp13
 70
     1
102
RTVSPropertyOp14
 70
     1
102
RTVSPropertyOp15
 70
     1
102
RTVSPropertyOp16
 70
     1
102
RTVSPropertyOp17
 70
     1
102
RTVSPropertyOp18
 70
     1
102
RTVSPropertyOp19
 70
     1
102
RTVSPropertyOp20
 70
     1
102
RTVSPropertyOp21
 70
     1
102
RTVSPropertyOp22
 70
     1
102
RTVSPropertyOp23
 70
     1
102
RTVSPropertyOp24
 70
     1
102
RTVSPropertyOp25
 70
     1
102
RTVSPropertyOp26
 70
     1
102
RTVSPropertyOp27
 70
     1
102
RTVSPropertyOp28
 70
     1
102
RTVSPropertyOp29
 70
     1
102
RTVSPropertyOp30
 70
     1
102
RTVSPropertyOp31
 70
     1
102
RTVSPropertyOp32
 70
     1
102
RTVSPropertyOp33
 70
     1
102
RTVSPropertyOp34
 70
     1
102
RTVSPropertyOp35
 70
     1
102
RTVSPropertyOp36
 70
     1
102
RTVSPropertyOp37
 70
     1
102
RTVSPropertyOp38
 70
     1
102
RTVSPropertyOp39
 70
     1
102
RTVSPropertyOp40
 70
     1
102
RTVSPropertyOp41
 70
     1
102
RTVSPropertyOp42
 70
     1
102
RTVSPropertyOp43
 70
     1
102
RTVSPropertyOp44
 70
     1
102
RTVSPropertyOp45
 70
     1
102
RTVSPropertyOp46
 70
     1
102
RTVSPropertyOp47
 70
     1
102
RTVSPropertyOp48
 70
     1
102
RTVSPropertyOp49
 70
     1
102
RTVSPropertyOp50
 70
     1
102
RTVSPropertyOp51
 70
     0
102
RTVSPropertyOp52
 70
     0
102
RTVSPropertyOp53
 70
     1
102
RTVSPropertyOp54
 70
     1
102
RTVSPropertyOp55
 70
     1
102
RTVSPropertyOp56
 70
     1
102
RTVSPropertyOp57
 70
     1
102
RTVSPost2010Prop28
280
     0
102
RTVSPost2010PropOp28
 70
     1
102
RTVSPost2010Prop29
280
     1
102
RTVSPost2010PropOp29
 70
     1
102
RTVSPost2010Prop30
280
     1
102
RTVSPost2010PropOp30
 70
     1
102
RTVSPost2010Prop31
280
     0
102
RTVSPost2010PropOp31
 70
     1
102
RTVSPost2010Prop32
280
     0
102
RTVSPost2010PropOp32
 70
     1
102
RTVSPost2010Prop33
280
     0
102
RTVSPost2010PropOp33
 70
     1
102
RTVSPost2010Prop34
280
     0
102
RTVSPost2010PropOp34
 70
     1
102
RTVSPost2010Prop35
280
     0
102
RTVSPost2010PropOp35
 70
     1
102
RTVSPost2010Prop36
280
     0
102
RTVSPost2010PropOp36
 70
     1
102
RTVSPost2010Prop37
 90
       50
102
RTVSPost2010PropOp37
 70
     1
102
RTVSPost2010Prop38
140
0.0
102
RTVSPost2010PropOp38
 70
     1
102
RTVSPost2010Prop39
140
1.0
102
RTVSPost2010PropOp39
 70
     1
102
RTVSPost2010Prop40
 90
        0
102
RTVSPost2010PropOp40
 70
     1
102
RTVSPost2010Prop41ColorIndex
 90
       18
102
RTVSPost2010Prop41ColorRGB
 90
        0
102
RTVSPost2010PropOp41
 70
     1
102
RTVSPost2010Prop42
 90
       50
102
RTVSPost2010PropOp42
 70
     1
102
RTVSPost2010Prop43
 90
        3
102
RTVSPost2010PropOp43
 70
     1
102
RTVSPost2010Prop44ColorIndex
 90
        5
102
RTVSPost2010Prop44ColorRGB
 90
      255
102
RTVSPost2010PropOp44
 70
     1
102
RTVSPost2010Prop45
280
     0
102
RTVSPost2010PropOp45
 70
     1
102
RTVSPost2010Prop46
 90
       50
102
RTVSPost2010PropOp46
 70
     1
102
RTVSPost2010Prop47
 90
       50
102
RTVSPost2010PropOp47
 70
     1
102
RTVSPost2010Prop48
 90
       50
102
RTVSPost2010PropOp48
 70
     1
102
RTVSPost2010Prop49
280
     0
102
RTVSPost2010PropOp49
 70
     1
102
RTVSPost2010Prop50
 90
       50
102
RTVSPost2010PropOp50
 70
     1
102
RTVSPost2010Prop51ColorIndex
 90
      256
102
RTVSPost2010Prop51ColorRGB
 90
-16777216
102
RTVSPost2010PropOp51
 70
     0
102
RTVSPost2010Prop52
140
1.0
102
RTVSPost2010PropOp52
 70
     0
102
RTVSPost2010Prop53
 90
        2
102
RTVSPost2010PropOp53
 70
     1
102
RTVSPost2010Prop54
  1
strokes_ogs.tif
102
RTVSPost2010PropOp54
 70
     1
102
RTVSPost2010Prop55
280
     0
102
RTVSPost2010PropOp55
 70
     1
102
RTVSPost2010Prop56
140
1.0
102
RTVSPost2010PropOp56
 70
     1
102
RTVSPost2010Prop57
140
1.0
102
RTVSPost2010PropOp57
 70
     1
  0
XRECORD
  5
25D
102
{ACAD_REACTORS
330
25C
102
}
330
25C
100
AcDbXrecord
280
     1
102
RTVSPropertyOp0
 70
     1
102
RTVSPropertyOp1
 70
     1
102
RTVSPropertyOp2
 70
     1
102
RTVSPropertyOp3
 70
     1
102
RTVSPropertyOp4
 70
     1
102
RTVSPropertyOp5
 70
     1
102
RTVSPropertyOp6
 70
     1
102
RTVSPropertyOp7
 70
     1
102
RTVSPropertyOp8
 70
     1
102
RTVSPropertyOp9
 70
     1
102
RTVSPropertyOp10
 70
     1
102
RTVSPropertyOp11
 70
     1
102
RTVSPropertyOp12
 70
     1
102
RTVSPropertyOp13
 70
     1
102
RTVSPropertyOp14
 70
     1
102
RTVSPropertyOp15
 70
     1
102
RTVSPropertyOp16
 70
     1
102
RTVSPropertyOp17
 70
     1
102
RTVSPropertyOp18
 70
     1
102
RTVSPropertyOp19
 70
     1
102
RTVSPropertyOp20
 70
     1
102
RTVSPropertyOp21
 70
     1
102
RTVSPropertyOp22
 70
     1
102
RTVSPropertyOp23
 70
     1
102
RTVSPropertyOp24
 70
     1
102
RTVSPropertyOp25
 70
     1
102
RTVSPropertyOp26
 70
     1
102
RTVSPropertyOp27
 70
     1
102
RTVSPropertyOp28
 70
     1
102
RTVSPropertyOp29
 70
     1
102
RTVSPropertyOp30
 70
     1
102
RTVSPropertyOp31
 70
     1
102
RTVSPropertyOp32
 70
     1
102
RTVSPropertyOp33
 70
     1
102
RTVSPropertyOp34
 70
     1
102
RTVSPropertyOp35
 70
     1
102
RTVSPropertyOp36
 70
     1
102
RTVSPropertyOp37
 70
     1
102
RTVSPropertyOp38
 70
     1
102
RTVSPropertyOp39
 70
     1
102
RTVSPropertyOp40
 70
     1
102
RTVSPropertyOp41
 70
     1
102
RTVSPropertyOp42
 70
     1
102
RTVSPropertyOp43
 70
     1
102
RTVSPropertyOp44
 70
     1
102
RTVSPropertyOp45
 70
     1
102
RTVSPropertyOp46
 70
     1
102
RTVSPropertyOp47
 70
     1
102
RTVSPropertyOp48
 70
     1
102
RTVSPropertyOp49
 70
     1
102
RTVSPropertyOp50
 70
     1
102
RTVSPropertyOp51
 70
     0
102
RTVSPropertyOp52
 70
     0
102
RTVSPropertyOp53
 70
     1
102
RTVSPropertyOp54
 70
     1
102
RTVSPropertyOp55
 70
     1
102
RTVSPropertyOp56
 70
     1
102
RTVSPropertyOp57
 70
     1
102
RTVSPost2010Prop28
280
     0
102
RTVSPost2010PropOp28
 70
     1
102
RTVSPost2010Prop29
280
     1
102
RTVSPost2010PropOp29
 70
     1
102
RTVSPost2010Prop30
280
     1
102
RTVSPost2010PropOp30
 70
     1
102
RTVSPost2010Prop31
280
     0
102
RTVSPost2010PropOp31
 70
     1
102
RTVSPost2010Prop32
280
     0
102
RTVSPost2010PropOp32
 70
     1
102
RTVSPost2010Prop33
280
     0
102
RTVSPost2010PropOp33
 70
     1
102
RTVSPost2010Prop34
280
     0
102
RTVSPost2010PropOp34
 70
     1
102
RTVSPost2010Prop35
280
     0
102
RTVSPost2010PropOp35
 70
     1
102
RTVSPost2010Prop36
280
     0
102
RTVSPost2010PropOp36
 70
     1
102
RTVSPost2010Prop37
 90
       50
102
RTVSPost2010PropOp37
 70
     1
102
RTVSPost2010Prop38
140
0.0
102
RTVSPost2010PropOp38
 70
     1
102
RTVSPost2010Prop39
140
1.0
102
RTVSPost2010PropOp39
 70
     1
102
RTVSPost2010Prop40
 90
        0
102
RTVSPost2010PropOp40
 70
     1
102
RTVSPost2010Prop41ColorIndex
 90
       18
102
RTVSPost2010Prop41ColorRGB
 90
        0
102
RTVSPost2010PropOp41
 70
     1
102
RTVSPost2010Prop42
 90
       50
102
RTVSPost2010PropOp42
 70
     1
102
RTVSPost2010Prop43
 90
        3
102
RTVSPost2010PropOp43
 70
     1
102
RTVSPost2010Prop44ColorIndex
 90
        5
102
RTVSPost2010Prop44ColorRGB
 90
      255
102
RTVSPost2010PropOp44
 70
     1
102
RTVSPost2010Prop45
280
     0
102
RTVSPost2010PropOp45
 70
     1
102
RTVSPost2010Prop46
 90
       50
102
RTVSPost2010PropOp46
 70
     1
102
RTVSPost2010Prop47
 90
       50
102
RTVSPost2010PropOp47
 70
     1
102
RTVSPost2010Prop48
 90
       50
102
RTVSPost2010PropOp48
 70
     1
102
RTVSPost2010Prop49
280
     0
102
RTVSPost2010PropOp49
 70
     1
102
RTVSPost2010Prop50
 90
       50
102
RTVSPost2010PropOp50
 70
     1
102
RTVSPost2010Prop51ColorIndex
 90
      256
102
RTVSPost2010Prop51ColorRGB
 90
-16777216
102
RTVSPost2010PropOp51
 70
     0
102
RTVSPost2010Prop52
140
1.0
102
RTVSPost2010PropOp52
 70
     0
102
RTVSPost2010Prop53
 90
        2
102
RTVSPost2010PropOp53
 70
     1
102
RTVSPost2010Prop54
  1
strokes_ogs.tif
102
RTVSPost2010PropOp54
 70
     1
102
RTVSPost2010Prop55
280
     0
102
RTVSPost2010PropOp55
 70
     1
102
RTVSPost2010Prop56
140
1.0
102
RTVSPost2010PropOp56
 70
     1
102
RTVSPost2010Prop57
140
1.0
102
RTVSPost2010PropOp57
 70
     1
  0
XRECORD
  5
271
102
{ACAD_REACTORS
330
270
102
}
330
270
100
AcDbXrecord
280
     1
102
RTVSPropertyOp0
 70
     0
102
RTVSPropertyOp1
 70
     0
102
RTVSPropertyOp2
 70
     0
102
RTVSPropertyOp3
 70
     0
102
RTVSPropertyOp4
 70
     0
102
RTVSPropertyOp5
 70
     0
102
RTVSPropertyOp6
 70
     0
102
RTVSPropertyOp7
 70
     0
102
RTVSPropertyOp8
 70
     0
102
RTVSPropertyOp9
 70
     0
102
RTVSPropertyOp10
 70
     0
102
RTVSPropertyOp11
 70
     0
102
RTVSPropertyOp12
 70
     0
102
RTVSPropertyOp13
 70
     0
102
RTVSPropertyOp14
 70
     2
102
RTVSPropertyOp15
 70
     0
102
RTVSPropertyOp16
 70
     0
102
RTVSPropertyOp17
 70
     0
102
RTVSPropertyOp18
 70
     0
102
RTVSPropertyOp19
 70
     0
102
RTVSPropertyOp20
 70
     0
102
RTVSPropertyOp21
 70
     0
102
RTVSPropertyOp22
 70
     0
102
RTVSPropertyOp23
 70
     0
102
RTVSPropertyOp24
 70
     0
102
RTVSPropertyOp25
 70
     0
102
RTVSPropertyOp26
 70
     0
102
RTVSPropertyOp27
 70
     0
102
RTVSPropertyOp28
 70
     0
102
RTVSPropertyOp29
 70
     0
102
RTVSPropertyOp30
 70
     0
102
RTVSPropertyOp31
 70
     0
102
RTVSPropertyOp32
 70
     0
102
RTVSPropertyOp33
 70
     0
102
RTVSPropertyOp34
 70
     0
102
RTVSPropertyOp35
 70
     0
102
RTVSPropertyOp36
 70
     0
102
RTVSPropertyOp37
 70
     0
102
RTVSPropertyOp38
 70
     0
102
RTVSPropertyOp39
 70
     0
102
RTVSPropertyOp40
 70
     0
102
RTVSPropertyOp41
 70
     0
102
RTVSPropertyOp42
 70
     0
102
RTVSPropertyOp43
 70
     0
102
RTVSPropertyOp44
 70
     0
102
RTVSPropertyOp45
 70
     0
102
RTVSPropertyOp46
 70
     0
102
RTVSPropertyOp47
 70
     0
102
RTVSPropertyOp48
 70
     0
102
RTVSPropertyOp49
 70
     0
102
RTVSPropertyOp50
 70
     0
102
RTVSPropertyOp51
 70
     0
102
RTVSPropertyOp52
 70
     0
102
RTVSPropertyOp53
 70
     0
102
RTVSPropertyOp54
 70
     0
102
RTVSPropertyOp55
 70
     0
102
RTVSPropertyOp56
 70
     0
102
RTVSPropertyOp57
 70
     0
102
RTVSPost2010Prop28
280
     0
102
RTVSPost2010PropOp28
 70
     0
102
RTVSPost2010Prop29
280
     1
102
RTVSPost2010PropOp29
 70
     0
102
RTVSPost2010Prop30
280
     1
102
RTVSPost2010PropOp30
 70
     0
102
RTVSPost2010Prop31
280
     0
102
RTVSPost2010PropOp31
 70
     0
102
RTVSPost2010Prop32
280
     0
102
RTVSPost2010PropOp32
 70
     0
102
RTVSPost2010Prop33
280
     0
102
RTVSPost2010PropOp33
 70
     0
102
RTVSPost2010Prop34
280
     0
102
RTVSPost2010PropOp34
 70
     0
102
RTVSPost2010Prop35
280
     0
102
RTVSPost2010PropOp35
 70
     0
102
RTVSPost2010Prop36
280
     0
102
RTVSPost2010PropOp36
 70
     0
102
RTVSPost2010Prop37
 90
       50
102
RTVSPost2010PropOp37
 70
     0
102
RTVSPost2010Prop38
140
0.0
102
RTVSPost2010PropOp38
 70
     0
102
RTVSPost2010Prop39
140
1.0
102
RTVSPost2010PropOp39
 70
     0
102
RTVSPost2010Prop40
 90
        0
102
RTVSPost2010PropOp40
 70
     0
102
RTVSPost2010Prop41ColorIndex
 90
       18
102
RTVSPost2010Prop41ColorRGB
 90
        0
102
RTVSPost2010PropOp41
 70
     0
102
RTVSPost2010Prop42
 90
       50
102
RTVSPost2010PropOp42
 70
     0
102
RTVSPost2010Prop43
 90
        3
102
RTVSPost2010PropOp43
 70
     0
102
RTVSPost2010Prop44ColorIndex
 90
        5
102
RTVSPost2010Prop44ColorRGB
 90
      255
102
RTVSPost2010PropOp44
 70
     0
102
RTVSPost2010Prop45
280
     0
102
RTVSPost2010PropOp45
 70
     0
102
RTVSPost2010Prop46
 90
       50
102
RTVSPost2010PropOp46
 70
     0
102
RTVSPost2010Prop47
 90
       50
102
RTVSPost2010PropOp47
 70
     0
102
RTVSPost2010Prop48
 90
       50
102
RTVSPost2010PropOp48
 70
     0
102
RTVSPost2010Prop49
280
     0
102
RTVSPost2010PropOp49
 70
     0
102
RTVSPost2010Prop50
 90
       50
102
RTVSPost2010PropOp50
 70
     0
102
RTVSPost2010Prop51ColorIndex
 90
      256
102
RTVSPost2010Prop51ColorRGB
 90
-16777216
102
RTVSPost2010PropOp51
 70
     0
102
RTVSPost2010Prop52
140
1.0
102
RTVSPost2010PropOp52
 70
     0
102
RTVSPost2010Prop53
 90
        2
102
RTVSPost2010PropOp53
 70
     0
102
RTVSPost2010Prop54
  1
strokes_ogs.tif
102
RTVSPost2010PropOp54
 70
     0
102
RTVSPost2010Prop55
280
     0
102
RTVSPost2010PropOp55
 70
     0
102
RTVSPost2010Prop56
140
1.0
102
RTVSPost2010PropOp56
 70
     0
102
RTVSPost2010Prop57
140
1.0
102
RTVSPost2010PropOp57
 70
     0
  0
XRECORD
  5
26B
102
{ACAD_REACTORS
330
26A
102
}
330
26A
100
AcDbXrecord
280
     1
102
RTVSPropertyOp0
 70
     1
102
RTVSPropertyOp1
 70
     1
102
RTVSPropertyOp2
 70
     1
102
RTVSPropertyOp3
 70
     1
102
RTVSPropertyOp4
 70
     1
102
RTVSPropertyOp5
 70
     1
102
RTVSPropertyOp6
 70
     1
102
RTVSPropertyOp7
 70
     1
102
RTVSPropertyOp8
 70
     1
102
RTVSPropertyOp9
 70
     1
102
RTVSPropertyOp10
 70
     1
102
RTVSPropertyOp11
 70
     1
102
RTVSPropertyOp12
 70
     1
102
RTVSPropertyOp13
 70
     1
102
RTVSPropertyOp14
 70
     1
102
RTVSPropertyOp15
 70
     1
102
RTVSPropertyOp16
 70
     1
102
RTVSPropertyOp17
 70
     1
102
RTVSPropertyOp18
 70
     1
102
RTVSPropertyOp19
 70
     1
102
RTVSPropertyOp20
 70
     1
102
RTVSPropertyOp21
 70
     1
102
RTVSPropertyOp22
 70
     1
102
RTVSPropertyOp23
 70
     1
102
RTVSPropertyOp24
 70
     1
102
RTVSPropertyOp25
 70
     1
102
RTVSPropertyOp26
 70
     1
102
RTVSPropertyOp27
 70
     1
102
RTVSPropertyOp28
 70
     1
102
RTVSPropertyOp29
 70
     1
102
RTVSPropertyOp30
 70
     1
102
RTVSPropertyOp31
 70
     1
102
RTVSPropertyOp32
 70
     1
102
RTVSPropertyOp33
 70
     1
102
RTVSPropertyOp34
 70
     1
102
RTVSPropertyOp35
 70
     1
102
RTVSPropertyOp36
 70
     1
102
RTVSPropertyOp37
 70
     1
102
RTVSPropertyOp38
 70
     1
102
RTVSPropertyOp39
 70
     1
102
RTVSPropertyOp40
 70
     1
102
RTVSPropertyOp41
 70
     1
102
RTVSPropertyOp42
 70
     1
102
RTVSPropertyOp43
 70
     1
102
RTVSPropertyOp44
 70
     1
102
RTVSPropertyOp45
 70
     1
102
RTVSPropertyOp46
 70
     1
102
RTVSPropertyOp47
 70
     1
102
RTVSPropertyOp48
 70
     1
102
RTVSPropertyOp49
 70
     1
102
RTVSPropertyOp50
 70
     1
102
RTVSPropertyOp51
 70
     0
102
RTVSPropertyOp52
 70
     0
102
RTVSPropertyOp53
 70
     1
102
RTVSPropertyOp54
 70
     1
102
RTVSPropertyOp55
 70
     1
102
RTVSPropertyOp56
 70
     1
102
RTVSPropertyOp57
 70
     1
102
RTVSPost2010Prop28
280
     0
102
RTVSPost2010PropOp28
 70
     1
102
RTVSPost2010Prop29
280
     1
102
RTVSPost2010PropOp29
 70
     1
102
RTVSPost2010Prop30
280
     1
102
RTVSPost2010PropOp30
 70
     1
102
RTVSPost2010Prop31
280
     0
102
RTVSPost2010PropOp31
 70
     1
102
RTVSPost2010Prop32
280
     0
102
RTVSPost2010PropOp32
 70
     1
102
RTVSPost2010Prop33
280
     0
102
RTVSPost2010PropOp33
 70
     1
102
RTVSPost2010Prop34
280
     0
102
RTVSPost2010PropOp34
 70
     1
102
RTVSPost2010Prop35
280
     0
102
RTVSPost2010PropOp35
 70
     1
102
RTVSPost2010Prop36
280
     0
102
RTVSPost2010PropOp36
 70
     1
102
RTVSPost2010Prop37
 90
       50
102
RTVSPost2010PropOp37
 70
     1
102
RTVSPost2010Prop38
140
0.0
102
RTVSPost2010PropOp38
 70
     1
102
RTVSPost2010Prop39
140
1.0
102
RTVSPost2010PropOp39
 70
     1
102
RTVSPost2010Prop40
 90
        0
102
RTVSPost2010PropOp40
 70
     1
102
RTVSPost2010Prop41ColorIndex
 90
       18
102
RTVSPost2010Prop41ColorRGB
 90
        0
102
RTVSPost2010PropOp41
 70
     1
102
RTVSPost2010Prop42
 90
       50
102
RTVSPost2010PropOp42
 70
     1
102
RTVSPost2010Prop43
 90
        3
102
RTVSPost2010PropOp43
 70
     1
102
RTVSPost2010Prop44ColorIndex
 90
        5
102
RTVSPost2010Prop44ColorRGB
 90
      255
102
RTVSPost2010PropOp44
 70
     1
102
RTVSPost2010Prop45
280
     0
102
RTVSPost2010PropOp45
 70
     1
102
RTVSPost2010Prop46
 90
       50
102
RTVSPost2010PropOp46
 70
     1
102
RTVSPost2010Prop47
 90
       50
102
RTVSPost2010PropOp47
 70
     1
102
RTVSPost2010Prop48
 90
       50
102
RTVSPost2010PropOp48
 70
     1
102
RTVSPost2010Prop49
280
     0
102
RTVSPost2010PropOp49
 70
     1
102
RTVSPost2010Prop50
 90
       50
102
RTVSPost2010PropOp50
 70
     1
102
RTVSPost2010Prop51ColorIndex
 90
      256
102
RTVSPost2010Prop51ColorRGB
 90
-16777216
102
RTVSPost2010PropOp51
 70
     0
102
RTVSPost2010Prop52
140
1.0
102
RTVSPost2010PropOp52
 70
     0
102
RTVSPost2010Prop53
 90
        2
102
RTVSPost2010PropOp53
 70
     1
102
RTVSPost2010Prop54
  1
strokes_ogs.tif
102
RTVSPost2010PropOp54
 70
     1
102
RTVSPost2010Prop55
280
     0
102
RTVSPost2010PropOp55
 70
     1
102
RTVSPost2010Prop56
140
1.0
102
RTVSPost2010PropOp56
 70
     1
102
RTVSPost2010Prop57
140
1.0
102
RTVSPost2010PropOp57
 70
     1
  0
XRECORD
  5
273
102
{ACAD_REACTORS
330
272
102
}
330
272
100
AcDbXrecord
280
     1
102
RTVSPropertyOp0
 70
     0
102
RTVSPropertyOp1
 70
     0
102
RTVSPropertyOp2
 70
     0
102
RTVSPropertyOp3
 70
     0
102
RTVSPropertyOp4
 70
     0
102
RTVSPropertyOp5
 70
     0
102
RTVSPropertyOp6
 70
     0
102
RTVSPropertyOp7
 70
     0
102
RTVSPropertyOp8
 70
     0
102
RTVSPropertyOp9
 70
     0
102
RTVSPropertyOp10
 70
     0
102
RTVSPropertyOp11
 70
     0
102
RTVSPropertyOp12
 70
     0
102
RTVSPropertyOp13
 70
     0
102
RTVSPropertyOp14
 70
     2
102
RTVSPropertyOp15
 70
     0
102
RTVSPropertyOp16
 70
     0
102
RTVSPropertyOp17
 70
     0
102
RTVSPropertyOp18
 70
     0
102
RTVSPropertyOp19
 70
     0
102
RTVSPropertyOp20
 70
     0
102
RTVSPropertyOp21
 70
     0
102
RTVSPropertyOp22
 70
     0
102
RTVSPropertyOp23
 70
     0
102
RTVSPropertyOp24
 70
     0
102
RTVSPropertyOp25
 70
     0
102
RTVSPropertyOp26
 70
     0
102
RTVSPropertyOp27
 70
     0
102
RTVSPropertyOp28
 70
     0
102
RTVSPropertyOp29
 70
     0
102
RTVSPropertyOp30
 70
     0
102
RTVSPropertyOp31
 70
     0
102
RTVSPropertyOp32
 70
     0
102
RTVSPropertyOp33
 70
     0
102
RTVSPropertyOp34
 70
     0
102
RTVSPropertyOp35
 70
     0
102
RTVSPropertyOp36
 70
     0
102
RTVSPropertyOp37
 70
     0
102
RTVSPropertyOp38
 70
     0
102
RTVSPropertyOp39
 70
     0
102
RTVSPropertyOp40
 70
     0
102
RTVSPropertyOp41
 70
     0
102
RTVSPropertyOp42
 70
     0
102
RTVSPropertyOp43
 70
     0
102
RTVSPropertyOp44
 70
     0
102
RTVSPropertyOp45
 70
     0
102
RTVSPropertyOp46
 70
     0
102
RTVSPropertyOp47
 70
     0
102
RTVSPropertyOp48
 70
     0
102
RTVSPropertyOp49
 70
     0
102
RTVSPropertyOp50
 70
     0
102
RTVSPropertyOp51
 70
     0
102
RTVSPropertyOp52
 70
     0
102
RTVSPropertyOp53
 70
     0
102
RTVSPropertyOp54
 70
     0
102
RTVSPropertyOp55
 70
     0
102
RTVSPropertyOp56
 70
     0
102
RTVSPropertyOp57
 70
     0
102
RTVSPost2010Prop28
280
     0
102
RTVSPost2010PropOp28
 70
     0
102
RTVSPost2010Prop29
280
     1
102
RTVSPost2010PropOp29
 70
     0
102
RTVSPost2010Prop30
280
     1
102
RTVSPost2010PropOp30
 70
     0
102
RTVSPost2010Prop31
280
     0
102
RTVSPost2010PropOp31
 70
     0
102
RTVSPost2010Prop32
280
     0
102
RTVSPost2010PropOp32
 70
     0
102
RTVSPost2010Prop33
280
     0
102
RTVSPost2010PropOp33
 70
     0
102
RTVSPost2010Prop34
280
     0
102
RTVSPost2010PropOp34
 70
     0
102
RTVSPost2010Prop35
280
     0
102
RTVSPost2010PropOp35
 70
     0
102
RTVSPost2010Prop36
280
     0
102
RTVSPost2010PropOp36
 70
     0
102
RTVSPost2010Prop37
 90
       50
102
RTVSPost2010PropOp37
 70
     0
102
RTVSPost2010Prop38
140
0.0
102
RTVSPost2010PropOp38
 70
     0
102
RTVSPost2010Prop39
140
1.0
102
RTVSPost2010PropOp39
 70
     0
102
RTVSPost2010Prop40
 90
        0
102
RTVSPost2010PropOp40
 70
     0
102
RTVSPost2010Prop41ColorIndex
 90
       18
102
RTVSPost2010Prop41ColorRGB
 90
        0
102
RTVSPost2010PropOp41
 70
     0
102
RTVSPost2010Prop42
 90
       50
102
RTVSPost2010PropOp42
 70
     0
102
RTVSPost2010Prop43
 90
        3
102
RTVSPost2010PropOp43
 70
     0
102
RTVSPost2010Prop44ColorIndex
 90
        5
102
RTVSPost2010Prop44ColorRGB
 90
      255
102
RTVSPost2010PropOp44
 70
     0
102
RTVSPost2010Prop45
280
     0
102
RTVSPost2010PropOp45
 70
     0
102
RTVSPost2010Prop46
 90
       50
102
RTVSPost2010PropOp46
 70
     0
102
RTVSPost2010Prop47
 90
       50
102
RTVSPost2010PropOp47
 70
     0
102
RTVSPost2010Prop48
 90
       50
102
RTVSPost2010PropOp48
 70
     0
102
RTVSPost2010Prop49
280
     0
102
RTVSPost2010PropOp49
 70
     0
102
RTVSPost2010Prop50
 90
       50
102
RTVSPost2010PropOp50
 70
     0
102
RTVSPost2010Prop51ColorIndex
 90
      256
102
RTVSPost2010Prop51ColorRGB
 90
-16777216
102
RTVSPost2010PropOp51
 70
     0
102
RTVSPost2010Prop52
140
1.0
102
RTVSPost2010PropOp52
 70
     0
102
RTVSPost2010Prop53
 90
        2
102
RTVSPost2010PropOp53
 70
     0
102
RTVSPost2010Prop54
  1
strokes_ogs.tif
102
RTVSPost2010PropOp54
 70
     0
102
RTVSPost2010Prop55
280
     0
102
RTVSPost2010PropOp55
 70
     0
102
RTVSPost2010Prop56
140
1.0
102
RTVSPost2010PropOp56
 70
     0
102
RTVSPost2010Prop57
140
1.0
102
RTVSPost2010PropOp57
 70
     0
  0
XRECORD
  5
261
102
{ACAD_REACTORS
330
260
102
}
330
260
100
AcDbXrecord
280
     1
102
RTVSPropertyOp0
 70
     1
102
RTVSPropertyOp1
 70
     1
102
RTVSPropertyOp2
 70
     1
102
RTVSPropertyOp3
 70
     1
102
RTVSPropertyOp4
 70
     1
102
RTVSPropertyOp5
 70
     1
102
RTVSPropertyOp6
 70
     1
102
RTVSPropertyOp7
 70
     1
102
RTVSPropertyOp8
 70
     1
102
RTVSPropertyOp9
 70
     1
102
RTVSPropertyOp10
 70
     1
102
RTVSPropertyOp11
 70
     1
102
RTVSPropertyOp12
 70
     1
102
RTVSPropertyOp13
 70
     1
102
RTVSPropertyOp14
 70
     1
102
RTVSPropertyOp15
 70
     1
102
RTVSPropertyOp16
 70
     1
102
RTVSPropertyOp17
 70
     1
102
RTVSPropertyOp18
 70
     1
102
RTVSPropertyOp19
 70
     1
102
RTVSPropertyOp20
 70
     1
102
RTVSPropertyOp21
 70
     1
102
RTVSPropertyOp22
 70
     1
102
RTVSPropertyOp23
 70
     1
102
RTVSPropertyOp24
 70
     1
102
RTVSPropertyOp25
 70
     1
102
RTVSPropertyOp26
 70
     1
102
RTVSPropertyOp27
 70
     1
102
RTVSPropertyOp28
 70
     1
102
RTVSPropertyOp29
 70
     1
102
RTVSPropertyOp30
 70
     1
102
RTVSPropertyOp31
 70
     1
102
RTVSPropertyOp32
 70
     1
102
RTVSPropertyOp33
 70
     1
102
RTVSPropertyOp34
 70
     1
102
RTVSPropertyOp35
 70
     1
102
RTVSPropertyOp36
 70
     1
102
RTVSPropertyOp37
 70
     1
102
RTVSPropertyOp38
 70
     1
102
RTVSPropertyOp39
 70
     1
102
RTVSPropertyOp40
 70
     1
102
RTVSPropertyOp41
 70
     1
102
RTVSPropertyOp42
 70
     1
102
RTVSPropertyOp43
 70
     1
102
RTVSPropertyOp44
 70
     1
102
RTVSPropertyOp45
 70
     1
102
RTVSPropertyOp46
 70
     1
102
RTVSPropertyOp47
 70
     1
102
RTVSPropertyOp48
 70
     1
102
RTVSPropertyOp49
 70
     1
102
RTVSPropertyOp50
 70
     1
102
RTVSPropertyOp51
 70
     0
102
RTVSPropertyOp52
 70
     0
102
RTVSPropertyOp53
 70
     1
102
RTVSPropertyOp54
 70
     1
102
RTVSPropertyOp55
 70
     1
102
RTVSPropertyOp56
 70
     1
102
RTVSPropertyOp57
 70
     1
102
RTVSPost2010Prop28
280
     0
102
RTVSPost2010PropOp28
 70
     1
102
RTVSPost2010Prop29
280
     1
102
RTVSPost2010PropOp29
 70
     1
102
RTVSPost2010Prop30
280
     1
102
RTVSPost2010PropOp30
 70
     1
102
RTVSPost2010Prop31
280
     0
102
RTVSPost2010PropOp31
 70
     1
102
RTVSPost2010Prop32
280
     0
102
RTVSPost2010PropOp32
 70
     1
102
RTVSPost2010Prop33
280
     0
102
RTVSPost2010PropOp33
 70
     1
102
RTVSPost2010Prop34
280
     0
102
RTVSPost2010PropOp34
 70
     1
102
RTVSPost2010Prop35
280
     0
102
RTVSPost2010PropOp35
 70
     1
102
RTVSPost2010Prop36
280
     0
102
RTVSPost2010PropOp36
 70
     1
102
RTVSPost2010Prop37
 90
       50
102
RTVSPost2010PropOp37
 70
     1
102
RTVSPost2010Prop38
140
0.0
102
RTVSPost2010PropOp38
 70
     1
102
RTVSPost2010Prop39
140
1.0
102
RTVSPost2010PropOp39
 70
     1
102
RTVSPost2010Prop40
 90
        0
102
RTVSPost2010PropOp40
 70
     1
102
RTVSPost2010Prop41ColorIndex
 90
       18
102
RTVSPost2010Prop41ColorRGB
 90
        0
102
RTVSPost2010PropOp41
 70
     1
102
RTVSPost2010Prop42
 90
       50
102
RTVSPost2010PropOp42
 70
     1
102
RTVSPost2010Prop43
 90
        3
102
RTVSPost2010PropOp43
 70
     1
102
RTVSPost2010Prop44ColorIndex
 90
        5
102
RTVSPost2010Prop44ColorRGB
 90
      255
102
RTVSPost2010PropOp44
 70
     1
102
RTVSPost2010Prop45
280
     0
102
RTVSPost2010PropOp45
 70
     1
102
RTVSPost2010Prop46
 90
       50
102
RTVSPost2010PropOp46
 70
     1
102
RTVSPost2010Prop47
 90
       50
102
RTVSPost2010PropOp47
 70
     1
102
RTVSPost2010Prop48
 90
       50
102
RTVSPost2010PropOp48
 70
     1
102
RTVSPost2010Prop49
280
     0
102
RTVSPost2010PropOp49
 70
     1
102
RTVSPost2010Prop50
 90
       50
102
RTVSPost2010PropOp50
 70
     1
102
RTVSPost2010Prop51ColorIndex
 90
      256
102
RTVSPost2010Prop51ColorRGB
 90
-16777216
102
RTVSPost2010PropOp51
 70
     0
102
RTVSPost2010Prop52
140
1.0
102
RTVSPost2010PropOp52
 70
     0
102
RTVSPost2010Prop53
 90
        2
102
RTVSPost2010PropOp53
 70
     1
102
RTVSPost2010Prop54
  1
strokes_ogs.tif
102
RTVSPost2010PropOp54
 70
     1
102
RTVSPost2010Prop55
280
     0
102
RTVSPost2010PropOp55
 70
     1
102
RTVSPost2010Prop56
140
1.0
102
RTVSPost2010PropOp56
 70
     1
102
RTVSPost2010Prop57
140
1.0
102
RTVSPost2010PropOp57
 70
     1
  0
XRECORD
  5
27F
102
{ACAD_REACTORS
330
27E
102
}
330
27E
100
AcDbXrecord
280
     1
102
RTVSPropertyOp0
 70
     1
102
RTVSPropertyOp1
 70
     1
102
RTVSPropertyOp2
 70
     1
102
RTVSPropertyOp3
 70
     1
102
RTVSPropertyOp4
 70
     1
102
RTVSPropertyOp5
 70
     1
102
RTVSPropertyOp6
 70
     1
102
RTVSPropertyOp7
 70
     1
102
RTVSPropertyOp8
 70
     1
102
RTVSPropertyOp9
 70
     1
102
RTVSPropertyOp10
 70
     1
102
RTVSPropertyOp11
 70
     1
102
RTVSPropertyOp12
 70
     1
102
RTVSPropertyOp13
 70
     1
102
RTVSPropertyOp14
 70
     1
102
RTVSPropertyOp15
 70
     1
102
RTVSPropertyOp16
 70
     1
102
RTVSPropertyOp17
 70
     1
102
RTVSPropertyOp18
 70
     1
102
RTVSPropertyOp19
 70
     1
102
RTVSPropertyOp20
 70
     1
102
RTVSPropertyOp21
 70
     1
102
RTVSPropertyOp22
 70
     1
102
RTVSPropertyOp23
 70
     1
102
RTVSPropertyOp24
 70
     1
102
RTVSPropertyOp25
 70
     1
102
RTVSPropertyOp26
 70
     1
102
RTVSPropertyOp27
 70
     1
102
RTVSPropertyOp28
 70
     1
102
RTVSPropertyOp29
 70
     1
102
RTVSPropertyOp30
 70
     1
102
RTVSPropertyOp31
 70
     1
102
RTVSPropertyOp32
 70
     1
102
RTVSPropertyOp33
 70
     1
102
RTVSPropertyOp34
 70
     1
102
RTVSPropertyOp35
 70
     1
102
RTVSPropertyOp36
 70
     1
102
RTVSPropertyOp37
 70
     1
102
RTVSPropertyOp38
 70
     1
102
RTVSPropertyOp39
 70
     1
102
RTVSPropertyOp40
 70
     1
102
RTVSPropertyOp41
 70
     1
102
RTVSPropertyOp42
 70
     1
102
RTVSPropertyOp43
 70
     1
102
RTVSPropertyOp44
 70
     1
102
RTVSPropertyOp45
 70
     1
102
RTVSPropertyOp46
 70
     1
102
RTVSPropertyOp47
 70
     1
102
RTVSPropertyOp48
 70
     1
102
RTVSPropertyOp49
 70
     1
102
RTVSPropertyOp50
 70
     1
102
RTVSPropertyOp51
 70
     0
102
RTVSPropertyOp52
 70
     0
102
RTVSPropertyOp53
 70
     1
102
RTVSPropertyOp54
 70
     1
102
RTVSPropertyOp55
 70
     1
102
RTVSPropertyOp56
 70
     1
102
RTVSPropertyOp57
 70
     1
102
RTVSPost2010Prop28
280
     0
102
RTVSPost2010PropOp28
 70
     1
102
RTVSPost2010Prop29
280
     1
102
RTVSPost2010PropOp29
 70
     1
102
RTVSPost2010Prop30
280
     1
102
RTVSPost2010PropOp30
 70
     1
102
RTVSPost2010Prop31
280
     0
102
RTVSPost2010PropOp31
 70
     1
102
RTVSPost2010Prop32
280
     0
102
RTVSPost2010PropOp32
 70
     1
102
RTVSPost2010Prop33
280
     0
102
RTVSPost2010PropOp33
 70
     1
102
RTVSPost2010Prop34
280
     0
102
RTVSPost2010PropOp34
 70
     1
102
RTVSPost2010Prop35
280
     0
102
RTVSPost2010PropOp35
 70
     1
102
RTVSPost2010Prop36
280
     0
102
RTVSPost2010PropOp36
 70
     1
102
RTVSPost2010Prop37
 90
       50
102
RTVSPost2010PropOp37
 70
     1
102
RTVSPost2010Prop38
140
0.0
102
RTVSPost2010PropOp38
 70
     1
102
RTVSPost2010Prop39
140
1.0
102
RTVSPost2010PropOp39
 70
     1
102
RTVSPost2010Prop40
 90
        0
102
RTVSPost2010PropOp40
 70
     1
102
RTVSPost2010Prop41ColorIndex
 90
       18
102
RTVSPost2010Prop41ColorRGB
 90
        0
102
RTVSPost2010PropOp41
 70
     1
102
RTVSPost2010Prop42
 90
       50
102
RTVSPost2010PropOp42
 70
     1
102
RTVSPost2010Prop43
 90
        3
102
RTVSPost2010PropOp43
 70
     1
102
RTVSPost2010Prop44ColorIndex
 90
        5
102
RTVSPost2010Prop44ColorRGB
 90
      255
102
RTVSPost2010PropOp44
 70
     1
102
RTVSPost2010Prop45
280
     0
102
RTVSPost2010PropOp45
 70
     1
102
RTVSPost2010Prop46
 90
       50
102
RTVSPost2010PropOp46
 70
     1
102
RTVSPost2010Prop47
 90
       50
102
RTVSPost2010PropOp47
 70
     1
102
RTVSPost2010Prop48
 90
       50
102
RTVSPost2010PropOp48
 70
     1
102
RTVSPost2010Prop49
280
     0
102
RTVSPost2010PropOp49
 70
     1
102
RTVSPost2010Prop50
 90
       50
102
RTVSPost2010PropOp50
 70
     1
102
RTVSPost2010Prop51ColorIndex
 90
      256
102
RTVSPost2010Prop51ColorRGB
 90
-16777216
102
RTVSPost2010PropOp51
 70
     0
102
RTVSPost2010Prop52
140
1.0
102
RTVSPost2010PropOp52
 70
     0
102
RTVSPost2010Prop53
 90
        2
102
RTVSPost2010PropOp53
 70
     1
102
RTVSPost2010Prop54
  1
strokes_ogs.tif
102
RTVSPost2010PropOp54
 70
     1
102
RTVSPost2010Prop55
280
     0
102
RTVSPost2010PropOp55
 70
     1
102
RTVSPost2010Prop56
140
1.0
102
RTVSPost2010PropOp56
 70
     1
102
RTVSPost2010Prop57
140
1.0
102
RTVSPost2010PropOp57
 70
     1
  0
XRECORD
  5
27D
102
{ACAD_REACTORS
330
27C
102
}
330
27C
100
AcDbXrecord
280
     1
102
RTVSPropertyOp0
 70
     1
102
RTVSPropertyOp1
 70
     1
102
RTVSPropertyOp2
 70
     1
102
RTVSPropertyOp3
 70
     1
102
RTVSPropertyOp4
 70
     1
102
RTVSPropertyOp5
 70
     1
102
RTVSPropertyOp6
 70
     1
102
RTVSPropertyOp7
 70
     1
102
RTVSPropertyOp8
 70
     1
102
RTVSPropertyOp9
 70
     1
102
RTVSPropertyOp10
 70
     1
102
RTVSPropertyOp11
 70
     1
102
RTVSPropertyOp12
 70
     1
102
RTVSPropertyOp13
 70
     1
102
RTVSPropertyOp14
 70
     1
102
RTVSPropertyOp15
 70
     1
102
RTVSPropertyOp16
 70
     1
102
RTVSPropertyOp17
 70
     1
102
RTVSPropertyOp18
 70
     1
102
RTVSPropertyOp19
 70
     1
102
RTVSPropertyOp20
 70
     1
102
RTVSPropertyOp21
 70
     1
102
RTVSPropertyOp22
 70
     1
102
RTVSPropertyOp23
 70
     1
102
RTVSPropertyOp24
 70
     1
102
RTVSPropertyOp25
 70
     1
102
RTVSPropertyOp26
 70
     1
102
RTVSPropertyOp27
 70
     1
102
RTVSPropertyOp28
 70
     1
102
RTVSPropertyOp29
 70
     1
102
RTVSPropertyOp30
 70
     1
102
RTVSPropertyOp31
 70
     1
102
RTVSPropertyOp32
 70
     1
102
RTVSPropertyOp33
 70
     1
102
RTVSPropertyOp34
 70
     1
102
RTVSPropertyOp35
 70
     1
102
RTVSPropertyOp36
 70
     1
102
RTVSPropertyOp37
 70
     1
102
RTVSPropertyOp38
 70
     1
102
RTVSPropertyOp39
 70
     1
102
RTVSPropertyOp40
 70
     1
102
RTVSPropertyOp41
 70
     1
102
RTVSPropertyOp42
 70
     1
102
RTVSPropertyOp43
 70
     1
102
RTVSPropertyOp44
 70
     1
102
RTVSPropertyOp45
 70
     1
102
RTVSPropertyOp46
 70
     1
102
RTVSPropertyOp47
 70
     1
102
RTVSPropertyOp48
 70
     1
102
RTVSPropertyOp49
 70
     1
102
RTVSPropertyOp50
 70
     1
102
RTVSPropertyOp51
 70
     0
102
RTVSPropertyOp52
 70
     0
102
RTVSPropertyOp53
 70
     1
102
RTVSPropertyOp54
 70
     1
102
RTVSPropertyOp55
 70
     1
102
RTVSPropertyOp56
 70
     1
102
RTVSPropertyOp57
 70
     1
102
RTVSPost2010Prop28
280
     0
102
RTVSPost2010PropOp28
 70
     1
102
RTVSPost2010Prop29
280
     1
102
RTVSPost2010PropOp29
 70
     1
102
RTVSPost2010Prop30
280
     1
102
RTVSPost2010PropOp30
 70
     1
102
RTVSPost2010Prop31
280
     0
102
RTVSPost2010PropOp31
 70
     1
102
RTVSPost2010Prop32
280
     0
102
RTVSPost2010PropOp32
 70
     1
102
RTVSPost2010Prop33
280
     0
102
RTVSPost2010PropOp33
 70
     1
102
RTVSPost2010Prop34
280
     0
102
RTVSPost2010PropOp34
 70
     1
102
RTVSPost2010Prop35
280
     0
102
RTVSPost2010PropOp35
 70
     1
102
RTVSPost2010Prop36
280
     0
102
RTVSPost2010PropOp36
 70
     1
102
RTVSPost2010Prop37
 90
       50
102
RTVSPost2010PropOp37
 70
     1
102
RTVSPost2010Prop38
140
0.0
102
RTVSPost2010PropOp38
 70
     1
102
RTVSPost2010Prop39
140
1.0
102
RTVSPost2010PropOp39
 70
     1
102
RTVSPost2010Prop40
 90
        0
102
RTVSPost2010PropOp40
 70
     1
102
RTVSPost2010Prop41ColorIndex
 90
       18
102
RTVSPost2010Prop41ColorRGB
 90
        0
102
RTVSPost2010PropOp41
 70
     1
102
RTVSPost2010Prop42
 90
       50
102
RTVSPost2010PropOp42
 70
     1
102
RTVSPost2010Prop43
 90
        3
102
RTVSPost2010PropOp43
 70
     1
102
RTVSPost2010Prop44ColorIndex
 90
        5
102
RTVSPost2010Prop44ColorRGB
 90
      255
102
RTVSPost2010PropOp44
 70
     1
102
RTVSPost2010Prop45
280
     0
102
RTVSPost2010PropOp45
 70
     1
102
RTVSPost2010Prop46
 90
       50
102
RTVSPost2010PropOp46
 70
     1
102
RTVSPost2010Prop47
 90
       50
102
RTVSPost2010PropOp47
 70
     1
102
RTVSPost2010Prop48
 90
       50
102
RTVSPost2010PropOp48
 70
     1
102
RTVSPost2010Prop49
280
     0
102
RTVSPost2010PropOp49
 70
     1
102
RTVSPost2010Prop50
 90
       50
102
RTVSPost2010PropOp50
 70
     1
102
RTVSPost2010Prop51ColorIndex
 90
      256
102
RTVSPost2010Prop51ColorRGB
 90
-16777216
102
RTVSPost2010PropOp51
 70
     0
102
RTVSPost2010Prop52
140
1.0
102
RTVSPost2010PropOp52
 70
     0
102
RTVSPost2010Prop53
 90
        2
102
RTVSPost2010PropOp53
 70
     1
102
RTVSPost2010Prop54
  1
strokes_ogs.tif
102
RTVSPost2010PropOp54
 70
     1
102
RTVSPost2010Prop55
280
     0
102
RTVSPost2010PropOp55
 70
     1
102
RTVSPost2010Prop56
140
1.0
102
RTVSPost2010PropOp56
 70
     1
102
RTVSPost2010Prop57
140
1.0
102
RTVSPost2010PropOp57
 70
     1
  0
XRECORD
  5
277
102
{ACAD_REACTORS
330
276
102
}
330
276
100
AcDbXrecord
280
     1
102
RTVSPropertyOp0
 70
     1
102
RTVSPropertyOp1
 70
     1
102
RTVSPropertyOp2
 70
     1
102
RTVSPropertyOp3
 70
     1
102
RTVSPropertyOp4
 70
     1
102
RTVSPropertyOp5
 70
     1
102
RTVSPropertyOp6
 70
     1
102
RTVSPropertyOp7
 70
     1
102
RTVSPropertyOp8
 70
     1
102
RTVSPropertyOp9
 70
     1
102
RTVSPropertyOp10
 70
     1
102
RTVSPropertyOp11
 70
     1
102
RTVSPropertyOp12
 70
     1
102
RTVSPropertyOp13
 70
     1
102
RTVSPropertyOp14
 70
     1
102
RTVSPropertyOp15
 70
     1
102
RTVSPropertyOp16
 70
     1
102
RTVSPropertyOp17
 70
     1
102
RTVSPropertyOp18
 70
     1
102
RTVSPropertyOp19
 70
     1
102
RTVSPropertyOp20
 70
     1
102
RTVSPropertyOp21
 70
     1
102
RTVSPropertyOp22
 70
     1
102
RTVSPropertyOp23
 70
     1
102
RTVSPropertyOp24
 70
     1
102
RTVSPropertyOp25
 70
     1
102
RTVSPropertyOp26
 70
     1
102
RTVSPropertyOp27
 70
     1
102
RTVSPropertyOp28
 70
     1
102
RTVSPropertyOp29
 70
     1
102
RTVSPropertyOp30
 70
     1
102
RTVSPropertyOp31
 70
     1
102
RTVSPropertyOp32
 70
     1
102
RTVSPropertyOp33
 70
     1
102
RTVSPropertyOp34
 70
     1
102
RTVSPropertyOp35
 70
     1
102
RTVSPropertyOp36
 70
     1
102
RTVSPropertyOp37
 70
     1
102
RTVSPropertyOp38
 70
     1
102
RTVSPropertyOp39
 70
     1
102
RTVSPropertyOp40
 70
     1
102
RTVSPropertyOp41
 70
     1
102
RTVSPropertyOp42
 70
     1
102
RTVSPropertyOp43
 70
     1
102
RTVSPropertyOp44
 70
     1
102
RTVSPropertyOp45
 70
     1
102
RTVSPropertyOp46
 70
     1
102
RTVSPropertyOp47
 70
     1
102
RTVSPropertyOp48
 70
     1
102
RTVSPropertyOp49
 70
     1
102
RTVSPropertyOp50
 70
     1
102
RTVSPropertyOp51
 70
     0
102
RTVSPropertyOp52
 70
     0
102
RTVSPropertyOp53
 70
     1
102
RTVSPropertyOp54
 70
     1
102
RTVSPropertyOp55
 70
     1
102
RTVSPropertyOp56
 70
     1
102
RTVSPropertyOp57
 70
     1
102
RTVSPost2010Prop28
280
     0
102
RTVSPost2010PropOp28
 70
     1
102
RTVSPost2010Prop29
280
     1
102
RTVSPost2010PropOp29
 70
     1
102
RTVSPost2010Prop30
280
     1
102
RTVSPost2010PropOp30
 70
     1
102
RTVSPost2010Prop31
280
     0
102
RTVSPost2010PropOp31
 70
     1
102
RTVSPost2010Prop32
280
     0
102
RTVSPost2010PropOp32
 70
     1
102
RTVSPost2010Prop33
280
     0
102
RTVSPost2010PropOp33
 70
     1
102
RTVSPost2010Prop34
280
     0
102
RTVSPost2010PropOp34
 70
     1
102
RTVSPost2010Prop35
280
     0
102
RTVSPost2010PropOp35
 70
     1
102
RTVSPost2010Prop36
280
     0
102
RTVSPost2010PropOp36
 70
     1
102
RTVSPost2010Prop37
 90
       50
102
RTVSPost2010PropOp37
 70
     1
102
RTVSPost2010Prop38
140
0.0
102
RTVSPost2010PropOp38
 70
     1
102
RTVSPost2010Prop39
140
1.0
102
RTVSPost2010PropOp39
 70
     1
102
RTVSPost2010Prop40
 90
        0
102
RTVSPost2010PropOp40
 70
     1
102
RTVSPost2010Prop41ColorIndex
 90
       18
102
RTVSPost2010Prop41ColorRGB
 90
        0
102
RTVSPost2010PropOp41
 70
     1
102
RTVSPost2010Prop42
 90
       50
102
RTVSPost2010PropOp42
 70
     1
102
RTVSPost2010Prop43
 90
        3
102
RTVSPost2010PropOp43
 70
     1
102
RTVSPost2010Prop44ColorIndex
 90
        5
102
RTVSPost2010Prop44ColorRGB
 90
      255
102
RTVSPost2010PropOp44
 70
     1
102
RTVSPost2010Prop45
280
     0
102
RTVSPost2010PropOp45
 70
     1
102
RTVSPost2010Prop46
 90
       50
102
RTVSPost2010PropOp46
 70
     1
102
RTVSPost2010Prop47
 90
       50
102
RTVSPost2010PropOp47
 70
     1
102
RTVSPost2010Prop48
 90
       50
102
RTVSPost2010PropOp48
 70
     1
102
RTVSPost2010Prop49
280
     0
102
RTVSPost2010PropOp49
 70
     1
102
RTVSPost2010Prop50
 90
       50
102
RTVSPost2010PropOp50
 70
     1
102
RTVSPost2010Prop51ColorIndex
 90
      256
102
RTVSPost2010Prop51ColorRGB
 90
-16777216
102
RTVSPost2010PropOp51
 70
     0
102
RTVSPost2010Prop52
140
1.0
102
RTVSPost2010PropOp52
 70
     0
102
RTVSPost2010Prop53
 90
        2
102
RTVSPost2010PropOp53
 70
     1
102
RTVSPost2010Prop54
  1
strokes_ogs.tif
102
RTVSPost2010PropOp54
 70
     1
102
RTVSPost2010Prop55
280
     0
102
RTVSPost2010PropOp55
 70
     1
102
RTVSPost2010Prop56
140
1.0
102
RTVSPost2010PropOp56
 70
     1
102
RTVSPost2010Prop57
140
1.0
102
RTVSPost2010PropOp57
 70
     1
  0
XRECORD
  5
279
102
{ACAD_REACTORS
330
278
102
}
330
278
100
AcDbXrecord
280
     1
102
RTVSPropertyOp0
 70
     1
102
RTVSPropertyOp1
 70
     1
102
RTVSPropertyOp2
 70
     1
102
RTVSPropertyOp3
 70
     1
102
RTVSPropertyOp4
 70
     1
102
RTVSPropertyOp5
 70
     1
102
RTVSPropertyOp6
 70
     1
102
RTVSPropertyOp7
 70
     1
102
RTVSPropertyOp8
 70
     1
102
RTVSPropertyOp9
 70
     1
102
RTVSPropertyOp10
 70
     1
102
RTVSPropertyOp11
 70
     1
102
RTVSPropertyOp12
 70
     1
102
RTVSPropertyOp13
 70
     1
102
RTVSPropertyOp14
 70
     1
102
RTVSPropertyOp15
 70
     1
102
RTVSPropertyOp16
 70
     1
102
RTVSPropertyOp17
 70
     1
102
RTVSPropertyOp18
 70
     1
102
RTVSPropertyOp19
 70
     1
102
RTVSPropertyOp20
 70
     1
102
RTVSPropertyOp21
 70
     1
102
RTVSPropertyOp22
 70
     1
102
RTVSPropertyOp23
 70
     1
102
RTVSPropertyOp24
 70
     1
102
RTVSPropertyOp25
 70
     1
102
RTVSPropertyOp26
 70
     1
102
RTVSPropertyOp27
 70
     1
102
RTVSPropertyOp28
 70
     1
102
RTVSPropertyOp29
 70
     1
102
RTVSPropertyOp30
 70
     1
102
RTVSPropertyOp31
 70
     1
102
RTVSPropertyOp32
 70
     1
102
RTVSPropertyOp33
 70
     1
102
RTVSPropertyOp34
 70
     1
102
RTVSPropertyOp35
 70
     1
102
RTVSPropertyOp36
 70
     1
102
RTVSPropertyOp37
 70
     1
102
RTVSPropertyOp38
 70
     1
102
RTVSPropertyOp39
 70
     1
102
RTVSPropertyOp40
 70
     1
102
RTVSPropertyOp41
 70
     1
102
RTVSPropertyOp42
 70
     1
102
RTVSPropertyOp43
 70
     1
102
RTVSPropertyOp44
 70
     1
102
RTVSPropertyOp45
 70
     1
102
RTVSPropertyOp46
 70
     1
102
RTVSPropertyOp47
 70
     1
102
RTVSPropertyOp48
 70
     1
102
RTVSPropertyOp49
 70
     1
102
RTVSPropertyOp50
 70
     1
102
RTVSPropertyOp51
 70
     0
102
RTVSPropertyOp52
 70
     0
102
RTVSPropertyOp53
 70
     1
102
RTVSPropertyOp54
 70
     1
102
RTVSPropertyOp55
 70
     1
102
RTVSPropertyOp56
 70
     1
102
RTVSPropertyOp57
 70
     1
102
RTVSPost2010Prop28
280
     0
102
RTVSPost2010PropOp28
 70
     1
102
RTVSPost2010Prop29
280
     1
102
RTVSPost2010PropOp29
 70
     1
102
RTVSPost2010Prop30
280
     1
102
RTVSPost2010PropOp30
 70
     1
102
RTVSPost2010Prop31
280
     0
102
RTVSPost2010PropOp31
 70
     1
102
RTVSPost2010Prop32
280
     0
102
RTVSPost2010PropOp32
 70
     1
102
RTVSPost2010Prop33
280
     0
102
RTVSPost2010PropOp33
 70
     1
102
RTVSPost2010Prop34
280
     0
102
RTVSPost2010PropOp34
 70
     1
102
RTVSPost2010Prop35
280
     0
102
RTVSPost2010PropOp35
 70
     1
102
RTVSPost2010Prop36
280
     0
102
RTVSPost2010PropOp36
 70
     1
102
RTVSPost2010Prop37
 90
       50
102
RTVSPost2010PropOp37
 70
     1
102
RTVSPost2010Prop38
140
0.0
102
RTVSPost2010PropOp38
 70
     1
102
RTVSPost2010Prop39
140
1.0
102
RTVSPost2010PropOp39
 70
     1
102
RTVSPost2010Prop40
 90
        0
102
RTVSPost2010PropOp40
 70
     1
102
RTVSPost2010Prop41ColorIndex
 90
       18
102
RTVSPost2010Prop41ColorRGB
 90
        0
102
RTVSPost2010PropOp41
 70
     1
102
RTVSPost2010Prop42
 90
       50
102
RTVSPost2010PropOp42
 70
     1
102
RTVSPost2010Prop43
 90
        3
102
RTVSPost2010PropOp43
 70
     1
102
RTVSPost2010Prop44ColorIndex
 90
        5
102
RTVSPost2010Prop44ColorRGB
 90
      255
102
RTVSPost2010PropOp44
 70
     1
102
RTVSPost2010Prop45
280
     0
102
RTVSPost2010PropOp45
 70
     1
102
RTVSPost2010Prop46
 90
       50
102
RTVSPost2010PropOp46
 70
     1
102
RTVSPost2010Prop47
 90
       50
102
RTVSPost2010PropOp47
 70
     1
102
RTVSPost2010Prop48
 90
       50
102
RTVSPost2010PropOp48
 70
     1
102
RTVSPost2010Prop49
280
     0
102
RTVSPost2010PropOp49
 70
     1
102
RTVSPost2010Prop50
 90
       50
102
RTVSPost2010PropOp50
 70
     1
102
RTVSPost2010Prop51ColorIndex
 90
      256
102
RTVSPost2010Prop51ColorRGB
 90
-16777216
102
RTVSPost2010PropOp51
 70
     0
102
RTVSPost2010Prop52
140
1.0
102
RTVSPost2010PropOp52
 70
     0
102
RTVSPost2010Prop53
 90
        2
102
RTVSPost2010PropOp53
 70
     1
102
RTVSPost2010Prop54
  1
strokes_ogs.tif
102
RTVSPost2010PropOp54
 70
     1
102
RTVSPost2010Prop55
280
     0
102
RTVSPost2010PropOp55
 70
     1
102
RTVSPost2010Prop56
140
1.0
102
RTVSPost2010PropOp56
 70
     1
102
RTVSPost2010Prop57
140
1.0
102
RTVSPost2010PropOp57
 70
     1
  0
XRECORD
  5
269
102
{ACAD_REACTORS
330
268
102
}
330
268
100
AcDbXrecord
280
     1
102
RTVSPropertyOp0
 70
     1
102
RTVSPropertyOp1
 70
     1
102
RTVSPropertyOp2
 70
     1
102
RTVSPropertyOp3
 70
     1
102
RTVSPropertyOp4
 70
     1
102
RTVSPropertyOp5
 70
     1
102
RTVSPropertyOp6
 70
     1
102
RTVSPropertyOp7
 70
     1
102
RTVSPropertyOp8
 70
     1
102
RTVSPropertyOp9
 70
     1
102
RTVSPropertyOp10
 70
     1
102
RTVSPropertyOp11
 70
     1
102
RTVSPropertyOp12
 70
     1
102
RTVSPropertyOp13
 70
     1
102
RTVSPropertyOp14
 70
     1
102
RTVSPropertyOp15
 70
     1
102
RTVSPropertyOp16
 70
     1
102
RTVSPropertyOp17
 70
     1
102
RTVSPropertyOp18
 70
     1
102
RTVSPropertyOp19
 70
     1
102
RTVSPropertyOp20
 70
     1
102
RTVSPropertyOp21
 70
     1
102
RTVSPropertyOp22
 70
     1
102
RTVSPropertyOp23
 70
     1
102
RTVSPropertyOp24
 70
     1
102
RTVSPropertyOp25
 70
     1
102
RTVSPropertyOp26
 70
     1
102
RTVSPropertyOp27
 70
     1
102
RTVSPropertyOp28
 70
     1
102
RTVSPropertyOp29
 70
     1
102
RTVSPropertyOp30
 70
     1
102
RTVSPropertyOp31
 70
     1
102
RTVSPropertyOp32
 70
     1
102
RTVSPropertyOp33
 70
     1
102
RTVSPropertyOp34
 70
     1
102
RTVSPropertyOp35
 70
     1
102
RTVSPropertyOp36
 70
     1
102
RTVSPropertyOp37
 70
     1
102
RTVSPropertyOp38
 70
     1
102
RTVSPropertyOp39
 70
     1
102
RTVSPropertyOp40
 70
     1
102
RTVSPropertyOp41
 70
     1
102
RTVSPropertyOp42
 70
     1
102
RTVSPropertyOp43
 70
     1
102
RTVSPropertyOp44
 70
     1
102
RTVSPropertyOp45
 70
     1
102
RTVSPropertyOp46
 70
     1
102
RTVSPropertyOp47
 70
     1
102
RTVSPropertyOp48
 70
     1
102
RTVSPropertyOp49
 70
     1
102
RTVSPropertyOp50
 70
     1
102
RTVSPropertyOp51
 70
     0
102
RTVSPropertyOp52
 70
     0
102
RTVSPropertyOp53
 70
     1
102
RTVSPropertyOp54
 70
     1
102
RTVSPropertyOp55
 70
     1
102
RTVSPropertyOp56
 70
     1
102
RTVSPropertyOp57
 70
     1
102
RTVSPost2010Prop28
280
     0
102
RTVSPost2010PropOp28
 70
     1
102
RTVSPost2010Prop29
280
     1
102
RTVSPost2010PropOp29
 70
     1
102
RTVSPost2010Prop30
280
     1
102
RTVSPost2010PropOp30
 70
     1
102
RTVSPost2010Prop31
280
     0
102
RTVSPost2010PropOp31
 70
     1
102
RTVSPost2010Prop32
280
     0
102
RTVSPost2010PropOp32
 70
     1
102
RTVSPost2010Prop33
280
     0
102
RTVSPost2010PropOp33
 70
     1
102
RTVSPost2010Prop34
280
     0
102
RTVSPost2010PropOp34
 70
     1
102
RTVSPost2010Prop35
280
     0
102
RTVSPost2010PropOp35
 70
     1
102
RTVSPost2010Prop36
280
     0
102
RTVSPost2010PropOp36
 70
     1
102
RTVSPost2010Prop37
 90
       50
102
RTVSPost2010PropOp37
 70
     1
102
RTVSPost2010Prop38
140
0.0
102
RTVSPost2010PropOp38
 70
     1
102
RTVSPost2010Prop39
140
1.0
102
RTVSPost2010PropOp39
 70
     1
102
RTVSPost2010Prop40
 90
        0
102
RTVSPost2010PropOp40
 70
     1
102
RTVSPost2010Prop41ColorIndex
 90
       18
102
RTVSPost2010Prop41ColorRGB
 90
        0
102
RTVSPost2010PropOp41
 70
     1
102
RTVSPost2010Prop42
 90
       50
102
RTVSPost2010PropOp42
 70
     1
102
RTVSPost2010Prop43
 90
        3
102
RTVSPost2010PropOp43
 70
     1
102
RTVSPost2010Prop44ColorIndex
 90
        5
102
RTVSPost2010Prop44ColorRGB
 90
      255
102
RTVSPost2010PropOp44
 70
     1
102
RTVSPost2010Prop45
280
     0
102
RTVSPost2010PropOp45
 70
     1
102
RTVSPost2010Prop46
 90
       50
102
RTVSPost2010PropOp46
 70
     1
102
RTVSPost2010Prop47
 90
       50
102
RTVSPost2010PropOp47
 70
     1
102
RTVSPost2010Prop48
 90
       50
102
RTVSPost2010PropOp48
 70
     1
102
RTVSPost2010Prop49
280
     0
102
RTVSPost2010PropOp49
 70
     1
102
RTVSPost2010Prop50
 90
       50
102
RTVSPost2010PropOp50
 70
     1
102
RTVSPost2010Prop51ColorIndex
 90
      256
102
RTVSPost2010Prop51ColorRGB
 90
-16777216
102
RTVSPost2010PropOp51
 70
     0
102
RTVSPost2010Prop52
140
1.0
102
RTVSPost2010PropOp52
 70
     0
102
RTVSPost2010Prop53
 90
        2
102
RTVSPost2010PropOp53
 70
     1
102
RTVSPost2010Prop54
  1
strokes_ogs.tif
102
RTVSPost2010PropOp54
 70
     1
102
RTVSPost2010Prop55
280
     0
102
RTVSPost2010PropOp55
 70
     1
102
RTVSPost2010Prop56
140
1.0
102
RTVSPost2010PropOp56
 70
     1
102
RTVSPost2010Prop57
140
1.0
102
RTVSPost2010PropOp57
 70
     1
  0
XRECORD
  5
25B
102
{ACAD_REACTORS
330
25A
102
}
330
25A
100
AcDbXrecord
280
     1
102
RTVSPropertyOp0
 70
     1
102
RTVSPropertyOp1
 70
     1
102
RTVSPropertyOp2
 70
     1
102
RTVSPropertyOp3
 70
     1
102
RTVSPropertyOp4
 70
     1
102
RTVSPropertyOp5
 70
     1
102
RTVSPropertyOp6
 70
     1
102
RTVSPropertyOp7
 70
     1
102
RTVSPropertyOp8
 70
     1
102
RTVSPropertyOp9
 70
     1
102
RTVSPropertyOp10
 70
     1
102
RTVSPropertyOp11
 70
     1
102
RTVSPropertyOp12
 70
     1
102
RTVSPropertyOp13
 70
     1
102
RTVSPropertyOp14
 70
     1
102
RTVSPropertyOp15
 70
     1
102
RTVSPropertyOp16
 70
     1
102
RTVSPropertyOp17
 70
     1
102
RTVSPropertyOp18
 70
     1
102
RTVSPropertyOp19
 70
     1
102
RTVSPropertyOp20
 70
     1
102
RTVSPropertyOp21
 70
     1
102
RTVSPropertyOp22
 70
     1
102
RTVSPropertyOp23
 70
     1
102
RTVSPropertyOp24
 70
     1
102
RTVSPropertyOp25
 70
     1
102
RTVSPropertyOp26
 70
     1
102
RTVSPropertyOp27
 70
     1
102
RTVSPropertyOp28
 70
     1
102
RTVSPropertyOp29
 70
     1
102
RTVSPropertyOp30
 70
     1
102
RTVSPropertyOp31
 70
     1
102
RTVSPropertyOp32
 70
     1
102
RTVSPropertyOp33
 70
     1
102
RTVSPropertyOp34
 70
     1
102
RTVSPropertyOp35
 70
     1
102
RTVSPropertyOp36
 70
     1
102
RTVSPropertyOp37
 70
     1
102
RTVSPropertyOp38
 70
     1
102
RTVSPropertyOp39
 70
     1
102
RTVSPropertyOp40
 70
     1
102
RTVSPropertyOp41
 70
     1
102
RTVSPropertyOp42
 70
     1
102
RTVSPropertyOp43
 70
     1
102
RTVSPropertyOp44
 70
     1
102
RTVSPropertyOp45
 70
     1
102
RTVSPropertyOp46
 70
     1
102
RTVSPropertyOp47
 70
     1
102
RTVSPropertyOp48
 70
     1
102
RTVSPropertyOp49
 70
     1
102
RTVSPropertyOp50
 70
     1
102
RTVSPropertyOp51
 70
     0
102
RTVSPropertyOp52
 70
     0
102
RTVSPropertyOp53
 70
     1
102
RTVSPropertyOp54
 70
     1
102
RTVSPropertyOp55
 70
     1
102
RTVSPropertyOp56
 70
     1
102
RTVSPropertyOp57
 70
     1
102
RTVSPost2010Prop28
280
     0
102
RTVSPost2010PropOp28
 70
     1
102
RTVSPost2010Prop29
280
     1
102
RTVSPost2010PropOp29
 70
     1
102
RTVSPost2010Prop30
280
     1
102
RTVSPost2010PropOp30
 70
     1
102
RTVSPost2010Prop31
280
     0
102
RTVSPost2010PropOp31
 70
     1
102
RTVSPost2010Prop32
280
     0
102
RTVSPost2010PropOp32
 70
     1
102
RTVSPost2010Prop33
280
     0
102
RTVSPost2010PropOp33
 70
     1
102
RTVSPost2010Prop34
280
     0
102
RTVSPost2010PropOp34
 70
     1
102
RTVSPost2010Prop35
280
     0
102
RTVSPost2010PropOp35
 70
     1
102
RTVSPost2010Prop36
280
     0
102
RTVSPost2010PropOp36
 70
     1
102
RTVSPost2010Prop37
 90
       50
102
RTVSPost2010PropOp37
 70
     1
102
RTVSPost2010Prop38
140
0.0
102
RTVSPost2010PropOp38
 70
     1
102
RTVSPost2010Prop39
140
1.0
102
RTVSPost2010PropOp39
 70
     1
102
RTVSPost2010Prop40
 90
        0
102
RTVSPost2010PropOp40
 70
     1
102
RTVSPost2010Prop41ColorIndex
 90
       18
102
RTVSPost2010Prop41ColorRGB
 90
        0
102
RTVSPost2010PropOp41
 70
     1
102
RTVSPost2010Prop42
 90
       50
102
RTVSPost2010PropOp42
 70
     1
102
RTVSPost2010Prop43
 90
        3
102
RTVSPost2010PropOp43
 70
     1
102
RTVSPost2010Prop44ColorIndex
 90
        5
102
RTVSPost2010Prop44ColorRGB
 90
      255
102
RTVSPost2010PropOp44
 70
     1
102
RTVSPost2010Prop45
280
     0
102
RTVSPost2010PropOp45
 70
     1
102
RTVSPost2010Prop46
 90
       50
102
RTVSPost2010PropOp46
 70
     1
102
RTVSPost2010Prop47
 90
       50
102
RTVSPost2010PropOp47
 70
     1
102
RTVSPost2010Prop48
 90
       50
102
RTVSPost2010PropOp48
 70
     1
102
RTVSPost2010Prop49
280
     0
102
RTVSPost2010PropOp49
 70
     1
102
RTVSPost2010Prop50
 90
       50
102
RTVSPost2010PropOp50
 70
     1
102
RTVSPost2010Prop51ColorIndex
 90
      256
102
RTVSPost2010Prop51ColorRGB
 90
-16777216
102
RTVSPost2010PropOp51
 70
     0
102
RTVSPost2010Prop52
140
1.0
102
RTVSPost2010PropOp52
 70
     0
102
RTVSPost2010Prop53
 90
        2
102
RTVSPost2010PropOp53
 70
     1
102
RTVSPost2010Prop54
  1
strokes_ogs.tif
102
RTVSPost2010PropOp54
 70
     1
102
RTVSPost2010Prop55
280
     0
102
RTVSPost2010PropOp55
 70
     1
102
RTVSPost2010Prop56
140
1.0
102
RTVSPost2010PropOp56
 70
     1
102
RTVSPost2010Prop57
140
1.0
102
RTVSPost2010PropOp57
 70
     1
  0
XRECORD
  5
27B
102
{ACAD_REACTORS
330
27A
102
}
330
27A
100
AcDbXrecord
280
     1
102
RTVSPropertyOp0
 70
     1
102
RTVSPropertyOp1
 70
     1
102
RTVSPropertyOp2
 70
     1
102
RTVSPropertyOp3
 70
     1
102
RTVSPropertyOp4
 70
     1
102
RTVSPropertyOp5
 70
     1
102
RTVSPropertyOp6
 70
     1
102
RTVSPropertyOp7
 70
     1
102
RTVSPropertyOp8
 70
     1
102
RTVSPropertyOp9
 70
     1
102
RTVSPropertyOp10
 70
     1
102
RTVSPropertyOp11
 70
     1
102
RTVSPropertyOp12
 70
     1
102
RTVSPropertyOp13
 70
     1
102
RTVSPropertyOp14
 70
     1
102
RTVSPropertyOp15
 70
     1
102
RTVSPropertyOp16
 70
     1
102
RTVSPropertyOp17
 70
     1
102
RTVSPropertyOp18
 70
     1
102
RTVSPropertyOp19
 70
     1
102
RTVSPropertyOp20
 70
     1
102
RTVSPropertyOp21
 70
     1
102
RTVSPropertyOp22
 70
     1
102
RTVSPropertyOp23
 70
     1
102
RTVSPropertyOp24
 70
     1
102
RTVSPropertyOp25
 70
     1
102
RTVSPropertyOp26
 70
     1
102
RTVSPropertyOp27
 70
     1
102
RTVSPropertyOp28
 70
     1
102
RTVSPropertyOp29
 70
     1
102
RTVSPropertyOp30
 70
     1
102
RTVSPropertyOp31
 70
     1
102
RTVSPropertyOp32
 70
     1
102
RTVSPropertyOp33
 70
     1
102
RTVSPropertyOp34
 70
     1
102
RTVSPropertyOp35
 70
     1
102
RTVSPropertyOp36
 70
     1
102
RTVSPropertyOp37
 70
     1
102
RTVSPropertyOp38
 70
     1
102
RTVSPropertyOp39
 70
     1
102
RTVSPropertyOp40
 70
     1
102
RTVSPropertyOp41
 70
     1
102
RTVSPropertyOp42
 70
     1
102
RTVSPropertyOp43
 70
     1
102
RTVSPropertyOp44
 70
     1
102
RTVSPropertyOp45
 70
     1
102
RTVSPropertyOp46
 70
     1
102
RTVSPropertyOp47
 70
     1
102
RTVSPropertyOp48
 70
     1
102
RTVSPropertyOp49
 70
     1
102
RTVSPropertyOp50
 70
     1
102
RTVSPropertyOp51
 70
     0
102
RTVSPropertyOp52
 70
     0
102
RTVSPropertyOp53
 70
     1
102
RTVSPropertyOp54
 70
     1
102
RTVSPropertyOp55
 70
     1
102
RTVSPropertyOp56
 70
     1
102
RTVSPropertyOp57
 70
     1
102
RTVSPost2010Prop28
280
     0
102
RTVSPost2010PropOp28
 70
     1
102
RTVSPost2010Prop29
280
     1
102
RTVSPost2010PropOp29
 70
     1
102
RTVSPost2010Prop30
280
     1
102
RTVSPost2010PropOp30
 70
     1
102
RTVSPost2010Prop31
280
     0
102
RTVSPost2010PropOp31
 70
     1
102
RTVSPost2010Prop32
280
     0
102
RTVSPost2010PropOp32
 70
     1
102
RTVSPost2010Prop33
280
     0
102
RTVSPost2010PropOp33
 70
     1
102
RTVSPost2010Prop34
280
     0
102
RTVSPost2010PropOp34
 70
     1
102
RTVSPost2010Prop35
280
     0
102
RTVSPost2010PropOp35
 70
     1
102
RTVSPost2010Prop36
280
     0
102
RTVSPost2010PropOp36
 70
     1
102
RTVSPost2010Prop37
 90
       50
102
RTVSPost2010PropOp37
 70
     1
102
RTVSPost2010Prop38
140
0.0
102
RTVSPost2010PropOp38
 70
     1
102
RTVSPost2010Prop39
140
1.0
102
RTVSPost2010PropOp39
 70
     1
102
RTVSPost2010Prop40
 90
        0
102
RTVSPost2010PropOp40
 70
     1
102
RTVSPost2010Prop41ColorIndex
 90
       18
102
RTVSPost2010Prop41ColorRGB
 90
        0
102
RTVSPost2010PropOp41
 70
     1
102
RTVSPost2010Prop42
 90
       50
102
RTVSPost2010PropOp42
 70
     1
102
RTVSPost2010Prop43
 90
        3
102
RTVSPost2010PropOp43
 70
     1
102
RTVSPost2010Prop44ColorIndex
 90
        5
102
RTVSPost2010Prop44ColorRGB
 90
      255
102
RTVSPost2010PropOp44
 70
     1
102
RTVSPost2010Prop45
280
     0
102
RTVSPost2010PropOp45
 70
     1
102
RTVSPost2010Prop46
 90
       50
102
RTVSPost2010PropOp46
 70
     1
102
RTVSPost2010Prop47
 90
       50
102
RTVSPost2010PropOp47
 70
     1
102
RTVSPost2010Prop48
 90
       50
102
RTVSPost2010PropOp48
 70
     1
102
RTVSPost2010Prop49
280
     0
102
RTVSPost2010PropOp49
 70
     1
102
RTVSPost2010Prop50
 90
       50
102
RTVSPost2010PropOp50
 70
     1
102
RTVSPost2010Prop51ColorIndex
 90
      256
102
RTVSPost2010Prop51ColorRGB
 90
-16777216
102
RTVSPost2010PropOp51
 70
     0
102
RTVSPost2010Prop52
140
1.0
102
RTVSPost2010PropOp52
 70
     0
102
RTVSPost2010Prop53
 90
        2
102
RTVSPost2010PropOp53
 70
     1
102
RTVSPost2010Prop54
  1
strokes_ogs.tif
102
RTVSPost2010PropOp54
 70
     1
102
RTVSPost2010Prop55
280
     0
102
RTVSPost2010PropOp55
 70
     1
102
RTVSPost2010Prop56
140
1.0
102
RTVSPost2010PropOp56
 70
     1
102
RTVSPost2010Prop57
140
1.0
102
RTVSPost2010PropOp57
 70
     1
  0
ENDSEC
  0
EOF
