  0
SECTION
  2
HEADER
  9
$ACADVER
  1
AC1015
  9
$ACADMAINTVER
 70
     6
  9
$DWGCODEPAGE
  3
ANSI_932
  9
$INSBASE
 10
0.0
 20
0.0
 30
0.0
  9
$EXTMIN
 10
-210.0
 20
-148.5
 30
1.000000E+20
  9
$EXTMAX
 10
210.0
 20
148.5
 30
-1.000000E+20
  9
$LIMMIN
 10
-210.0
 20
-148.5
  9
$LIMMAX
 10
210.0
 20
148.5
  9
$ORTHOMODE
 70
     0
  9
$REGENMODE
 70
     1
  9
$FILLMODE
 70
     1
  9
$QTEXTMODE
 70
     0
  9
$MIRRTEXT
 70
     1
  9
$LTSCALE
 40
1.0
  9
$ATTMODE
 70
     1
  9
$TEXTSIZE
 40
0.2
  9
$TRACEWID
 40
0.05
  9
$TEXTSTYLE
  7
STANDARD
  9
$CLAYER
  8
0
  9
$CELTYPE
  6
CONTINUOUS
  9
$CECOLOR
 62
   256
  9
$CELTSCALE
 40
1.0
  9
$DISPSILH
 70
     0
  9
$DIMSCALE
 40
1.0
  9
$DIMASZ
 40
2.0
  9
$DIMEXO
 40
0.5
  9
$DIMDLI
 40
0.38
  9
$DIMRND
 40
0.0
  9
$DIMDLE
 40
0.0
  9
$DIMEXE
 40
2.0
  9
$DIMTP
 40
0.0
  9
$DIMTM
 40
0.0
  9
$DIMTXT
 40
3.0
  9
$DIMCEN
 40
0.09
  9
$DIMTSZ
 40
0.0
  9
$DIMTOL
 70
     0
  9
$DIMLIM
 70
     0
  9
$DIMTIH
 70
     0
  9
$DIMTOH
 70
     0
  9
$DIMSE1
 70
     0
  9
$DIMSE2
 70
     0
  9
$DIMTAD
 70
     1
  9
$DIMZIN
 70
     0
  9
$DIMBLK
  1

  9
$DIMASO
 70
     1
  9
$DIMSHO
 70
     1
  9
$DIMPOST
  1

  9
$DIMAPOST
  1

  9
$DIMALT
 70
     0
  9
$DIMALTD
 70
     2
  9
$DIMALTF
 40
25.4
  9
$DIMLFAC
 40
1.0
  9
$DIMTOFL
 70
     0
  9
$DIMTVP
 40
0.0
  9
$DIMTIX
 70
     0
  9
$DIMSOXD
 70
     0
  9
$DIMSAH
 70
     0
  9
$DIMBLK1
  1

  9
$DIMBLK2
  1

  9
$DIMSTYLE
  2
Standard
  9
$DIMCLRD
 70
     0
  9
$DIMCLRE
 70
     0
  9
$DIMCLRT
 70
     0
  9
$DIMTFAC
 40
1.0
  9
$DIMGAP
 40
0.5
  9
$DIMJUST
 70
     0
  9
$DIMSD1
 70
     0
  9
$DIMSD2
 70
     0
  9
$DIMTOLJ
 70
     1
  9
$DIMTZIN
 70
     0
  9
$DIMALTZ
 70
     0
  9
$DIMALTTZ
 70
     0
  9
$DIMUPT
 70
     0
  9
$DIMDEC
 70
     2
  9
$DIMTDEC
 70
     4
  9
$DIMALTU
 70
     2
  9
$DIMALTTD
 70
     2
  9
$DIMTXSTY
  7
STANDARD
  9
$DIMAUNIT
 70
     0
  9
$DIMADEC
 70
     2
  9
$DIMALTRND
 40
0.0
  9
$DIMAZIN
 70
     0
  9
$DIMDSEP
 70
     0
  9
$DIMATFIT
 70
     3
  9
$DIMFRAC
 70
     0
  9
$DIMLDRBLK
  1

  9
$DIMLUNIT
 70
     2
  9
$DIMLWD
 70
     0
  9
$DIMLWE
 70
     0
  9
$DIMTMOVE
 70
     0
  9
$LUNITS
 70
     2
  9
$LUPREC
 70
     4
  9
$SKETCHINC
 40
0.1
  9
$FILLETRAD
 40
0.0
  9
$AUNITS
 70
     0
  9
$AUPREC
 70
     0
  9
$MENU
  1
acad
  9
$ELEVATION
 40
0.0
  9
$PELEVATION
 40
0.0
  9
$THICKNESS
 40
0.0
  9
$LIMCHECK
 70
     0
  9
$CHAMFERA
 40
0.0
  9
$CHAMFERB
 40
0.0
  9
$CHAMFERC
 40
0.0
  9
$CHAMFERD
 40
0.0
  9
$SKPOLY
 70
     0
  9
$TDCREATE
 40
2448436.000000000
  9
$TDUCREATE
 40
0.000000000
  9
$TDUPDATE
 40
0.000000000
  9
$TDUUPDATE
 40
2447892.625000000
  9
$TDINDWG
 40
0.0000000000
  9
$TDUSRTIMER
 40
0.0000000000
  9
$USRTIMER
 70
     1
  9
$ANGBASE
 50
0.0
  9
$ANGDIR
 70
     0
  9
$PDMODE
 70
     0
  9
$PDSIZE
 40
0.0
  9
$PLINEWID
 40
0.0
  9
$SPLFRAME
 70
     0
  9
$SPLINETYPE
 70
     6
  9
$SPLINESEGS
 70
     8
  9
$HANDSEED
  5
393
  9
$SURFTAB1
 70
     6
  9
$SURFTAB2
 70
     6
  9
$SURFTYPE
 70
     6
  9
$SURFU
 70
     6
  9
$SURFV
 70
     6
  9
$UCSBASE
  2

  9
$UCSNAME
  2

  9
$UCSORG
 10
0.0
 20
0.0
 30
0.0
  9
$UCSXDIR
 10
1.0
 20
0.0
 30
0.0
  9
$UCSYDIR
 10
0.0
 20
1.0
 30
0.0
  9
$UCSORTHOREF
  2

  9
$UCSORTHOVIEW
 70
     0
  9
$UCSORGTOP
 10
0.0
 20
0.0
 30
0.0
  9
$UCSORGBOTTOM
 10
0.0
 20
0.0
 30
0.0
  9
$UCSORGLEFT
 10
0.0
 20
0.0
 30
0.0
  9
$UCSORGRIGHT
 10
0.0
 20
0.0
 30
0.0
  9
$UCSORGFRONT
 10
0.0
 20
0.0
 30
0.0
  9
$UCSORGBACK
 10
0.0
 20
0.0
 30
0.0
  9
$PUCSBASE
  2

  9
$PUCSNAME
  2

  9
$PUCSORG
 10
0.0
 20
0.0
 30
0.0
  9
$PUCSXDIR
 10
1.0
 20
0.0
 30
0.0
  9
$PUCSYDIR
 10
0.0
 20
1.0
 30
0.0
  9
$PUCSORTHOREF
  2

  9
$PUCSORTHOVIEW
 70
     0
  9
$PUCSORGTOP
 10
0.0
 20
0.0
 30
0.0
  9
$PUCSORGBOTTOM
 10
0.0
 20
0.0
 30
0.0
  9
$PUCSORGLEFT
 10
0.0
 20
0.0
 30
0.0
  9
$PUCSORGRIGHT
 10
0.0
 20
0.0
 30
0.0
  9
$PUCSORGFRONT
 10
0.0
 20
0.0
 30
0.0
  9
$PUCSORGBACK
 10
0.0
 20
0.0
 30
0.0
  9
$USERI1
 70
     0
  9
$USERI2
 70
     0
  9
$USERI3
 70
     0
  9
$USERI4
 70
     0
  9
$USERI5
 70
     0
  9
$USERR1
 40
0.0
  9
$USERR2
 40
0.0
  9
$USERR3
 40
0.0
  9
$USERR4
 40
0.0
  9
$USERR5
 40
0.0
  9
$WORLDVIEW
 70
     1
  9
$SHADEDGE
 70
     3
  9
$SHADEDIF
 70
    70
  9
$TILEMODE
 70
     1
  9
$MAXACTVP
 70
    16
  9
$PINSBASE
 10
0.0
 20
0.0
 30
0.0
  9
$PLIMCHECK
 70
     0
  9
$PEXTMIN
 10
1.000000E+20
 20
1.000000E+20
 30
1.000000E+20
  9
$PEXTMAX
 10
-1.000000E+20
 20
-1.000000E+20
 30
-1.000000E+20
  9
$PLIMMIN
 10
0.0
 20
0.0
  9
$PLIMMAX
 10
12.0
 20
9.0
  9
$UNITMODE
 70
     0
  9
$VISRETAIN
 70
     0
  9
$PLINEGEN
 70
     1
  9
$PSLTSCALE
 70
     0
  9
$TREEDEPTH
 70
  3020
  9
$CMLSTYLE
  2
Standard
  9
$CMLJUST
 70
     0
  9
$CMLSCALE
 40
1.0
  9
$PROXYGRAPHICS
 70
     0
  9
$MEASUREMENT
 70
     0
  9
$CELWEIGHT
370
     0
  9
$ENDCAPS
280
     0
  9
$JOINSTYLE
280
     0
  9
$LWDISPLAY
290
     0
  9
$INSUNITS
 70
     0
  9
$HYPERLINKBASE
  1

  9
$STYLESHEET
  1

  9
$XEDIT
290
     1
  9
$CEPSNTYPE
380
     0
  9
$PSTYLEMODE
290
     1
  9
$FINGERPRINTGUID
  2

  9
$VERSIONGUID
  2

  9
$EXTNAMES
290
     1
  9
$PSVPSCALE
 40
0.0
  0
ENDSEC
  0
SECTION
  2
CLASSES
  0
CLASS
  1
LWPOLYLINE
  2
AcDbPolyline
  3
AutoCAD 2000
 90
        0
280
     0
281
     1
  0
CLASS
  1
IMAGE
  2
AcDbRasterImage
  3
ISM
 90
      127
280
     0
281
     1
  0
CLASS
  1
OLE2FRAME
  2
AcDbOle2Frame
  3
AutoCAD 2000
 90
        0
280
     0
281
     1
  0
CLASS
  1
HATCH
  2
AcDbHatch
  3
AutoCAD 2000
 90
        0
280
     0
281
     1
  0
CLASS
  1
DICTIONARYVAR
  2
AcDbDictionaryVar
  3
AutoCAD 2000
 90
        0
280
     0
281
     0
  0
CLASS
  1
RASTERVARIABLES
  2
AcDbRasterVariables
  3
ISM
 90
        0
280
     0
281
     0
  0
CLASS
  1
IMAGEDEF
  2
AcDbRasterImageDef
  3
ISM
 90
        0
280
     0
281
     0
  0
CLASS
  1
IMAGEDEF_REACTOR
  2
AcDbRasterImageDefReactor
  3
ISM
 90
        1
280
     0
281
     0
  0
CLASS
  1
IDBUFFER
  2
AcDbIdBuffer
  3
AutoCAD 2000
 90
        0
280
     0
281
     0
  0
CLASS
  1
SPATIAL_FILTER
  2
AcDbSpatialFilter
  3
AutoCAD 2000
 90
        0
280
     0
281
     0
  0
CLASS
  1
XRECORD
  2
AcDbXrecord
  3
AutoCAD 2000
 90
        0
280
     0
281
     0
  0
CLASS
  1
SORTENTSTABLE
  2
AcDbSortentsTable
  3
AutoCAD 2000
 90
        0
280
     0
281
     0
  0
CLASS
  1
LAYER_INDEX
  2
AcDbLayerIndex
  3
AutoCAD 2000
 90
        0
280
     0
281
     0
  0
CLASS
  1
SPATIAL_INDEX
  2
AcDbSpatialIndex
  3
AutoCAD 2000
 90
        0
280
     0
281
     0
  0
CLASS
  1
OBJECT_PTR
  2
CAseDLPNTableRecord
  3
"ASE-LPNTableRecord"
 90
        1
280
     0
281
     0
  0
CLASS
  1
LAYOUT
  2
AcDbLayout
  3
AutoCAD 2000
 90
        0
280
     0
281
     0
  0
CLASS
  1
PLOTSETTINGS
  2
AcDbPlotSettings
  3
AutoCAD 2000
 90
        0
280
     0
281
     0
  0
CLASS
  1
ACDBDICTIONARYWDFLT
  2
AcDbDictionaryWithDefault
  3
AutoCAD 2000
 90
        0
280
     0
281
     0
  0
CLASS
  1
ACDBPLACEHOLDER
  2
AcDbPlaceHolder
  3
AutoCAD 2000
 90
        0
280
     0
281
     0
  0
CLASS
  1
VBA_PROJECT
  2
AcDbVbaProject
  3
acadvba
 90
        0
280
     0
281
     0
  0
CLASS
  1
WIPEOUT
  2
AcDbWipeout
  3
WipeOut|AutoCAD Express Tool|expresstools@autodesk.com
 90
      127
280
     0
281
     1
  0
CLASS
  1
WIPEOUTVARIABLES
  2
AcDbWipeoutVariables
  3
WipeOut|AutoCAD Express Tool|expresstools@autodesk.com
 90
        0
280
     0
281
     0
  0
CLASS
  1
RTEXT
  2
RText
  3
RText|AutoCAD Express Tool|expresstools@autodesk.com
 90
        0
280
     0
281
     1
  0
CLASS
  1
ARCALIGNEDTEXT
  2
AcDbArcAlignedText
  3
ATEXT|AutoCAD Express Tool|expresstools@autodesk.com
 90
        0
280
     0
281
     1
  0
ENDSEC
  0
SECTION
  2
TABLES
  0
TABLE
  2
VPORT
  5
6
100
AcDbSymbolTable
 70
     1
  0
VPORT
  5
1B
100
AcDbSymbolTableRecord
100
AcDbViewportTableRecord
  2
*ACTIVE
 70
     0
 10
0.0
 20
0.0
 11
1.0
 21
1.0
 12
0.0
 22
0.0
 13
0.0
 23
0.0
 14
1.0
 24
1.0
 15
0.0
 25
0.0
 16
0.0
 26
0.0
 36
1.0
 17
0.0
 27
0.0
 37
0.0
 40
297.0
 41
1.414141
 42
50.0
 43
0.0
 44
0.0
 50
0.0
 51
0.0
 71
     0
 72
   500
 73
     1
 74
     1
 75
     0
 76
     0
 77
     0
 78
     0
281
     0
 65
     0
110
0.0
120
0.0
130
0.0
111
1.0
121
0.0
131
0.0
112
0.0
122
1.0
132
0.0
345
0
346
0
 79
     0
146
0.0
  0
ENDTAB
  0
TABLE
  2
LTYPE
  5
3
100
AcDbSymbolTable
 70
     9
  0
LTYPE
  5
C
100
AcDbSymbolTableRecord
100
AcDbLinetypeTableRecord
  2
ByBlock
 70
    64
  3

 72
    65
 73
     0
 40
0.0
  0
LTYPE
  5
D
100
AcDbSymbolTableRecord
100
AcDbLinetypeTableRecord
  2
ByLayer
 70
    64
  3

 72
    65
 73
     0
 40
0.0
  0
LTYPE
  5
E
100
AcDbSymbolTableRecord
100
AcDbLinetypeTableRecord
  2
CONTINUOUS
 70
     0
  3
Solid line
 72
    65
 73
     0
 40
0.0
  0
LTYPE
  5
F
100
AcDbSymbolTableRecord
100
AcDbLinetypeTableRecord
  2
DASHED
 70
     0
  3
__ __ __ __ __ __ __ __ __ __ __ __ __ __ __
 72
    65
 73
     2
 40
2.0
 49
1.2
 74
     0
 49
-0.8
 74
     0
  0
LTYPE
  5
10
100
AcDbSymbolTableRecord
100
AcDbLinetypeTableRecord
  2
CENTER
 70
     0
  3
____ _ ____ _ ____ _ ____ _ ____ _ ____ _ ____
 72
    65
 73
     4
 40
12.0
 49
9.0
 74
     0
 49
-1.0
 74
     0
 49
1.0
 74
     0
 49
-1.0
 74
     0
  0
LTYPE
  5
11
100
AcDbSymbolTableRecord
100
AcDbLinetypeTableRecord
  2
HIDDEN
 70
     0
  3
_ _ _ _ _ _ _ _ _ _ _ _ _ _ _ _ _ _ _ _ _ _ _
 72
    65
 73
     2
 40
3.2
 49
1.3
 74
     0
 49
-1.9
 74
     0
  0
LTYPE
  5
12
100
AcDbSymbolTableRecord
100
AcDbLinetypeTableRecord
  2
PHANTOM
 70
     0
  3
_____ _ _ _____ _ _ _____ _ _ _____ _ _ _____
 72
    65
 73
     6
 40
12.5
 49
9.0
 74
     0
 49
-1.0
 74
     0
 49
0.5
 74
     0
 49
-0.5
 74
     0
 49
0.5
 74
     0
 49
-1.0
 74
     0
  0
LTYPE
  5
13
100
AcDbSymbolTableRecord
100
AcDbLinetypeTableRecord
  2
DOT
 70
     0
  3
...............................................
 72
    65
 73
     2
 40
1.0
 49
0.5
 74
     0
 49
-0.5
 74
     0
  0
LTYPE
  5
14
100
AcDbSymbolTableRecord
100
AcDbLinetypeTableRecord
  2
DASHDOT
 70
     0
  3
__ . __ . __ . __ . __ . __ . __ . __ . __ . __
 72
    65
 73
     4
 40
8.0
 49
5.0
 74
     0
 49
-1.0
 74
     0
 49
1.0
 74
     0
 49
-1.0
 74
     0
  0
ENDTAB
  0
TABLE
  2
LAYER
  5
1
100
AcDbSymbolTable
 70
     6
  0
LAYER
  5
15
100
AcDbSymbolTableRecord
100
AcDbLayerTableRecord
  2
0
 70
     0
 62
     8
  6
CONTINUOUS
290
     1
370
    -3
390
0
  0
LAYER
  5
16
100
AcDbSymbolTableRecord
100
AcDbLayerTableRecord
  2
1
 70
     0
 62
     2
  6
CONTINUOUS
290
     1
370
    -3
390
0
  0
LAYER
  5
17
100
AcDbSymbolTableRecord
100
AcDbLayerTableRecord
  2
2
 70
     0
 62
     3
  6
CONTINUOUS
290
     1
370
    -3
390
0
  0
LAYER
  5
18
100
AcDbSymbolTableRecord
100
AcDbLayerTableRecord
  2
3
 70
     0
 62
     4
  6
CONTINUOUS
290
     1
370
    -3
390
0
  0
LAYER
  5
19
100
AcDbSymbolTableRecord
100
AcDbLayerTableRecord
  2
4
 70
     0
 62
     1
  6
CONTINUOUS
290
     1
370
    -3
390
0
  0
LAYER
  5
1A
100
AcDbSymbolTableRecord
100
AcDbLayerTableRecord
  2
5
 70
     0
 62
     6
  6
CONTINUOUS
290
     1
370
    -3
390
0
  0
ENDTAB
  0
TABLE
  2
STYLE
  5
2
100
AcDbSymbolTable
 70
     1
  0
STYLE
  5
1D
100
AcDbSymbolTableRecord
100
AcDbTextStyleTableRecord
  2
STANDARD
 70
    64
 40
0.0
 41
1.0
 50
0.0
 71
     0
 42
1.0
  3
txt
  4
BIGFONT
  0
ENDTAB
  0
TABLE
  2
VIEW
  5
4
100
AcDbSymbolTable
 70
     0
  0
ENDTAB
  0
TABLE
  2
UCS
  5
5
100
AcDbSymbolTable
 70
     0
  0
ENDTAB
  0
TABLE
  2
APPID
  5
7
100
AcDbSymbolTable
 70
     1
  0
APPID
  5
1C
100
AcDbSymbolTableRecord
100
AcDbRegAppTableRecord
  2
ACAD
 70
     0
  0
ENDTAB
  0
TABLE
  2
DIMSTYLE
  5
8
100
AcDbSymbolTable
 70
     1
100
AcDbDimStyleTable
 71
     0
  0
DIMSTYLE
105
42
100
AcDbSymbolTableRecord
100
AcDbDimStyleTableRecord
  2
Standard
 70
     0
  3

  4

 40
1.0
 41
2.0
 42
0.5
 43
0.38
 44
2.0
 45
0.0
 46
0.0
 47
0.0
 48
0.0
 71
     0
 72
     0
 73
     0
 74
     0
 75
     0
 76
     0
 77
     1
 78
     0
 79
     0
140
3.0
141
0.09
142
0.0
143
25.4
144
1.0
145
0.0
146
1.0
147
0.5
148
0.0
170
     0
171
     2
172
     0
173
     0
174
     0
175
     0
176
     0
177
     0
178
     0
179
     0
271
     2
272
     4
273
     2
274
     2
275
     0
276
     0
277
     2
278
    46
279
     0
280
     0
281
     0
282
     0
283
     1
284
     0
285
     0
286
     0
288
     0
289
     3
340
1D
341
0
342
0
343
0
344
0
371
    -2
372
    -2
  0
ENDTAB
  0
TABLE
  2
BLOCK_RECORD
  5
3D
100
AcDbSymbolTable
 70
    29
  0
BLOCK_RECORD
  5
3B
100
AcDbSymbolTableRecord
100
AcDbBlockTableRecord
  2
*Model_Space
340
0
  0
BLOCK_RECORD
  5
3C
100
AcDbSymbolTableRecord
100
AcDbBlockTableRecord
  2
*Paper_Space
340
0
  0
BLOCK_RECORD
  5
1E
100
AcDbSymbolTableRecord
100
AcDbBlockTableRecord
  2
*D0
340
0
  0
BLOCK_RECORD
  5
1F
100
AcDbSymbolTableRecord
100
AcDbBlockTableRecord
  2
*D1
340
0
  0
BLOCK_RECORD
  5
20
100
AcDbSymbolTableRecord
100
AcDbBlockTableRecord
  2
*D2
340
0
  0
BLOCK_RECORD
  5
21
100
AcDbSymbolTableRecord
100
AcDbBlockTableRecord
  2
*D3
340
0
  0
BLOCK_RECORD
  5
22
100
AcDbSymbolTableRecord
100
AcDbBlockTableRecord
  2
*D4
340
0
  0
BLOCK_RECORD
  5
23
100
AcDbSymbolTableRecord
100
AcDbBlockTableRecord
  2
*D5
340
0
  0
BLOCK_RECORD
  5
24
100
AcDbSymbolTableRecord
100
AcDbBlockTableRecord
  2
*D6
340
0
  0
BLOCK_RECORD
  5
25
100
AcDbSymbolTableRecord
100
AcDbBlockTableRecord
  2
*D7
340
0
  0
BLOCK_RECORD
  5
26
100
AcDbSymbolTableRecord
100
AcDbBlockTableRecord
  2
*D8
340
0
  0
BLOCK_RECORD
  5
27
100
AcDbSymbolTableRecord
100
AcDbBlockTableRecord
  2
*D9
340
0
  0
BLOCK_RECORD
  5
28
100
AcDbSymbolTableRecord
100
AcDbBlockTableRecord
  2
*D10
340
0
  0
BLOCK_RECORD
  5
29
100
AcDbSymbolTableRecord
100
AcDbBlockTableRecord
  2
*D11
340
0
  0
BLOCK_RECORD
  5
2A
100
AcDbSymbolTableRecord
100
AcDbBlockTableRecord
  2
*D12
340
0
  0
BLOCK_RECORD
  5
2B
100
AcDbSymbolTableRecord
100
AcDbBlockTableRecord
  2
*D13
340
0
  0
BLOCK_RECORD
  5
2C
100
AcDbSymbolTableRecord
100
AcDbBlockTableRecord
  2
*D14
340
0
  0
BLOCK_RECORD
  5
2D
100
AcDbSymbolTableRecord
100
AcDbBlockTableRecord
  2
*D15
340
0
  0
BLOCK_RECORD
  5
2E
100
AcDbSymbolTableRecord
100
AcDbBlockTableRecord
  2
*D16
340
0
  0
BLOCK_RECORD
  5
2F
100
AcDbSymbolTableRecord
100
AcDbBlockTableRecord
  2
*D17
340
0
  0
BLOCK_RECORD
  5
30
100
AcDbSymbolTableRecord
100
AcDbBlockTableRecord
  2
*D18
340
0
  0
BLOCK_RECORD
  5
31
100
AcDbSymbolTableRecord
100
AcDbBlockTableRecord
  2
*D19
340
0
  0
BLOCK_RECORD
  5
32
100
AcDbSymbolTableRecord
100
AcDbBlockTableRecord
  2
*D20
340
0
  0
BLOCK_RECORD
  5
33
100
AcDbSymbolTableRecord
100
AcDbBlockTableRecord
  2
*D21
340
0
  0
BLOCK_RECORD
  5
34
100
AcDbSymbolTableRecord
100
AcDbBlockTableRecord
  2
*D22
340
0
  0
BLOCK_RECORD
  5
35
100
AcDbSymbolTableRecord
100
AcDbBlockTableRecord
  2
*D23
340
0
  0
BLOCK_RECORD
  5
36
100
AcDbSymbolTableRecord
100
AcDbBlockTableRecord
  2
*D24
340
0
  0
BLOCK_RECORD
  5
37
100
AcDbSymbolTableRecord
100
AcDbBlockTableRecord
  2
*D25
340
0
  0
BLOCK_RECORD
  5
38
100
AcDbSymbolTableRecord
100
AcDbBlockTableRecord
  2
*D26
340
0
  0
BLOCK_RECORD
  5
39
100
AcDbSymbolTableRecord
100
AcDbBlockTableRecord
  2
*D27
340
0
  0
BLOCK_RECORD
  5
3A
100
AcDbSymbolTableRecord
100
AcDbBlockTableRecord
  2
*D28
340
0
  0
ENDTAB
  0
ENDSEC
  0
SECTION
  2
BLOCKS
  0
BLOCK
  5
3E
100
AcDbEntity
  8
0
390
0
100
AcDbBlockBegin
  2
*Model_Space
 70
     0
 10
0.0
 20
0.0
 30
0.0
  3
*Model_Space
  1

  0
ENDBLK
  5
3F
100
AcDbEntity
  8
0
390
0
100
AcDbBlockEnd
  0
BLOCK
  5
40
100
AcDbEntity
 67
     1
  8
0
390
0
100
AcDbBlockBegin
  2
*Paper_Space
 70
     0
 10
0.0
 20
0.0
 30
0.0
  3
*Paper_Space
  1

  0
ENDBLK
  5
41
100
AcDbEntity
 67
     1
  8
0
390
0
100
AcDbBlockEnd
  0
BLOCK
  5
272
100
AcDbEntity
  8
2
100
AcDbBlockBegin
  2
*D0
 70
     1
 10
0.0
 20
0.0
 30
0.0
  3
*D0
  1

  0
TEXT
  5
273
100
AcDbEntity
  8
2
370
    18
100
AcDbText
 10
-122.394107
 20
107.887298
 30
0.0
 40
3.0
  1
7
 72
     5
 11
-119.994107
 21
107.887298
 31
0.0
100
AcDbText
  0
LINE
  5
274
100
AcDbEntity
  8
2
370
    25
100
AcDbLine
 10
-124.394107
 20
66.943916
 30
0.0
 11
-124.394107
 21
108.387298
 31
0.0
  0
LINE
  5
275
100
AcDbEntity
  8
2
370
    25
100
AcDbLine
 10
-124.394107
 20
107.387298
 30
0.0
 11
-122.462256
 21
106.869659
 31
0.0
  0
LINE
  5
276
100
AcDbEntity
  8
2
370
    25
100
AcDbLine
 10
-124.394107
 20
107.387298
 30
0.0
 11
-122.462256
 21
107.904936
 31
0.0
  0
LINE
  5
277
100
AcDbEntity
  8
2
370
    25
100
AcDbLine
 10
-124.394107
 20
107.387298
 30
0.0
 11
-117.394107
 21
107.387298
 31
0.0
  0
LINE
  5
278
100
AcDbEntity
  8
2
370
    25
100
AcDbLine
 10
-117.394107
 20
107.387298
 30
0.0
 11
-119.325959
 21
107.904936
 31
0.0
  0
LINE
  5
279
100
AcDbEntity
  8
2
370
    25
100
AcDbLine
 10
-117.394107
 20
107.387298
 30
0.0
 11
-119.325959
 21
106.869659
 31
0.0
  0
LINE
  5
27A
100
AcDbEntity
  8
2
370
    25
100
AcDbLine
 10
-117.394107
 20
91.391332
 30
0.0
 11
-117.394107
 21
108.387298
 31
0.0
  0
ENDBLK
  5
27B
100
AcDbEntity
  8
2
100
AcDbBlockEnd
  0
BLOCK
  5
27C
100
AcDbEntity
  8
2
100
AcDbBlockBegin
  2
*D1
 70
     1
 10
0.0
 20
0.0
 30
0.0
  3
*D1
  1

  0
TEXT
  5
27D
100
AcDbEntity
  8
2
370
    18
100
AcDbText
 10
-132.394107
 20
103.218085
 30
0.0
 40
3.0
  1
4
 72
     5
 11
-129.994107
 21
103.218085
 31
0.0
100
AcDbText
  0
LINE
  5
27E
100
AcDbEntity
  8
2
370
    25
100
AcDbLine
 10
-128.394107
 20
66.943916
 30
0.0
 11
-128.394107
 21
103.718085
 31
0.0
  0
LINE
  5
27F
100
AcDbEntity
  8
2
370
    25
100
AcDbLine
 10
-128.394107
 20
102.718085
 30
0.0
 11
-130.325959
 21
103.235723
 31
0.0
  0
LINE
  5
280
100
AcDbEntity
  8
2
370
    25
100
AcDbLine
 10
-128.394107
 20
102.718085
 30
0.0
 11
-130.325959
 21
102.200447
 31
0.0
  0
LINE
  5
281
100
AcDbEntity
  8
2
370
    25
100
AcDbLine
 10
-136.394107
 20
102.718085
 30
0.0
 11
-124.394107
 21
102.718085
 31
0.0
  0
LINE
  5
282
100
AcDbEntity
  8
2
370
    25
100
AcDbLine
 10
-124.394107
 20
66.943916
 30
0.0
 11
-124.394107
 21
103.718085
 31
0.0
  0
CIRCLE
  5
283
100
AcDbEntity
  8
2
370
    25
100
AcDbCircle
 10
-124.394107
 20
102.718085
 30
0.0
 40
0.5
  0
CIRCLE
  5
284
100
AcDbEntity
  8
2
370
    25
100
AcDbCircle
 10
-124.394107
 20
102.718085
 30
0.0
 40
0.3
  0
ENDBLK
  5
285
100
AcDbEntity
  8
2
100
AcDbBlockEnd
  0
BLOCK
  5
286
100
AcDbEntity
  8
2
100
AcDbBlockBegin
  2
*D2
 70
     1
 10
0.0
 20
0.0
 30
0.0
  3
*D2
  1

  0
TEXT
  5
287
100
AcDbEntity
  8
2
370
    18
100
AcDbText
 10
-119.394107
 20
103.218085
 30
0.0
 40
3.0
  1
1
 72
     5
 11
-116.994107
 21
103.218085
 31
0.0
100
AcDbText
  0
LINE
  5
288
100
AcDbEntity
  8
2
370
    25
100
AcDbLine
 10
-124.394107
 20
66.943916
 30
0.0
 11
-124.394107
 21
103.718085
 31
0.0
  0
LINE
  5
289
100
AcDbEntity
  8
2
370
    25
100
AcDbLine
 10
-124.394107
 20
102.718085
 30
0.0
 11
-115.394107
 21
102.718085
 31
0.0
  0
LINE
  5
28A
100
AcDbEntity
  8
2
370
    25
100
AcDbLine
 10
-123.394107
 20
102.718085
 30
0.0
 11
-121.462256
 21
102.200447
 31
0.0
  0
LINE
  5
28B
100
AcDbEntity
  8
2
370
    25
100
AcDbLine
 10
-123.394107
 20
102.718085
 30
0.0
 11
-121.462256
 21
103.235723
 31
0.0
  0
LINE
  5
28C
100
AcDbEntity
  8
2
370
    25
100
AcDbLine
 10
-123.394107
 20
66.943916
 30
0.0
 11
-123.394107
 21
103.718085
 31
0.0
  0
CIRCLE
  5
28D
100
AcDbEntity
  8
2
370
    25
100
AcDbCircle
 10
-124.394107
 20
102.718085
 30
0.0
 40
0.5
  0
CIRCLE
  5
28E
100
AcDbEntity
  8
2
370
    25
100
AcDbCircle
 10
-124.394107
 20
102.718085
 30
0.0
 40
0.3
  0
ENDBLK
  5
28F
100
AcDbEntity
  8
2
100
AcDbBlockEnd
  0
BLOCK
  5
290
100
AcDbEntity
  8
2
100
AcDbBlockBegin
  2
*D3
 70
     1
 10
0.0
 20
0.0
 30
0.0
  3
*D3
  1

  0
TEXT
  5
291
100
AcDbEntity
  8
2
370
    25
100
AcDbText
 10
-53.228432
 20
46.943915
 30
0.0
 40
3.0
  1
32.6
 50
90.0
 41
2.0
 72
     5
 11
-53.228432
 21
57.743915
 31
0.0
100
AcDbText
  0
LINE
  5
292
100
AcDbEntity
  8
2
370
    25
100
AcDbLine
 10
-66.895415
 20
36.643915
 30
0.0
 11
-51.728432
 21
36.643915
 31
0.0
  0
LINE
  5
293
100
AcDbEntity
  8
2
370
    25
100
AcDbLine
 10
-52.728432
 20
36.643915
 30
0.0
 11
-52.210794
 21
38.575766
 31
0.0
  0
LINE
  5
294
100
AcDbEntity
  8
2
370
    25
100
AcDbLine
 10
-52.728432
 20
36.643915
 30
0.0
 11
-53.24607
 21
38.575766
 31
0.0
  0
LINE
  5
295
100
AcDbEntity
  8
2
370
    25
100
AcDbLine
 10
-52.728432
 20
36.643915
 30
0.0
 11
-52.728432
 21
69.243915
 31
0.0
  0
LINE
  5
296
100
AcDbEntity
  8
2
370
    25
100
AcDbLine
 10
-52.728432
 20
69.243915
 30
0.0
 11
-53.24607
 21
67.312063
 31
0.0
  0
LINE
  5
297
100
AcDbEntity
  8
2
370
    25
100
AcDbLine
 10
-52.728432
 20
69.243915
 30
0.0
 11
-52.210794
 21
67.312063
 31
0.0
  0
LINE
  5
298
100
AcDbEntity
  8
2
370
    25
100
AcDbLine
 10
-66.895415
 20
69.243915
 30
0.0
 11
-51.728432
 21
69.243915
 31
0.0
  0
ENDBLK
  5
299
100
AcDbEntity
  8
2
100
AcDbBlockEnd
  0
BLOCK
  5
29A
100
AcDbEntity
  8
2
100
AcDbBlockBegin
  2
*D4
 70
     1
 10
0.0
 20
0.0
 30
0.0
  3
*D4
  1

  0
TEXT
  5
29B
100
AcDbEntity
  8
2
370
    25
100
AcDbText
 10
-93.954881
 20
49.943916
 30
0.0
 40
3.0
  1
28
 50
90.0
 41
2.0
 72
     5
 11
-93.954881
 21
54.743916
 31
0.0
100
AcDbText
  0
LINE
  5
29C
100
AcDbEntity
  8
2
370
    25
100
AcDbLine
 10
-109.894107
 20
38.943916
 30
0.0
 11
-92.454881
 21
38.943916
 31
0.0
  0
LINE
  5
29D
100
AcDbEntity
  8
2
370
    25
100
AcDbLine
 10
-93.454881
 20
38.943916
 30
0.0
 11
-92.937243
 21
40.875768
 31
0.0
  0
LINE
  5
29E
100
AcDbEntity
  8
2
370
    25
100
AcDbLine
 10
-93.454881
 20
38.943916
 30
0.0
 11
-93.972519
 21
40.875768
 31
0.0
  0
LINE
  5
29F
100
AcDbEntity
  8
2
370
    25
100
AcDbLine
 10
-93.454881
 20
38.943916
 30
0.0
 11
-93.454881
 21
66.943916
 31
0.0
  0
LINE
  5
2A0
100
AcDbEntity
  8
2
370
    25
100
AcDbLine
 10
-93.454881
 20
66.943916
 30
0.0
 11
-93.972519
 21
65.012064
 31
0.0
  0
LINE
  5
2A1
100
AcDbEntity
  8
2
370
    25
100
AcDbLine
 10
-93.454881
 20
66.943916
 30
0.0
 11
-92.937243
 21
65.012064
 31
0.0
  0
LINE
  5
2A2
100
AcDbEntity
  8
2
370
    25
100
AcDbLine
 10
-109.894107
 20
66.943916
 30
0.0
 11
-92.454881
 21
66.943916
 31
0.0
  0
ENDBLK
  5
2A3
100
AcDbEntity
  8
2
100
AcDbBlockEnd
  0
BLOCK
  5
2A4
100
AcDbEntity
  8
2
100
AcDbBlockBegin
  2
*D5
 70
     1
 10
0.0
 20
0.0
 30
0.0
  3
*D5
  1

  0
TEXT
  5
2A5
100
AcDbEntity
  8
2
370
    25
100
AcDbText
 10
-88.647541
 20
49.943916
 30
0.0
 40
3.0
  1
54
 50
90.0
 41
2.0
 72
     5
 11
-88.647541
 21
54.743916
 31
0.0
100
AcDbText
  0
LINE
  5
2A6
100
AcDbEntity
  8
2
370
    25
100
AcDbLine
 10
-110.783016
 20
25.943916
 30
0.0
 11
-87.147541
 21
25.943916
 31
0.0
  0
LINE
  5
2A7
100
AcDbEntity
  8
2
370
    25
100
AcDbLine
 10
-88.147541
 20
25.943916
 30
0.0
 11
-87.629903
 21
27.875768
 31
0.0
  0
LINE
  5
2A8
100
AcDbEntity
  8
2
370
    25
100
AcDbLine
 10
-88.147541
 20
25.943916
 30
0.0
 11
-88.665179
 21
27.875768
 31
0.0
  0
LINE
  5
2A9
100
AcDbEntity
  8
2
370
    25
100
AcDbLine
 10
-88.147541
 20
25.943916
 30
0.0
 11
-88.147541
 21
79.943916
 31
0.0
  0
LINE
  5
2AA
100
AcDbEntity
  8
2
370
    25
100
AcDbLine
 10
-88.147541
 20
79.943916
 30
0.0
 11
-88.665179
 21
78.012064
 31
0.0
  0
LINE
  5
2AB
100
AcDbEntity
  8
2
370
    25
100
AcDbLine
 10
-88.147541
 20
79.943916
 30
0.0
 11
-87.629903
 21
78.012064
 31
0.0
  0
LINE
  5
2AC
100
AcDbEntity
  8
2
370
    25
100
AcDbLine
 10
-110.83776
 20
79.943916
 30
0.0
 11
-87.147541
 21
79.943916
 31
0.0
  0
ENDBLK
  5
2AD
100
AcDbEntity
  8
2
100
AcDbBlockEnd
  0
BLOCK
  5
2AE
100
AcDbEntity
  8
2
100
AcDbBlockBegin
  2
*D6
 70
     1
 10
0.0
 20
0.0
 30
0.0
  3
*D6
  1

  0
TEXT
  5
2AF
100
AcDbEntity
  8
2
370
    25
100
AcDbText
 10
-155.873856
 20
49.943916
 30
0.0
 40
3.0
  1
70
 50
90.0
 41
2.0
 72
     5
 11
-155.873856
 21
54.743916
 31
0.0
100
AcDbText
  0
LINE
  5
2B0
100
AcDbEntity
  8
2
370
    25
100
AcDbLine
 10
-142.394107
 20
17.943916
 30
0.0
 11
-156.373856
 21
17.943916
 31
0.0
  0
LINE
  5
2B1
100
AcDbEntity
  8
2
370
    25
100
AcDbLine
 10
-155.373856
 20
17.943916
 30
0.0
 11
-154.856218
 21
19.875768
 31
0.0
  0
LINE
  5
2B2
100
AcDbEntity
  8
2
370
    25
100
AcDbLine
 10
-155.373856
 20
17.943916
 30
0.0
 11
-155.891494
 21
19.875768
 31
0.0
  0
LINE
  5
2B3
100
AcDbEntity
  8
2
370
    25
100
AcDbLine
 10
-155.373856
 20
17.943916
 30
0.0
 11
-155.373856
 21
87.943916
 31
0.0
  0
LINE
  5
2B4
100
AcDbEntity
  8
2
370
    25
100
AcDbLine
 10
-155.373856
 20
87.943916
 30
0.0
 11
-155.891494
 21
86.012064
 31
0.0
  0
LINE
  5
2B5
100
AcDbEntity
  8
2
370
    25
100
AcDbLine
 10
-155.373856
 20
87.943916
 30
0.0
 11
-154.856218
 21
86.012064
 31
0.0
  0
LINE
  5
2B6
100
AcDbEntity
  8
2
370
    25
100
AcDbLine
 10
-142.394107
 20
87.943916
 30
0.0
 11
-156.373856
 21
87.943916
 31
0.0
  0
ENDBLK
  5
2B7
100
AcDbEntity
  8
2
100
AcDbBlockEnd
  0
BLOCK
  5
2B8
100
AcDbEntity
  8
2
100
AcDbBlockBegin
  2
*D7
 70
     1
 10
0.0
 20
0.0
 30
0.0
  3
*D7
  1

  0
TEXT
  5
2B9
100
AcDbEntity
  8
2
370
    25
100
AcDbText
 10
-112.394107
 20
8.600343
 30
0.0
 40
3.0
  1
16
 41
2.0
 72
     5
 11
-107.594107
 21
8.600343
 31
0.0
100
AcDbText
  0
LINE
  5
2BA
100
AcDbEntity
  8
2
370
    25
100
AcDbLine
 10
-117.394107
 20
13.488676
 30
0.0
 11
-117.394107
 21
7.100343
 31
0.0
  0
LINE
  5
2BB
100
AcDbEntity
  8
2
370
    25
100
AcDbLine
 10
-117.394107
 20
8.100343
 30
0.0
 11
-115.462256
 21
7.582705
 31
0.0
  0
LINE
  5
2BC
100
AcDbEntity
  8
2
370
    25
100
AcDbLine
 10
-117.394107
 20
8.100343
 30
0.0
 11
-115.462256
 21
8.617981
 31
0.0
  0
LINE
  5
2BD
100
AcDbEntity
  8
2
370
    25
100
AcDbLine
 10
-117.394107
 20
8.100343
 30
0.0
 11
-101.394107
 21
8.100343
 31
0.0
  0
LINE
  5
2BE
100
AcDbEntity
  8
2
370
    25
100
AcDbLine
 10
-101.394107
 20
8.100343
 30
0.0
 11
-103.325959
 21
8.617981
 31
0.0
  0
LINE
  5
2BF
100
AcDbEntity
  8
2
370
    25
100
AcDbLine
 10
-101.394107
 20
8.100343
 30
0.0
 11
-103.325959
 21
7.582705
 31
0.0
  0
LINE
  5
2C0
100
AcDbEntity
  8
2
370
    25
100
AcDbLine
 10
-101.394107
 20
17.443916
 30
0.0
 11
-101.394107
 21
7.100343
 31
0.0
  0
ENDBLK
  5
2C1
100
AcDbEntity
  8
2
100
AcDbBlockEnd
  0
BLOCK
  5
2C2
100
AcDbEntity
  8
2
100
AcDbBlockBegin
  2
*D8
 70
     1
 10
0.0
 20
0.0
 30
0.0
  3
*D8
  1

  0
TEXT
  5
2C3
100
AcDbEntity
  8
2
370
    25
100
AcDbText
 10
-137.644107
 20
8.600343
 30
0.0
 40
3.0
  1
28.5
 41
2.0
 72
     5
 11
-126.844107
 21
8.600343
 31
0.0
100
AcDbText
  0
LINE
  5
2C4
100
AcDbEntity
  8
2
370
    25
100
AcDbLine
 10
-145.894107
 20
21.443916
 30
0.0
 11
-145.894107
 21
7.100343
 31
0.0
  0
LINE
  5
2C5
100
AcDbEntity
  8
2
370
    25
100
AcDbLine
 10
-145.894107
 20
8.100343
 30
0.0
 11
-143.962256
 21
7.582705
 31
0.0
  0
LINE
  5
2C6
100
AcDbEntity
  8
2
370
    25
100
AcDbLine
 10
-145.894107
 20
8.100343
 30
0.0
 11
-143.962256
 21
8.617981
 31
0.0
  0
LINE
  5
2C7
100
AcDbEntity
  8
2
370
    25
100
AcDbLine
 10
-145.894107
 20
8.100343
 30
0.0
 11
-117.394107
 21
8.100343
 31
0.0
  0
LINE
  5
2C8
100
AcDbEntity
  8
2
370
    25
100
AcDbLine
 10
-117.394107
 20
8.100343
 30
0.0
 11
-119.325959
 21
8.617981
 31
0.0
  0
LINE
  5
2C9
100
AcDbEntity
  8
2
370
    25
100
AcDbLine
 10
-117.394107
 20
8.100343
 30
0.0
 11
-119.325959
 21
7.582705
 31
0.0
  0
ENDBLK
  5
2CA
100
AcDbEntity
  8
2
100
AcDbBlockEnd
  0
BLOCK
  5
2CB
100
AcDbEntity
  8
2
100
AcDbBlockBegin
  2
*D9
 70
     1
 10
0.0
 20
0.0
 30
0.0
  3
*D9
  1

  0
TEXT
  5
2CC
100
AcDbEntity
  8
2
370
    25
100
AcDbText
 10
-129.644107
 20
2.652205
 30
0.0
 40
3.0
  1
44.5
 41
2.0
 72
     5
 11
-118.844107
 21
2.652205
 31
0.0
100
AcDbText
  0
LINE
  5
2CD
100
AcDbEntity
  8
2
370
    25
100
AcDbLine
 10
-145.894107
 20
21.443916
 30
0.0
 11
-145.894107
 21
1.152205
 31
0.0
  0
LINE
  5
2CE
100
AcDbEntity
  8
2
370
    25
100
AcDbLine
 10
-145.894107
 20
2.152205
 30
0.0
 11
-143.962256
 21
1.634566
 31
0.0
  0
LINE
  5
2CF
100
AcDbEntity
  8
2
370
    25
100
AcDbLine
 10
-145.894107
 20
2.152205
 30
0.0
 11
-143.962256
 21
2.669843
 31
0.0
  0
LINE
  5
2D0
100
AcDbEntity
  8
2
370
    25
100
AcDbLine
 10
-145.894107
 20
2.152205
 30
0.0
 11
-101.394107
 21
2.152205
 31
0.0
  0
LINE
  5
2D1
100
AcDbEntity
  8
2
370
    25
100
AcDbLine
 10
-101.394107
 20
2.152205
 30
0.0
 11
-103.325959
 21
2.669843
 31
0.0
  0
LINE
  5
2D2
100
AcDbEntity
  8
2
370
    25
100
AcDbLine
 10
-101.394107
 20
2.152205
 30
0.0
 11
-103.325959
 21
1.634566
 31
0.0
  0
LINE
  5
2D3
100
AcDbEntity
  8
2
370
    25
100
AcDbLine
 10
-101.394107
 20
17.443916
 30
0.0
 11
-101.394107
 21
1.152205
 31
0.0
  0
ENDBLK
  5
2D4
100
AcDbEntity
  8
2
100
AcDbBlockEnd
  0
BLOCK
  5
2D5
100
AcDbEntity
  8
2
100
AcDbBlockBegin
  2
*D10
 70
     1
 10
0.0
 20
0.0
 30
0.0
  3
*D10
  1

  0
TEXT
  5
2D6
100
AcDbEntity
  8
2
370
    25
100
AcDbText
 10
-95.124753
 20
-22.284803
 30
0.0
 40
3.0
  1
3
 50
90.0
 41
2.0
 72
     5
 11
-95.124753
 21
-20.484803
 31
0.0
100
AcDbText
  0
LINE
  5
2D7
100
AcDbEntity
  8
2
370
    25
100
AcDbLine
 10
-106.144107
 20
-26.284803
 30
0.0
 11
-93.624753
 21
-26.284803
 31
0.0
  0
LINE
  5
2D8
100
AcDbEntity
  8
2
370
    25
100
AcDbLine
 10
-94.624753
 20
-26.284803
 30
0.0
 11
-95.142391
 21
-28.216655
 31
0.0
  0
LINE
  5
2D9
100
AcDbEntity
  8
2
370
    25
100
AcDbLine
 10
-94.624753
 20
-26.284803
 30
0.0
 11
-94.107115
 21
-28.216655
 31
0.0
  0
LINE
  5
2DA
100
AcDbEntity
  8
2
370
    25
100
AcDbLine
 10
-94.624753
 20
-31.284803
 30
0.0
 11
-94.624753
 21
-18.284803
 31
0.0
  0
LINE
  5
2DB
100
AcDbEntity
  8
2
370
    25
100
AcDbLine
 10
-94.624753
 20
-23.284803
 30
0.0
 11
-94.107115
 21
-21.352952
 31
0.0
  0
LINE
  5
2DC
100
AcDbEntity
  8
2
370
    25
100
AcDbLine
 10
-94.624753
 20
-23.284803
 30
0.0
 11
-95.142391
 21
-21.352952
 31
0.0
  0
LINE
  5
2DD
100
AcDbEntity
  8
2
370
    25
100
AcDbLine
 10
-100.894107
 20
-23.284803
 30
0.0
 11
-93.624753
 21
-23.284803
 31
0.0
  0
ENDBLK
  5
2DE
100
AcDbEntity
  8
2
100
AcDbBlockEnd
  0
BLOCK
  5
2DF
100
AcDbEntity
  8
2
100
AcDbBlockBegin
  2
*D11
 70
     1
 10
0.0
 20
0.0
 30
0.0
  3
*D11
  1

  0
TEXT
  5
2E0
100
AcDbEntity
  8
2
370
    25
100
AcDbText
 10
-88.132698
 20
-36.884803
 30
0.0
 40
3.0
  1
15.2
 50
90.0
 41
2.0
 72
     5
 11
-88.132698
 21
-26.084803
 31
0.0
100
AcDbText
  0
LINE
  5
2E1
100
AcDbEntity
  8
2
370
    25
100
AcDbLine
 10
-113.594107
 20
-38.484803
 30
0.0
 11
-86.632698
 21
-38.484803
 31
0.0
  0
LINE
  5
2E2
100
AcDbEntity
  8
2
370
    25
100
AcDbLine
 10
-87.632698
 20
-38.484803
 30
0.0
 11
-87.11506
 21
-36.552952
 31
0.0
  0
LINE
  5
2E3
100
AcDbEntity
  8
2
370
    25
100
AcDbLine
 10
-87.632698
 20
-38.484803
 30
0.0
 11
-88.150336
 21
-36.552952
 31
0.0
  0
LINE
  5
2E4
100
AcDbEntity
  8
2
370
    25
100
AcDbLine
 10
-87.632698
 20
-38.484803
 30
0.0
 11
-87.632698
 21
-23.284803
 31
0.0
  0
LINE
  5
2E5
100
AcDbEntity
  8
2
370
    25
100
AcDbLine
 10
-87.632698
 20
-23.284803
 30
0.0
 11
-88.150336
 21
-25.216655
 31
0.0
  0
LINE
  5
2E6
100
AcDbEntity
  8
2
370
    25
100
AcDbLine
 10
-87.632698
 20
-23.284803
 30
0.0
 11
-87.11506
 21
-25.216655
 31
0.0
  0
LINE
  5
2E7
100
AcDbEntity
  8
2
370
    25
100
AcDbLine
 10
-100.894107
 20
-23.284803
 30
0.0
 11
-86.632698
 21
-23.284803
 31
0.0
  0
ENDBLK
  5
2E8
100
AcDbEntity
  8
2
100
AcDbBlockEnd
  0
BLOCK
  5
2E9
100
AcDbEntity
  8
2
100
AcDbBlockBegin
  2
*D12
 70
     1
 10
0.0
 20
0.0
 30
0.0
  3
*D12
  1

  0
TEXT
  5
2EA
100
AcDbEntity
  8
2
370
    25
100
AcDbText
 10
-152.349182
 20
-22.284803
 30
0.0
 40
3.0
  1
3
 50
90.0
 41
2.0
 72
     5
 11
-152.349182
 21
-20.484803
 31
0.0
100
AcDbText
  0
LINE
  5
2EB
100
AcDbEntity
  8
2
370
    25
100
AcDbLine
 10
-145.331128
 20
-26.284803
 30
0.0
 11
-152.849182
 21
-26.284803
 31
0.0
  0
LINE
  5
2EC
100
AcDbEntity
  8
2
370
    25
100
AcDbLine
 10
-151.849182
 20
-26.284803
 30
0.0
 11
-152.36682
 21
-28.216655
 31
0.0
  0
LINE
  5
2ED
100
AcDbEntity
  8
2
370
    25
100
AcDbLine
 10
-151.849182
 20
-26.284803
 30
0.0
 11
-151.331544
 21
-28.216655
 31
0.0
  0
LINE
  5
2EE
100
AcDbEntity
  8
2
370
    25
100
AcDbLine
 10
-151.849182
 20
-31.284803
 30
0.0
 11
-151.849182
 21
-18.284803
 31
0.0
  0
LINE
  5
2EF
100
AcDbEntity
  8
2
370
    25
100
AcDbLine
 10
-151.849182
 20
-23.284803
 30
0.0
 11
-151.331544
 21
-21.352952
 31
0.0
  0
LINE
  5
2F0
100
AcDbEntity
  8
2
370
    25
100
AcDbLine
 10
-151.849182
 20
-23.284803
 30
0.0
 11
-152.36682
 21
-21.352952
 31
0.0
  0
LINE
  5
2F1
100
AcDbEntity
  8
2
370
    25
100
AcDbLine
 10
-143.906833
 20
-23.284803
 30
0.0
 11
-152.849182
 21
-23.284803
 31
0.0
  0
ENDBLK
  5
2F2
100
AcDbEntity
  8
2
100
AcDbBlockEnd
  0
BLOCK
  5
2F3
100
AcDbEntity
  8
2
100
AcDbBlockBegin
  2
*D13
 70
     1
 10
0.0
 20
0.0
 30
0.0
  3
*D13
  1

  0
TEXT
  5
2F4
100
AcDbEntity
  8
2
370
    25
100
AcDbText
 10
-126.144107
 20
-51.821278
 30
0.0
 40
3.0
  1
18.1
 41
2.0
 72
     5
 11
-115.344107
 21
-51.821278
 31
0.0
100
AcDbText
  0
LINE
  5
2F5
100
AcDbEntity
  8
2
370
    25
100
AcDbLine
 10
-129.194107
 20
-35.984803
 30
0.0
 11
-129.194107
 21
-53.321278
 31
0.0
  0
LINE
  5
2F6
100
AcDbEntity
  8
2
370
    25
100
AcDbLine
 10
-129.194107
 20
-52.321278
 30
0.0
 11
-127.262256
 21
-52.838916
 31
0.0
  0
LINE
  5
2F7
100
AcDbEntity
  8
2
370
    25
100
AcDbLine
 10
-129.194107
 20
-52.321278
 30
0.0
 11
-127.262256
 21
-51.80364
 31
0.0
  0
LINE
  5
2F8
100
AcDbEntity
  8
2
370
    25
100
AcDbLine
 10
-129.194107
 20
-52.321278
 30
0.0
 11
-111.094107
 21
-52.321278
 31
0.0
  0
LINE
  5
2F9
100
AcDbEntity
  8
2
370
    25
100
AcDbLine
 10
-111.094107
 20
-52.321278
 30
0.0
 11
-113.025959
 21
-51.80364
 31
0.0
  0
LINE
  5
2FA
100
AcDbEntity
  8
2
370
    25
100
AcDbLine
 10
-111.094107
 20
-52.321278
 30
0.0
 11
-113.025959
 21
-52.838916
 31
0.0
  0
LINE
  5
2FB
100
AcDbEntity
  8
2
370
    25
100
AcDbLine
 10
-111.094107
 20
-35.984803
 30
0.0
 11
-111.094107
 21
-53.321278
 31
0.0
  0
ENDBLK
  5
2FC
100
AcDbEntity
  8
2
100
AcDbBlockEnd
  0
BLOCK
  5
2FD
100
AcDbEntity
  8
2
100
AcDbBlockBegin
  2
*D14
 70
     1
 10
0.0
 20
0.0
 30
0.0
  3
*D14
  1

  0
TEXT
  5
2FE
100
AcDbEntity
  8
2
370
    18
100
AcDbText
 10
87.605893
 20
107.887298
 30
0.0
 40
3.0
  1
7
 72
     5
 11
90.005893
 21
107.887298
 31
0.0
100
AcDbText
  0
LINE
  5
2FF
100
AcDbEntity
  8
2
370
    25
100
AcDbLine
 10
85.605893
 20
66.943916
 30
0.0
 11
85.605893
 21
108.387298
 31
0.0
  0
LINE
  5
300
100
AcDbEntity
  8
2
370
    25
100
AcDbLine
 10
85.605893
 20
107.387298
 30
0.0
 11
87.537744
 21
106.869659
 31
0.0
  0
LINE
  5
301
100
AcDbEntity
  8
2
370
    25
100
AcDbLine
 10
85.605893
 20
107.387298
 30
0.0
 11
87.537744
 21
107.904936
 31
0.0
  0
LINE
  5
302
100
AcDbEntity
  8
2
370
    25
100
AcDbLine
 10
85.605893
 20
107.387298
 30
0.0
 11
92.605893
 21
107.387298
 31
0.0
  0
LINE
  5
303
100
AcDbEntity
  8
2
370
    25
100
AcDbLine
 10
92.605893
 20
107.387298
 30
0.0
 11
90.674041
 21
107.904936
 31
0.0
  0
LINE
  5
304
100
AcDbEntity
  8
2
370
    25
100
AcDbLine
 10
92.605893
 20
107.387298
 30
0.0
 11
90.674041
 21
106.869659
 31
0.0
  0
LINE
  5
305
100
AcDbEntity
  8
2
370
    25
100
AcDbLine
 10
92.605893
 20
91.391332
 30
0.0
 11
92.605893
 21
108.387298
 31
0.0
  0
ENDBLK
  5
306
100
AcDbEntity
  8
2
100
AcDbBlockEnd
  0
BLOCK
  5
307
100
AcDbEntity
  8
2
100
AcDbBlockBegin
  2
*D15
 70
     1
 10
0.0
 20
0.0
 30
0.0
  3
*D15
  1

  0
TEXT
  5
308
100
AcDbEntity
  8
2
370
    18
100
AcDbText
 10
77.605893
 20
103.218085
 30
0.0
 40
3.0
  1
4
 72
     5
 11
80.005893
 21
103.218085
 31
0.0
100
AcDbText
  0
LINE
  5
309
100
AcDbEntity
  8
2
370
    25
100
AcDbLine
 10
81.605893
 20
66.943916
 30
0.0
 11
81.605893
 21
103.718085
 31
0.0
  0
LINE
  5
30A
100
AcDbEntity
  8
2
370
    25
100
AcDbLine
 10
81.605893
 20
102.718085
 30
0.0
 11
79.674041
 21
103.235723
 31
0.0
  0
LINE
  5
30B
100
AcDbEntity
  8
2
370
    25
100
AcDbLine
 10
81.605893
 20
102.718085
 30
0.0
 11
79.674041
 21
102.200447
 31
0.0
  0
LINE
  5
30C
100
AcDbEntity
  8
2
370
    25
100
AcDbLine
 10
73.605893
 20
102.718085
 30
0.0
 11
85.605893
 21
102.718085
 31
0.0
  0
LINE
  5
30D
100
AcDbEntity
  8
2
370
    25
100
AcDbLine
 10
85.605893
 20
66.943916
 30
0.0
 11
85.605893
 21
103.718085
 31
0.0
  0
CIRCLE
  5
30E
100
AcDbEntity
  8
2
370
    25
100
AcDbCircle
 10
85.605893
 20
102.718085
 30
0.0
 40
0.5
  0
CIRCLE
  5
30F
100
AcDbEntity
  8
2
370
    25
100
AcDbCircle
 10
85.605893
 20
102.718085
 30
0.0
 40
0.3
  0
ENDBLK
  5
310
100
AcDbEntity
  8
2
100
AcDbBlockEnd
  0
BLOCK
  5
311
100
AcDbEntity
  8
2
100
AcDbBlockBegin
  2
*D16
 70
     1
 10
0.0
 20
0.0
 30
0.0
  3
*D16
  1

  0
TEXT
  5
312
100
AcDbEntity
  8
2
370
    18
100
AcDbText
 10
90.605893
 20
103.218085
 30
0.0
 40
3.0
  1
1
 72
     5
 11
93.005893
 21
103.218085
 31
0.0
100
AcDbText
  0
LINE
  5
313
100
AcDbEntity
  8
2
370
    25
100
AcDbLine
 10
85.605893
 20
66.943916
 30
0.0
 11
85.605893
 21
103.718085
 31
0.0
  0
LINE
  5
314
100
AcDbEntity
  8
2
370
    25
100
AcDbLine
 10
85.605893
 20
102.718085
 30
0.0
 11
94.605893
 21
102.718085
 31
0.0
  0
LINE
  5
315
100
AcDbEntity
  8
2
370
    25
100
AcDbLine
 10
86.605893
 20
102.718085
 30
0.0
 11
88.537744
 21
102.200447
 31
0.0
  0
LINE
  5
316
100
AcDbEntity
  8
2
370
    25
100
AcDbLine
 10
86.605893
 20
102.718085
 30
0.0
 11
88.537744
 21
103.235723
 31
0.0
  0
LINE
  5
317
100
AcDbEntity
  8
2
370
    25
100
AcDbLine
 10
86.605893
 20
66.943916
 30
0.0
 11
86.605893
 21
103.718085
 31
0.0
  0
CIRCLE
  5
318
100
AcDbEntity
  8
2
370
    25
100
AcDbCircle
 10
85.605893
 20
102.718085
 30
0.0
 40
0.5
  0
CIRCLE
  5
319
100
AcDbEntity
  8
2
370
    25
100
AcDbCircle
 10
85.605893
 20
102.718085
 30
0.0
 40
0.3
  0
ENDBLK
  5
31A
100
AcDbEntity
  8
2
100
AcDbBlockEnd
  0
BLOCK
  5
31B
100
AcDbEntity
  8
2
100
AcDbBlockBegin
  2
*D17
 70
     1
 10
0.0
 20
0.0
 30
0.0
  3
*D17
  1

  0
TEXT
  5
31C
100
AcDbEntity
  8
2
370
    25
100
AcDbText
 10
156.771568
 20
46.943915
 30
0.0
 40
3.0
  1
32.6
 50
90.0
 41
2.0
 72
     5
 11
156.771568
 21
57.743915
 31
0.0
100
AcDbText
  0
LINE
  5
31D
100
AcDbEntity
  8
2
370
    25
100
AcDbLine
 10
143.104585
 20
36.643915
 30
0.0
 11
158.271568
 21
36.643915
 31
0.0
  0
LINE
  5
31E
100
AcDbEntity
  8
2
370
    25
100
AcDbLine
 10
157.271568
 20
36.643915
 30
0.0
 11
157.789206
 21
38.575766
 31
0.0
  0
LINE
  5
31F
100
AcDbEntity
  8
2
370
    25
100
AcDbLine
 10
157.271568
 20
36.643915
 30
0.0
 11
156.75393
 21
38.575766
 31
0.0
  0
LINE
  5
320
100
AcDbEntity
  8
2
370
    25
100
AcDbLine
 10
157.271568
 20
36.643915
 30
0.0
 11
157.271568
 21
69.243915
 31
0.0
  0
LINE
  5
321
100
AcDbEntity
  8
2
370
    25
100
AcDbLine
 10
157.271568
 20
69.243915
 30
0.0
 11
156.75393
 21
67.312063
 31
0.0
  0
LINE
  5
322
100
AcDbEntity
  8
2
370
    25
100
AcDbLine
 10
157.271568
 20
69.243915
 30
0.0
 11
157.789206
 21
67.312063
 31
0.0
  0
LINE
  5
323
100
AcDbEntity
  8
2
370
    25
100
AcDbLine
 10
143.104585
 20
69.243915
 30
0.0
 11
158.271568
 21
69.243915
 31
0.0
  0
ENDBLK
  5
324
100
AcDbEntity
  8
2
100
AcDbBlockEnd
  0
BLOCK
  5
325
100
AcDbEntity
  8
2
100
AcDbBlockBegin
  2
*D18
 70
     1
 10
0.0
 20
0.0
 30
0.0
  3
*D18
  1

  0
TEXT
  5
326
100
AcDbEntity
  8
2
370
    25
100
AcDbText
 10
116.045119
 20
49.943916
 30
0.0
 40
3.0
  1
28
 50
90.0
 41
2.0
 72
     5
 11
116.045119
 21
54.743916
 31
0.0
100
AcDbText
  0
LINE
  5
327
100
AcDbEntity
  8
2
370
    25
100
AcDbLine
 10
100.105893
 20
38.943916
 30
0.0
 11
117.545119
 21
38.943916
 31
0.0
  0
LINE
  5
328
100
AcDbEntity
  8
2
370
    25
100
AcDbLine
 10
116.545119
 20
38.943916
 30
0.0
 11
117.062757
 21
40.875768
 31
0.0
  0
LINE
  5
329
100
AcDbEntity
  8
2
370
    25
100
AcDbLine
 10
116.545119
 20
38.943916
 30
0.0
 11
116.027481
 21
40.875768
 31
0.0
  0
LINE
  5
32A
100
AcDbEntity
  8
2
370
    25
100
AcDbLine
 10
116.545119
 20
38.943916
 30
0.0
 11
116.545119
 21
66.943916
 31
0.0
  0
LINE
  5
32B
100
AcDbEntity
  8
2
370
    25
100
AcDbLine
 10
116.545119
 20
66.943916
 30
0.0
 11
116.027481
 21
65.012064
 31
0.0
  0
LINE
  5
32C
100
AcDbEntity
  8
2
370
    25
100
AcDbLine
 10
116.545119
 20
66.943916
 30
0.0
 11
117.062757
 21
65.012064
 31
0.0
  0
LINE
  5
32D
100
AcDbEntity
  8
2
370
    25
100
AcDbLine
 10
100.105893
 20
66.943916
 30
0.0
 11
117.545119
 21
66.943916
 31
0.0
  0
ENDBLK
  5
32E
100
AcDbEntity
  8
2
100
AcDbBlockEnd
  0
BLOCK
  5
32F
100
AcDbEntity
  8
2
100
AcDbBlockBegin
  2
*D19
 70
     1
 10
0.0
 20
0.0
 30
0.0
  3
*D19
  1

  0
TEXT
  5
330
100
AcDbEntity
  8
2
370
    25
100
AcDbText
 10
121.352459
 20
49.943916
 30
0.0
 40
3.0
  1
54
 50
90.0
 41
2.0
 72
     5
 11
121.352459
 21
54.743916
 31
0.0
100
AcDbText
  0
LINE
  5
331
100
AcDbEntity
  8
2
370
    25
100
AcDbLine
 10
99.216984
 20
25.943916
 30
0.0
 11
122.852459
 21
25.943916
 31
0.0
  0
LINE
  5
332
100
AcDbEntity
  8
2
370
    25
100
AcDbLine
 10
121.852459
 20
25.943916
 30
0.0
 11
122.370097
 21
27.875768
 31
0.0
  0
LINE
  5
333
100
AcDbEntity
  8
2
370
    25
100
AcDbLine
 10
121.852459
 20
25.943916
 30
0.0
 11
121.334821
 21
27.875768
 31
0.0
  0
LINE
  5
334
100
AcDbEntity
  8
2
370
    25
100
AcDbLine
 10
121.852459
 20
25.943916
 30
0.0
 11
121.852459
 21
79.943916
 31
0.0
  0
LINE
  5
335
100
AcDbEntity
  8
2
370
    25
100
AcDbLine
 10
121.852459
 20
79.943916
 30
0.0
 11
121.334821
 21
78.012064
 31
0.0
  0
LINE
  5
336
100
AcDbEntity
  8
2
370
    25
100
AcDbLine
 10
121.852459
 20
79.943916
 30
0.0
 11
122.370097
 21
78.012064
 31
0.0
  0
LINE
  5
337
100
AcDbEntity
  8
2
370
    25
100
AcDbLine
 10
99.16224
 20
79.943916
 30
0.0
 11
122.852459
 21
79.943916
 31
0.0
  0
ENDBLK
  5
338
100
AcDbEntity
  8
2
100
AcDbBlockEnd
  0
BLOCK
  5
339
100
AcDbEntity
  8
2
100
AcDbBlockBegin
  2
*D20
 70
     1
 10
0.0
 20
0.0
 30
0.0
  3
*D20
  1

  0
TEXT
  5
33A
100
AcDbEntity
  8
2
370
    25
100
AcDbText
 10
54.126144
 20
49.943916
 30
0.0
 40
3.0
  1
70
 50
90.0
 41
2.0
 72
     5
 11
54.126144
 21
54.743916
 31
0.0
100
AcDbText
  0
LINE
  5
33B
100
AcDbEntity
  8
2
370
    25
100
AcDbLine
 10
67.605893
 20
17.943916
 30
0.0
 11
53.626144
 21
17.943916
 31
0.0
  0
LINE
  5
33C
100
AcDbEntity
  8
2
370
    25
100
AcDbLine
 10
54.626144
 20
17.943916
 30
0.0
 11
55.143783
 21
19.875768
 31
0.0
  0
LINE
  5
33D
100
AcDbEntity
  8
2
370
    25
100
AcDbLine
 10
54.626144
 20
17.943916
 30
0.0
 11
54.108506
 21
19.875768
 31
0.0
  0
LINE
  5
33E
100
AcDbEntity
  8
2
370
    25
100
AcDbLine
 10
54.626144
 20
17.943916
 30
0.0
 11
54.626144
 21
87.943916
 31
0.0
  0
LINE
  5
33F
100
AcDbEntity
  8
2
370
    25
100
AcDbLine
 10
54.626144
 20
87.943916
 30
0.0
 11
54.108506
 21
86.012064
 31
0.0
  0
LINE
  5
340
100
AcDbEntity
  8
2
370
    25
100
AcDbLine
 10
54.626144
 20
87.943916
 30
0.0
 11
55.143783
 21
86.012064
 31
0.0
  0
LINE
  5
341
100
AcDbEntity
  8
2
370
    25
100
AcDbLine
 10
67.605893
 20
87.943916
 30
0.0
 11
53.626144
 21
87.943916
 31
0.0
  0
ENDBLK
  5
342
100
AcDbEntity
  8
2
100
AcDbBlockEnd
  0
BLOCK
  5
343
100
AcDbEntity
  8
2
100
AcDbBlockBegin
  2
*D21
 70
     1
 10
0.0
 20
0.0
 30
0.0
  3
*D21
  1

  0
TEXT
  5
344
100
AcDbEntity
  8
2
370
    25
100
AcDbText
 10
97.605893
 20
8.600343
 30
0.0
 40
3.0
  1
16
 41
2.0
 72
     5
 11
102.405893
 21
8.600343
 31
0.0
100
AcDbText
  0
LINE
  5
345
100
AcDbEntity
  8
2
370
    25
100
AcDbLine
 10
92.605893
 20
13.488676
 30
0.0
 11
92.605893
 21
7.100343
 31
0.0
  0
LINE
  5
346
100
AcDbEntity
  8
2
370
    25
100
AcDbLine
 10
92.605893
 20
8.100343
 30
0.0
 11
94.537744
 21
7.582705
 31
0.0
  0
LINE
  5
347
100
AcDbEntity
  8
2
370
    25
100
AcDbLine
 10
92.605893
 20
8.100343
 30
0.0
 11
94.537744
 21
8.617981
 31
0.0
  0
LINE
  5
348
100
AcDbEntity
  8
2
370
    25
100
AcDbLine
 10
92.605893
 20
8.100343
 30
0.0
 11
108.605893
 21
8.100343
 31
0.0
  0
LINE
  5
349
100
AcDbEntity
  8
2
370
    25
100
AcDbLine
 10
108.605893
 20
8.100343
 30
0.0
 11
106.674041
 21
8.617981
 31
0.0
  0
LINE
  5
34A
100
AcDbEntity
  8
2
370
    25
100
AcDbLine
 10
108.605893
 20
8.100343
 30
0.0
 11
106.674041
 21
7.582705
 31
0.0
  0
LINE
  5
34B
100
AcDbEntity
  8
2
370
    25
100
AcDbLine
 10
108.605893
 20
17.443916
 30
0.0
 11
108.605893
 21
7.100343
 31
0.0
  0
ENDBLK
  5
34C
100
AcDbEntity
  8
2
100
AcDbBlockEnd
  0
BLOCK
  5
34D
100
AcDbEntity
  8
2
100
AcDbBlockBegin
  2
*D22
 70
     1
 10
0.0
 20
0.0
 30
0.0
  3
*D22
  1

  0
TEXT
  5
34E
100
AcDbEntity
  8
2
370
    25
100
AcDbText
 10
72.355893
 20
8.600343
 30
0.0
 40
3.0
  1
28.5
 41
2.0
 72
     5
 11
83.155893
 21
8.600343
 31
0.0
100
AcDbText
  0
LINE
  5
34F
100
AcDbEntity
  8
2
370
    25
100
AcDbLine
 10
64.105893
 20
21.443916
 30
0.0
 11
64.105893
 21
7.100343
 31
0.0
  0
LINE
  5
350
100
AcDbEntity
  8
2
370
    25
100
AcDbLine
 10
64.105893
 20
8.100343
 30
0.0
 11
66.037744
 21
7.582705
 31
0.0
  0
LINE
  5
351
100
AcDbEntity
  8
2
370
    25
100
AcDbLine
 10
64.105893
 20
8.100343
 30
0.0
 11
66.037744
 21
8.617981
 31
0.0
  0
LINE
  5
352
100
AcDbEntity
  8
2
370
    25
100
AcDbLine
 10
64.105893
 20
8.100343
 30
0.0
 11
92.605893
 21
8.100343
 31
0.0
  0
LINE
  5
353
100
AcDbEntity
  8
2
370
    25
100
AcDbLine
 10
92.605893
 20
8.100343
 30
0.0
 11
90.674041
 21
8.617981
 31
0.0
  0
LINE
  5
354
100
AcDbEntity
  8
2
370
    25
100
AcDbLine
 10
92.605893
 20
8.100343
 30
0.0
 11
90.674041
 21
7.582705
 31
0.0
  0
ENDBLK
  5
355
100
AcDbEntity
  8
2
100
AcDbBlockEnd
  0
BLOCK
  5
356
100
AcDbEntity
  8
2
100
AcDbBlockBegin
  2
*D23
 70
     1
 10
0.0
 20
0.0
 30
0.0
  3
*D23
  1

  0
TEXT
  5
357
100
AcDbEntity
  8
2
370
    25
100
AcDbText
 10
114.875247
 20
-22.284803
 30
0.0
 40
3.0
  1
3
 50
90.0
 41
2.0
 72
     5
 11
114.875247
 21
-20.484803
 31
0.0
100
AcDbText
  0
LINE
  5
358
100
AcDbEntity
  8
2
370
    25
100
AcDbLine
 10
103.855893
 20
-26.284803
 30
0.0
 11
116.375247
 21
-26.284803
 31
0.0
  0
LINE
  5
359
100
AcDbEntity
  8
2
370
    25
100
AcDbLine
 10
115.375247
 20
-26.284803
 30
0.0
 11
114.857609
 21
-28.216655
 31
0.0
  0
LINE
  5
35A
100
AcDbEntity
  8
2
370
    25
100
AcDbLine
 10
115.375247
 20
-26.284803
 30
0.0
 11
115.892885
 21
-28.216655
 31
0.0
  0
LINE
  5
35B
100
AcDbEntity
  8
2
370
    25
100
AcDbLine
 10
115.375247
 20
-31.284803
 30
0.0
 11
115.375247
 21
-18.284803
 31
0.0
  0
LINE
  5
35C
100
AcDbEntity
  8
2
370
    25
100
AcDbLine
 10
115.375247
 20
-23.284803
 30
0.0
 11
115.892885
 21
-21.352952
 31
0.0
  0
LINE
  5
35D
100
AcDbEntity
  8
2
370
    25
100
AcDbLine
 10
115.375247
 20
-23.284803
 30
0.0
 11
114.857609
 21
-21.352952
 31
0.0
  0
LINE
  5
35E
100
AcDbEntity
  8
2
370
    25
100
AcDbLine
 10
109.105893
 20
-23.284803
 30
0.0
 11
116.375247
 21
-23.284803
 31
0.0
  0
ENDBLK
  5
35F
100
AcDbEntity
  8
2
100
AcDbBlockEnd
  0
BLOCK
  5
360
100
AcDbEntity
  8
2
100
AcDbBlockBegin
  2
*D24
 70
     1
 10
0.0
 20
0.0
 30
0.0
  3
*D24
  1

  0
TEXT
  5
361
100
AcDbEntity
  8
2
370
    25
100
AcDbText
 10
121.867302
 20
-36.884803
 30
0.0
 40
3.0
  1
15.2
 50
90.0
 41
2.0
 72
     5
 11
121.867302
 21
-26.084803
 31
0.0
100
AcDbText
  0
LINE
  5
362
100
AcDbEntity
  8
2
370
    25
100
AcDbLine
 10
96.405893
 20
-38.484803
 30
0.0
 11
123.367302
 21
-38.484803
 31
0.0
  0
LINE
  5
363
100
AcDbEntity
  8
2
370
    25
100
AcDbLine
 10
122.367302
 20
-38.484803
 30
0.0
 11
122.88494
 21
-36.552952
 31
0.0
  0
LINE
  5
364
100
AcDbEntity
  8
2
370
    25
100
AcDbLine
 10
122.367302
 20
-38.484803
 30
0.0
 11
121.849664
 21
-36.552952
 31
0.0
  0
LINE
  5
365
100
AcDbEntity
  8
2
370
    25
100
AcDbLine
 10
122.367302
 20
-38.484803
 30
0.0
 11
122.367302
 21
-23.284803
 31
0.0
  0
LINE
  5
366
100
AcDbEntity
  8
2
370
    25
100
AcDbLine
 10
122.367302
 20
-23.284803
 30
0.0
 11
121.849664
 21
-25.216655
 31
0.0
  0
LINE
  5
367
100
AcDbEntity
  8
2
370
    25
100
AcDbLine
 10
122.367302
 20
-23.284803
 30
0.0
 11
122.88494
 21
-25.216655
 31
0.0
  0
LINE
  5
368
100
AcDbEntity
  8
2
370
    25
100
AcDbLine
 10
109.105893
 20
-23.284803
 30
0.0
 11
123.367302
 21
-23.284803
 31
0.0
  0
ENDBLK
  5
369
100
AcDbEntity
  8
2
100
AcDbBlockEnd
  0
BLOCK
  5
36A
100
AcDbEntity
  8
2
100
AcDbBlockBegin
  2
*D25
 70
     1
 10
0.0
 20
0.0
 30
0.0
  3
*D25
  1

  0
TEXT
  5
36B
100
AcDbEntity
  8
2
370
    25
100
AcDbText
 10
57.650818
 20
-22.284803
 30
0.0
 40
3.0
  1
3
 50
90.0
 41
2.0
 72
     5
 11
57.650818
 21
-20.484803
 31
0.0
100
AcDbText
  0
LINE
  5
36C
100
AcDbEntity
  8
2
370
    25
100
AcDbLine
 10
64.668872
 20
-26.284803
 30
0.0
 11
57.150818
 21
-26.284803
 31
0.0
  0
LINE
  5
36D
100
AcDbEntity
  8
2
370
    25
100
AcDbLine
 10
58.150818
 20
-26.284803
 30
0.0
 11
57.63318
 21
-28.216655
 31
0.0
  0
LINE
  5
36E
100
AcDbEntity
  8
2
370
    25
100
AcDbLine
 10
58.150818
 20
-26.284803
 30
0.0
 11
58.668456
 21
-28.216655
 31
0.0
  0
LINE
  5
36F
100
AcDbEntity
  8
2
370
    25
100
AcDbLine
 10
58.150818
 20
-31.284803
 30
0.0
 11
58.150818
 21
-18.284803
 31
0.0
  0
LINE
  5
370
100
AcDbEntity
  8
2
370
    25
100
AcDbLine
 10
58.150818
 20
-23.284803
 30
0.0
 11
58.668456
 21
-21.352952
 31
0.0
  0
LINE
  5
371
100
AcDbEntity
  8
2
370
    25
100
AcDbLine
 10
58.150818
 20
-23.284803
 30
0.0
 11
57.63318
 21
-21.352952
 31
0.0
  0
LINE
  5
372
100
AcDbEntity
  8
2
370
    25
100
AcDbLine
 10
66.093167
 20
-23.284803
 30
0.0
 11
57.150818
 21
-23.284803
 31
0.0
  0
ENDBLK
  5
373
100
AcDbEntity
  8
2
100
AcDbBlockEnd
  0
BLOCK
  5
374
100
AcDbEntity
  8
2
100
AcDbBlockBegin
  2
*D26
 70
     1
 10
0.0
 20
0.0
 30
0.0
  3
*D26
  1

  0
TEXT
  5
375
100
AcDbEntity
  8
2
370
    25
100
AcDbText
 10
83.855893
 20
-51.821278
 30
0.0
 40
3.0
  1
18.1
 41
2.0
 72
     5
 11
94.655893
 21
-51.821278
 31
0.0
100
AcDbText
  0
LINE
  5
376
100
AcDbEntity
  8
2
370
    25
100
AcDbLine
 10
80.805893
 20
-35.984803
 30
0.0
 11
80.805893
 21
-53.321278
 31
0.0
  0
LINE
  5
377
100
AcDbEntity
  8
2
370
    25
100
AcDbLine
 10
80.805893
 20
-52.321278
 30
0.0
 11
82.737744
 21
-52.838916
 31
0.0
  0
LINE
  5
378
100
AcDbEntity
  8
2
370
    25
100
AcDbLine
 10
80.805893
 20
-52.321278
 30
0.0
 11
82.737744
 21
-51.80364
 31
0.0
  0
LINE
  5
379
100
AcDbEntity
  8
2
370
    25
100
AcDbLine
 10
80.805893
 20
-52.321278
 30
0.0
 11
98.905893
 21
-52.321278
 31
0.0
  0
LINE
  5
37A
100
AcDbEntity
  8
2
370
    25
100
AcDbLine
 10
98.905893
 20
-52.321278
 30
0.0
 11
96.974041
 21
-51.80364
 31
0.0
  0
LINE
  5
37B
100
AcDbEntity
  8
2
370
    25
100
AcDbLine
 10
98.905893
 20
-52.321278
 30
0.0
 11
96.974041
 21
-52.838916
 31
0.0
  0
LINE
  5
37C
100
AcDbEntity
  8
2
370
    25
100
AcDbLine
 10
98.905893
 20
-35.984803
 30
0.0
 11
98.905893
 21
-53.321278
 31
0.0
  0
ENDBLK
  5
37D
100
AcDbEntity
  8
2
100
AcDbBlockEnd
  0
BLOCK
  5
37E
100
AcDbEntity
  8
2
100
AcDbBlockBegin
  2
*D27
 70
     1
 10
0.0
 20
0.0
 30
0.0
  3
*D27
  1

  0
TEXT
  5
37F
100
AcDbEntity
  8
2
370
    25
100
AcDbText
 10
80.355893
 20
2.470387
 30
0.0
 40
3.0
  1
44.5
 41
2.0
 72
     5
 11
91.155893
 21
2.470387
 31
0.0
100
AcDbText
  0
LINE
  5
380
100
AcDbEntity
  8
2
370
    25
100
AcDbLine
 10
64.105893
 20
21.443916
 30
0.0
 11
64.105893
 21
0.970387
 31
0.0
  0
LINE
  5
381
100
AcDbEntity
  8
2
370
    25
100
AcDbLine
 10
64.105893
 20
1.970387
 30
0.0
 11
66.037744
 21
1.452748
 31
0.0
  0
LINE
  5
382
100
AcDbEntity
  8
2
370
    25
100
AcDbLine
 10
64.105893
 20
1.970387
 30
0.0
 11
66.037744
 21
2.488025
 31
0.0
  0
LINE
  5
383
100
AcDbEntity
  8
2
370
    25
100
AcDbLine
 10
64.105893
 20
1.970387
 30
0.0
 11
108.605893
 21
1.970387
 31
0.0
  0
LINE
  5
384
100
AcDbEntity
  8
2
370
    25
100
AcDbLine
 10
108.605893
 20
1.970387
 30
0.0
 11
106.674041
 21
2.488025
 31
0.0
  0
LINE
  5
385
100
AcDbEntity
  8
2
370
    25
100
AcDbLine
 10
108.605893
 20
1.970387
 30
0.0
 11
106.674041
 21
1.452748
 31
0.0
  0
LINE
  5
386
100
AcDbEntity
  8
2
370
    25
100
AcDbLine
 10
108.605893
 20
23.443916
 30
0.0
 11
108.605893
 21
0.970387
 31
0.0
  0
ENDBLK
  5
387
100
AcDbEntity
  8
2
100
AcDbBlockEnd
  0
BLOCK
  5
388
100
AcDbEntity
  8
2
100
AcDbBlockBegin
  2
*D28
 70
     1
 10
0.0
 20
0.0
 30
0.0
  3
*D28
  1

  0
TEXT
  5
389
100
AcDbEntity
  8
2
370
    25
100
AcDbText
 10
107.675384
 20
86.796777
 30
0.0
 40
3.0
  1
R6
 50
39.663668
 41
2.0
 72
     5
 11
111.370445
 21
89.86052
 31
0.0
100
AcDbText
  0
LINE
  5
38A
100
AcDbEntity
  8
2
370
    25
100
AcDbLine
 10
102.605893
 20
81.943916
 30
0.0
 11
113.383155
 21
90.879833
 31
0.0
  0
LINE
  5
38B
100
AcDbEntity
  8
2
370
    25
100
AcDbLine
 10
107.224719
 20
85.773595
 30
0.0
 11
109.042265
 21
86.608177
 31
0.0
  0
LINE
  5
38C
100
AcDbEntity
  8
2
370
    25
100
AcDbLine
 10
107.224719
 20
85.773595
 30
0.0
 11
108.381469
 21
87.405137
 31
0.0
  0
ENDBLK
  5
38D
100
AcDbEntity
  8
2
100
AcDbBlockEnd
  0
ENDSEC
  0
SECTION
  2
ENTITIES
  0
LINE
  5
43
100
AcDbEntity
  8
1
370
    50
100
AcDbLine
 10
-78.395415
 20
87.443915
 30
0.0
 11
-78.395415
 21
18.443915
 31
0.0
  0
LINE
  5
44
100
AcDbEntity
  8
1
370
    50
100
AcDbLine
 10
-76.595415
 20
86.693915
 30
0.0
 11
-76.595415
 21
19.193915
 31
0.0
  0
LINE
  5
45
100
AcDbEntity
  8
1
370
    50
100
AcDbLine
 10
-64.395415
 20
66.243915
 30
0.0
 11
-64.395415
 21
39.643915
 31
0.0
  0
LINE
  5
46
100
AcDbEntity
  8
1
370
    50
100
AcDbLine
 10
-75.595415
 20
69.243915
 30
0.0
 11
-67.395415
 21
69.243915
 31
0.0
  0
LINE
  5
47
100
AcDbEntity
  8
1
370
    50
100
AcDbLine
 10
-67.395415
 20
36.643915
 30
0.0
 11
-75.595415
 21
36.643915
 31
0.0
  0
LINE
  5
48
100
AcDbEntity
  8
1
370
    50
100
AcDbLine
 10
-77.345415
 20
18.443915
 30
0.0
 11
-78.395415
 21
18.443915
 31
0.0
  0
LINE
  5
49
100
AcDbEntity
  8
1
370
    50
100
AcDbLine
 10
-77.345415
 20
87.443915
 30
0.0
 11
-78.395415
 21
87.443915
 31
0.0
  0
ARC
  5
4A
100
AcDbEntity
  8
1
370
    50
100
AcDbCircle
 10
-77.345415
 20
86.693915
 30
0.0
 40
0.75
100
AcDbArc
 50
0.0
 51
90.0
  0
ARC
  5
4B
100
AcDbEntity
  8
1
370
    50
100
AcDbCircle
 10
-77.345415
 20
19.193915
 30
0.0
 40
0.75
100
AcDbArc
 50
270.0
 51
360.0
  0
ARC
  5
4C
100
AcDbEntity
  8
1
370
    50
100
AcDbCircle
 10
-75.595415
 20
70.243915
 30
0.0
 40
1.0
100
AcDbArc
 50
180.0
 51
270.0
  0
ARC
  5
4D
100
AcDbEntity
  8
1
370
    50
100
AcDbCircle
 10
-75.595415
 20
35.643915
 30
0.0
 40
1.0
100
AcDbArc
 50
90.0
 51
180.0
  0
ARC
  5
4E
100
AcDbEntity
  8
1
370
    50
100
AcDbCircle
 10
-67.395415
 20
66.243915
 30
0.0
 40
3.0
100
AcDbArc
 50
0.0
 51
90.0
  0
ARC
  5
4F
100
AcDbEntity
  8
1
370
    50
100
AcDbCircle
 10
-67.395415
 20
39.643915
 30
0.0
 40
3.0
100
AcDbArc
 50
270.0
 51
0.0
  0
LINE
  5
50
100
AcDbEntity
  8
1
370
    25
  6
CENTER
100
AcDbLine
 10
-60.312498
 20
52.943915
 30
0.0
 11
-82.872259
 21
52.943915
 31
0.0
  0
LINE
  5
51
100
AcDbEntity
  8
1
370
    25
  6
CENTER
100
AcDbLine
 10
-98.451033
 20
52.943916
 30
0.0
 11
-150.216781
 21
52.943916
 31
0.0
  0
LINE
  5
52
100
AcDbEntity
  8
1
370
    50
100
AcDbLine
 10
-101.394107
 20
87.943916
 30
0.0
 11
-141.894107
 21
87.943916
 31
0.0
  0
LINE
  5
53
100
AcDbEntity
  8
1
370
    50
100
AcDbLine
 10
-101.394107
 20
17.943916
 30
0.0
 11
-141.894107
 21
17.943916
 31
0.0
  0
LINE
  5
54
100
AcDbEntity
  8
1
370
    50
100
AcDbLine
 10
-101.394107
 20
87.943916
 30
0.0
 11
-101.394107
 21
17.943916
 31
0.0
  0
LINE
  5
55
100
AcDbEntity
  8
1
370
    50
100
AcDbLine
 10
-145.894107
 20
83.943916
 30
0.0
 11
-145.894107
 21
21.943916
 31
0.0
  0
ARC
  5
56
100
AcDbEntity
  8
1
370
    50
100
AcDbCircle
 10
-141.894107
 20
83.943916
 30
0.0
 40
4.0
100
AcDbArc
 50
90.0
 51
180.0
  0
ARC
  5
57
100
AcDbEntity
  8
1
370
    50
100
AcDbCircle
 10
-141.894107
 20
21.943916
 30
0.0
 40
4.0
100
AcDbArc
 50
180.0
 51
270.0
  0
LINE
  5
58
100
AcDbEntity
  8
1
370
    50
100
AcDbLine
 10
-129.894107
 20
56.693916
 30
0.0
 11
-136.894107
 21
56.693916
 31
0.0
  0
LINE
  5
59
100
AcDbEntity
  8
1
370
    50
100
AcDbLine
 10
-129.894107
 20
49.193916
 30
0.0
 11
-136.894107
 21
49.193916
 31
0.0
  0
LINE
  5
5A
100
AcDbEntity
  8
1
370
    50
100
AcDbLine
 10
-110.394107
 20
38.943916
 30
0.0
 11
-127.394107
 21
38.943916
 31
0.0
  0
LINE
  5
5B
100
AcDbEntity
  8
1
370
    50
100
AcDbLine
 10
-110.394107
 20
66.943916
 30
0.0
 11
-127.394107
 21
66.943916
 31
0.0
  0
LINE
  5
5C
100
AcDbEntity
  8
1
370
    25
  6
CENTER
100
AcDbLine
 10
-111.33776
 20
79.943916
 30
0.0
 11
-122.40957
 21
79.943916
 31
0.0
  0
LINE
  5
5D
100
AcDbEntity
  8
1
370
    25
  6
CENTER
100
AcDbLine
 10
-111.283016
 20
25.943916
 30
0.0
 11
-122.943088
 21
25.943916
 31
0.0
  0
LINE
  5
5E
100
AcDbEntity
  8
1
370
    50
100
AcDbLine
 10
-108.394107
 20
64.943916
 30
0.0
 11
-108.394107
 21
40.943916
 31
0.0
  0
LINE
  5
5F
100
AcDbEntity
  8
1
370
    50
100
AcDbLine
 10
-137.394107
 20
56.193916
 30
0.0
 11
-137.394107
 21
49.693916
 31
0.0
  0
ARC
  5
60
100
AcDbEntity
  8
1
370
    50
100
AcDbCircle
 10
-110.394107
 20
64.943916
 30
0.0
 40
2.0
100
AcDbArc
 50
0.0
 51
90.0
  0
ARC
  5
61
100
AcDbEntity
  8
1
370
    50
100
AcDbCircle
 10
-127.394107
 20
64.943916
 30
0.0
 40
2.0
100
AcDbArc
 50
90.0
 51
180.0
  0
ARC
  5
62
100
AcDbEntity
  8
1
370
    50
100
AcDbCircle
 10
-110.394107
 20
40.943916
 30
0.0
 40
2.0
100
AcDbArc
 50
270.0
 51
0.0
  0
ARC
  5
63
100
AcDbEntity
  8
1
370
    50
100
AcDbCircle
 10
-127.394107
 20
40.943916
 30
0.0
 40
2.0
100
AcDbArc
 50
180.0
 51
270.0
  0
ARC
  5
64
100
AcDbEntity
  8
1
370
    50
100
AcDbCircle
 10
-129.894107
 20
57.193916
 30
0.0
 40
0.5
100
AcDbArc
 50
270.0
 51
360.0
  0
ARC
  5
65
100
AcDbEntity
  8
1
370
    50
100
AcDbCircle
 10
-129.894107
 20
48.693916
 30
0.0
 40
0.5
100
AcDbArc
 50
0.0
 51
90.0
  0
ARC
  5
66
100
AcDbEntity
  8
1
370
    50
100
AcDbCircle
 10
-136.894107
 20
56.193916
 30
0.0
 40
0.5
100
AcDbArc
 50
90.0
 51
180.0
  0
ARC
  5
67
100
AcDbEntity
  8
1
370
    50
100
AcDbCircle
 10
-136.894107
 20
49.693916
 30
0.0
 40
0.5
100
AcDbArc
 50
180.0
 51
270.0
  0
LINE
  5
68
100
AcDbEntity
  8
1
370
    25
100
AcDbLine
 10
-109.394107
 20
71.443916
 30
0.0
 11
-125.394107
 21
71.443916
 31
0.0
  0
LINE
  5
69
100
AcDbEntity
  8
1
370
    25
100
AcDbLine
 10
-109.394107
 20
34.443916
 30
0.0
 11
-125.394107
 21
34.443916
 31
0.0
  0
LINE
  5
6A
100
AcDbEntity
  8
1
370
    25
100
AcDbLine
 10
-109.394107
 20
75.443916
 30
0.0
 11
-125.394107
 21
75.443916
 31
0.0
  0
LINE
  5
6B
100
AcDbEntity
  8
1
370
    25
100
AcDbLine
 10
-109.394107
 20
30.443916
 30
0.0
 11
-125.394107
 21
30.443916
 31
0.0
  0
LINE
  5
6C
100
AcDbEntity
  8
1
370
    25
100
AcDbLine
 10
-108.394107
 20
31.443916
 30
0.0
 11
-108.394107
 21
33.443916
 31
0.0
  0
LINE
  5
6D
100
AcDbEntity
  8
1
370
    25
100
AcDbLine
 10
-108.394107
 20
72.443916
 30
0.0
 11
-108.394107
 21
74.443916
 31
0.0
  0
LINE
  5
6E
100
AcDbEntity
  8
1
370
    25
100
AcDbLine
 10
-126.394107
 20
31.443916
 30
0.0
 11
-126.394107
 21
33.443916
 31
0.0
  0
LINE
  5
6F
100
AcDbEntity
  8
1
370
    25
100
AcDbLine
 10
-126.394107
 20
72.443916
 30
0.0
 11
-126.394107
 21
74.443916
 31
0.0
  0
ARC
  5
70
100
AcDbEntity
  8
1
370
    25
100
AcDbCircle
 10
-109.394107
 20
74.443916
 30
0.0
 40
1.0
100
AcDbArc
 50
0.0
 51
90.0
  0
ARC
  5
71
100
AcDbEntity
  8
1
370
    25
100
AcDbCircle
 10
-109.394107
 20
72.443916
 30
0.0
 40
1.0
100
AcDbArc
 50
270.0
 51
360.0
  0
ARC
  5
72
100
AcDbEntity
  8
1
370
    25
100
AcDbCircle
 10
-125.394107
 20
74.443916
 30
0.0
 40
1.0
100
AcDbArc
 50
90.0
 51
180.0
  0
ARC
  5
73
100
AcDbEntity
  8
1
370
    25
100
AcDbCircle
 10
-125.394107
 20
72.443916
 30
0.0
 40
1.0
100
AcDbArc
 50
180.0
 51
270.0
  0
ARC
  5
74
100
AcDbEntity
  8
1
370
    25
100
AcDbCircle
 10
-109.394107
 20
33.443916
 30
0.0
 40
1.0
100
AcDbArc
 50
0.0
 51
90.0
  0
ARC
  5
75
100
AcDbEntity
  8
1
370
    25
100
AcDbCircle
 10
-109.394107
 20
31.443916
 30
0.0
 40
1.0
100
AcDbArc
 50
270.0
 51
360.0
  0
ARC
  5
76
100
AcDbEntity
  8
1
370
    25
100
AcDbCircle
 10
-125.394107
 20
33.443916
 30
0.0
 40
1.0
100
AcDbArc
 50
90.0
 51
180.0
  0
ARC
  5
77
100
AcDbEntity
  8
1
370
    25
100
AcDbCircle
 10
-125.394107
 20
31.443916
 30
0.0
 40
1.0
100
AcDbArc
 50
180.0
 51
270.0
  0
LINE
  5
78
100
AcDbEntity
  8
1
370
    50
100
AcDbLine
 10
-124.394107
 20
56.443916
 30
0.0
 11
-131.394107
 21
56.443916
 31
0.0
  0
LINE
  5
79
100
AcDbEntity
  8
1
370
    50
100
AcDbLine
 10
-124.394107
 20
49.443916
 30
0.0
 11
-131.394107
 21
49.443916
 31
0.0
  0
LINE
  5
7A
100
AcDbEntity
  8
1
370
    50
100
AcDbLine
 10
-131.894107
 20
49.943916
 30
0.0
 11
-131.894107
 21
55.943916
 31
0.0
  0
LINE
  5
7B
100
AcDbEntity
  8
1
370
    50
100
AcDbLine
 10
-109.394107
 20
66.675967
 30
0.0
 11
-109.394107
 21
39.211865
 31
0.0
  0
ARC
  5
7C
100
AcDbEntity
  8
1
370
    50
100
AcDbCircle
 10
-131.394107
 20
55.943916
 30
0.0
 40
0.5
100
AcDbArc
 50
90.0
 51
180.0
  0
ARC
  5
7D
100
AcDbEntity
  8
1
370
    50
100
AcDbCircle
 10
-131.394107
 20
49.943916
 30
0.0
 40
0.5
100
AcDbArc
 50
180.0
 51
270.0
  0
LINE
  5
7E
100
AcDbEntity
  8
1
370
    50
100
AcDbLine
 10
-124.394107
 20
38.943916
 30
0.0
 11
-124.394107
 21
66.943916
 31
0.0
  0
LINE
  5
7F
100
AcDbEntity
  8
1
370
    50
100
AcDbLine
 10
-129.394107
 20
40.943916
 30
0.0
 11
-129.394107
 21
48.693916
 31
0.0
  0
LINE
  5
80
100
AcDbEntity
  8
1
370
    50
100
AcDbLine
 10
-129.394107
 20
57.193916
 30
0.0
 11
-129.394107
 21
64.943916
 31
0.0
  0
LINE
  5
81
100
AcDbEntity
  8
1
370
    50
100
AcDbLine
 10
-79.595415
 20
87.943915
 30
0.0
 11
-79.595415
 21
17.943915
 31
0.0
  0
LINE
  5
82
100
AcDbEntity
  8
1
370
    50
100
AcDbLine
 10
-79.595415
 20
87.943915
 30
0.0
 11
-78.395415
 21
87.943915
 31
0.0
  0
LINE
  5
83
100
AcDbEntity
  8
1
370
    50
100
AcDbLine
 10
-79.595415
 20
17.943915
 30
0.0
 11
-78.395415
 21
17.943915
 31
0.0
  0
LINE
  5
84
100
AcDbEntity
  8
1
370
    25
  6
CENTER
100
AcDbLine
 10
-82.53601
 20
52.943915
 30
0.0
 11
-60.312498
 21
52.943915
 31
0.0
  0
LINE
  5
85
100
AcDbEntity
  8
1
370
    25
  6
CENTER
100
AcDbLine
 10
-117.394107
 20
-30.49008
 30
0.0
 11
-117.394107
 21
-19.996645
 31
0.0
  0
LINE
  5
86
100
AcDbEntity
  8
1
370
    25
  6
CENTER
100
AcDbLine
 10
-117.394107
 20
13.988676
 30
0.0
 11
-117.394107
 21
92.361019
 31
0.0
  0
LINE
  5
87
100
AcDbEntity
  8
1
370
    50
100
AcDbLine
 10
-101.394107
 20
-23.284803
 30
0.0
 11
-143.406833
 21
-23.284803
 31
0.0
  0
LINE
  5
88
100
AcDbEntity
  8
1
370
    50
100
AcDbLine
 10
-101.394107
 20
-23.284803
 30
0.0
 11
-101.394107
 21
-24.484803
 31
0.0
  0
LINE
  5
89
100
AcDbEntity
  8
1
370
    50
100
AcDbLine
 10
-143.894107
 20
-24.484803
 30
0.0
 11
-144.831128
 21
-26.284803
 31
0.0
  0
LINE
  5
8A
100
AcDbEntity
  8
1
370
    50
100
AcDbLine
 10
-144.831128
 20
-26.284803
 30
0.0
 11
-145.894107
 21
-25.731451
 31
0.0
  0
LINE
  5
8B
100
AcDbEntity
  8
1
370
    50
100
AcDbLine
 10
-145.894107
 20
-25.731451
 30
0.0
 11
-145.180855
 21
-24.361306
 31
0.0
  0
ARC
  5
8C
100
AcDbEntity
  8
1
370
    50
100
AcDbCircle
 10
-143.406833
 20
-25.284803
 30
0.0
 40
2.0
100
AcDbArc
 50
90.0
 51
152.5
  0
LINE
  5
8D
100
AcDbEntity
  8
1
370
    50
100
AcDbLine
 10
-101.394107
 20
-24.484803
 30
0.0
 11
-143.894107
 21
-24.484803
 31
0.0
  0
LINE
  5
8E
100
AcDbEntity
  8
1
370
    50
100
AcDbLine
 10
-129.194107
 20
-27.284803
 30
0.0
 11
-129.194107
 21
-35.484803
 31
0.0
  0
LINE
  5
8F
100
AcDbEntity
  8
1
370
    50
100
AcDbLine
 10
-111.094107
 20
-27.284803
 30
0.0
 11
-111.094107
 21
-35.484803
 31
0.0
  0
LINE
  5
90
100
AcDbEntity
  8
1
370
    50
100
AcDbLine
 10
-141.144107
 20
-26.284803
 30
0.0
 11
-106.644107
 21
-26.284803
 31
0.0
  0
LINE
  5
91
100
AcDbEntity
  8
1
370
    50
100
AcDbLine
 10
-105.894107
 20
-24.484803
 30
0.0
 11
-105.894107
 21
-25.534803
 31
0.0
  0
LINE
  5
92
100
AcDbEntity
  8
1
370
    50
100
AcDbLine
 10
-141.894107
 20
-24.484803
 30
0.0
 11
-141.894107
 21
-25.534803
 31
0.0
  0
ARC
  5
93
100
AcDbEntity
  8
1
370
    50
100
AcDbCircle
 10
-106.644107
 20
-25.534803
 30
0.0
 40
0.75
100
AcDbArc
 50
270.0
 51
360.0
  0
ARC
  5
94
100
AcDbEntity
  8
1
370
    50
100
AcDbCircle
 10
-141.144107
 20
-25.534803
 30
0.0
 40
0.75
100
AcDbArc
 50
180.0
 51
270.0
  0
ARC
  5
95
100
AcDbEntity
  8
1
370
    50
100
AcDbCircle
 10
-110.094107
 20
-27.284803
 30
0.0
 40
1.0
100
AcDbArc
 50
90.0
 51
180.0
  0
ARC
  5
96
100
AcDbEntity
  8
1
370
    50
100
AcDbCircle
 10
-130.194107
 20
-27.284803
 30
0.0
 40
1.0
100
AcDbArc
 50
0.0
 51
90.0
  0
ARC
  5
97
100
AcDbEntity
  8
1
370
    50
100
AcDbCircle
 10
-114.094107
 20
-35.484803
 30
0.0
 40
3.0
100
AcDbArc
 50
270.0
 51
360.0
  0
ARC
  5
98
100
AcDbEntity
  8
1
370
    50
100
AcDbCircle
 10
-126.194107
 20
-35.484803
 30
0.0
 40
3.0
100
AcDbArc
 50
180.0
 51
270.0
  0
ARC
  5
99
100
AcDbEntity
  8
1
370
    50
100
AcDbCircle
 10
-73.395415
 20
87.943915
 30
0.0
 40
5.0
100
AcDbArc
 50
180.0
 51
185.73917
  0
ARC
  5
9A
100
AcDbEntity
  8
1
370
    50
100
AcDbCircle
 10
-73.395415
 20
17.943915
 30
0.0
 40
5.0
100
AcDbArc
 50
174.26083
 51
180.0
  0
LINE
  5
9B
100
AcDbEntity
  8
1
370
    50
100
AcDbLine
 10
-78.395415
 20
87.943915
 30
0.0
 11
-78.395415
 21
87.443915
 31
0.0
  0
LINE
  5
9C
100
AcDbEntity
  8
1
370
    50
100
AcDbLine
 10
-78.395415
 20
17.943915
 30
0.0
 11
-78.395415
 21
18.443915
 31
0.0
  0
LINE
  5
9D
100
AcDbEntity
  8
1
370
    25
100
AcDbLine
 10
-117.394107
 20
78.193916
 30
0.0
 11
-116.994107
 21
78.193916
 31
0.0
  0
ARC
  5
9E
100
AcDbEntity
  8
1
370
    25
100
AcDbCircle
 10
-115.644107
 20
78.193916
 30
0.0
 40
1.35
100
AcDbArc
 50
90.0
 51
180.0
  0
LINE
  5
9F
100
AcDbEntity
  8
1
370
    25
100
AcDbLine
 10
-115.644107
 20
79.543916
 30
0.0
 11
-115.644107
 21
79.943916
 31
0.0
  0
LINE
  5
A0
100
AcDbEntity
  8
1
370
    25
100
AcDbLine
 10
-117.394107
 20
81.693916
 30
0.0
 11
-116.994107
 21
81.693916
 31
0.0
  0
ARC
  5
A1
100
AcDbEntity
  8
1
370
    25
100
AcDbCircle
 10
-115.644107
 20
81.693916
 30
0.0
 40
1.35
100
AcDbArc
 50
180.0
 51
270.0
  0
LINE
  5
A2
100
AcDbEntity
  8
1
370
    25
100
AcDbLine
 10
-115.644107
 20
80.343916
 30
0.0
 11
-115.644107
 21
79.943916
 31
0.0
  0
LINE
  5
A3
100
AcDbEntity
  8
1
370
    25
100
AcDbLine
 10
-117.394107
 20
78.193916
 30
0.0
 11
-117.794107
 21
78.193916
 31
0.0
  0
ARC
  5
A4
100
AcDbEntity
  8
1
370
    25
100
AcDbCircle
 10
-119.144107
 20
78.193916
 30
0.0
 40
1.35
100
AcDbArc
 50
0.0
 51
90.0
  0
LINE
  5
A5
100
AcDbEntity
  8
1
370
    25
100
AcDbLine
 10
-119.144107
 20
79.543916
 30
0.0
 11
-119.144107
 21
79.943916
 31
0.0
  0
LINE
  5
A6
100
AcDbEntity
  8
1
370
    25
100
AcDbLine
 10
-117.394107
 20
81.693916
 30
0.0
 11
-117.794107
 21
81.693916
 31
0.0
  0
ARC
  5
A7
100
AcDbEntity
  8
1
370
    25
100
AcDbCircle
 10
-119.144107
 20
81.693916
 30
0.0
 40
1.35
100
AcDbArc
 50
270.0
 51
360.0
  0
LINE
  5
A8
100
AcDbEntity
  8
1
370
    25
100
AcDbLine
 10
-119.144107
 20
80.343916
 30
0.0
 11
-119.144107
 21
79.943916
 31
0.0
  0
CIRCLE
  5
A9
100
AcDbEntity
  8
1
370
    50
100
AcDbCircle
 10
-117.394107
 20
79.943916
 30
0.0
 40
3.0
  0
LINE
  5
AA
100
AcDbEntity
  8
1
370
    25
100
AcDbLine
 10
-117.394107
 20
27.693916
 30
0.0
 11
-116.994107
 21
27.693916
 31
0.0
  0
ARC
  5
AB
100
AcDbEntity
  8
1
370
    25
100
AcDbCircle
 10
-115.644107
 20
27.693916
 30
0.0
 40
1.35
100
AcDbArc
 50
180.0
 51
270.0
  0
LINE
  5
AC
100
AcDbEntity
  8
1
370
    25
100
AcDbLine
 10
-115.644107
 20
26.343916
 30
0.0
 11
-115.644107
 21
25.943916
 31
0.0
  0
LINE
  5
AD
100
AcDbEntity
  8
1
370
    25
100
AcDbLine
 10
-117.394107
 20
24.193916
 30
0.0
 11
-116.994107
 21
24.193916
 31
0.0
  0
ARC
  5
AE
100
AcDbEntity
  8
1
370
    25
100
AcDbCircle
 10
-115.644107
 20
24.193916
 30
0.0
 40
1.35
100
AcDbArc
 50
90.0
 51
180.0
  0
LINE
  5
AF
100
AcDbEntity
  8
1
370
    25
100
AcDbLine
 10
-115.644107
 20
25.543916
 30
0.0
 11
-115.644107
 21
25.943916
 31
0.0
  0
LINE
  5
B0
100
AcDbEntity
  8
1
370
    25
100
AcDbLine
 10
-117.394107
 20
27.693916
 30
0.0
 11
-117.794107
 21
27.693916
 31
0.0
  0
ARC
  5
B1
100
AcDbEntity
  8
1
370
    25
100
AcDbCircle
 10
-119.144107
 20
27.693916
 30
0.0
 40
1.35
100
AcDbArc
 50
270.0
 51
360.0
  0
LINE
  5
B2
100
AcDbEntity
  8
1
370
    25
100
AcDbLine
 10
-119.144107
 20
26.343916
 30
0.0
 11
-119.144107
 21
25.943916
 31
0.0
  0
LINE
  5
B3
100
AcDbEntity
  8
1
370
    25
100
AcDbLine
 10
-117.394107
 20
24.193916
 30
0.0
 11
-117.794107
 21
24.193916
 31
0.0
  0
ARC
  5
B4
100
AcDbEntity
  8
1
370
    25
100
AcDbCircle
 10
-119.144107
 20
24.193916
 30
0.0
 40
1.35
100
AcDbArc
 50
360.0
 51
90.0
  0
LINE
  5
B5
100
AcDbEntity
  8
1
370
    25
100
AcDbLine
 10
-119.144107
 20
25.543916
 30
0.0
 11
-119.144107
 21
25.943916
 31
0.0
  0
CIRCLE
  5
B6
100
AcDbEntity
  8
1
370
    50
100
AcDbCircle
 10
-117.394107
 20
25.943916
 30
0.0
 40
3.0
  0
LINE
  5
B7
100
AcDbEntity
  8
1
370
    25
  6
CENTER
100
AcDbLine
 10
-117.394107
 20
-21.41979
 30
0.0
 11
-117.394107
 21
-46.909803
 31
0.0
  0
LINE
  5
B8
100
AcDbEntity
  8
1
370
    50
100
AcDbLine
 10
-115.844107
 20
-26.284803
 30
0.0
 11
-115.844107
 21
-29.284803
 31
0.0
  0
LINE
  5
B9
100
AcDbEntity
  8
1
370
    50
100
AcDbLine
 10
-118.944107
 20
-26.284803
 30
0.0
 11
-118.944107
 21
-30.115446
 31
0.0
  0
LINE
  5
BA
100
AcDbEntity
  8
1
370
    50
100
AcDbLine
 10
-116.394107
 20
-29.432175
 30
0.0
 11
-116.394107
 21
-41.468205
 31
0.0
  0
LINE
  5
BB
100
AcDbEntity
  8
1
370
    50
100
AcDbLine
 10
-118.394107
 20
-29.968074
 30
0.0
 11
-118.394107
 21
-41.468205
 31
0.0
  0
LINE
  5
BC
100
AcDbEntity
  8
1
370
    50
100
AcDbLine
 10
-117.394107
 20
-45.200256
 30
0.0
 11
-116.394107
 21
-41.468205
 31
0.0
  0
LINE
  5
BD
100
AcDbEntity
  8
1
370
    50
100
AcDbLine
 10
-115.844107
 20
-29.284803
 30
0.0
 11
-118.944107
 21
-30.115446
 31
0.0
  0
LINE
  5
BE
100
AcDbEntity
  8
1
370
    25
100
AcDbLine
 10
-115.844107
 20
-30.784803
 30
0.0
 11
-118.944107
 21
-31.615446
 31
0.0
  0
LINE
  5
BF
100
AcDbEntity
  8
1
370
    25
100
AcDbLine
 10
-115.844107
 20
-32.284803
 30
0.0
 11
-118.944107
 21
-33.115446
 31
0.0
  0
LINE
  5
C0
100
AcDbEntity
  8
1
370
    25
100
AcDbLine
 10
-115.844107
 20
-33.784803
 30
0.0
 11
-118.944107
 21
-34.615446
 31
0.0
  0
LINE
  5
C1
100
AcDbEntity
  8
1
370
    25
100
AcDbLine
 10
-115.844107
 20
-35.284803
 30
0.0
 11
-118.944107
 21
-36.115446
 31
0.0
  0
LINE
  5
C2
100
AcDbEntity
  8
1
370
    25
100
AcDbLine
 10
-115.844107
 20
-36.784803
 30
0.0
 11
-118.944107
 21
-37.615446
 31
0.0
  0
LINE
  5
C3
100
AcDbEntity
  8
1
370
    25
100
AcDbLine
 10
-115.844107
 20
-38.284803
 30
0.0
 11
-118.944107
 21
-39.115446
 31
0.0
  0
LINE
  5
C4
100
AcDbEntity
  8
1
370
    25
100
AcDbLine
 10
-115.844107
 20
-39.784803
 30
0.0
 11
-118.944107
 21
-40.615446
 31
0.0
  0
LINE
  5
C5
100
AcDbEntity
  8
1
370
    25
100
AcDbLine
 10
-115.844107
 20
-41.284803
 30
0.0
 11
-118.77324
 21
-42.069662
 31
0.0
  0
LINE
  5
C6
100
AcDbEntity
  8
1
370
    25
100
AcDbLine
 10
-116.259042
 20
-42.895984
 30
0.0
 11
-118.39824
 21
-43.469181
 31
0.0
  0
LINE
  5
C7
100
AcDbEntity
  8
1
370
    25
100
AcDbLine
 10
-116.692054
 20
-44.51201
 30
0.0
 11
-118.02324
 21
-44.8687
 31
0.0
  0
LINE
  5
C8
100
AcDbEntity
  8
1
370
    50
100
AcDbLine
 10
-117.394107
 20
-45.200256
 30
0.0
 11
-118.394107
 21
-41.468205
 31
0.0
  0
LINE
  5
C9
100
AcDbEntity
  8
1
370
    25
  6
CENTER
100
AcDbLine
 10
-81.460428
 20
79.943915
 30
0.0
 11
-55.970415
 21
79.943915
 31
0.0
  0
LINE
  5
CA
100
AcDbEntity
  8
1
370
    50
100
AcDbLine
 10
-76.595415
 20
81.493915
 30
0.0
 11
-73.595415
 21
81.493915
 31
0.0
  0
LINE
  5
CB
100
AcDbEntity
  8
1
370
    50
100
AcDbLine
 10
-76.595415
 20
78.393915
 30
0.0
 11
-72.764772
 21
78.393915
 31
0.0
  0
LINE
  5
CC
100
AcDbEntity
  8
1
370
    50
100
AcDbLine
 10
-73.448043
 20
80.943915
 30
0.0
 11
-61.412012
 21
80.943915
 31
0.0
  0
LINE
  5
CD
100
AcDbEntity
  8
1
370
    50
100
AcDbLine
 10
-72.912144
 20
78.943915
 30
0.0
 11
-61.412012
 21
78.943915
 31
0.0
  0
LINE
  5
CE
100
AcDbEntity
  8
1
370
    50
100
AcDbLine
 10
-57.679962
 20
79.943915
 30
0.0
 11
-61.412012
 21
80.943915
 31
0.0
  0
LINE
  5
CF
100
AcDbEntity
  8
1
370
    50
100
AcDbLine
 10
-73.595415
 20
81.493915
 30
0.0
 11
-72.764772
 21
78.393915
 31
0.0
  0
LINE
  5
D0
100
AcDbEntity
  8
1
370
    25
100
AcDbLine
 10
-72.095415
 20
81.493915
 30
0.0
 11
-71.264772
 21
78.393915
 31
0.0
  0
LINE
  5
D1
100
AcDbEntity
  8
1
370
    25
100
AcDbLine
 10
-70.595415
 20
81.493915
 30
0.0
 11
-69.764772
 21
78.393915
 31
0.0
  0
LINE
  5
D2
100
AcDbEntity
  8
1
370
    25
100
AcDbLine
 10
-69.095415
 20
81.493915
 30
0.0
 11
-68.264772
 21
78.393915
 31
0.0
  0
LINE
  5
D3
100
AcDbEntity
  8
1
370
    25
100
AcDbLine
 10
-67.595415
 20
81.493915
 30
0.0
 11
-66.764772
 21
78.393915
 31
0.0
  0
LINE
  5
D4
100
AcDbEntity
  8
1
370
    25
100
AcDbLine
 10
-66.095415
 20
81.493915
 30
0.0
 11
-65.264772
 21
78.393915
 31
0.0
  0
LINE
  5
D5
100
AcDbEntity
  8
1
370
    25
100
AcDbLine
 10
-64.595415
 20
81.493915
 30
0.0
 11
-63.764772
 21
78.393915
 31
0.0
  0
LINE
  5
D6
100
AcDbEntity
  8
1
370
    25
100
AcDbLine
 10
-63.095415
 20
81.493915
 30
0.0
 11
-62.264772
 21
78.393915
 31
0.0
  0
LINE
  5
D7
100
AcDbEntity
  8
1
370
    25
100
AcDbLine
 10
-61.595415
 20
81.493915
 30
0.0
 11
-60.810556
 21
78.564782
 31
0.0
  0
LINE
  5
D8
100
AcDbEntity
  8
1
370
    25
100
AcDbLine
 10
-59.984233
 20
81.078981
 30
0.0
 11
-59.411037
 21
78.939782
 31
0.0
  0
LINE
  5
D9
100
AcDbEntity
  8
1
370
    25
100
AcDbLine
 10
-58.368208
 20
80.645968
 30
0.0
 11
-58.011518
 21
79.314782
 31
0.0
  0
LINE
  5
DA
100
AcDbEntity
  8
1
370
    50
100
AcDbLine
 10
-57.679962
 20
79.943915
 30
0.0
 11
-61.412012
 21
78.943915
 31
0.0
  0
LINE
  5
DB
100
AcDbEntity
  8
1
370
    25
  6
CENTER
100
AcDbLine
 10
-81.460428
 20
25.943915
 30
0.0
 11
-55.970415
 21
25.943915
 31
0.0
  0
LINE
  5
DC
100
AcDbEntity
  8
1
370
    50
100
AcDbLine
 10
-76.595415
 20
27.493915
 30
0.0
 11
-73.595415
 21
27.493915
 31
0.0
  0
LINE
  5
DD
100
AcDbEntity
  8
1
370
    50
100
AcDbLine
 10
-76.595415
 20
24.393915
 30
0.0
 11
-72.764772
 21
24.393915
 31
0.0
  0
LINE
  5
DE
100
AcDbEntity
  8
1
370
    50
100
AcDbLine
 10
-73.448043
 20
26.943915
 30
0.0
 11
-61.412012
 21
26.943915
 31
0.0
  0
LINE
  5
DF
100
AcDbEntity
  8
1
370
    50
100
AcDbLine
 10
-72.912144
 20
24.943915
 30
0.0
 11
-61.412012
 21
24.943915
 31
0.0
  0
LINE
  5
E0
100
AcDbEntity
  8
1
370
    50
100
AcDbLine
 10
-57.679962
 20
25.943915
 30
0.0
 11
-61.412012
 21
26.943915
 31
0.0
  0
LINE
  5
E1
100
AcDbEntity
  8
1
370
    50
100
AcDbLine
 10
-73.595415
 20
27.493915
 30
0.0
 11
-72.764772
 21
24.393915
 31
0.0
  0
LINE
  5
E2
100
AcDbEntity
  8
1
370
    25
100
AcDbLine
 10
-72.095415
 20
27.493915
 30
0.0
 11
-71.264772
 21
24.393915
 31
0.0
  0
LINE
  5
E3
100
AcDbEntity
  8
1
370
    25
100
AcDbLine
 10
-70.595415
 20
27.493915
 30
0.0
 11
-69.764772
 21
24.393915
 31
0.0
  0
LINE
  5
E4
100
AcDbEntity
  8
1
370
    25
100
AcDbLine
 10
-69.095415
 20
27.493915
 30
0.0
 11
-68.264772
 21
24.393915
 31
0.0
  0
LINE
  5
E5
100
AcDbEntity
  8
1
370
    25
100
AcDbLine
 10
-67.595415
 20
27.493915
 30
0.0
 11
-66.764772
 21
24.393915
 31
0.0
  0
LINE
  5
E6
100
AcDbEntity
  8
1
370
    25
100
AcDbLine
 10
-66.095415
 20
27.493915
 30
0.0
 11
-65.264772
 21
24.393915
 31
0.0
  0
LINE
  5
E7
100
AcDbEntity
  8
1
370
    25
100
AcDbLine
 10
-64.595415
 20
27.493915
 30
0.0
 11
-63.764772
 21
24.393915
 31
0.0
  0
LINE
  5
E8
100
AcDbEntity
  8
1
370
    25
100
AcDbLine
 10
-63.095415
 20
27.493915
 30
0.0
 11
-62.264772
 21
24.393915
 31
0.0
  0
LINE
  5
E9
100
AcDbEntity
  8
1
370
    25
100
AcDbLine
 10
-61.595415
 20
27.493915
 30
0.0
 11
-60.810556
 21
24.564782
 31
0.0
  0
LINE
  5
EA
100
AcDbEntity
  8
1
370
    25
100
AcDbLine
 10
-59.984233
 20
27.078981
 30
0.0
 11
-59.411037
 21
24.939782
 31
0.0
  0
LINE
  5
EB
100
AcDbEntity
  8
1
370
    25
100
AcDbLine
 10
-58.368208
 20
26.645968
 30
0.0
 11
-58.011518
 21
25.314782
 31
0.0
  0
LINE
  5
EC
100
AcDbEntity
  8
1
370
    50
100
AcDbLine
 10
-57.679962
 20
25.943915
 30
0.0
 11
-61.412012
 21
24.943915
 31
0.0
  0
LINE
  5
ED
100
AcDbEntity
  8
1
370
    50
100
AcDbLine
 10
-126.194107
 20
-38.484803
 30
0.0
 11
-118.394107
 21
-38.484803
 31
0.0
  0
LINE
  5
EE
100
AcDbEntity
  8
1
370
    50
100
AcDbLine
 10
-116.394107
 20
-38.484803
 30
0.0
 11
-114.094107
 21
-38.484803
 31
0.0
  0
LINE
  5
EF
100
AcDbEntity
  8
1
370
    50
100
AcDbLine
 10
131.604585
 20
87.443915
 30
0.0
 11
131.604585
 21
18.443915
 31
0.0
  0
LINE
  5
F0
100
AcDbEntity
  8
1
370
    50
100
AcDbLine
 10
133.404585
 20
86.693915
 30
0.0
 11
133.404585
 21
19.193915
 31
0.0
  0
LINE
  5
F1
100
AcDbEntity
  8
1
370
    50
100
AcDbLine
 10
145.604585
 20
66.243915
 30
0.0
 11
145.604585
 21
39.643915
 31
0.0
  0
LINE
  5
F2
100
AcDbEntity
  8
1
370
    50
100
AcDbLine
 10
134.404585
 20
69.243915
 30
0.0
 11
142.604585
 21
69.243915
 31
0.0
  0
LINE
  5
F3
100
AcDbEntity
  8
1
370
    50
100
AcDbLine
 10
142.604585
 20
36.643915
 30
0.0
 11
134.404585
 21
36.643915
 31
0.0
  0
LINE
  5
F4
100
AcDbEntity
  8
1
370
    50
100
AcDbLine
 10
132.654585
 20
18.443915
 30
0.0
 11
131.604585
 21
18.443915
 31
0.0
  0
LINE
  5
F5
100
AcDbEntity
  8
1
370
    50
100
AcDbLine
 10
132.654585
 20
87.443915
 30
0.0
 11
131.604585
 21
87.443915
 31
0.0
  0
ARC
  5
F6
100
AcDbEntity
  8
1
370
    50
100
AcDbCircle
 10
132.654585
 20
86.693915
 30
0.0
 40
0.75
100
AcDbArc
 50
0.0
 51
90.0
  0
ARC
  5
F7
100
AcDbEntity
  8
1
370
    50
100
AcDbCircle
 10
132.654585
 20
19.193915
 30
0.0
 40
0.75
100
AcDbArc
 50
270.0
 51
360.0
  0
ARC
  5
F8
100
AcDbEntity
  8
1
370
    50
100
AcDbCircle
 10
134.404585
 20
70.243915
 30
0.0
 40
1.0
100
AcDbArc
 50
180.0
 51
270.0
  0
ARC
  5
F9
100
AcDbEntity
  8
1
370
    50
100
AcDbCircle
 10
134.404585
 20
35.643915
 30
0.0
 40
1.0
100
AcDbArc
 50
90.0
 51
180.0
  0
ARC
  5
FA
100
AcDbEntity
  8
1
370
    50
100
AcDbCircle
 10
142.604585
 20
66.243915
 30
0.0
 40
3.0
100
AcDbArc
 50
0.0
 51
90.0
  0
ARC
  5
FB
100
AcDbEntity
  8
1
370
    50
100
AcDbCircle
 10
142.604585
 20
39.643915
 30
0.0
 40
3.0
100
AcDbArc
 50
270.0
 51
0.0
  0
LINE
  5
FC
100
AcDbEntity
  8
1
370
    25
  6
CENTER
100
AcDbLine
 10
149.687502
 20
52.943915
 30
0.0
 11
127.127741
 21
52.943915
 31
0.0
  0
LINE
  5
FD
100
AcDbEntity
  8
1
370
    25
  6
CENTER
100
AcDbLine
 10
111.548967
 20
52.943916
 30
0.0
 11
59.783219
 21
52.943916
 31
0.0
  0
LINE
  5
FE
100
AcDbEntity
  8
1
370
    50
100
AcDbLine
 10
102.605893
 20
87.943916
 30
0.0
 11
68.105893
 21
87.943916
 31
0.0
  0
LINE
  5
FF
100
AcDbEntity
  8
1
370
    50
100
AcDbLine
 10
102.605893
 20
17.943916
 30
0.0
 11
68.105893
 21
17.943916
 31
0.0
  0
LINE
  5
100
100
AcDbEntity
  8
1
370
    50
100
AcDbLine
 10
108.605893
 20
81.943916
 30
0.0
 11
108.605893
 21
23.943916
 31
0.0
  0
LINE
  5
101
100
AcDbEntity
  8
1
370
    50
100
AcDbLine
 10
64.105893
 20
83.943916
 30
0.0
 11
64.105893
 21
21.943916
 31
0.0
  0
ARC
  5
102
100
AcDbEntity
  8
1
370
    50
100
AcDbCircle
 10
68.105893
 20
83.943916
 30
0.0
 40
4.0
100
AcDbArc
 50
90.0
 51
180.0
  0
ARC
  5
103
100
AcDbEntity
  8
1
370
    50
100
AcDbCircle
 10
68.105893
 20
21.943916
 30
0.0
 40
4.0
100
AcDbArc
 50
180.0
 51
270.0
  0
LINE
  5
104
100
AcDbEntity
  8
1
370
    50
100
AcDbLine
 10
80.105893
 20
56.693916
 30
0.0
 11
73.105893
 21
56.693916
 31
0.0
  0
LINE
  5
105
100
AcDbEntity
  8
1
370
    50
100
AcDbLine
 10
80.105893
 20
49.193916
 30
0.0
 11
73.105893
 21
49.193916
 31
0.0
  0
LINE
  5
106
100
AcDbEntity
  8
1
370
    50
100
AcDbLine
 10
99.605893
 20
38.943916
 30
0.0
 11
82.605893
 21
38.943916
 31
0.0
  0
LINE
  5
107
100
AcDbEntity
  8
1
370
    50
100
AcDbLine
 10
99.605893
 20
66.943916
 30
0.0
 11
82.605893
 21
66.943916
 31
0.0
  0
LINE
  5
108
100
AcDbEntity
  8
1
370
    25
  6
CENTER
100
AcDbLine
 10
98.66224
 20
79.943916
 30
0.0
 11
87.59043
 21
79.943916
 31
0.0
  0
LINE
  5
109
100
AcDbEntity
  8
1
370
    25
  6
CENTER
100
AcDbLine
 10
98.716984
 20
25.943916
 30
0.0
 11
87.056912
 21
25.943916
 31
0.0
  0
LINE
  5
10A
100
AcDbEntity
  8
1
370
    50
100
AcDbLine
 10
101.605893
 20
64.943916
 30
0.0
 11
101.605893
 21
40.943916
 31
0.0
  0
LINE
  5
10B
100
AcDbEntity
  8
1
370
    50
100
AcDbLine
 10
72.605893
 20
56.193916
 30
0.0
 11
72.605893
 21
49.693916
 31
0.0
  0
ARC
  5
10C
100
AcDbEntity
  8
1
370
    50
100
AcDbCircle
 10
99.605893
 20
64.943916
 30
0.0
 40
2.0
100
AcDbArc
 50
0.0
 51
90.0
  0
ARC
  5
10D
100
AcDbEntity
  8
1
370
    50
100
AcDbCircle
 10
82.605893
 20
64.943916
 30
0.0
 40
2.0
100
AcDbArc
 50
90.0
 51
180.0
  0
ARC
  5
10E
100
AcDbEntity
  8
1
370
    50
100
AcDbCircle
 10
99.605893
 20
40.943916
 30
0.0
 40
2.0
100
AcDbArc
 50
270.0
 51
0.0
  0
ARC
  5
10F
100
AcDbEntity
  8
1
370
    50
100
AcDbCircle
 10
82.605893
 20
40.943916
 30
0.0
 40
2.0
100
AcDbArc
 50
180.0
 51
270.0
  0
ARC
  5
110
100
AcDbEntity
  8
1
370
    50
100
AcDbCircle
 10
80.105893
 20
57.193916
 30
0.0
 40
0.5
100
AcDbArc
 50
270.0
 51
360.0
  0
ARC
  5
111
100
AcDbEntity
  8
1
370
    50
100
AcDbCircle
 10
80.105893
 20
48.693916
 30
0.0
 40
0.5
100
AcDbArc
 50
0.0
 51
90.0
  0
ARC
  5
112
100
AcDbEntity
  8
1
370
    50
100
AcDbCircle
 10
73.105893
 20
56.193916
 30
0.0
 40
0.5
100
AcDbArc
 50
90.0
 51
180.0
  0
ARC
  5
113
100
AcDbEntity
  8
1
370
    50
100
AcDbCircle
 10
73.105893
 20
49.693916
 30
0.0
 40
0.5
100
AcDbArc
 50
180.0
 51
270.0
  0
LINE
  5
114
100
AcDbEntity
  8
1
370
    25
100
AcDbLine
 10
100.605893
 20
71.443916
 30
0.0
 11
84.605893
 21
71.443916
 31
0.0
  0
LINE
  5
115
100
AcDbEntity
  8
1
370
    25
100
AcDbLine
 10
100.605893
 20
34.443916
 30
0.0
 11
84.605893
 21
34.443916
 31
0.0
  0
LINE
  5
116
100
AcDbEntity
  8
1
370
    25
100
AcDbLine
 10
100.605893
 20
75.443916
 30
0.0
 11
84.605893
 21
75.443916
 31
0.0
  0
LINE
  5
117
100
AcDbEntity
  8
1
370
    25
100
AcDbLine
 10
100.605893
 20
30.443916
 30
0.0
 11
84.605893
 21
30.443916
 31
0.0
  0
LINE
  5
118
100
AcDbEntity
  8
1
370
    25
100
AcDbLine
 10
101.605893
 20
31.443916
 30
0.0
 11
101.605893
 21
33.443916
 31
0.0
  0
LINE
  5
119
100
AcDbEntity
  8
1
370
    25
100
AcDbLine
 10
101.605893
 20
72.443916
 30
0.0
 11
101.605893
 21
74.443916
 31
0.0
  0
LINE
  5
11A
100
AcDbEntity
  8
1
370
    25
100
AcDbLine
 10
83.605893
 20
31.443916
 30
0.0
 11
83.605893
 21
33.443916
 31
0.0
  0
LINE
  5
11B
100
AcDbEntity
  8
1
370
    25
100
AcDbLine
 10
83.605893
 20
72.443916
 30
0.0
 11
83.605893
 21
74.443916
 31
0.0
  0
ARC
  5
11C
100
AcDbEntity
  8
1
370
    25
100
AcDbCircle
 10
100.605893
 20
74.443916
 30
0.0
 40
1.0
100
AcDbArc
 50
0.0
 51
90.0
  0
ARC
  5
11D
100
AcDbEntity
  8
1
370
    25
100
AcDbCircle
 10
100.605893
 20
72.443916
 30
0.0
 40
1.0
100
AcDbArc
 50
270.0
 51
360.0
  0
ARC
  5
11E
100
AcDbEntity
  8
1
370
    25
100
AcDbCircle
 10
84.605893
 20
74.443916
 30
0.0
 40
1.0
100
AcDbArc
 50
90.0
 51
180.0
  0
ARC
  5
11F
100
AcDbEntity
  8
1
370
    25
100
AcDbCircle
 10
84.605893
 20
72.443916
 30
0.0
 40
1.0
100
AcDbArc
 50
180.0
 51
270.0
  0
ARC
  5
120
100
AcDbEntity
  8
1
370
    25
100
AcDbCircle
 10
100.605893
 20
33.443916
 30
0.0
 40
1.0
100
AcDbArc
 50
0.0
 51
90.0
  0
ARC
  5
121
100
AcDbEntity
  8
1
370
    25
100
AcDbCircle
 10
100.605893
 20
31.443916
 30
0.0
 40
1.0
100
AcDbArc
 50
270.0
 51
360.0
  0
ARC
  5
122
100
AcDbEntity
  8
1
370
    25
100
AcDbCircle
 10
84.605893
 20
33.443916
 30
0.0
 40
1.0
100
AcDbArc
 50
90.0
 51
180.0
  0
ARC
  5
123
100
AcDbEntity
  8
1
370
    25
100
AcDbCircle
 10
84.605893
 20
31.443916
 30
0.0
 40
1.0
100
AcDbArc
 50
180.0
 51
270.0
  0
LINE
  5
124
100
AcDbEntity
  8
1
370
    50
100
AcDbLine
 10
85.605893
 20
56.443916
 30
0.0
 11
78.605893
 21
56.443916
 31
0.0
  0
LINE
  5
125
100
AcDbEntity
  8
1
370
    50
100
AcDbLine
 10
85.605893
 20
49.443916
 30
0.0
 11
78.605893
 21
49.443916
 31
0.0
  0
LINE
  5
126
100
AcDbEntity
  8
1
370
    50
100
AcDbLine
 10
78.105893
 20
49.943916
 30
0.0
 11
78.105893
 21
55.943916
 31
0.0
  0
LINE
  5
127
100
AcDbEntity
  8
1
370
    50
100
AcDbLine
 10
100.605893
 20
66.675967
 30
0.0
 11
100.605893
 21
39.211865
 31
0.0
  0
ARC
  5
128
100
AcDbEntity
  8
1
370
    50
100
AcDbCircle
 10
78.605893
 20
55.943916
 30
0.0
 40
0.5
100
AcDbArc
 50
90.0
 51
180.0
  0
ARC
  5
129
100
AcDbEntity
  8
1
370
    50
100
AcDbCircle
 10
78.605893
 20
49.943916
 30
0.0
 40
0.5
100
AcDbArc
 50
180.0
 51
270.0
  0
LINE
  5
12A
100
AcDbEntity
  8
1
370
    50
100
AcDbLine
 10
85.605893
 20
38.943916
 30
0.0
 11
85.605893
 21
66.943916
 31
0.0
  0
LINE
  5
12B
100
AcDbEntity
  8
1
370
    50
100
AcDbLine
 10
80.605893
 20
40.943916
 30
0.0
 11
80.605893
 21
48.693916
 31
0.0
  0
LINE
  5
12C
100
AcDbEntity
  8
1
370
    50
100
AcDbLine
 10
80.605893
 20
57.193916
 30
0.0
 11
80.605893
 21
64.943916
 31
0.0
  0
LINE
  5
12D
100
AcDbEntity
  8
1
370
    50
100
AcDbLine
 10
130.404585
 20
87.943915
 30
0.0
 11
130.404585
 21
17.943915
 31
0.0
  0
LINE
  5
12E
100
AcDbEntity
  8
1
370
    50
100
AcDbLine
 10
130.404585
 20
87.943915
 30
0.0
 11
131.604585
 21
87.943915
 31
0.0
  0
LINE
  5
12F
100
AcDbEntity
  8
1
370
    50
100
AcDbLine
 10
130.404585
 20
17.943915
 30
0.0
 11
131.604585
 21
17.943915
 31
0.0
  0
LINE
  5
130
100
AcDbEntity
  8
1
370
    25
  6
CENTER
100
AcDbLine
 10
127.46399
 20
52.943915
 30
0.0
 11
149.687502
 21
52.943915
 31
0.0
  0
LINE
  5
131
100
AcDbEntity
  8
1
370
    25
  6
CENTER
100
AcDbLine
 10
92.605893
 20
-30.49008
 30
0.0
 11
92.605893
 21
-19.996645
 31
0.0
  0
LINE
  5
132
100
AcDbEntity
  8
1
370
    25
  6
CENTER
100
AcDbLine
 10
92.605893
 20
13.988676
 30
0.0
 11
92.605893
 21
92.361019
 31
0.0
  0
LINE
  5
133
100
AcDbEntity
  8
1
370
    50
100
AcDbLine
 10
108.605893
 20
-23.284803
 30
0.0
 11
66.593167
 21
-23.284803
 31
0.0
  0
LINE
  5
134
100
AcDbEntity
  8
1
370
    50
100
AcDbLine
 10
108.605893
 20
-23.284803
 30
0.0
 11
108.605893
 21
-24.484803
 31
0.0
  0
LINE
  5
135
100
AcDbEntity
  8
1
370
    50
100
AcDbLine
 10
66.105893
 20
-24.484803
 30
0.0
 11
65.168872
 21
-26.284803
 31
0.0
  0
LINE
  5
136
100
AcDbEntity
  8
1
370
    50
100
AcDbLine
 10
65.168872
 20
-26.284803
 30
0.0
 11
64.105893
 21
-25.731451
 31
0.0
  0
LINE
  5
137
100
AcDbEntity
  8
1
370
    50
100
AcDbLine
 10
64.105893
 20
-25.731451
 30
0.0
 11
64.819145
 21
-24.361306
 31
0.0
  0
ARC
  5
138
100
AcDbEntity
  8
1
370
    50
100
AcDbCircle
 10
66.593167
 20
-25.284803
 30
0.0
 40
2.0
100
AcDbArc
 50
90.0
 51
152.5
  0
LINE
  5
139
100
AcDbEntity
  8
1
370
    50
100
AcDbLine
 10
108.605893
 20
-24.484803
 30
0.0
 11
66.105893
 21
-24.484803
 31
0.0
  0
LINE
  5
13A
100
AcDbEntity
  8
1
370
    50
100
AcDbLine
 10
80.805893
 20
-27.284803
 30
0.0
 11
80.805893
 21
-35.484803
 31
0.0
  0
LINE
  5
13B
100
AcDbEntity
  8
1
370
    50
100
AcDbLine
 10
98.905893
 20
-27.284803
 30
0.0
 11
98.905893
 21
-35.484803
 31
0.0
  0
LINE
  5
13C
100
AcDbEntity
  8
1
370
    50
100
AcDbLine
 10
68.855893
 20
-26.284803
 30
0.0
 11
103.355893
 21
-26.284803
 31
0.0
  0
LINE
  5
13D
100
AcDbEntity
  8
1
370
    50
100
AcDbLine
 10
104.105893
 20
-24.484803
 30
0.0
 11
104.105893
 21
-25.534803
 31
0.0
  0
LINE
  5
13E
100
AcDbEntity
  8
1
370
    50
100
AcDbLine
 10
68.105893
 20
-24.484803
 30
0.0
 11
68.105893
 21
-25.534803
 31
0.0
  0
ARC
  5
13F
100
AcDbEntity
  8
1
370
    50
100
AcDbCircle
 10
103.355893
 20
-25.534803
 30
0.0
 40
0.75
100
AcDbArc
 50
270.0
 51
360.0
  0
ARC
  5
140
100
AcDbEntity
  8
1
370
    50
100
AcDbCircle
 10
68.855893
 20
-25.534803
 30
0.0
 40
0.75
100
AcDbArc
 50
180.0
 51
270.0
  0
ARC
  5
141
100
AcDbEntity
  8
1
370
    50
100
AcDbCircle
 10
99.905893
 20
-27.284803
 30
0.0
 40
1.0
100
AcDbArc
 50
90.0
 51
180.0
  0
ARC
  5
142
100
AcDbEntity
  8
1
370
    50
100
AcDbCircle
 10
79.805893
 20
-27.284803
 30
0.0
 40
1.0
100
AcDbArc
 50
0.0
 51
90.0
  0
ARC
  5
143
100
AcDbEntity
  8
1
370
    50
100
AcDbCircle
 10
95.905893
 20
-35.484803
 30
0.0
 40
3.0
100
AcDbArc
 50
270.0
 51
360.0
  0
ARC
  5
144
100
AcDbEntity
  8
1
370
    50
100
AcDbCircle
 10
83.805893
 20
-35.484803
 30
0.0
 40
3.0
100
AcDbArc
 50
180.0
 51
270.0
  0
ARC
  5
145
100
AcDbEntity
  8
1
370
    50
100
AcDbCircle
 10
136.604585
 20
87.943915
 30
0.0
 40
5.0
100
AcDbArc
 50
180.0
 51
185.73917
  0
ARC
  5
146
100
AcDbEntity
  8
1
370
    50
100
AcDbCircle
 10
136.604585
 20
17.943915
 30
0.0
 40
5.0
100
AcDbArc
 50
174.26083
 51
180.0
  0
LINE
  5
147
100
AcDbEntity
  8
1
370
    50
100
AcDbLine
 10
131.604585
 20
87.943915
 30
0.0
 11
131.604585
 21
87.443915
 31
0.0
  0
LINE
  5
148
100
AcDbEntity
  8
1
370
    50
100
AcDbLine
 10
131.604585
 20
17.943915
 30
0.0
 11
131.604585
 21
18.443915
 31
0.0
  0
LINE
  5
149
100
AcDbEntity
  8
1
370
    25
100
AcDbLine
 10
92.605893
 20
78.193916
 30
0.0
 11
93.005893
 21
78.193916
 31
0.0
  0
ARC
  5
14A
100
AcDbEntity
  8
1
370
    25
100
AcDbCircle
 10
94.355893
 20
78.193916
 30
0.0
 40
1.35
100
AcDbArc
 50
90.0
 51
180.0
  0
LINE
  5
14B
100
AcDbEntity
  8
1
370
    25
100
AcDbLine
 10
94.355893
 20
79.543916
 30
0.0
 11
94.355893
 21
79.943916
 31
0.0
  0
LINE
  5
14C
100
AcDbEntity
  8
1
370
    25
100
AcDbLine
 10
92.605893
 20
81.693916
 30
0.0
 11
93.005893
 21
81.693916
 31
0.0
  0
ARC
  5
14D
100
AcDbEntity
  8
1
370
    25
100
AcDbCircle
 10
94.355893
 20
81.693916
 30
0.0
 40
1.35
100
AcDbArc
 50
180.0
 51
270.0
  0
LINE
  5
14E
100
AcDbEntity
  8
1
370
    25
100
AcDbLine
 10
94.355893
 20
80.343916
 30
0.0
 11
94.355893
 21
79.943916
 31
0.0
  0
LINE
  5
14F
100
AcDbEntity
  8
1
370
    25
100
AcDbLine
 10
92.605893
 20
78.193916
 30
0.0
 11
92.205893
 21
78.193916
 31
0.0
  0
ARC
  5
150
100
AcDbEntity
  8
1
370
    25
100
AcDbCircle
 10
90.855893
 20
78.193916
 30
0.0
 40
1.35
100
AcDbArc
 50
0.0
 51
90.0
  0
LINE
  5
151
100
AcDbEntity
  8
1
370
    25
100
AcDbLine
 10
90.855893
 20
79.543916
 30
0.0
 11
90.855893
 21
79.943916
 31
0.0
  0
LINE
  5
152
100
AcDbEntity
  8
1
370
    25
100
AcDbLine
 10
92.605893
 20
81.693916
 30
0.0
 11
92.205893
 21
81.693916
 31
0.0
  0
ARC
  5
153
100
AcDbEntity
  8
1
370
    25
100
AcDbCircle
 10
90.855893
 20
81.693916
 30
0.0
 40
1.35
100
AcDbArc
 50
270.0
 51
360.0
  0
LINE
  5
154
100
AcDbEntity
  8
1
370
    25
100
AcDbLine
 10
90.855893
 20
80.343916
 30
0.0
 11
90.855893
 21
79.943916
 31
0.0
  0
CIRCLE
  5
155
100
AcDbEntity
  8
1
370
    50
100
AcDbCircle
 10
92.605893
 20
79.943916
 30
0.0
 40
3.0
  0
LINE
  5
156
100
AcDbEntity
  8
1
370
    25
100
AcDbLine
 10
92.605893
 20
27.693916
 30
0.0
 11
93.005893
 21
27.693916
 31
0.0
  0
ARC
  5
157
100
AcDbEntity
  8
1
370
    25
100
AcDbCircle
 10
94.355893
 20
27.693916
 30
0.0
 40
1.35
100
AcDbArc
 50
180.0
 51
270.0
  0
LINE
  5
158
100
AcDbEntity
  8
1
370
    25
100
AcDbLine
 10
94.355893
 20
26.343916
 30
0.0
 11
94.355893
 21
25.943916
 31
0.0
  0
LINE
  5
159
100
AcDbEntity
  8
1
370
    25
100
AcDbLine
 10
92.605893
 20
24.193916
 30
0.0
 11
93.005893
 21
24.193916
 31
0.0
  0
ARC
  5
15A
100
AcDbEntity
  8
1
370
    25
100
AcDbCircle
 10
94.355893
 20
24.193916
 30
0.0
 40
1.35
100
AcDbArc
 50
90.0
 51
180.0
  0
LINE
  5
15B
100
AcDbEntity
  8
1
370
    25
100
AcDbLine
 10
94.355893
 20
25.543916
 30
0.0
 11
94.355893
 21
25.943916
 31
0.0
  0
LINE
  5
15C
100
AcDbEntity
  8
1
370
    25
100
AcDbLine
 10
92.605893
 20
27.693916
 30
0.0
 11
92.205893
 21
27.693916
 31
0.0
  0
ARC
  5
15D
100
AcDbEntity
  8
1
370
    25
100
AcDbCircle
 10
90.855893
 20
27.693916
 30
0.0
 40
1.35
100
AcDbArc
 50
270.0
 51
360.0
  0
LINE
  5
15E
100
AcDbEntity
  8
1
370
    25
100
AcDbLine
 10
90.855893
 20
26.343916
 30
0.0
 11
90.855893
 21
25.943916
 31
0.0
  0
LINE
  5
15F
100
AcDbEntity
  8
1
370
    25
100
AcDbLine
 10
92.605893
 20
24.193916
 30
0.0
 11
92.205893
 21
24.193916
 31
0.0
  0
ARC
  5
160
100
AcDbEntity
  8
1
370
    25
100
AcDbCircle
 10
90.855893
 20
24.193916
 30
0.0
 40
1.35
100
AcDbArc
 50
360.0
 51
90.0
  0
LINE
  5
161
100
AcDbEntity
  8
1
370
    25
100
AcDbLine
 10
90.855893
 20
25.543916
 30
0.0
 11
90.855893
 21
25.943916
 31
0.0
  0
CIRCLE
  5
162
100
AcDbEntity
  8
1
370
    50
100
AcDbCircle
 10
92.605893
 20
25.943916
 30
0.0
 40
3.0
  0
LINE
  5
163
100
AcDbEntity
  8
1
370
    25
  6
CENTER
100
AcDbLine
 10
92.605893
 20
-21.41979
 30
0.0
 11
92.605893
 21
-46.909803
 31
0.0
  0
LINE
  5
164
100
AcDbEntity
  8
1
370
    50
100
AcDbLine
 10
94.155893
 20
-26.284803
 30
0.0
 11
94.155893
 21
-29.284803
 31
0.0
  0
LINE
  5
165
100
AcDbEntity
  8
1
370
    50
100
AcDbLine
 10
91.055893
 20
-26.284803
 30
0.0
 11
91.055893
 21
-30.115446
 31
0.0
  0
LINE
  5
166
100
AcDbEntity
  8
1
370
    50
100
AcDbLine
 10
93.605893
 20
-29.432175
 30
0.0
 11
93.605893
 21
-41.468205
 31
0.0
  0
LINE
  5
167
100
AcDbEntity
  8
1
370
    50
100
AcDbLine
 10
91.605893
 20
-29.968074
 30
0.0
 11
91.605893
 21
-41.468205
 31
0.0
  0
LINE
  5
168
100
AcDbEntity
  8
1
370
    50
100
AcDbLine
 10
92.605893
 20
-45.200256
 30
0.0
 11
93.605893
 21
-41.468205
 31
0.0
  0
LINE
  5
169
100
AcDbEntity
  8
1
370
    50
100
AcDbLine
 10
94.155893
 20
-29.284803
 30
0.0
 11
91.055893
 21
-30.115446
 31
0.0
  0
LINE
  5
16A
100
AcDbEntity
  8
1
370
    25
100
AcDbLine
 10
94.155893
 20
-30.784803
 30
0.0
 11
91.055893
 21
-31.615446
 31
0.0
  0
LINE
  5
16B
100
AcDbEntity
  8
1
370
    25
100
AcDbLine
 10
94.155893
 20
-32.284803
 30
0.0
 11
91.055893
 21
-33.115446
 31
0.0
  0
LINE
  5
16C
100
AcDbEntity
  8
1
370
    25
100
AcDbLine
 10
94.155893
 20
-33.784803
 30
0.0
 11
91.055893
 21
-34.615446
 31
0.0
  0
LINE
  5
16D
100
AcDbEntity
  8
1
370
    25
100
AcDbLine
 10
94.155893
 20
-35.284803
 30
0.0
 11
91.055893
 21
-36.115446
 31
0.0
  0
LINE
  5
16E
100
AcDbEntity
  8
1
370
    25
100
AcDbLine
 10
94.155893
 20
-36.784803
 30
0.0
 11
91.055893
 21
-37.615446
 31
0.0
  0
LINE
  5
16F
100
AcDbEntity
  8
1
370
    25
100
AcDbLine
 10
94.155893
 20
-38.284803
 30
0.0
 11
91.055893
 21
-39.115446
 31
0.0
  0
LINE
  5
170
100
AcDbEntity
  8
1
370
    25
100
AcDbLine
 10
94.155893
 20
-39.784803
 30
0.0
 11
91.055893
 21
-40.615446
 31
0.0
  0
LINE
  5
171
100
AcDbEntity
  8
1
370
    25
100
AcDbLine
 10
94.155893
 20
-41.284803
 30
0.0
 11
91.22676
 21
-42.069662
 31
0.0
  0
LINE
  5
172
100
AcDbEntity
  8
1
370
    25
100
AcDbLine
 10
93.740958
 20
-42.895984
 30
0.0
 11
91.60176
 21
-43.469181
 31
0.0
  0
LINE
  5
173
100
AcDbEntity
  8
1
370
    25
100
AcDbLine
 10
93.307946
 20
-44.51201
 30
0.0
 11
91.97676
 21
-44.8687
 31
0.0
  0
LINE
  5
174
100
AcDbEntity
  8
1
370
    50
100
AcDbLine
 10
92.605893
 20
-45.200256
 30
0.0
 11
91.605893
 21
-41.468205
 31
0.0
  0
LINE
  5
175
100
AcDbEntity
  8
1
370
    25
  6
CENTER
100
AcDbLine
 10
128.539572
 20
79.943915
 30
0.0
 11
154.029585
 21
79.943915
 31
0.0
  0
LINE
  5
176
100
AcDbEntity
  8
1
370
    50
100
AcDbLine
 10
133.404585
 20
81.493915
 30
0.0
 11
136.404585
 21
81.493915
 31
0.0
  0
LINE
  5
177
100
AcDbEntity
  8
1
370
    50
100
AcDbLine
 10
133.404585
 20
78.393915
 30
0.0
 11
137.235228
 21
78.393915
 31
0.0
  0
LINE
  5
178
100
AcDbEntity
  8
1
370
    50
100
AcDbLine
 10
136.551957
 20
80.943915
 30
0.0
 11
148.587988
 21
80.943915
 31
0.0
  0
LINE
  5
179
100
AcDbEntity
  8
1
370
    50
100
AcDbLine
 10
137.087856
 20
78.943915
 30
0.0
 11
148.587988
 21
78.943915
 31
0.0
  0
LINE
  5
17A
100
AcDbEntity
  8
1
370
    50
100
AcDbLine
 10
152.320038
 20
79.943915
 30
0.0
 11
148.587988
 21
80.943915
 31
0.0
  0
LINE
  5
17B
100
AcDbEntity
  8
1
370
    50
100
AcDbLine
 10
136.404585
 20
81.493915
 30
0.0
 11
137.235228
 21
78.393915
 31
0.0
  0
LINE
  5
17C
100
AcDbEntity
  8
1
370
    25
100
AcDbLine
 10
137.904585
 20
81.493915
 30
0.0
 11
138.735228
 21
78.393915
 31
0.0
  0
LINE
  5
17D
100
AcDbEntity
  8
1
370
    25
100
AcDbLine
 10
139.404585
 20
81.493915
 30
0.0
 11
140.235228
 21
78.393915
 31
0.0
  0
LINE
  5
17E
100
AcDbEntity
  8
1
370
    25
100
AcDbLine
 10
140.904585
 20
81.493915
 30
0.0
 11
141.735228
 21
78.393915
 31
0.0
  0
LINE
  5
17F
100
AcDbEntity
  8
1
370
    25
100
AcDbLine
 10
142.404585
 20
81.493915
 30
0.0
 11
143.235228
 21
78.393915
 31
0.0
  0
LINE
  5
180
100
AcDbEntity
  8
1
370
    25
100
AcDbLine
 10
143.904585
 20
81.493915
 30
0.0
 11
144.735228
 21
78.393915
 31
0.0
  0
LINE
  5
181
100
AcDbEntity
  8
1
370
    25
100
AcDbLine
 10
145.404585
 20
81.493915
 30
0.0
 11
146.235228
 21
78.393915
 31
0.0
  0
LINE
  5
182
100
AcDbEntity
  8
1
370
    25
100
AcDbLine
 10
146.904585
 20
81.493915
 30
0.0
 11
147.735228
 21
78.393915
 31
0.0
  0
LINE
  5
183
100
AcDbEntity
  8
1
370
    25
100
AcDbLine
 10
148.404585
 20
81.493915
 30
0.0
 11
149.189444
 21
78.564782
 31
0.0
  0
LINE
  5
184
100
AcDbEntity
  8
1
370
    25
100
AcDbLine
 10
150.015767
 20
81.078981
 30
0.0
 11
150.588963
 21
78.939782
 31
0.0
  0
LINE
  5
185
100
AcDbEntity
  8
1
370
    25
100
AcDbLine
 10
151.631792
 20
80.645968
 30
0.0
 11
151.988482
 21
79.314782
 31
0.0
  0
LINE
  5
186
100
AcDbEntity
  8
1
370
    50
100
AcDbLine
 10
152.320038
 20
79.943915
 30
0.0
 11
148.587988
 21
78.943915
 31
0.0
  0
LINE
  5
187
100
AcDbEntity
  8
1
370
    25
  6
CENTER
100
AcDbLine
 10
128.539572
 20
25.943915
 30
0.0
 11
154.029585
 21
25.943915
 31
0.0
  0
LINE
  5
188
100
AcDbEntity
  8
1
370
    50
100
AcDbLine
 10
133.404585
 20
27.493915
 30
0.0
 11
136.404585
 21
27.493915
 31
0.0
  0
LINE
  5
189
100
AcDbEntity
  8
1
370
    50
100
AcDbLine
 10
133.404585
 20
24.393915
 30
0.0
 11
137.235228
 21
24.393915
 31
0.0
  0
LINE
  5
18A
100
AcDbEntity
  8
1
370
    50
100
AcDbLine
 10
136.551957
 20
26.943915
 30
0.0
 11
148.587988
 21
26.943915
 31
0.0
  0
LINE
  5
18B
100
AcDbEntity
  8
1
370
    50
100
AcDbLine
 10
137.087856
 20
24.943915
 30
0.0
 11
148.587988
 21
24.943915
 31
0.0
  0
LINE
  5
18C
100
AcDbEntity
  8
1
370
    50
100
AcDbLine
 10
152.320038
 20
25.943915
 30
0.0
 11
148.587988
 21
26.943915
 31
0.0
  0
LINE
  5
18D
100
AcDbEntity
  8
1
370
    50
100
AcDbLine
 10
136.404585
 20
27.493915
 30
0.0
 11
137.235228
 21
24.393915
 31
0.0
  0
LINE
  5
18E
100
AcDbEntity
  8
1
370
    25
100
AcDbLine
 10
137.904585
 20
27.493915
 30
0.0
 11
138.735228
 21
24.393915
 31
0.0
  0
LINE
  5
18F
100
AcDbEntity
  8
1
370
    25
100
AcDbLine
 10
139.404585
 20
27.493915
 30
0.0
 11
140.235228
 21
24.393915
 31
0.0
  0
LINE
  5
190
100
AcDbEntity
  8
1
370
    25
100
AcDbLine
 10
140.904585
 20
27.493915
 30
0.0
 11
141.735228
 21
24.393915
 31
0.0
  0
LINE
  5
191
100
AcDbEntity
  8
1
370
    25
100
AcDbLine
 10
142.404585
 20
27.493915
 30
0.0
 11
143.235228
 21
24.393915
 31
0.0
  0
LINE
  5
192
100
AcDbEntity
  8
1
370
    25
100
AcDbLine
 10
143.904585
 20
27.493915
 30
0.0
 11
144.735228
 21
24.393915
 31
0.0
  0
LINE
  5
193
100
AcDbEntity
  8
1
370
    25
100
AcDbLine
 10
145.404585
 20
27.493915
 30
0.0
 11
146.235228
 21
24.393915
 31
0.0
  0
LINE
  5
194
100
AcDbEntity
  8
1
370
    25
100
AcDbLine
 10
146.904585
 20
27.493915
 30
0.0
 11
147.735228
 21
24.393915
 31
0.0
  0
LINE
  5
195
100
AcDbEntity
  8
1
370
    25
100
AcDbLine
 10
148.404585
 20
27.493915
 30
0.0
 11
149.189444
 21
24.564782
 31
0.0
  0
LINE
  5
196
100
AcDbEntity
  8
1
370
    25
100
AcDbLine
 10
150.015767
 20
27.078981
 30
0.0
 11
150.588963
 21
24.939782
 31
0.0
  0
LINE
  5
197
100
AcDbEntity
  8
1
370
    25
100
AcDbLine
 10
151.631792
 20
26.645968
 30
0.0
 11
151.988482
 21
25.314782
 31
0.0
  0
LINE
  5
198
100
AcDbEntity
  8
1
370
    50
100
AcDbLine
 10
152.320038
 20
25.943915
 30
0.0
 11
148.587988
 21
24.943915
 31
0.0
  0
LINE
  5
199
100
AcDbEntity
  8
1
370
    50
100
AcDbLine
 10
83.805893
 20
-38.484803
 30
0.0
 11
91.605893
 21
-38.484803
 31
0.0
  0
LINE
  5
19A
100
AcDbEntity
  8
1
370
    50
100
AcDbLine
 10
93.605893
 20
-38.484803
 30
0.0
 11
95.905893
 21
-38.484803
 31
0.0
  0
ARC
  5
19B
100
AcDbEntity
  8
1
370
    50
100
AcDbCircle
 10
102.605893
 20
81.943916
 30
0.0
 40
6.0
100
AcDbArc
 50
0.0
 51
90.0
  0
ARC
  5
19C
100
AcDbEntity
  8
1
370
    50
100
AcDbCircle
 10
102.605893
 20
23.943916
 30
0.0
 40
6.0
100
AcDbArc
 50
270.0
 51
360.0
  0
CIRCLE
  5
19D
100
AcDbEntity
  8
2
370
    25
100
AcDbCircle
 10
-90.359334
 20
9.852429
 30
0.0
 40
3.0
  0
CIRCLE
  5
19E
100
AcDbEntity
  8
2
370
    25
100
AcDbCircle
 10
-63.386992
 20
96.035401
 30
0.0
 40
3.0
  0
CIRCLE
  5
19F
100
AcDbEntity
  8
2
370
    25
100
AcDbCircle
 10
-52.996232
 20
9.84236
 30
0.0
 40
3.0
  0
TEXT
  5
1A0
100
AcDbEntity
  8
2
370
    25
100
AcDbText
 10
-64.886992
 20
94.535401
 30
0.0
 40
3.0
  1
２
 72
     5
 11
-62.486992
 21
94.535401
 31
0.0
100
AcDbText
  0
TEXT
  5
1A1
100
AcDbEntity
  8
2
370
    25
100
AcDbText
 10
-54.496232
 20
8.34236
 30
0.0
 40
3.0
  1
３
 72
     5
 11
-52.096232
 21
8.34236
 31
0.0
100
AcDbText
  0
TEXT
  5
1A2
100
AcDbEntity
  8
2
370
    25
100
AcDbText
 10
-91.859334
 20
8.352429
 30
0.0
 40
3.0
  1
１
 72
     5
 11
-89.459334
 21
8.352429
 31
0.0
100
AcDbText
  0
LWPOLYLINE
  5
1A3
100
AcDbEntity
  8
2
370
    25
100
AcDbPolyline
 90
        2
 70
     0
 10
-79.595415
 20
24.546576
 10
-88.427064
 20
12.490227
  0
LINE
  5
1A7
100
AcDbEntity
  8
2
370
    25
100
AcDbLine
 10
-79.424824
 20
24.779454
 30
0.0
 11
-79.828181
 21
25.074925
 31
0.0
  0
LINE
  5
1A8
100
AcDbEntity
  8
2
370
    25
100
AcDbLine
 10
-79.828181
 20
25.074925
 30
0.0
 11
-79.936596
 21
24.080819
 31
0.0
  0
LINE
  5
1A9
100
AcDbEntity
  8
2
370
    25
100
AcDbLine
 10
-79.936596
 20
24.080819
 30
0.0
 11
-79.021467
 21
24.483982
 31
0.0
  0
LINE
  5
1AA
100
AcDbEntity
  8
2
370
    25
100
AcDbLine
 10
-79.021467
 20
24.483982
 30
0.0
 11
-79.424824
 21
24.779454
 31
0.0
  0
LWPOLYLINE
  5
1AB
100
AcDbEntity
  8
2
370
    25
100
AcDbPolyline
 90
        2
 70
     0
 10
-76.695415
 20
83.543518
 10
-65.745961
 20
93.821167
  0
LINE
  5
1AF
100
AcDbEntity
  8
2
370
    25
100
AcDbLine
 10
-76.905894
 20
83.345953
 30
0.0
 11
-76.563701
 21
82.981393
 31
0.0
  0
LINE
  5
1B0
100
AcDbEntity
  8
2
370
    25
100
AcDbLine
 10
-76.563701
 20
82.981393
 30
0.0
 11
-76.274457
 21
83.938648
 31
0.0
  0
LINE
  5
1B1
100
AcDbEntity
  8
2
370
    25
100
AcDbLine
 10
-76.274457
 20
83.938648
 30
0.0
 11
-77.248086
 21
83.710513
 31
0.0
  0
LINE
  5
1B2
100
AcDbEntity
  8
2
370
    25
100
AcDbLine
 10
-77.248086
 20
83.710513
 30
0.0
 11
-76.905894
 21
83.345953
 31
0.0
  0
TEXT
  5
1B3
100
AcDbEntity
  8
2
370
    18
100
AcDbText
 10
-154.448534
 20
107.205542
 30
0.0
 40
3.2
  1
（調整範囲５ｍｍ）
 72
     5
 11
-126.288534
 21
107.205542
 31
0.0
100
AcDbText
  0
DIMENSION
  5
1B4
100
AcDbEntity
  8
2
370
    25
100
AcDbDimension
  2
*D0
 10
-117.394107
 20
107.387298
 30
0.0
 11
-121.644107
 21
109.387298
 31
0.0
 71
     0
 72
     0
 41
0.0
 42
0.0
  3
Standard
100
AcDbAlignedDimension
 13
-124.394107
 23
66.443916
 33
0.0
 14
-117.394107
 24
90.891332
 34
0.0
100
AcDbRotatedDimension
  0
TEXT
  5
1B5
100
AcDbEntity
  8
2
370
    18
100
AcDbText
 10
-119.524657
 20
116.844687
 30
0.0
 40
3.2
  1
調整基準位置
 72
     5
 11
-100.964656
 21
116.844687
 31
0.0
100
AcDbText
  0
LWPOLYLINE
  5
1B6
100
AcDbEntity
  8
2
370
    18
100
AcDbPolyline
 90
        3
 70
     0
 10
-124.394074
 20
108.387229
 10
-121.434282
 20
116.344687
 10
-100.0427
 20
116.344687
  0
LINE
  5
1BB
100
AcDbEntity
  8
2
370
    25
100
AcDbLine
 10
-124.205761
 20
110.378344
 30
0.0
 11
-124.394074
 21
108.387229
 31
0.0
  0
LINE
  5
1BC
100
AcDbEntity
  8
2
370
    25
100
AcDbLine
 10
-124.394074
 20
108.387229
 30
0.0
 11
-123.235433
 21
110.017428
 31
0.0
  0
TEXT
  5
1BD
100
AcDbEntity
  8
2
370
    18
100
AcDbText
 10
-135.394107
 20
103.218085
 30
0.0
 40
3.0
  1
+
 72
     5
 11
-132.994107
 21
103.218085
 31
0.0
100
AcDbText
  0
DIMENSION
  5
1BE
100
AcDbEntity
  8
2
370
    25
100
AcDbDimension
  2
*D1
 10
-124.394107
 20
102.718085
 30
0.0
 11
-131.644107
 21
104.718085
 31
0.0
 71
     0
 72
     0
 41
0.0
 42
0.0
  3
Standard
100
AcDbAlignedDimension
 13
-128.394107
 23
66.443916
 33
0.0
 14
-124.394107
 24
66.443916
 34
0.0
100
AcDbRotatedDimension
  0
TEXT
  5
1BF
100
AcDbEntity
  8
2
370
    18
100
AcDbText
 10
-122.394107
 20
103.218085
 30
0.0
 40
3.0
  1
-
 72
     5
 11
-119.994107
 21
103.218085
 31
0.0
100
AcDbText
  0
DIMENSION
  5
1C0
100
AcDbEntity
  8
2
370
    25
100
AcDbDimension
  2
*D2
 10
-123.394107
 20
102.718085
 30
0.0
 11
-118.644107
 21
104.718085
 31
0.0
 71
     0
 72
     0
 41
0.0
 42
0.0
  3
Standard
100
AcDbAlignedDimension
 13
-124.394107
 23
66.443916
 33
0.0
 14
-123.394107
 24
66.443916
 34
0.0
100
AcDbRotatedDimension
  0
LWPOLYLINE
  5
1C1
100
AcDbEntity
  8
2
370
    25
100
AcDbPolyline
 90
        2
 70
     0
 10
-65.680093
 20
25.943915
 10
-54.913932
 20
12.27679
  0
LINE
  5
1C5
100
AcDbEntity
  8
2
370
    25
100
AcDbLine
 10
-65.858727
 20
26.170682
 30
0.0
 11
-66.251499
 21
25.861279
 31
0.0
  0
LINE
  5
1C6
100
AcDbEntity
  8
2
370
    25
100
AcDbLine
 10
-66.251499
 20
25.861279
 30
0.0
 11
-65.322826
 21
25.490381
 31
0.0
  0
LINE
  5
1C7
100
AcDbEntity
  8
2
370
    25
100
AcDbLine
 10
-65.322826
 20
25.490381
 30
0.0
 11
-65.465955
 21
26.480085
 31
0.0
  0
LINE
  5
1C8
100
AcDbEntity
  8
2
370
    25
100
AcDbLine
 10
-65.465955
 20
26.480085
 30
0.0
 11
-65.858727
 21
26.170682
 31
0.0
  0
DIMENSION
  5
1C9
100
AcDbEntity
  8
2
370
    25
100
AcDbDimension
  2
*D3
 10
-52.728432
 20
69.243915
 30
0.0
 11
-59.228432
 21
49.943915
 31
0.0
 71
     0
 72
     0
 41
0.0
 42
0.0
  3
Standard
100
AcDbAlignedDimension
 13
-67.395415
 23
36.643915
 33
0.0
 14
-67.395415
 24
69.243915
 34
0.0
 50
90.0
100
AcDbRotatedDimension
  0
DIMENSION
  5
1CA
100
AcDbEntity
  8
2
370
    25
100
AcDbDimension
  2
*D4
 10
-93.454881
 20
66.943916
 30
0.0
 11
-96.954881
 21
52.943916
 31
0.0
 71
     0
 72
     0
 41
0.0
 42
0.0
  3
Standard
100
AcDbAlignedDimension
 13
-110.394107
 23
38.943916
 33
0.0
 14
-110.394107
 24
66.943916
 34
0.0
 50
90.0
100
AcDbRotatedDimension
  0
DIMENSION
  5
1CB
100
AcDbEntity
  8
2
370
    25
100
AcDbDimension
  2
*D5
 10
-88.147541
 20
79.943916
 30
0.0
 11
-91.647541
 21
52.943916
 31
0.0
 71
     0
 72
     0
 41
0.0
 42
0.0
  3
Standard
100
AcDbAlignedDimension
 13
-111.283016
 23
25.943916
 33
0.0
 14
-111.33776
 24
79.943916
 34
0.0
 50
90.0
100
AcDbRotatedDimension
  0
DIMENSION
  5
1CC
100
AcDbEntity
  8
2
370
    25
100
AcDbDimension
  2
*D6
 10
-155.373856
 20
87.943916
 30
0.0
 11
-158.873856
 21
52.943916
 31
0.0
 71
     0
 72
     0
 41
0.0
 42
0.0
  3
Standard
100
AcDbAlignedDimension
 13
-141.894107
 23
17.943916
 33
0.0
 14
-141.894107
 24
87.943916
 34
0.0
 50
90.0
100
AcDbRotatedDimension
  0
DIMENSION
  5
1CD
100
AcDbEntity
  8
2
370
    25
100
AcDbDimension
  2
*D7
 10
-101.394107
 20
8.100343
 30
0.0
 11
-109.394107
 21
10.100343
 31
0.0
 71
     0
 72
     0
 41
0.0
 42
0.0
  3
Standard
100
AcDbAlignedDimension
 13
-117.394107
 23
13.988676
 33
0.0
 14
-101.394107
 24
17.943916
 34
0.0
100
AcDbRotatedDimension
  0
DIMENSION
  5
1CE
100
AcDbEntity
  8
2
370
    25
100
AcDbDimension
  2
*D8
 10
-117.394107
 20
8.100343
 30
0.0
 11
-131.644107
 21
10.100343
 31
0.0
 71
     0
 72
     0
 41
0.0
 42
0.0
  3
Standard
100
AcDbAlignedDimension
 13
-145.894107
 23
21.943916
 33
0.0
 14
-117.394107
 24
8.100343
 34
0.0
100
AcDbRotatedDimension
  0
DIMENSION
  5
1CF
100
AcDbEntity
  8
2
370
    25
100
AcDbDimension
  2
*D9
 10
-101.394107
 20
2.152205
 30
0.0
 11
-123.644107
 21
4.152205
 31
0.0
 71
     0
 72
     0
 41
0.0
 42
0.0
  3
Standard
100
AcDbAlignedDimension
 13
-145.894107
 23
21.943916
 33
0.0
 14
-101.394107
 24
17.943916
 34
0.0
100
AcDbRotatedDimension
  0
DIMENSION
  5
1D0
100
AcDbEntity
  8
2
370
    25
100
AcDbDimension
  2
*D10
 10
-94.624753
 20
-23.284803
 30
0.0
 11
-96.624753
 21
-19.284803
 31
0.0
 71
     0
 72
     0
 41
0.0
 42
0.0
  3
Standard
100
AcDbAlignedDimension
 13
-106.644107
 23
-26.284803
 33
0.0
 14
-101.394107
 24
-23.284803
 34
0.0
 50
90.0
100
AcDbRotatedDimension
  0
DIMENSION
  5
1D1
100
AcDbEntity
  8
2
370
    25
100
AcDbDimension
  2
*D11
 10
-87.632698
 20
-23.284803
 30
0.0
 11
-94.132698
 21
-33.884803
 31
0.0
 71
     0
 72
     0
 41
0.0
 42
0.0
  3
Standard
100
AcDbAlignedDimension
 13
-114.094107
 23
-38.484803
 33
0.0
 14
-101.394107
 24
-23.284803
 34
0.0
 50
90.0
100
AcDbRotatedDimension
  0
DIMENSION
  5
1D2
100
AcDbEntity
  8
2
370
    25
100
AcDbDimension
  2
*D12
 10
-151.849182
 20
-23.284803
 30
0.0
 11
-153.849182
 21
-19.284803
 31
0.0
 71
     0
 72
     0
 41
0.0
 42
0.0
  3
Standard
100
AcDbAlignedDimension
 13
-144.831128
 23
-26.284803
 33
0.0
 14
-143.406833
 24
-23.284803
 34
0.0
 50
90.0
100
AcDbRotatedDimension
  0
DIMENSION
  5
1D3
100
AcDbEntity
  8
2
370
    25
100
AcDbDimension
  2
*D13
 10
-111.094107
 20
-52.321278
 30
0.0
 11
-120.144107
 21
-50.321278
 31
0.0
 71
     0
 72
     0
 41
0.0
 42
0.0
  3
Standard
100
AcDbAlignedDimension
 13
-129.194107
 23
-35.484803
 33
0.0
 14
-111.094107
 24
-35.484803
 34
0.0
100
AcDbRotatedDimension
  0
CIRCLE
  5
1D4
100
AcDbEntity
  8
2
370
    25
100
AcDbCircle
 10
119.640666
 20
9.852429
 30
0.0
 40
3.0
  0
CIRCLE
  5
1D5
100
AcDbEntity
  8
2
370
    25
100
AcDbCircle
 10
146.613008
 20
96.035401
 30
0.0
 40
3.0
  0
CIRCLE
  5
1D6
100
AcDbEntity
  8
2
370
    25
100
AcDbCircle
 10
157.003768
 20
9.84236
 30
0.0
 40
3.0
  0
TEXT
  5
1D7
100
AcDbEntity
  8
2
370
    25
100
AcDbText
 10
145.113008
 20
94.535401
 30
0.0
 40
3.0
  1
２
 72
     5
 11
147.513008
 21
94.535401
 31
0.0
100
AcDbText
  0
TEXT
  5
1D8
100
AcDbEntity
  8
2
370
    25
100
AcDbText
 10
155.503768
 20
8.34236
 30
0.0
 40
3.0
  1
３
 72
     5
 11
157.903768
 21
8.34236
 31
0.0
100
AcDbText
  0
TEXT
  5
1D9
100
AcDbEntity
  8
2
370
    25
100
AcDbText
 10
118.140666
 20
8.352429
 30
0.0
 40
3.0
  1
１
 72
     5
 11
120.540666
 21
8.352429
 31
0.0
100
AcDbText
  0
LWPOLYLINE
  5
1DA
100
AcDbEntity
  8
2
370
    25
100
AcDbPolyline
 90
        2
 70
     0
 10
130.404585
 20
24.546576
 10
121.572936
 20
12.490227
  0
LINE
  5
1DE
100
AcDbEntity
  8
2
370
    25
100
AcDbLine
 10
130.575176
 20
24.779454
 30
0.0
 11
130.171819
 21
25.074925
 31
0.0
  0
LINE
  5
1DF
100
AcDbEntity
  8
2
370
    25
100
AcDbLine
 10
130.171819
 20
25.074925
 30
0.0
 11
130.063404
 21
24.080819
 31
0.0
  0
LINE
  5
1E0
100
AcDbEntity
  8
2
370
    25
100
AcDbLine
 10
130.063404
 20
24.080819
 30
0.0
 11
130.978533
 21
24.483982
 31
0.0
  0
LINE
  5
1E1
100
AcDbEntity
  8
2
370
    25
100
AcDbLine
 10
130.978533
 20
24.483982
 30
0.0
 11
130.575176
 21
24.779454
 31
0.0
  0
LWPOLYLINE
  5
1E2
100
AcDbEntity
  8
2
370
    25
100
AcDbPolyline
 90
        2
 70
     0
 10
133.304585
 20
83.543518
 10
144.254039
 20
93.821167
  0
LINE
  5
1E6
100
AcDbEntity
  8
2
370
    25
100
AcDbLine
 10
133.094106
 20
83.345953
 30
0.0
 11
133.436299
 21
82.981393
 31
0.0
  0
LINE
  5
1E7
100
AcDbEntity
  8
2
370
    25
100
AcDbLine
 10
133.436299
 20
82.981393
 30
0.0
 11
133.725543
 21
83.938648
 31
0.0
  0
LINE
  5
1E8
100
AcDbEntity
  8
2
370
    25
100
AcDbLine
 10
133.725543
 20
83.938648
 30
0.0
 11
132.751914
 21
83.710513
 31
0.0
  0
LINE
  5
1E9
100
AcDbEntity
  8
2
370
    25
100
AcDbLine
 10
132.751914
 20
83.710513
 30
0.0
 11
133.094106
 21
83.345953
 31
0.0
  0
TEXT
  5
1EA
100
AcDbEntity
  8
2
370
    18
100
AcDbText
 10
55.551466
 20
107.205542
 30
0.0
 40
3.2
  1
（調整範囲５ｍｍ）
 72
     5
 11
83.711466
 21
107.205542
 31
0.0
100
AcDbText
  0
DIMENSION
  5
1EB
100
AcDbEntity
  8
2
370
    25
100
AcDbDimension
  2
*D14
 10
92.605893
 20
107.387298
 30
0.0
 11
88.355893
 21
109.387298
 31
0.0
 71
     0
 72
     0
 41
0.0
 42
0.0
  3
Standard
100
AcDbAlignedDimension
 13
85.605893
 23
66.443916
 33
0.0
 14
92.605893
 24
90.891332
 34
0.0
100
AcDbRotatedDimension
  0
TEXT
  5
1EC
100
AcDbEntity
  8
2
370
    18
100
AcDbText
 10
90.475343
 20
116.844687
 30
0.0
 40
3.2
  1
調整基準位置
 72
     5
 11
109.035344
 21
116.844687
 31
0.0
100
AcDbText
  0
LWPOLYLINE
  5
1ED
100
AcDbEntity
  8
2
370
    18
100
AcDbPolyline
 90
        3
 70
     0
 10
85.605926
 20
108.387229
 10
88.565718
 20
116.344687
 10
109.9573
 20
116.344687
  0
LINE
  5
1F2
100
AcDbEntity
  8
2
370
    25
100
AcDbLine
 10
85.794239
 20
110.378344
 30
0.0
 11
85.605926
 21
108.387229
 31
0.0
  0
LINE
  5
1F3
100
AcDbEntity
  8
2
370
    25
100
AcDbLine
 10
85.605926
 20
108.387229
 30
0.0
 11
86.764567
 21
110.017428
 31
0.0
  0
TEXT
  5
1F4
100
AcDbEntity
  8
2
370
    18
100
AcDbText
 10
74.605893
 20
103.218085
 30
0.0
 40
3.0
  1
+
 72
     5
 11
77.005893
 21
103.218085
 31
0.0
100
AcDbText
  0
DIMENSION
  5
1F5
100
AcDbEntity
  8
2
370
    25
100
AcDbDimension
  2
*D15
 10
85.605893
 20
102.718085
 30
0.0
 11
78.355893
 21
104.718085
 31
0.0
 71
     0
 72
     0
 41
0.0
 42
0.0
  3
Standard
100
AcDbAlignedDimension
 13
81.605893
 23
66.443916
 33
0.0
 14
85.605893
 24
66.443916
 34
0.0
100
AcDbRotatedDimension
  0
TEXT
  5
1F6
100
AcDbEntity
  8
2
370
    18
100
AcDbText
 10
87.605893
 20
103.218085
 30
0.0
 40
3.0
  1
-
 72
     5
 11
90.005893
 21
103.218085
 31
0.0
100
AcDbText
  0
DIMENSION
  5
1F7
100
AcDbEntity
  8
2
370
    25
100
AcDbDimension
  2
*D16
 10
86.605893
 20
102.718085
 30
0.0
 11
91.355893
 21
104.718085
 31
0.0
 71
     0
 72
     0
 41
0.0
 42
0.0
  3
Standard
100
AcDbAlignedDimension
 13
85.605893
 23
66.443916
 33
0.0
 14
86.605893
 24
66.443916
 34
0.0
100
AcDbRotatedDimension
  0
LWPOLYLINE
  5
1F8
100
AcDbEntity
  8
2
370
    25
100
AcDbPolyline
 90
        2
 70
     0
 10
144.319907
 20
25.943915
 10
155.086068
 20
12.27679
  0
LINE
  5
1FC
100
AcDbEntity
  8
2
370
    25
100
AcDbLine
 10
144.141273
 20
26.170682
 30
0.0
 11
143.748501
 21
25.861279
 31
0.0
  0
LINE
  5
1FD
100
AcDbEntity
  8
2
370
    25
100
AcDbLine
 10
143.748501
 20
25.861279
 30
0.0
 11
144.677174
 21
25.490381
 31
0.0
  0
LINE
  5
1FE
100
AcDbEntity
  8
2
370
    25
100
AcDbLine
 10
144.677174
 20
25.490381
 30
0.0
 11
144.534045
 21
26.480085
 31
0.0
  0
LINE
  5
1FF
100
AcDbEntity
  8
2
370
    25
100
AcDbLine
 10
144.534045
 20
26.480085
 30
0.0
 11
144.141273
 21
26.170682
 31
0.0
  0
DIMENSION
  5
200
100
AcDbEntity
  8
2
370
    25
100
AcDbDimension
  2
*D17
 10
157.271568
 20
69.243915
 30
0.0
 11
150.771568
 21
49.943915
 31
0.0
 71
     0
 72
     0
 41
0.0
 42
0.0
  3
Standard
100
AcDbAlignedDimension
 13
142.604585
 23
36.643915
 33
0.0
 14
142.604585
 24
69.243915
 34
0.0
 50
90.0
100
AcDbRotatedDimension
  0
DIMENSION
  5
201
100
AcDbEntity
  8
2
370
    25
100
AcDbDimension
  2
*D18
 10
116.545119
 20
66.943916
 30
0.0
 11
113.045119
 21
52.943916
 31
0.0
 71
     0
 72
     0
 41
0.0
 42
0.0
  3
Standard
100
AcDbAlignedDimension
 13
99.605893
 23
38.943916
 33
0.0
 14
99.605893
 24
66.943916
 34
0.0
 50
90.0
100
AcDbRotatedDimension
  0
DIMENSION
  5
202
100
AcDbEntity
  8
2
370
    25
100
AcDbDimension
  2
*D19
 10
121.852459
 20
79.943916
 30
0.0
 11
118.352459
 21
52.943916
 31
0.0
 71
     0
 72
     0
 41
0.0
 42
0.0
  3
Standard
100
AcDbAlignedDimension
 13
98.716984
 23
25.943916
 33
0.0
 14
98.66224
 24
79.943916
 34
0.0
 50
90.0
100
AcDbRotatedDimension
  0
DIMENSION
  5
203
100
AcDbEntity
  8
2
370
    25
100
AcDbDimension
  2
*D20
 10
54.626144
 20
87.943916
 30
0.0
 11
51.126144
 21
52.943916
 31
0.0
 71
     0
 72
     0
 41
0.0
 42
0.0
  3
Standard
100
AcDbAlignedDimension
 13
68.105893
 23
17.943916
 33
0.0
 14
68.105893
 24
87.943916
 34
0.0
 50
90.0
100
AcDbRotatedDimension
  0
DIMENSION
  5
204
100
AcDbEntity
  8
2
370
    25
100
AcDbDimension
  2
*D21
 10
108.605893
 20
8.100343
 30
0.0
 11
100.605893
 21
10.100343
 31
0.0
 71
     0
 72
     0
 41
0.0
 42
0.0
  3
Standard
100
AcDbAlignedDimension
 13
92.605893
 23
13.988676
 33
0.0
 14
108.605893
 24
17.943916
 34
0.0
100
AcDbRotatedDimension
  0
DIMENSION
  5
205
100
AcDbEntity
  8
2
370
    25
100
AcDbDimension
  2
*D22
 10
92.605893
 20
8.100343
 30
0.0
 11
78.355893
 21
10.100343
 31
0.0
 71
     0
 72
     0
 41
0.0
 42
0.0
  3
Standard
100
AcDbAlignedDimension
 13
64.105893
 23
21.943916
 33
0.0
 14
92.605893
 24
8.100343
 34
0.0
100
AcDbRotatedDimension
  0
DIMENSION
  5
206
100
AcDbEntity
  8
2
370
    25
100
AcDbDimension
  2
*D23
 10
115.375247
 20
-23.284803
 30
0.0
 11
113.375247
 21
-19.284803
 31
0.0
 71
     0
 72
     0
 41
0.0
 42
0.0
  3
Standard
100
AcDbAlignedDimension
 13
103.355893
 23
-26.284803
 33
0.0
 14
108.605893
 24
-23.284803
 34
0.0
 50
90.0
100
AcDbRotatedDimension
  0
DIMENSION
  5
207
100
AcDbEntity
  8
2
370
    25
100
AcDbDimension
  2
*D24
 10
122.367302
 20
-23.284803
 30
0.0
 11
115.867302
 21
-33.884803
 31
0.0
 71
     0
 72
     0
 41
0.0
 42
0.0
  3
Standard
100
AcDbAlignedDimension
 13
95.905893
 23
-38.484803
 33
0.0
 14
108.605893
 24
-23.284803
 34
0.0
 50
90.0
100
AcDbRotatedDimension
  0
DIMENSION
  5
208
100
AcDbEntity
  8
2
370
    25
100
AcDbDimension
  2
*D25
 10
58.150818
 20
-23.284803
 30
0.0
 11
56.150818
 21
-19.284803
 31
0.0
 71
     0
 72
     0
 41
0.0
 42
0.0
  3
Standard
100
AcDbAlignedDimension
 13
65.168872
 23
-26.284803
 33
0.0
 14
66.593167
 24
-23.284803
 34
0.0
 50
90.0
100
AcDbRotatedDimension
  0
DIMENSION
  5
209
100
AcDbEntity
  8
2
370
    25
100
AcDbDimension
  2
*D26
 10
98.905893
 20
-52.321278
 30
0.0
 11
89.855893
 21
-50.321278
 31
0.0
 71
     0
 72
     0
 41
0.0
 42
0.0
  3
Standard
100
AcDbAlignedDimension
 13
80.805893
 23
-35.484803
 33
0.0
 14
98.905893
 24
-35.484803
 34
0.0
100
AcDbRotatedDimension
  0
DIMENSION
  5
20A
100
AcDbEntity
  8
2
370
    25
100
AcDbDimension
  2
*D27
 10
108.605893
 20
1.970387
 30
0.0
 11
86.355893
 21
3.970387
 31
0.0
 71
     0
 72
     0
 41
0.0
 42
0.0
  3
Standard
100
AcDbAlignedDimension
 13
64.105893
 23
21.943916
 33
0.0
 14
108.605893
 24
23.943916
 34
0.0
100
AcDbRotatedDimension
  0
DIMENSION
  5
20B
100
AcDbEntity
  8
2
370
    25
100
AcDbDimension
  2
*D28
 10
102.605893
 20
81.943916
 30
0.0
 11
112.294211
 21
90.626456
 31
0.0
 70
     4
 71
     0
 72
     0
 41
0.0
 42
0.0
  3
Standard
100
AcDbRadialDimension
 15
107.224719
 25
85.773595
 35
0.0
 40
4.0
  0
LINE
  5
20C
100
AcDbEntity
  8
3
370
   100
100
AcDbLine
 10
-187.5
 20
138.0
 30
0.0
 11
-187.5
 21
-138.0
 31
0.0
  0
LINE
  5
20D
100
AcDbEntity
  8
3
370
   100
100
AcDbLine
 10
-9.5
 20
-138.0
 30
0.0
 11
-9.5
 21
138.0
 31
0.0
  0
LINE
  5
20E
100
AcDbEntity
  8
3
370
   100
100
AcDbLine
 10
-187.5
 20
-138.0
 30
0.0
 11
-9.5
 21
-138.0
 31
0.0
  0
LINE
  5
20F
100
AcDbEntity
  8
3
370
   100
100
AcDbLine
 10
-9.5
 20
138.0
 30
0.0
 11
-187.5
 21
138.0
 31
0.0
  0
LINE
  5
210
100
AcDbEntity
  8
3
370
   100
100
AcDbLine
 10
-187.5
 20
138.3
 30
0.0
 11
-9.2
 21
138.3
 31
0.0
  0
LINE
  5
211
100
AcDbEntity
  8
3
370
   100
100
AcDbLine
 10
-9.2
 20
138.3
 30
0.0
 11
-9.2
 21
-138.3
 31
0.0
  0
LINE
  5
212
100
AcDbEntity
  8
3
370
   100
100
AcDbLine
 10
-9.2
 20
-138.3
 30
0.0
 11
-187.8
 21
-138.3
 31
0.0
  0
LINE
  5
213
100
AcDbEntity
  8
3
370
   100
100
AcDbLine
 10
-187.8
 20
-138.3
 30
0.0
 11
-187.8
 21
138.0
 31
0.0
  0
LINE
  5
214
100
AcDbEntity
  8
3
370
    50
100
AcDbLine
 10
-187.5
 20
-108.0
 30
0.0
 11
-9.5
 21
-108.0
 31
0.0
  0
LINE
  5
215
100
AcDbEntity
  8
3
370
    50
100
AcDbLine
 10
-119.5
 20
-101.5
 30
0.0
 11
-9.5
 21
-101.5
 31
0.0
  0
LINE
  5
216
100
AcDbEntity
  8
3
370
    50
100
AcDbLine
 10
-109.5
 20
-108.0
 30
0.0
 11
-109.5
 21
-138.0
 31
0.0
  0
LINE
  5
217
100
AcDbEntity
  8
3
370
    50
100
AcDbLine
 10
-109.5
 20
-82.0
 30
0.0
 11
-109.5
 21
-108.0
 31
0.0
  0
LINE
  5
218
100
AcDbEntity
  8
3
370
    50
100
AcDbLine
 10
-49.5
 20
-82.0
 30
0.0
 11
-49.5
 21
-108.0
 31
0.0
  0
TEXT
  5
219
100
AcDbEntity
  8
3
370
    25
100
AcDbText
 10
-118.5
 20
-106.75
 30
0.0
 40
4.0
  1
品番
 72
     5
 11
-111.3
 21
-106.75
 31
0.0
100
AcDbText
  0
TEXT
  5
21A
100
AcDbEntity
  8
3
370
    25
100
AcDbText
 10
-94.5
 20
-106.75
 30
0.0
 40
4.0
  1
品     名
 72
     5
 11
-67.3
 21
-106.75
 31
0.0
100
AcDbText
  0
TEXT
  5
21B
100
AcDbEntity
  8
3
370
    25
100
AcDbText
 10
-18.5
 20
-106.75
 30
0.0
 40
4.0
  1
員数
 72
     5
 11
-11.3
 21
-106.75
 31
0.0
100
AcDbText
  0
TEXT
  5
21C
100
AcDbEntity
  8
3
370
    25
100
AcDbText
 10
-182.5
 20
-112.5
 30
0.0
 40
4.0
  1
図  法
 72
     5
 11
-167.3
 21
-112.5
 31
0.0
100
AcDbText
  0
TEXT
  5
21D
100
AcDbEntity
  8
3
370
    25
100
AcDbText
 10
-156.5
 20
-112.5
 30
0.0
 40
4.0
  1
単  位
 72
     5
 11
-141.3
 21
-112.5
 31
0.0
100
AcDbText
  0
TEXT
  5
21E
100
AcDbEntity
  8
3
370
    25
100
AcDbText
 10
-130.5
 20
-112.5
 30
0.0
 40
4.0
  1
尺  度
 72
     5
 11
-115.3
 21
-112.5
 31
0.0
100
AcDbText
  0
TEXT
  5
21F
100
AcDbEntity
  8
3
370
   100
100
AcDbText
 10
-176.5
 20
-135.5
 30
0.0
 40
8.0
  1
（株）川口技研
 72
     5
 11
-122.1
 21
-135.5
 31
0.0
100
AcDbText
  0
TEXT
  5
220
100
AcDbEntity
  8
3
370
    25
100
AcDbText
 10
-107.5
 20
-112.5
 30
0.0
 40
4.0
  1
図面名称
 72
     5
 11
-92.3
 21
-112.5
 31
0.0
100
AcDbText
  0
TEXT
  5
221
100
AcDbEntity
  8
3
370
    25
100
AcDbText
 10
-107.5
 20
-129.5
 30
0.0
 40
4.0
  1
図面番号
 72
     5
 11
-92.3
 21
-129.5
 31
0.0
100
AcDbText
  0
LINE
  5
222
100
AcDbEntity
  8
3
370
    25
100
AcDbLine
 10
-187.5
 20
-113.0
 30
0.0
 11
-89.5
 21
-113.0
 31
0.0
  0
LINE
  5
223
100
AcDbEntity
  8
3
370
    25
100
AcDbLine
 10
-89.5
 20
-108.0
 30
0.0
 11
-89.5
 21
-113.0
 31
0.0
  0
LINE
  5
224
100
AcDbEntity
  8
3
370
    25
100
AcDbLine
 10
-109.5
 20
-130.0
 30
0.0
 11
-89.5
 21
-130.0
 31
0.0
  0
LINE
  5
225
100
AcDbEntity
  8
3
370
    25
100
AcDbLine
 10
-89.5
 20
-125.0
 30
0.0
 11
-89.5
 21
-130.0
 31
0.0
  0
TEXT
  5
226
100
AcDbEntity
  8
3
370
    25
100
AcDbText
 10
-153.5
 20
-121.5
 30
0.0
 40
5.0
  1
ｍｍ
 72
     5
 11
-144.5
 21
-121.5
 31
0.0
100
AcDbText
  0
TEXT
  5
227
100
AcDbEntity
  8
3
370
    25
100
AcDbText
 10
-128.5
 20
-121.5
 30
0.0
 40
4.0
  1
１／１
 72
     5
 11
-117.3
 21
-121.5
 31
0.0
100
AcDbText
  0
LINE
  5
228
100
AcDbEntity
  8
3
370
    50
100
AcDbLine
 10
-119.5
 20
-95.0
 30
0.0
 11
-9.5
 21
-95.0
 31
0.0
  0
LINE
  5
229
100
AcDbEntity
  8
3
370
    50
100
AcDbLine
 10
-119.5
 20
-88.5
 30
0.0
 11
-9.5
 21
-88.5
 31
0.0
  0
LINE
  5
22A
100
AcDbEntity
  8
3
370
    50
100
AcDbLine
 10
-119.5
 20
-82.0
 30
0.0
 11
-9.5
 21
-82.0
 31
0.0
  0
TEXT
  5
22B
100
AcDbEntity
  8
3
370
    25
100
AcDbText
 10
-116.5
 20
-100.25
 30
0.0
 40
4.0
  1
１
 72
     5
 11
-113.3
 21
-100.25
 31
0.0
100
AcDbText
  0
TEXT
  5
22C
100
AcDbEntity
  8
3
370
    25
100
AcDbText
 10
-116.5
 20
-93.75
 30
0.0
 40
4.0
  1
２
 72
     5
 11
-113.3
 21
-93.75
 31
0.0
100
AcDbText
  0
TEXT
  5
22D
100
AcDbEntity
  8
3
370
    25
100
AcDbText
 10
-116.5
 20
-87.25
 30
0.0
 40
4.0
  1
３
 72
     5
 11
-113.3
 21
-87.25
 31
0.0
100
AcDbText
  0
TEXT
  5
22E
100
AcDbEntity
  8
3
370
    25
100
AcDbText
 10
-107.5
 20
-87.25
 30
0.0
 40
3.5
  1
ストライク取付木ネジ
 72
     5
 11
-73.2
 21
-87.25
 31
0.0
100
AcDbText
  0
TEXT
  5
22F
100
AcDbEntity
  8
3
370
    25
100
AcDbText
 10
-16.5
 20
-100.25
 30
0.0
 40
4.0
  1
１
 72
     5
 11
-13.3
 21
-100.25
 31
0.0
100
AcDbText
  0
TEXT
  5
230
100
AcDbEntity
  8
3
370
    25
100
AcDbText
 10
-16.5
 20
-93.75
 30
0.0
 40
4.0
  1
１
 72
     5
 11
-13.3
 21
-93.75
 31
0.0
100
AcDbText
  0
TEXT
  5
231
100
AcDbEntity
  8
3
370
    25
100
AcDbText
 10
-16.5
 20
-87.25
 30
0.0
 40
4.0
  1
２
 72
     5
 11
-13.3
 21
-87.25
 31
0.0
100
AcDbText
  0
TEXT
  5
232
100
AcDbEntity
  8
3
370
    25
100
AcDbText
 10
-180.5
 20
-121.5
 30
0.0
 40
4.0
  1
３角法
 72
     5
 11
-169.3
 21
-121.5
 31
0.0
100
AcDbText
  0
LINE
  5
233
100
AcDbEntity
  8
3
370
    50
100
AcDbLine
 10
-19.5
 20
-82.0
 30
0.0
 11
-19.5
 21
-108.0
 31
0.0
  0
LINE
  5
234
100
AcDbEntity
  8
3
370
    50
100
AcDbLine
 10
-119.5
 20
-82.0
 30
0.0
 11
-119.5
 21
-108.0
 31
0.0
  0
LINE
  5
235
100
AcDbEntity
  8
3
370
    50
100
AcDbLine
 10
-187.5
 20
-125.0
 30
0.0
 11
-109.5
 21
-125.0
 31
0.0
  0
LINE
  5
236
100
AcDbEntity
  8
3
370
    50
100
AcDbLine
 10
-109.5
 20
-125.0
 30
0.0
 11
-9.5
 21
-125.0
 31
0.0
  0
LINE
  5
237
100
AcDbEntity
  8
3
370
    50
100
AcDbLine
 10
-161.5
 20
-125.0
 30
0.0
 11
-161.5
 21
-108.0
 31
0.0
  0
LINE
  5
238
100
AcDbEntity
  8
3
370
    50
100
AcDbLine
 10
-135.5
 20
-125.0
 30
0.0
 11
-135.5
 21
-108.0
 31
0.0
  0
TEXT
  5
239
100
AcDbEntity
  8
3
370
    25
100
AcDbText
 10
-40.5
 20
-106.75
 30
0.0
 40
4.0
  1
寸　法
 72
     5
 11
-29.3
 21
-106.75
 31
0.0
100
AcDbText
  0
LINE
  5
23A
100
AcDbEntity
  8
3
370
   100
100
AcDbLine
 10
22.5
 20
138.0
 30
0.0
 11
22.5
 21
-138.0
 31
0.0
  0
LINE
  5
23B
100
AcDbEntity
  8
3
370
   100
100
AcDbLine
 10
200.5
 20
-138.0
 30
0.0
 11
200.5
 21
138.0
 31
0.0
  0
LINE
  5
23C
100
AcDbEntity
  8
3
370
   100
100
AcDbLine
 10
22.5
 20
-138.0
 30
0.0
 11
200.5
 21
-138.0
 31
0.0
  0
LINE
  5
23D
100
AcDbEntity
  8
3
370
   100
100
AcDbLine
 10
200.5
 20
138.0
 30
0.0
 11
22.5
 21
138.0
 31
0.0
  0
LINE
  5
23E
100
AcDbEntity
  8
3
370
   100
100
AcDbLine
 10
22.5
 20
138.3
 30
0.0
 11
200.8
 21
138.3
 31
0.0
  0
LINE
  5
23F
100
AcDbEntity
  8
3
370
   100
100
AcDbLine
 10
200.8
 20
138.3
 30
0.0
 11
200.8
 21
-138.3
 31
0.0
  0
LINE
  5
240
100
AcDbEntity
  8
3
370
   100
100
AcDbLine
 10
200.8
 20
-138.3
 30
0.0
 11
22.2
 21
-138.3
 31
0.0
  0
LINE
  5
241
100
AcDbEntity
  8
3
370
   100
100
AcDbLine
 10
22.2
 20
-138.3
 30
0.0
 11
22.2
 21
138.0
 31
0.0
  0
LINE
  5
242
100
AcDbEntity
  8
3
370
    50
100
AcDbLine
 10
22.5
 20
-108.0
 30
0.0
 11
200.5
 21
-108.0
 31
0.0
  0
LINE
  5
243
100
AcDbEntity
  8
3
370
    50
100
AcDbLine
 10
90.5
 20
-101.5
 30
0.0
 11
200.5
 21
-101.5
 31
0.0
  0
LINE
  5
244
100
AcDbEntity
  8
3
370
    50
100
AcDbLine
 10
100.5
 20
-108.0
 30
0.0
 11
100.5
 21
-138.0
 31
0.0
  0
LINE
  5
245
100
AcDbEntity
  8
3
370
    50
100
AcDbLine
 10
100.5
 20
-82.0
 30
0.0
 11
100.5
 21
-108.0
 31
0.0
  0
LINE
  5
246
100
AcDbEntity
  8
3
370
    50
100
AcDbLine
 10
160.5
 20
-82.0
 30
0.0
 11
160.5
 21
-108.0
 31
0.0
  0
TEXT
  5
247
100
AcDbEntity
  8
3
370
    25
100
AcDbText
 10
91.5
 20
-106.75
 30
0.0
 40
4.0
  1
品番
 72
     5
 11
98.7
 21
-106.75
 31
0.0
100
AcDbText
  0
TEXT
  5
248
100
AcDbEntity
  8
3
370
    25
100
AcDbText
 10
115.5
 20
-106.75
 30
0.0
 40
4.0
  1
品     名
 72
     5
 11
142.7
 21
-106.75
 31
0.0
100
AcDbText
  0
TEXT
  5
249
100
AcDbEntity
  8
3
370
    25
100
AcDbText
 10
191.5
 20
-106.75
 30
0.0
 40
4.0
  1
員数
 72
     5
 11
198.7
 21
-106.75
 31
0.0
100
AcDbText
  0
TEXT
  5
24A
100
AcDbEntity
  8
3
370
    25
100
AcDbText
 10
27.5
 20
-112.5
 30
0.0
 40
4.0
  1
図  法
 72
     5
 11
42.7
 21
-112.5
 31
0.0
100
AcDbText
  0
TEXT
  5
24B
100
AcDbEntity
  8
3
370
    25
100
AcDbText
 10
53.5
 20
-112.5
 30
0.0
 40
4.0
  1
単  位
 72
     5
 11
68.7
 21
-112.5
 31
0.0
100
AcDbText
  0
TEXT
  5
24C
100
AcDbEntity
  8
3
370
    25
100
AcDbText
 10
79.5
 20
-112.5
 30
0.0
 40
4.0
  1
尺  度
 72
     5
 11
94.7
 21
-112.5
 31
0.0
100
AcDbText
  0
TEXT
  5
24D
100
AcDbEntity
  8
3
370
   100
100
AcDbText
 10
33.5
 20
-135.5
 30
0.0
 40
8.0
  1
（株）川口技研
 72
     5
 11
87.9
 21
-135.5
 31
0.0
100
AcDbText
  0
TEXT
  5
24E
100
AcDbEntity
  8
3
370
    25
100
AcDbText
 10
102.5
 20
-112.5
 30
0.0
 40
4.0
  1
図面名称
 72
     5
 11
117.7
 21
-112.5
 31
0.0
100
AcDbText
  0
TEXT
  5
24F
100
AcDbEntity
  8
3
370
    25
100
AcDbText
 10
102.5
 20
-129.5
 30
0.0
 40
4.0
  1
図面番号
 72
     5
 11
117.7
 21
-129.5
 31
0.0
100
AcDbText
  0
LINE
  5
250
100
AcDbEntity
  8
3
370
    25
100
AcDbLine
 10
22.5
 20
-113.0
 30
0.0
 11
120.5
 21
-113.0
 31
0.0
  0
LINE
  5
251
100
AcDbEntity
  8
3
370
    25
100
AcDbLine
 10
120.5
 20
-108.0
 30
0.0
 11
120.5
 21
-113.0
 31
0.0
  0
LINE
  5
252
100
AcDbEntity
  8
3
370
    25
100
AcDbLine
 10
100.5
 20
-130.0
 30
0.0
 11
120.5
 21
-130.0
 31
0.0
  0
LINE
  5
253
100
AcDbEntity
  8
3
370
    25
100
AcDbLine
 10
120.5
 20
-125.0
 30
0.0
 11
120.5
 21
-130.0
 31
0.0
  0
TEXT
  5
254
100
AcDbEntity
  8
3
370
    25
100
AcDbText
 10
56.5
 20
-121.5
 30
0.0
 40
5.0
  1
ｍｍ
 72
     5
 11
65.5
 21
-121.5
 31
0.0
100
AcDbText
  0
TEXT
  5
255
100
AcDbEntity
  8
3
370
    25
100
AcDbText
 10
81.5
 20
-121.5
 30
0.0
 40
4.0
  1
１／１
 72
     5
 11
92.7
 21
-121.5
 31
0.0
100
AcDbText
  0
LINE
  5
256
100
AcDbEntity
  8
3
370
    50
100
AcDbLine
 10
90.5
 20
-95.0
 30
0.0
 11
200.5
 21
-95.0
 31
0.0
  0
LINE
  5
257
100
AcDbEntity
  8
3
370
    50
100
AcDbLine
 10
90.5
 20
-88.5
 30
0.0
 11
200.5
 21
-88.5
 31
0.0
  0
LINE
  5
258
100
AcDbEntity
  8
3
370
    50
100
AcDbLine
 10
90.5
 20
-82.0
 30
0.0
 11
200.5
 21
-82.0
 31
0.0
  0
TEXT
  5
259
100
AcDbEntity
  8
3
370
    25
100
AcDbText
 10
93.5
 20
-100.25
 30
0.0
 40
4.0
  1
１
 72
     5
 11
96.7
 21
-100.25
 31
0.0
100
AcDbText
  0
TEXT
  5
25A
100
AcDbEntity
  8
3
370
    25
100
AcDbText
 10
93.5
 20
-93.75
 30
0.0
 40
4.0
  1
２
 72
     5
 11
96.7
 21
-93.75
 31
0.0
100
AcDbText
  0
TEXT
  5
25B
100
AcDbEntity
  8
3
370
    25
100
AcDbText
 10
93.5
 20
-87.25
 30
0.0
 40
4.0
  1
３
 72
     5
 11
96.7
 21
-87.25
 31
0.0
100
AcDbText
  0
TEXT
  5
25C
100
AcDbEntity
  8
3
370
    25
100
AcDbText
 10
102.5
 20
-87.25
 30
0.0
 40
3.5
  1
ストライク取付木ネジ
 72
     5
 11
136.8
 21
-87.25
 31
0.0
100
AcDbText
  0
TEXT
  5
25D
100
AcDbEntity
  8
3
370
    25
100
AcDbText
 10
193.5
 20
-100.25
 30
0.0
 40
4.0
  1
１
 72
     5
 11
196.7
 21
-100.25
 31
0.0
100
AcDbText
  0
TEXT
  5
25E
100
AcDbEntity
  8
3
370
    25
100
AcDbText
 10
193.5
 20
-93.75
 30
0.0
 40
4.0
  1
１
 72
     5
 11
196.7
 21
-93.75
 31
0.0
100
AcDbText
  0
TEXT
  5
25F
100
AcDbEntity
  8
3
370
    25
100
AcDbText
 10
193.5
 20
-87.25
 30
0.0
 40
4.0
  1
２
 72
     5
 11
196.7
 21
-87.25
 31
0.0
100
AcDbText
  0
TEXT
  5
260
100
AcDbEntity
  8
3
370
    25
100
AcDbText
 10
29.5
 20
-121.5
 30
0.0
 40
4.0
  1
３角法
 72
     5
 11
40.7
 21
-121.5
 31
0.0
100
AcDbText
  0
LINE
  5
261
100
AcDbEntity
  8
3
370
    50
100
AcDbLine
 10
190.5
 20
-82.0
 30
0.0
 11
190.5
 21
-108.0
 31
0.0
  0
LINE
  5
262
100
AcDbEntity
  8
3
370
    50
100
AcDbLine
 10
90.5
 20
-82.0
 30
0.0
 11
90.5
 21
-108.0
 31
0.0
  0
LINE
  5
263
100
AcDbEntity
  8
3
370
    50
100
AcDbLine
 10
22.5
 20
-125.0
 30
0.0
 11
100.5
 21
-125.0
 31
0.0
  0
LINE
  5
264
100
AcDbEntity
  8
3
370
    50
100
AcDbLine
 10
100.5
 20
-125.0
 30
0.0
 11
200.5
 21
-125.0
 31
0.0
  0
LINE
  5
265
100
AcDbEntity
  8
3
370
    50
100
AcDbLine
 10
48.5
 20
-125.0
 30
0.0
 11
48.5
 21
-108.0
 31
0.0
  0
LINE
  5
266
100
AcDbEntity
  8
3
370
    50
100
AcDbLine
 10
74.5
 20
-125.0
 30
0.0
 11
74.5
 21
-108.0
 31
0.0
  0
TEXT
  5
267
100
AcDbEntity
  8
3
370
    25
100
AcDbText
 10
169.5
 20
-106.75
 30
0.0
 40
4.0
  1
寸　法
 72
     5
 11
180.7
 21
-106.75
 31
0.0
100
AcDbText
  0
TEXT
  5
268
100
AcDbEntity
  8
3
370
    50
100
AcDbText
 10
-85.404442
 20
-120.800041
 30
0.0
 40
5.0
  1
調整ストライク　Ｌ-２８．５
 72
     5
 11
-18.904442
 21
-120.800041
 31
0.0
100
AcDbText
  0
TEXT
  5
269
100
AcDbEntity
  8
3
370
    25
100
AcDbText
 10
-107.5
 20
-100.25
 30
0.0
 40
3.5
  1
調整ストライク　Ｌ-２８．５
 72
     5
 11
-60.95
 21
-100.25
 31
0.0
100
AcDbText
  0
TEXT
  5
26A
100
AcDbEntity
  8
3
370
    50
100
AcDbText
 10
108.595558
 20
-120.800041
 30
0.0
 40
5.0
  1
調整ストライク　Ｌ-２８．５（６Ｒ）
 72
     5
 11
195.095558
 21
-120.800041
 31
0.0
100
AcDbText
  0
TEXT
  5
26B
100
AcDbEntity
  8
3
370
    25
100
AcDbText
 10
102.5
 20
-100.25
 30
0.0
 40
3.5
  1
調整ストライク　Ｌ-２８．５（６Ｒ）
 41
0.9
 72
     5
 11
156.995
 21
-100.25
 31
0.0
100
AcDbText
  0
TEXT
  5
26C
100
AcDbEntity
  8
3
370
    25
100
AcDbText
 10
-46.849052
 20
-86.98735
 30
0.0
 40
3.2
  1
サラ木ネジ３．１×２２
 41
0.7
 72
     5
 11
-22.657052
 21
-86.98735
 31
0.0
100
AcDbText
  0
TEXT
  5
26D
100
AcDbEntity
  8
3
370
    25
100
AcDbText
 10
-107.5
 20
-93.75
 30
0.0
 40
3.5
  1
受箱
 72
     5
 11
-101.2
 21
-93.75
 31
0.0
100
AcDbText
  0
TEXT
  5
26E
100
AcDbEntity
  8
3
370
   100
100
AcDbText
 10
-79.078545
 20
-134.545471
 30
0.0
 40
6.0
  1
ＥＺ－１４１７－００
 72
     5
 11
-20.278545
 21
-134.545471
 31
0.0
100
AcDbText
  0
TEXT
  5
26F
100
AcDbEntity
  8
3
370
   100
100
AcDbText
 10
130.921455
 20
-134.545471
 30
0.0
 40
6.0
  1
ＥＺ－１４１８－００
 72
     5
 11
189.721455
 21
-134.545471
 31
0.0
100
AcDbText
  0
TEXT
  5
270
100
AcDbEntity
  8
3
370
    25
100
AcDbText
 10
163.150948
 20
-86.98735
 30
0.0
 40
3.2
  1
サラ木ネジ３．１×２２
 41
0.7
 72
     5
 11
187.342948
 21
-86.98735
 31
0.0
100
AcDbText
  0
TEXT
  5
271
100
AcDbEntity
  8
3
370
    25
100
AcDbText
 10
102.5
 20
-93.75
 30
0.0
 40
3.5
  1
受箱
 72
     5
 11
108.8
 21
-93.75
 31
0.0
100
AcDbText
  0
ENDSEC
  0
SECTION
  2
OBJECTS
  0
DICTIONARY
  5
38E
100
AcDbDictionary
280
     0
281
     1
  3
ACAD_GROUP
350
38F
  3
ACAD_MLINESTYLE
350
390
  0
DICTIONARY
  5
38F
102
{ACAD_REACTORS
330
38E
102
}
100
AcDbDictionary
280
     0
281
     1
  0
DICTIONARY
  5
390
102
{ACAD_REACTORS
330
38E
102
}
100
AcDbDictionary
280
     0
281
     1
  3
Standard
350
391
  0
MLINESTYLE
  5
391
102
{ACAD_REACTORS
330
390
102
}
100
AcDbMlineStyle
  2
Standard
 70
     0
  3

 62
     0
 51
90.0
 52
90.0
 71
     2
 49
0.5
 62
   256
  6
ByLayer
 49
-0.5
 62
   256
  6
ByLayer
  0
ENDSEC
  0
EOF
