  0
SECTION
  2
HEADER
  9
$ACADVER
  1
AC1015
  9
$ACADMAINTVER
 70
     6
  9
$DWGCODEPAGE
  3
ANSI_932
  9
$INSBASE
 10
0.0
 20
0.0
 30
0.0
  9
$EXTMIN
 10
-210.0
 20
-148.5
 30
1.000000E+20
  9
$EXTMAX
 10
210.0
 20
148.5
 30
-1.000000E+20
  9
$LIMMIN
 10
-210.0
 20
-148.5
  9
$LIMMAX
 10
210.0
 20
148.5
  9
$ORTHOMODE
 70
     0
  9
$REGENMODE
 70
     1
  9
$FILLMODE
 70
     1
  9
$QTEXTMODE
 70
     0
  9
$MIRRTEXT
 70
     1
  9
$LTSCALE
 40
1.0
  9
$ATTMODE
 70
     1
  9
$TEXTSIZE
 40
0.2
  9
$TRACEWID
 40
0.05
  9
$TEXTSTYLE
  7
STANDARD
  9
$CLAYER
  8
0
  9
$CELTYPE
  6
CONTINUOUS
  9
$CECOLOR
 62
   256
  9
$CELTSCALE
 40
1.0
  9
$DISPSILH
 70
     0
  9
$DIMSCALE
 40
1.0
  9
$DIMASZ
 40
2.0
  9
$DIMEXO
 40
0.5
  9
$DIMDLI
 40
0.38
  9
$DIMRND
 40
0.0
  9
$DIMDLE
 40
0.0
  9
$DIMEXE
 40
2.0
  9
$DIMTP
 40
0.0
  9
$DIMTM
 40
0.0
  9
$DIMTXT
 40
3.0
  9
$DIMCEN
 40
0.09
  9
$DIMTSZ
 40
0.0
  9
$DIMTOL
 70
     0
  9
$DIMLIM
 70
     0
  9
$DIMTIH
 70
     0
  9
$DIMTOH
 70
     0
  9
$DIMSE1
 70
     0
  9
$DIMSE2
 70
     0
  9
$DIMTAD
 70
     1
  9
$DIMZIN
 70
     0
  9
$DIMBLK
  1

  9
$DIMASO
 70
     1
  9
$DIMSHO
 70
     1
  9
$DIMPOST
  1

  9
$DIMAPOST
  1

  9
$DIMALT
 70
     0
  9
$DIMALTD
 70
     2
  9
$DIMALTF
 40
25.4
  9
$DIMLFAC
 40
1.0
  9
$DIMTOFL
 70
     0
  9
$DIMTVP
 40
0.0
  9
$DIMTIX
 70
     0
  9
$DIMSOXD
 70
     0
  9
$DIMSAH
 70
     0
  9
$DIMBLK1
  1

  9
$DIMBLK2
  1

  9
$DIMSTYLE
  2
Standard
  9
$DIMCLRD
 70
     0
  9
$DIMCLRE
 70
     0
  9
$DIMCLRT
 70
     0
  9
$DIMTFAC
 40
1.0
  9
$DIMGAP
 40
0.5
  9
$DIMJUST
 70
     0
  9
$DIMSD1
 70
     0
  9
$DIMSD2
 70
     0
  9
$DIMTOLJ
 70
     1
  9
$DIMTZIN
 70
     0
  9
$DIMALTZ
 70
     0
  9
$DIMALTTZ
 70
     0
  9
$DIMUPT
 70
     0
  9
$DIMDEC
 70
     2
  9
$DIMTDEC
 70
     4
  9
$DIMALTU
 70
     2
  9
$DIMALTTD
 70
     2
  9
$DIMTXSTY
  7
STANDARD
  9
$DIMAUNIT
 70
     0
  9
$DIMADEC
 70
     2
  9
$DIMALTRND
 40
0.0
  9
$DIMAZIN
 70
     0
  9
$DIMDSEP
 70
     0
  9
$DIMATFIT
 70
     3
  9
$DIMFRAC
 70
     0
  9
$DIMLDRBLK
  1

  9
$DIMLUNIT
 70
     2
  9
$DIMLWD
 70
     0
  9
$DIMLWE
 70
     0
  9
$DIMTMOVE
 70
     0
  9
$LUNITS
 70
     2
  9
$LUPREC
 70
     4
  9
$SKETCHINC
 40
0.1
  9
$FILLETRAD
 40
0.0
  9
$AUNITS
 70
     0
  9
$AUPREC
 70
     0
  9
$MENU
  1
acad
  9
$ELEVATION
 40
0.0
  9
$PELEVATION
 40
0.0
  9
$THICKNESS
 40
0.0
  9
$LIMCHECK
 70
     0
  9
$CHAMFERA
 40
0.0
  9
$CHAMFERB
 40
0.0
  9
$CHAMFERC
 40
0.0
  9
$CHAMFERD
 40
0.0
  9
$SKPOLY
 70
     0
  9
$TDCREATE
 40
2448436.000000000
  9
$TDUCREATE
 40
0.000000000
  9
$TDUPDATE
 40
0.000000000
  9
$TDUUPDATE
 40
2447892.625000000
  9
$TDINDWG
 40
0.0000000000
  9
$TDUSRTIMER
 40
0.0000000000
  9
$USRTIMER
 70
     1
  9
$ANGBASE
 50
0.0
  9
$ANGDIR
 70
     0
  9
$PDMODE
 70
     0
  9
$PDSIZE
 40
0.0
  9
$PLINEWID
 40
0.0
  9
$SPLFRAME
 70
     0
  9
$SPLINETYPE
 70
     6
  9
$SPLINESEGS
 70
     8
  9
$HANDSEED
  5
41A
  9
$SURFTAB1
 70
     6
  9
$SURFTAB2
 70
     6
  9
$SURFTYPE
 70
     6
  9
$SURFU
 70
     6
  9
$SURFV
 70
     6
  9
$UCSBASE
  2

  9
$UCSNAME
  2

  9
$UCSORG
 10
0.0
 20
0.0
 30
0.0
  9
$UCSXDIR
 10
1.0
 20
0.0
 30
0.0
  9
$UCSYDIR
 10
0.0
 20
1.0
 30
0.0
  9
$UCSORTHOREF
  2

  9
$UCSORTHOVIEW
 70
     0
  9
$UCSORGTOP
 10
0.0
 20
0.0
 30
0.0
  9
$UCSORGBOTTOM
 10
0.0
 20
0.0
 30
0.0
  9
$UCSORGLEFT
 10
0.0
 20
0.0
 30
0.0
  9
$UCSORGRIGHT
 10
0.0
 20
0.0
 30
0.0
  9
$UCSORGFRONT
 10
0.0
 20
0.0
 30
0.0
  9
$UCSORGBACK
 10
0.0
 20
0.0
 30
0.0
  9
$PUCSBASE
  2

  9
$PUCSNAME
  2

  9
$PUCSORG
 10
0.0
 20
0.0
 30
0.0
  9
$PUCSXDIR
 10
1.0
 20
0.0
 30
0.0
  9
$PUCSYDIR
 10
0.0
 20
1.0
 30
0.0
  9
$PUCSORTHOREF
  2

  9
$PUCSORTHOVIEW
 70
     0
  9
$PUCSORGTOP
 10
0.0
 20
0.0
 30
0.0
  9
$PUCSORGBOTTOM
 10
0.0
 20
0.0
 30
0.0
  9
$PUCSORGLEFT
 10
0.0
 20
0.0
 30
0.0
  9
$PUCSORGRIGHT
 10
0.0
 20
0.0
 30
0.0
  9
$PUCSORGFRONT
 10
0.0
 20
0.0
 30
0.0
  9
$PUCSORGBACK
 10
0.0
 20
0.0
 30
0.0
  9
$USERI1
 70
     0
  9
$USERI2
 70
     0
  9
$USERI3
 70
     0
  9
$USERI4
 70
     0
  9
$USERI5
 70
     0
  9
$USERR1
 40
0.0
  9
$USERR2
 40
0.0
  9
$USERR3
 40
0.0
  9
$USERR4
 40
0.0
  9
$USERR5
 40
0.0
  9
$WORLDVIEW
 70
     1
  9
$SHADEDGE
 70
     3
  9
$SHADEDIF
 70
    70
  9
$TILEMODE
 70
     1
  9
$MAXACTVP
 70
    16
  9
$PINSBASE
 10
0.0
 20
0.0
 30
0.0
  9
$PLIMCHECK
 70
     0
  9
$PEXTMIN
 10
1.000000E+20
 20
1.000000E+20
 30
1.000000E+20
  9
$PEXTMAX
 10
-1.000000E+20
 20
-1.000000E+20
 30
-1.000000E+20
  9
$PLIMMIN
 10
0.0
 20
0.0
  9
$PLIMMAX
 10
12.0
 20
9.0
  9
$UNITMODE
 70
     0
  9
$VISRETAIN
 70
     0
  9
$PLINEGEN
 70
     1
  9
$PSLTSCALE
 70
     0
  9
$TREEDEPTH
 70
  3020
  9
$CMLSTYLE
  2
Standard
  9
$CMLJUST
 70
     0
  9
$CMLSCALE
 40
1.0
  9
$PROXYGRAPHICS
 70
     0
  9
$MEASUREMENT
 70
     0
  9
$CELWEIGHT
370
     0
  9
$ENDCAPS
280
     0
  9
$JOINSTYLE
280
     0
  9
$LWDISPLAY
290
     0
  9
$INSUNITS
 70
     0
  9
$HYPERLINKBASE
  1

  9
$STYLESHEET
  1

  9
$XEDIT
290
     1
  9
$CEPSNTYPE
380
     0
  9
$PSTYLEMODE
290
     1
  9
$FINGERPRINTGUID
  2

  9
$VERSIONGUID
  2

  9
$EXTNAMES
290
     1
  9
$PSVPSCALE
 40
0.0
  0
ENDSEC
  0
SECTION
  2
CLASSES
  0
CLASS
  1
LWPOLYLINE
  2
AcDbPolyline
  3
AutoCAD 2000
 90
        0
280
     0
281
     1
  0
CLASS
  1
IMAGE
  2
AcDbRasterImage
  3
ISM
 90
      127
280
     0
281
     1
  0
CLASS
  1
OLE2FRAME
  2
AcDbOle2Frame
  3
AutoCAD 2000
 90
        0
280
     0
281
     1
  0
CLASS
  1
HATCH
  2
AcDbHatch
  3
AutoCAD 2000
 90
        0
280
     0
281
     1
  0
CLASS
  1
DICTIONARYVAR
  2
AcDbDictionaryVar
  3
AutoCAD 2000
 90
        0
280
     0
281
     0
  0
CLASS
  1
RASTERVARIABLES
  2
AcDbRasterVariables
  3
ISM
 90
        0
280
     0
281
     0
  0
CLASS
  1
IMAGEDEF
  2
AcDbRasterImageDef
  3
ISM
 90
        0
280
     0
281
     0
  0
CLASS
  1
IMAGEDEF_REACTOR
  2
AcDbRasterImageDefReactor
  3
ISM
 90
        1
280
     0
281
     0
  0
CLASS
  1
IDBUFFER
  2
AcDbIdBuffer
  3
AutoCAD 2000
 90
        0
280
     0
281
     0
  0
CLASS
  1
SPATIAL_FILTER
  2
AcDbSpatialFilter
  3
AutoCAD 2000
 90
        0
280
     0
281
     0
  0
CLASS
  1
XRECORD
  2
AcDbXrecord
  3
AutoCAD 2000
 90
        0
280
     0
281
     0
  0
CLASS
  1
SORTENTSTABLE
  2
AcDbSortentsTable
  3
AutoCAD 2000
 90
        0
280
     0
281
     0
  0
CLASS
  1
LAYER_INDEX
  2
AcDbLayerIndex
  3
AutoCAD 2000
 90
        0
280
     0
281
     0
  0
CLASS
  1
SPATIAL_INDEX
  2
AcDbSpatialIndex
  3
AutoCAD 2000
 90
        0
280
     0
281
     0
  0
CLASS
  1
OBJECT_PTR
  2
CAseDLPNTableRecord
  3
"ASE-LPNTableRecord"
 90
        1
280
     0
281
     0
  0
CLASS
  1
LAYOUT
  2
AcDbLayout
  3
AutoCAD 2000
 90
        0
280
     0
281
     0
  0
CLASS
  1
PLOTSETTINGS
  2
AcDbPlotSettings
  3
AutoCAD 2000
 90
        0
280
     0
281
     0
  0
CLASS
  1
ACDBDICTIONARYWDFLT
  2
AcDbDictionaryWithDefault
  3
AutoCAD 2000
 90
        0
280
     0
281
     0
  0
CLASS
  1
ACDBPLACEHOLDER
  2
AcDbPlaceHolder
  3
AutoCAD 2000
 90
        0
280
     0
281
     0
  0
CLASS
  1
VBA_PROJECT
  2
AcDbVbaProject
  3
acadvba
 90
        0
280
     0
281
     0
  0
CLASS
  1
WIPEOUT
  2
AcDbWipeout
  3
WipeOut|AutoCAD Express Tool|expresstools@autodesk.com
 90
      127
280
     0
281
     1
  0
CLASS
  1
WIPEOUTVARIABLES
  2
AcDbWipeoutVariables
  3
WipeOut|AutoCAD Express Tool|expresstools@autodesk.com
 90
        0
280
     0
281
     0
  0
CLASS
  1
RTEXT
  2
RText
  3
RText|AutoCAD Express Tool|expresstools@autodesk.com
 90
        0
280
     0
281
     1
  0
CLASS
  1
ARCALIGNEDTEXT
  2
AcDbArcAlignedText
  3
ATEXT|AutoCAD Express Tool|expresstools@autodesk.com
 90
        0
280
     0
281
     1
  0
ENDSEC
  0
SECTION
  2
TABLES
  0
TABLE
  2
VPORT
  5
6
100
AcDbSymbolTable
 70
     1
  0
VPORT
  5
1A
100
AcDbSymbolTableRecord
100
AcDbViewportTableRecord
  2
*ACTIVE
 70
     0
 10
0.0
 20
0.0
 11
1.0
 21
1.0
 12
0.0
 22
0.0
 13
0.0
 23
0.0
 14
1.0
 24
1.0
 15
0.0
 25
0.0
 16
0.0
 26
0.0
 36
1.0
 17
0.0
 27
0.0
 37
0.0
 40
297.0
 41
1.414141
 42
50.0
 43
0.0
 44
0.0
 50
0.0
 51
0.0
 71
     0
 72
   500
 73
     1
 74
     1
 75
     0
 76
     0
 77
     0
 78
     0
281
     0
 65
     0
110
0.0
120
0.0
130
0.0
111
1.0
121
0.0
131
0.0
112
0.0
122
1.0
132
0.0
345
0
346
0
 79
     0
146
0.0
  0
ENDTAB
  0
TABLE
  2
LTYPE
  5
3
100
AcDbSymbolTable
 70
     9
  0
LTYPE
  5
C
100
AcDbSymbolTableRecord
100
AcDbLinetypeTableRecord
  2
ByBlock
 70
    64
  3

 72
    65
 73
     0
 40
0.0
  0
LTYPE
  5
D
100
AcDbSymbolTableRecord
100
AcDbLinetypeTableRecord
  2
ByLayer
 70
    64
  3

 72
    65
 73
     0
 40
0.0
  0
LTYPE
  5
E
100
AcDbSymbolTableRecord
100
AcDbLinetypeTableRecord
  2
CONTINUOUS
 70
     0
  3
Solid line
 72
    65
 73
     0
 40
0.0
  0
LTYPE
  5
F
100
AcDbSymbolTableRecord
100
AcDbLinetypeTableRecord
  2
DASHED
 70
     0
  3
__ __ __ __ __ __ __ __ __ __ __ __ __ __ __
 72
    65
 73
     2
 40
2.0
 49
1.2
 74
     0
 49
-0.8
 74
     0
  0
LTYPE
  5
10
100
AcDbSymbolTableRecord
100
AcDbLinetypeTableRecord
  2
CENTER
 70
     0
  3
____ _ ____ _ ____ _ ____ _ ____ _ ____ _ ____
 72
    65
 73
     4
 40
12.0
 49
9.0
 74
     0
 49
-1.0
 74
     0
 49
1.0
 74
     0
 49
-1.0
 74
     0
  0
LTYPE
  5
11
100
AcDbSymbolTableRecord
100
AcDbLinetypeTableRecord
  2
HIDDEN
 70
     0
  3
_ _ _ _ _ _ _ _ _ _ _ _ _ _ _ _ _ _ _ _ _ _ _
 72
    65
 73
     2
 40
3.2
 49
1.3
 74
     0
 49
-1.9
 74
     0
  0
LTYPE
  5
12
100
AcDbSymbolTableRecord
100
AcDbLinetypeTableRecord
  2
PHANTOM
 70
     0
  3
_____ _ _ _____ _ _ _____ _ _ _____ _ _ _____
 72
    65
 73
     6
 40
12.5
 49
9.0
 74
     0
 49
-1.0
 74
     0
 49
0.5
 74
     0
 49
-0.5
 74
     0
 49
0.5
 74
     0
 49
-1.0
 74
     0
  0
LTYPE
  5
13
100
AcDbSymbolTableRecord
100
AcDbLinetypeTableRecord
  2
DOT
 70
     0
  3
...............................................
 72
    65
 73
     2
 40
1.0
 49
0.5
 74
     0
 49
-0.5
 74
     0
  0
LTYPE
  5
14
100
AcDbSymbolTableRecord
100
AcDbLinetypeTableRecord
  2
DASHDOT
 70
     0
  3
__ . __ . __ . __ . __ . __ . __ . __ . __ . __
 72
    65
 73
     4
 40
8.0
 49
5.0
 74
     0
 49
-1.0
 74
     0
 49
1.0
 74
     0
 49
-1.0
 74
     0
  0
ENDTAB
  0
TABLE
  2
LAYER
  5
1
100
AcDbSymbolTable
 70
     5
  0
LAYER
  5
15
100
AcDbSymbolTableRecord
100
AcDbLayerTableRecord
  2
0
 70
     0
 62
     8
  6
CONTINUOUS
290
     1
370
    -3
390
0
  0
LAYER
  5
16
100
AcDbSymbolTableRecord
100
AcDbLayerTableRecord
  2
1
 70
     0
 62
     2
  6
CONTINUOUS
290
     1
370
    -3
390
0
  0
LAYER
  5
17
100
AcDbSymbolTableRecord
100
AcDbLayerTableRecord
  2
2
 70
     0
 62
     3
  6
CONTINUOUS
290
     1
370
    -3
390
0
  0
LAYER
  5
18
100
AcDbSymbolTableRecord
100
AcDbLayerTableRecord
  2
3
 70
     0
 62
     4
  6
CONTINUOUS
290
     1
370
    -3
390
0
  0
LAYER
  5
19
100
AcDbSymbolTableRecord
100
AcDbLayerTableRecord
  2
4
 70
     0
 62
     1
  6
CONTINUOUS
290
     1
370
    -3
390
0
  0
ENDTAB
  0
TABLE
  2
STYLE
  5
2
100
AcDbSymbolTable
 70
     1
  0
STYLE
  5
1C
100
AcDbSymbolTableRecord
100
AcDbTextStyleTableRecord
  2
STANDARD
 70
    64
 40
0.0
 41
1.0
 50
0.0
 71
     0
 42
1.0
  3
txt
  4
BIGFONT
  0
ENDTAB
  0
TABLE
  2
VIEW
  5
4
100
AcDbSymbolTable
 70
     0
  0
ENDTAB
  0
TABLE
  2
UCS
  5
5
100
AcDbSymbolTable
 70
     0
  0
ENDTAB
  0
TABLE
  2
APPID
  5
7
100
AcDbSymbolTable
 70
     1
  0
APPID
  5
1B
100
AcDbSymbolTableRecord
100
AcDbRegAppTableRecord
  2
ACAD
 70
     0
  0
ENDTAB
  0
TABLE
  2
DIMSTYLE
  5
8
100
AcDbSymbolTable
 70
     1
100
AcDbDimStyleTable
 71
     0
  0
DIMSTYLE
105
42
100
AcDbSymbolTableRecord
100
AcDbDimStyleTableRecord
  2
Standard
 70
     0
  3

  4

 40
1.0
 41
2.0
 42
0.5
 43
0.38
 44
2.0
 45
0.0
 46
0.0
 47
0.0
 48
0.0
 71
     0
 72
     0
 73
     0
 74
     0
 75
     0
 76
     0
 77
     1
 78
     0
 79
     0
140
3.0
141
0.09
142
0.0
143
25.4
144
1.0
145
0.0
146
1.0
147
0.5
148
0.0
170
     0
171
     2
172
     0
173
     0
174
     0
175
     0
176
     0
177
     0
178
     0
179
     0
271
     2
272
     4
273
     2
274
     2
275
     0
276
     0
277
     2
278
    46
279
     0
280
     0
281
     0
282
     0
283
     1
284
     0
285
     0
286
     0
288
     0
289
     3
340
1C
341
0
342
0
343
0
344
0
371
    -2
372
    -2
  0
ENDTAB
  0
TABLE
  2
BLOCK_RECORD
  5
3D
100
AcDbSymbolTable
 70
    30
  0
BLOCK_RECORD
  5
3B
100
AcDbSymbolTableRecord
100
AcDbBlockTableRecord
  2
*Model_Space
340
0
  0
BLOCK_RECORD
  5
3C
100
AcDbSymbolTableRecord
100
AcDbBlockTableRecord
  2
*Paper_Space
340
0
  0
BLOCK_RECORD
  5
1D
100
AcDbSymbolTableRecord
100
AcDbBlockTableRecord
  2
*D0
340
0
  0
BLOCK_RECORD
  5
1E
100
AcDbSymbolTableRecord
100
AcDbBlockTableRecord
  2
*D1
340
0
  0
BLOCK_RECORD
  5
1F
100
AcDbSymbolTableRecord
100
AcDbBlockTableRecord
  2
*D2
340
0
  0
BLOCK_RECORD
  5
20
100
AcDbSymbolTableRecord
100
AcDbBlockTableRecord
  2
*D3
340
0
  0
BLOCK_RECORD
  5
21
100
AcDbSymbolTableRecord
100
AcDbBlockTableRecord
  2
*D4
340
0
  0
BLOCK_RECORD
  5
22
100
AcDbSymbolTableRecord
100
AcDbBlockTableRecord
  2
*D5
340
0
  0
BLOCK_RECORD
  5
23
100
AcDbSymbolTableRecord
100
AcDbBlockTableRecord
  2
*D6
340
0
  0
BLOCK_RECORD
  5
24
100
AcDbSymbolTableRecord
100
AcDbBlockTableRecord
  2
*D7
340
0
  0
BLOCK_RECORD
  5
25
100
AcDbSymbolTableRecord
100
AcDbBlockTableRecord
  2
*D8
340
0
  0
BLOCK_RECORD
  5
26
100
AcDbSymbolTableRecord
100
AcDbBlockTableRecord
  2
*D9
340
0
  0
BLOCK_RECORD
  5
27
100
AcDbSymbolTableRecord
100
AcDbBlockTableRecord
  2
*D10
340
0
  0
BLOCK_RECORD
  5
28
100
AcDbSymbolTableRecord
100
AcDbBlockTableRecord
  2
*D11
340
0
  0
BLOCK_RECORD
  5
29
100
AcDbSymbolTableRecord
100
AcDbBlockTableRecord
  2
*D12
340
0
  0
BLOCK_RECORD
  5
2A
100
AcDbSymbolTableRecord
100
AcDbBlockTableRecord
  2
*D13
340
0
  0
BLOCK_RECORD
  5
2B
100
AcDbSymbolTableRecord
100
AcDbBlockTableRecord
  2
*D14
340
0
  0
BLOCK_RECORD
  5
2C
100
AcDbSymbolTableRecord
100
AcDbBlockTableRecord
  2
*D15
340
0
  0
BLOCK_RECORD
  5
2D
100
AcDbSymbolTableRecord
100
AcDbBlockTableRecord
  2
*D16
340
0
  0
BLOCK_RECORD
  5
2E
100
AcDbSymbolTableRecord
100
AcDbBlockTableRecord
  2
*D17
340
0
  0
BLOCK_RECORD
  5
2F
100
AcDbSymbolTableRecord
100
AcDbBlockTableRecord
  2
*D18
340
0
  0
BLOCK_RECORD
  5
30
100
AcDbSymbolTableRecord
100
AcDbBlockTableRecord
  2
*D19
340
0
  0
BLOCK_RECORD
  5
31
100
AcDbSymbolTableRecord
100
AcDbBlockTableRecord
  2
*D20
340
0
  0
BLOCK_RECORD
  5
32
100
AcDbSymbolTableRecord
100
AcDbBlockTableRecord
  2
*D21
340
0
  0
BLOCK_RECORD
  5
33
100
AcDbSymbolTableRecord
100
AcDbBlockTableRecord
  2
*D22
340
0
  0
BLOCK_RECORD
  5
34
100
AcDbSymbolTableRecord
100
AcDbBlockTableRecord
  2
*D23
340
0
  0
BLOCK_RECORD
  5
35
100
AcDbSymbolTableRecord
100
AcDbBlockTableRecord
  2
*D24
340
0
  0
BLOCK_RECORD
  5
36
100
AcDbSymbolTableRecord
100
AcDbBlockTableRecord
  2
*D25
340
0
  0
BLOCK_RECORD
  5
37
100
AcDbSymbolTableRecord
100
AcDbBlockTableRecord
  2
*D26
340
0
  0
BLOCK_RECORD
  5
38
100
AcDbSymbolTableRecord
100
AcDbBlockTableRecord
  2
*D27
340
0
  0
BLOCK_RECORD
  5
39
100
AcDbSymbolTableRecord
100
AcDbBlockTableRecord
  2
*D28
340
0
  0
BLOCK_RECORD
  5
3A
100
AcDbSymbolTableRecord
100
AcDbBlockTableRecord
  2
*D29
340
0
  0
ENDTAB
  0
ENDSEC
  0
SECTION
  2
BLOCKS
  0
BLOCK
  5
3E
100
AcDbEntity
  8
0
390
0
100
AcDbBlockBegin
  2
*Model_Space
 70
     0
 10
0.0
 20
0.0
 30
0.0
  3
*Model_Space
  1

  0
ENDBLK
  5
3F
100
AcDbEntity
  8
0
390
0
100
AcDbBlockEnd
  0
BLOCK
  5
40
100
AcDbEntity
 67
     1
  8
0
390
0
100
AcDbBlockBegin
  2
*Paper_Space
 70
     0
 10
0.0
 20
0.0
 30
0.0
  3
*Paper_Space
  1

  0
ENDBLK
  5
41
100
AcDbEntity
 67
     1
  8
0
390
0
100
AcDbBlockEnd
  0
BLOCK
  5
2F5
100
AcDbEntity
  8
2
100
AcDbBlockBegin
  2
*D0
 70
     1
 10
0.0
 20
0.0
 30
0.0
  3
*D0
  1

  0
TEXT
  5
2F6
100
AcDbEntity
  8
2
370
    25
100
AcDbText
 10
-118.894107
 20
107.43914
 30
0.0
 40
3.0
  1
7
 41
2.0
 72
     5
 11
-117.094107
 21
107.43914
 31
0.0
100
AcDbText
  0
LINE
  5
2F7
100
AcDbEntity
  8
2
370
    25
100
AcDbLine
 10
-120.894107
 20
67.643916
 30
0.0
 11
-120.894107
 21
107.93914
 31
0.0
  0
LINE
  5
2F8
100
AcDbEntity
  8
2
370
    25
100
AcDbLine
 10
-120.894107
 20
106.93914
 30
0.0
 11
-118.962256
 21
106.421502
 31
0.0
  0
LINE
  5
2F9
100
AcDbEntity
  8
2
370
    25
100
AcDbLine
 10
-120.894107
 20
106.93914
 30
0.0
 11
-118.962256
 21
107.456778
 31
0.0
  0
LINE
  5
2FA
100
AcDbEntity
  8
2
370
    25
100
AcDbLine
 10
-120.894107
 20
106.93914
 30
0.0
 11
-113.894107
 21
106.93914
 31
0.0
  0
LINE
  5
2FB
100
AcDbEntity
  8
2
370
    25
100
AcDbLine
 10
-113.894107
 20
106.93914
 30
0.0
 11
-115.825959
 21
107.456778
 31
0.0
  0
LINE
  5
2FC
100
AcDbEntity
  8
2
370
    25
100
AcDbLine
 10
-113.894107
 20
106.93914
 30
0.0
 11
-115.825959
 21
106.421502
 31
0.0
  0
LINE
  5
2FD
100
AcDbEntity
  8
2
370
    25
100
AcDbLine
 10
-113.894107
 20
90.162589
 30
0.0
 11
-113.894107
 21
107.93914
 31
0.0
  0
ENDBLK
  5
2FE
100
AcDbEntity
  8
2
100
AcDbBlockEnd
  0
BLOCK
  5
2FF
100
AcDbEntity
  8
2
100
AcDbBlockBegin
  2
*D1
 70
     1
 10
0.0
 20
0.0
 30
0.0
  3
*D1
  1

  0
TEXT
  5
300
100
AcDbEntity
  8
2
370
    25
100
AcDbText
 10
-93.290747
 20
49.943916
 30
0.0
 40
3.0
  1
32
 50
90.0
 41
2.0
 72
     5
 11
-93.290747
 21
54.743916
 31
0.0
100
AcDbText
  0
LINE
  5
301
100
AcDbEntity
  8
2
370
    25
100
AcDbLine
 10
-107.694107
 20
36.943916
 30
0.0
 11
-91.790747
 21
36.943916
 31
0.0
  0
LINE
  5
302
100
AcDbEntity
  8
2
370
    25
100
AcDbLine
 10
-92.790747
 20
36.943916
 30
0.0
 11
-92.273109
 21
38.875768
 31
0.0
  0
LINE
  5
303
100
AcDbEntity
  8
2
370
    25
100
AcDbLine
 10
-92.790747
 20
36.943916
 30
0.0
 11
-93.308385
 21
38.875768
 31
0.0
  0
LINE
  5
304
100
AcDbEntity
  8
2
370
    25
100
AcDbLine
 10
-92.790747
 20
36.943916
 30
0.0
 11
-92.790747
 21
68.943916
 31
0.0
  0
LINE
  5
305
100
AcDbEntity
  8
2
370
    25
100
AcDbLine
 10
-92.790747
 20
68.943916
 30
0.0
 11
-93.308385
 21
67.012064
 31
0.0
  0
LINE
  5
306
100
AcDbEntity
  8
2
370
    25
100
AcDbLine
 10
-92.790747
 20
68.943916
 30
0.0
 11
-92.273109
 21
67.012064
 31
0.0
  0
LINE
  5
307
100
AcDbEntity
  8
2
370
    25
100
AcDbLine
 10
-107.694107
 20
68.943916
 30
0.0
 11
-91.790747
 21
68.943916
 31
0.0
  0
ENDBLK
  5
308
100
AcDbEntity
  8
2
100
AcDbBlockEnd
  0
BLOCK
  5
309
100
AcDbEntity
  8
2
100
AcDbBlockBegin
  2
*D2
 70
     1
 10
0.0
 20
0.0
 30
0.0
  3
*D2
  1

  0
TEXT
  5
30A
100
AcDbEntity
  8
2
370
    25
100
AcDbText
 10
-87.904803
 20
49.943916
 30
0.0
 40
3.0
  1
57
 50
90.0
 41
2.0
 72
     5
 11
-87.904803
 21
54.743916
 31
0.0
100
AcDbText
  0
LINE
  5
30B
100
AcDbEntity
  8
2
370
    25
100
AcDbLine
 10
-107.894107
 20
24.443916
 30
0.0
 11
-86.404803
 21
24.443916
 31
0.0
  0
LINE
  5
30C
100
AcDbEntity
  8
2
370
    25
100
AcDbLine
 10
-87.404803
 20
24.443916
 30
0.0
 11
-86.887165
 21
26.375768
 31
0.0
  0
LINE
  5
30D
100
AcDbEntity
  8
2
370
    25
100
AcDbLine
 10
-87.404803
 20
24.443916
 30
0.0
 11
-87.922441
 21
26.375768
 31
0.0
  0
LINE
  5
30E
100
AcDbEntity
  8
2
370
    25
100
AcDbLine
 10
-87.404803
 20
24.443916
 30
0.0
 11
-87.404803
 21
81.443916
 31
0.0
  0
LINE
  5
30F
100
AcDbEntity
  8
2
370
    25
100
AcDbLine
 10
-87.404803
 20
81.443916
 30
0.0
 11
-87.922441
 21
79.512064
 31
0.0
  0
LINE
  5
310
100
AcDbEntity
  8
2
370
    25
100
AcDbLine
 10
-87.404803
 20
81.443916
 30
0.0
 11
-86.887165
 21
79.512064
 31
0.0
  0
LINE
  5
311
100
AcDbEntity
  8
2
370
    25
100
AcDbLine
 10
-107.894107
 20
81.443916
 30
0.0
 11
-86.404803
 21
81.443916
 31
0.0
  0
ENDBLK
  5
312
100
AcDbEntity
  8
2
100
AcDbBlockEnd
  0
BLOCK
  5
313
100
AcDbEntity
  8
2
100
AcDbBlockBegin
  2
*D3
 70
     1
 10
0.0
 20
0.0
 30
0.0
  3
*D3
  1

  0
TEXT
  5
314
100
AcDbEntity
  8
2
370
    25
100
AcDbText
 10
-40.228273
 20
46.943916
 30
0.0
 40
3.0
  1
37.3
 50
90.0
 41
2.0
 72
     5
 11
-40.228273
 21
57.743916
 31
0.0
100
AcDbText
  0
LINE
  5
315
100
AcDbEntity
  8
2
370
    25
100
AcDbLine
 10
-51.294128
 20
34.293943
 30
0.0
 11
-38.728273
 21
34.293943
 31
0.0
  0
LINE
  5
316
100
AcDbEntity
  8
2
370
    25
100
AcDbLine
 10
-39.728273
 20
34.293943
 30
0.0
 11
-39.210634
 21
36.225794
 31
0.0
  0
LINE
  5
317
100
AcDbEntity
  8
2
370
    25
100
AcDbLine
 10
-39.728273
 20
34.293943
 30
0.0
 11
-40.245911
 21
36.225794
 31
0.0
  0
LINE
  5
318
100
AcDbEntity
  8
2
370
    25
100
AcDbLine
 10
-39.728273
 20
34.293943
 30
0.0
 11
-39.728273
 21
71.593889
 31
0.0
  0
LINE
  5
319
100
AcDbEntity
  8
2
370
    25
100
AcDbLine
 10
-39.728273
 20
71.593889
 30
0.0
 11
-40.245911
 21
69.662038
 31
0.0
  0
LINE
  5
31A
100
AcDbEntity
  8
2
370
    25
100
AcDbLine
 10
-39.728273
 20
71.593889
 30
0.0
 11
-39.210634
 21
69.662038
 31
0.0
  0
LINE
  5
31B
100
AcDbEntity
  8
2
370
    25
100
AcDbLine
 10
-51.294128
 20
71.593889
 30
0.0
 11
-38.728273
 21
71.593889
 31
0.0
  0
ENDBLK
  5
31C
100
AcDbEntity
  8
2
100
AcDbBlockEnd
  0
BLOCK
  5
31D
100
AcDbEntity
  8
2
100
AcDbBlockBegin
  2
*D4
 70
     1
 10
0.0
 20
0.0
 30
0.0
  3
*D4
  1

  0
TEXT
  5
31E
100
AcDbEntity
  8
2
370
    25
100
AcDbText
 10
-95.342173
 20
-19.956084
 30
0.0
 40
3.0
  1
2.9
 50
90.0
 41
2.0
 72
     5
 11
-95.342173
 21
-12.156084
 31
0.0
100
AcDbText
  0
LINE
  5
31F
100
AcDbEntity
  8
2
370
    25
100
AcDbLine
 10
-101.394107
 20
-24.856084
 30
0.0
 11
-93.842173
 21
-24.856084
 31
0.0
  0
LINE
  5
320
100
AcDbEntity
  8
2
370
    25
100
AcDbLine
 10
-94.842173
 20
-24.856084
 30
0.0
 11
-95.359811
 21
-26.787936
 31
0.0
  0
LINE
  5
321
100
AcDbEntity
  8
2
370
    25
100
AcDbLine
 10
-94.842173
 20
-24.856084
 30
0.0
 11
-94.324535
 21
-26.787936
 31
0.0
  0
LINE
  5
322
100
AcDbEntity
  8
2
370
    25
100
AcDbLine
 10
-94.842173
 20
-29.856084
 30
0.0
 11
-94.842173
 21
-9.956084
 31
0.0
  0
LINE
  5
323
100
AcDbEntity
  8
2
370
    25
100
AcDbLine
 10
-94.842173
 20
-21.956084
 30
0.0
 11
-94.324535
 21
-20.024232
 31
0.0
  0
LINE
  5
324
100
AcDbEntity
  8
2
370
    25
100
AcDbLine
 10
-94.842173
 20
-21.956084
 30
0.0
 11
-95.359811
 21
-20.024232
 31
0.0
  0
LINE
  5
325
100
AcDbEntity
  8
2
370
    25
100
AcDbLine
 10
-100.894107
 20
-21.956084
 30
0.0
 11
-93.842173
 21
-21.956084
 31
0.0
  0
ENDBLK
  5
326
100
AcDbEntity
  8
2
100
AcDbBlockEnd
  0
BLOCK
  5
327
100
AcDbEntity
  8
2
100
AcDbBlockBegin
  2
*D5
 70
     1
 10
0.0
 20
0.0
 30
0.0
  3
*D5
  1

  0
TEXT
  5
328
100
AcDbEntity
  8
2
370
    25
100
AcDbText
 10
-88.735785
 20
-35.256084
 30
0.0
 40
3.0
  1
14.6
 50
90.0
 41
2.0
 72
     5
 11
-88.735785
 21
-24.456084
 31
0.0
100
AcDbText
  0
LINE
  5
329
100
AcDbEntity
  8
2
370
    25
100
AcDbLine
 10
-102.394107
 20
-36.556084
 30
0.0
 11
-87.235785
 21
-36.556084
 31
0.0
  0
LINE
  5
32A
100
AcDbEntity
  8
2
370
    25
100
AcDbLine
 10
-88.235785
 20
-36.556084
 30
0.0
 11
-87.718147
 21
-34.624232
 31
0.0
  0
LINE
  5
32B
100
AcDbEntity
  8
2
370
    25
100
AcDbLine
 10
-88.235785
 20
-36.556084
 30
0.0
 11
-88.753423
 21
-34.624232
 31
0.0
  0
LINE
  5
32C
100
AcDbEntity
  8
2
370
    25
100
AcDbLine
 10
-88.235785
 20
-36.556084
 30
0.0
 11
-88.235785
 21
-21.956084
 31
0.0
  0
LINE
  5
32D
100
AcDbEntity
  8
2
370
    25
100
AcDbLine
 10
-88.235785
 20
-21.956084
 30
0.0
 11
-88.753423
 21
-23.887936
 31
0.0
  0
LINE
  5
32E
100
AcDbEntity
  8
2
370
    25
100
AcDbLine
 10
-88.235785
 20
-21.956084
 30
0.0
 11
-87.718147
 21
-23.887936
 31
0.0
  0
LINE
  5
32F
100
AcDbEntity
  8
2
370
    25
100
AcDbLine
 10
-100.894107
 20
-21.956084
 30
0.0
 11
-87.235785
 21
-21.956084
 31
0.0
  0
ENDBLK
  5
330
100
AcDbEntity
  8
2
100
AcDbBlockEnd
  0
BLOCK
  5
331
100
AcDbEntity
  8
2
100
AcDbBlockBegin
  2
*D6
 70
     1
 10
0.0
 20
0.0
 30
0.0
  3
*D6
  1

  0
TEXT
  5
332
100
AcDbEntity
  8
2
370
    25
100
AcDbText
 10
-116.894107
 20
-45.259974
 30
0.0
 40
3.0
  1
24
 41
2.0
 72
     5
 11
-112.094107
 21
-45.259974
 31
0.0
100
AcDbText
  0
LINE
  5
333
100
AcDbEntity
  8
2
370
    25
100
AcDbLine
 10
-125.894107
 20
-36.056084
 30
0.0
 11
-125.894107
 21
-46.759974
 31
0.0
  0
LINE
  5
334
100
AcDbEntity
  8
2
370
    25
100
AcDbLine
 10
-125.894107
 20
-45.759974
 30
0.0
 11
-123.962256
 21
-46.277612
 31
0.0
  0
LINE
  5
335
100
AcDbEntity
  8
2
370
    25
100
AcDbLine
 10
-125.894107
 20
-45.759974
 30
0.0
 11
-123.962256
 21
-45.242336
 31
0.0
  0
LINE
  5
336
100
AcDbEntity
  8
2
370
    25
100
AcDbLine
 10
-125.894107
 20
-45.759974
 30
0.0
 11
-101.894107
 21
-45.759974
 31
0.0
  0
LINE
  5
337
100
AcDbEntity
  8
2
370
    25
100
AcDbLine
 10
-101.894107
 20
-45.759974
 30
0.0
 11
-103.825959
 21
-45.242336
 31
0.0
  0
LINE
  5
338
100
AcDbEntity
  8
2
370
    25
100
AcDbLine
 10
-101.894107
 20
-45.759974
 30
0.0
 11
-103.825959
 21
-46.277612
 31
0.0
  0
LINE
  5
339
100
AcDbEntity
  8
2
370
    25
100
AcDbLine
 10
-101.894107
 20
-36.056084
 30
0.0
 11
-101.894107
 21
-46.759974
 31
0.0
  0
ENDBLK
  5
33A
100
AcDbEntity
  8
2
100
AcDbBlockEnd
  0
BLOCK
  5
33B
100
AcDbEntity
  8
2
100
AcDbBlockBegin
  2
*D7
 70
     1
 10
0.0
 20
0.0
 30
0.0
  3
*D7
  1

  0
TEXT
  5
33C
100
AcDbEntity
  8
2
370
    25
100
AcDbText
 10
-113.644107
 20
8.137336
 30
0.0
 40
3.0
  1
12.5
 41
2.0
 72
     5
 11
-102.844107
 21
8.137336
 31
0.0
100
AcDbText
  0
LINE
  5
33D
100
AcDbEntity
  8
2
370
    25
100
AcDbLine
 10
-113.894107
 20
15.153281
 30
0.0
 11
-113.894107
 21
6.637336
 31
0.0
  0
LINE
  5
33E
100
AcDbEntity
  8
2
370
    25
100
AcDbLine
 10
-113.894107
 20
7.637336
 30
0.0
 11
-111.962256
 21
7.119698
 31
0.0
  0
LINE
  5
33F
100
AcDbEntity
  8
2
370
    25
100
AcDbLine
 10
-113.894107
 20
7.637336
 30
0.0
 11
-111.962256
 21
8.154974
 31
0.0
  0
LINE
  5
340
100
AcDbEntity
  8
2
370
    25
100
AcDbLine
 10
-113.894107
 20
7.637336
 30
0.0
 11
-101.394107
 21
7.637336
 31
0.0
  0
LINE
  5
341
100
AcDbEntity
  8
2
370
    25
100
AcDbLine
 10
-101.394107
 20
7.637336
 30
0.0
 11
-103.325959
 21
8.154974
 31
0.0
  0
LINE
  5
342
100
AcDbEntity
  8
2
370
    25
100
AcDbLine
 10
-101.394107
 20
7.637336
 30
0.0
 11
-103.325959
 21
7.119698
 31
0.0
  0
LINE
  5
343
100
AcDbEntity
  8
2
370
    25
100
AcDbLine
 10
-101.394107
 20
23.543916
 30
0.0
 11
-101.394107
 21
6.637336
 31
0.0
  0
ENDBLK
  5
344
100
AcDbEntity
  8
2
100
AcDbBlockEnd
  0
BLOCK
  5
345
100
AcDbEntity
  8
2
100
AcDbBlockBegin
  2
*D8
 70
     1
 10
0.0
 20
0.0
 30
0.0
  3
*D8
  1

  0
TEXT
  5
346
100
AcDbEntity
  8
2
370
    25
100
AcDbText
 10
-102.034235
 20
87.80393
 30
0.0
 40
3.0
  1
R6
 50
44.458449
 41
2.0
 72
     5
 11
-98.608194
 21
91.165811
 31
0.0
100
AcDbText
  0
LINE
  5
347
100
AcDbEntity
  8
2
370
    25
100
AcDbLine
 10
-107.394107
 20
81.843916
 30
0.0
 11
-96.687729
 21
92.349794
 31
0.0
  0
LINE
  5
348
100
AcDbEntity
  8
2
370
    25
100
AcDbLine
 10
-103.111556
 20
86.046267
 30
0.0
 11
-101.370131
 21
87.029852
 31
0.0
  0
LINE
  5
349
100
AcDbEntity
  8
2
370
    25
100
AcDbLine
 10
-103.111556
 20
86.046267
 30
0.0
 11
-102.09523
 21
87.768789
 31
0.0
  0
ENDBLK
  5
34A
100
AcDbEntity
  8
2
100
AcDbBlockEnd
  0
BLOCK
  5
34B
100
AcDbEntity
  8
2
100
AcDbBlockBegin
  2
*D9
 70
     1
 10
0.0
 20
0.0
 30
0.0
  3
*D9
  1

  0
LINE
  5
34C
100
AcDbEntity
  8
2
370
    25
100
AcDbLine
 10
-123.194107
 20
69.443916
 30
0.0
 11
-123.194107
 21
101.451724
 31
0.0
  0
LINE
  5
34D
100
AcDbEntity
  8
2
370
    25
100
AcDbLine
 10
-123.194107
 20
100.451724
 30
0.0
 11
-125.125959
 21
100.969362
 31
0.0
  0
LINE
  5
34E
100
AcDbEntity
  8
2
370
    25
100
AcDbLine
 10
-123.194107
 20
100.451724
 30
0.0
 11
-125.125959
 21
99.934086
 31
0.0
  0
LINE
  5
34F
100
AcDbEntity
  8
2
370
    25
100
AcDbLine
 10
-137.194107
 20
100.451724
 30
0.0
 11
-120.894107
 21
100.451724
 31
0.0
  0
LINE
  5
350
100
AcDbEntity
  8
2
370
    25
100
AcDbLine
 10
-120.894107
 20
67.643916
 30
0.0
 11
-120.894107
 21
101.451724
 31
0.0
  0
CIRCLE
  5
351
100
AcDbEntity
  8
2
370
    25
100
AcDbCircle
 10
-120.894107
 20
100.451724
 30
0.0
 40
0.5
  0
CIRCLE
  5
352
100
AcDbEntity
  8
2
370
    25
100
AcDbCircle
 10
-120.894107
 20
100.451724
 30
0.0
 40
0.3
  0
ENDBLK
  5
353
100
AcDbEntity
  8
2
100
AcDbBlockEnd
  0
BLOCK
  5
354
100
AcDbEntity
  8
2
100
AcDbBlockBegin
  2
*D10
 70
     1
 10
0.0
 20
0.0
 30
0.0
  3
*D10
  1

  0
LINE
  5
355
100
AcDbEntity
  8
2
370
    25
100
AcDbLine
 10
-120.894107
 20
67.643916
 30
0.0
 11
-120.894107
 21
101.451724
 31
0.0
  0
LINE
  5
356
100
AcDbEntity
  8
2
370
    25
100
AcDbLine
 10
-120.894107
 20
100.451724
 30
0.0
 11
-104.594107
 21
100.451724
 31
0.0
  0
LINE
  5
357
100
AcDbEntity
  8
2
370
    25
100
AcDbLine
 10
-118.594107
 20
100.451724
 30
0.0
 11
-116.662256
 21
99.934086
 31
0.0
  0
LINE
  5
358
100
AcDbEntity
  8
2
370
    25
100
AcDbLine
 10
-118.594107
 20
100.451724
 30
0.0
 11
-116.662256
 21
100.969362
 31
0.0
  0
LINE
  5
359
100
AcDbEntity
  8
2
370
    25
100
AcDbLine
 10
-118.594107
 20
69.443916
 30
0.0
 11
-118.594107
 21
101.451724
 31
0.0
  0
CIRCLE
  5
35A
100
AcDbEntity
  8
2
370
    25
100
AcDbCircle
 10
-120.894107
 20
100.451724
 30
0.0
 40
0.5
  0
CIRCLE
  5
35B
100
AcDbEntity
  8
2
370
    25
100
AcDbCircle
 10
-120.894107
 20
100.451724
 30
0.0
 40
0.3
  0
ENDBLK
  5
35C
100
AcDbEntity
  8
2
100
AcDbBlockEnd
  0
BLOCK
  5
35D
100
AcDbEntity
  8
2
100
AcDbBlockBegin
  2
*D11
 70
     1
 10
0.0
 20
0.0
 30
0.0
  3
*D11
  1

  0
TEXT
  5
35E
100
AcDbEntity
  8
2
370
    25
100
AcDbText
 10
-135.952122
 20
-19.956084
 30
0.0
 40
3.0
  1
2.9
 50
90.0
 41
2.0
 72
     5
 11
-135.952122
 21
-12.156084
 31
0.0
100
AcDbText
  0
LINE
  5
35F
100
AcDbEntity
  8
2
370
    25
100
AcDbLine
 10
-130.894107
 20
-24.856084
 30
0.0
 11
-136.452122
 21
-24.856084
 31
0.0
  0
LINE
  5
360
100
AcDbEntity
  8
2
370
    25
100
AcDbLine
 10
-135.452122
 20
-24.856084
 30
0.0
 11
-135.96976
 21
-26.787936
 31
0.0
  0
LINE
  5
361
100
AcDbEntity
  8
2
370
    25
100
AcDbLine
 10
-135.452122
 20
-24.856084
 30
0.0
 11
-134.934484
 21
-26.787936
 31
0.0
  0
LINE
  5
362
100
AcDbEntity
  8
2
370
    25
100
AcDbLine
 10
-135.452122
 20
-29.856084
 30
0.0
 11
-135.452122
 21
-9.956084
 31
0.0
  0
LINE
  5
363
100
AcDbEntity
  8
2
370
    25
100
AcDbLine
 10
-135.452122
 20
-21.956084
 30
0.0
 11
-134.934484
 21
-20.024232
 31
0.0
  0
LINE
  5
364
100
AcDbEntity
  8
2
370
    25
100
AcDbLine
 10
-135.452122
 20
-21.956084
 30
0.0
 11
-135.96976
 21
-20.024232
 31
0.0
  0
LINE
  5
365
100
AcDbEntity
  8
2
370
    25
100
AcDbLine
 10
-129.394107
 20
-21.956084
 30
0.0
 11
-136.452122
 21
-21.956084
 31
0.0
  0
ENDBLK
  5
366
100
AcDbEntity
  8
2
100
AcDbBlockEnd
  0
BLOCK
  5
367
100
AcDbEntity
  8
2
100
AcDbBlockBegin
  2
*D12
 70
     1
 10
0.0
 20
0.0
 30
0.0
  3
*D12
  1

  0
TEXT
  5
368
100
AcDbEntity
  8
2
370
    25
100
AcDbText
 10
-141.669617
 20
49.943916
 30
0.0
 40
3.0
  1
70
 50
90.0
 41
2.0
 72
     5
 11
-141.669617
 21
54.743916
 31
0.0
100
AcDbText
  0
LINE
  5
369
100
AcDbEntity
  8
2
370
    25
100
AcDbLine
 10
-130.894107
 20
18.043916
 30
0.0
 11
-142.169617
 21
18.043916
 31
0.0
  0
LINE
  5
36A
100
AcDbEntity
  8
2
370
    25
100
AcDbLine
 10
-141.169617
 20
18.043916
 30
0.0
 11
-140.651979
 21
19.975768
 31
0.0
  0
LINE
  5
36B
100
AcDbEntity
  8
2
370
    25
100
AcDbLine
 10
-141.169617
 20
18.043916
 30
0.0
 11
-141.687255
 21
19.975768
 31
0.0
  0
LINE
  5
36C
100
AcDbEntity
  8
2
370
    25
100
AcDbLine
 10
-141.169617
 20
18.043916
 30
0.0
 11
-141.169617
 21
87.843916
 31
0.0
  0
LINE
  5
36D
100
AcDbEntity
  8
2
370
    25
100
AcDbLine
 10
-141.169617
 20
87.843916
 30
0.0
 11
-141.687255
 21
85.912064
 31
0.0
  0
LINE
  5
36E
100
AcDbEntity
  8
2
370
    25
100
AcDbLine
 10
-141.169617
 20
87.843916
 30
0.0
 11
-140.651979
 21
85.912064
 31
0.0
  0
LINE
  5
36F
100
AcDbEntity
  8
2
370
    25
100
AcDbLine
 10
-130.894107
 20
87.843916
 30
0.0
 11
-142.169617
 21
87.843916
 31
0.0
  0
ENDBLK
  5
370
100
AcDbEntity
  8
2
100
AcDbBlockEnd
  0
BLOCK
  5
371
100
AcDbEntity
  8
2
100
AcDbBlockBegin
  2
*D13
 70
     1
 10
0.0
 20
0.0
 30
0.0
  3
*D13
  1

  0
TEXT
  5
372
100
AcDbEntity
  8
2
370
    25
100
AcDbText
 10
91.105893
 20
107.43914
 30
0.0
 40
3.0
  1
7
 41
2.0
 72
     5
 11
92.905893
 21
107.43914
 31
0.0
100
AcDbText
  0
LINE
  5
373
100
AcDbEntity
  8
2
370
    25
100
AcDbLine
 10
89.105893
 20
67.643916
 30
0.0
 11
89.105893
 21
107.93914
 31
0.0
  0
LINE
  5
374
100
AcDbEntity
  8
2
370
    25
100
AcDbLine
 10
89.105893
 20
106.93914
 30
0.0
 11
91.037744
 21
106.421502
 31
0.0
  0
LINE
  5
375
100
AcDbEntity
  8
2
370
    25
100
AcDbLine
 10
89.105893
 20
106.93914
 30
0.0
 11
91.037744
 21
107.456778
 31
0.0
  0
LINE
  5
376
100
AcDbEntity
  8
2
370
    25
100
AcDbLine
 10
89.105893
 20
106.93914
 30
0.0
 11
96.105893
 21
106.93914
 31
0.0
  0
LINE
  5
377
100
AcDbEntity
  8
2
370
    25
100
AcDbLine
 10
96.105893
 20
106.93914
 30
0.0
 11
94.174041
 21
107.456778
 31
0.0
  0
LINE
  5
378
100
AcDbEntity
  8
2
370
    25
100
AcDbLine
 10
96.105893
 20
106.93914
 30
0.0
 11
94.174041
 21
106.421502
 31
0.0
  0
LINE
  5
379
100
AcDbEntity
  8
2
370
    25
100
AcDbLine
 10
96.105893
 20
90.162589
 30
0.0
 11
96.105893
 21
107.93914
 31
0.0
  0
ENDBLK
  5
37A
100
AcDbEntity
  8
2
100
AcDbBlockEnd
  0
BLOCK
  5
37B
100
AcDbEntity
  8
2
100
AcDbBlockBegin
  2
*D14
 70
     1
 10
0.0
 20
0.0
 30
0.0
  3
*D14
  1

  0
TEXT
  5
37C
100
AcDbEntity
  8
2
370
    25
100
AcDbText
 10
116.709253
 20
49.943916
 30
0.0
 40
3.0
  1
32
 50
90.0
 41
2.0
 72
     5
 11
116.709253
 21
54.743916
 31
0.0
100
AcDbText
  0
LINE
  5
37D
100
AcDbEntity
  8
2
370
    25
100
AcDbLine
 10
102.305893
 20
36.943916
 30
0.0
 11
118.209253
 21
36.943916
 31
0.0
  0
LINE
  5
37E
100
AcDbEntity
  8
2
370
    25
100
AcDbLine
 10
117.209253
 20
36.943916
 30
0.0
 11
117.726891
 21
38.875768
 31
0.0
  0
LINE
  5
37F
100
AcDbEntity
  8
2
370
    25
100
AcDbLine
 10
117.209253
 20
36.943916
 30
0.0
 11
116.691615
 21
38.875768
 31
0.0
  0
LINE
  5
380
100
AcDbEntity
  8
2
370
    25
100
AcDbLine
 10
117.209253
 20
36.943916
 30
0.0
 11
117.209253
 21
68.943916
 31
0.0
  0
LINE
  5
381
100
AcDbEntity
  8
2
370
    25
100
AcDbLine
 10
117.209253
 20
68.943916
 30
0.0
 11
116.691615
 21
67.012064
 31
0.0
  0
LINE
  5
382
100
AcDbEntity
  8
2
370
    25
100
AcDbLine
 10
117.209253
 20
68.943916
 30
0.0
 11
117.726891
 21
67.012064
 31
0.0
  0
LINE
  5
383
100
AcDbEntity
  8
2
370
    25
100
AcDbLine
 10
102.305893
 20
68.943916
 30
0.0
 11
118.209253
 21
68.943916
 31
0.0
  0
ENDBLK
  5
384
100
AcDbEntity
  8
2
100
AcDbBlockEnd
  0
BLOCK
  5
385
100
AcDbEntity
  8
2
100
AcDbBlockBegin
  2
*D15
 70
     1
 10
0.0
 20
0.0
 30
0.0
  3
*D15
  1

  0
TEXT
  5
386
100
AcDbEntity
  8
2
370
    25
100
AcDbText
 10
122.095197
 20
49.943916
 30
0.0
 40
3.0
  1
57
 50
90.0
 41
2.0
 72
     5
 11
122.095197
 21
54.743916
 31
0.0
100
AcDbText
  0
LINE
  5
387
100
AcDbEntity
  8
2
370
    25
100
AcDbLine
 10
102.105893
 20
24.443916
 30
0.0
 11
123.595197
 21
24.443916
 31
0.0
  0
LINE
  5
388
100
AcDbEntity
  8
2
370
    25
100
AcDbLine
 10
122.595197
 20
24.443916
 30
0.0
 11
123.112835
 21
26.375768
 31
0.0
  0
LINE
  5
389
100
AcDbEntity
  8
2
370
    25
100
AcDbLine
 10
122.595197
 20
24.443916
 30
0.0
 11
122.077559
 21
26.375768
 31
0.0
  0
LINE
  5
38A
100
AcDbEntity
  8
2
370
    25
100
AcDbLine
 10
122.595197
 20
24.443916
 30
0.0
 11
122.595197
 21
81.443916
 31
0.0
  0
LINE
  5
38B
100
AcDbEntity
  8
2
370
    25
100
AcDbLine
 10
122.595197
 20
81.443916
 30
0.0
 11
122.077559
 21
79.512064
 31
0.0
  0
LINE
  5
38C
100
AcDbEntity
  8
2
370
    25
100
AcDbLine
 10
122.595197
 20
81.443916
 30
0.0
 11
123.112835
 21
79.512064
 31
0.0
  0
LINE
  5
38D
100
AcDbEntity
  8
2
370
    25
100
AcDbLine
 10
102.105893
 20
81.443916
 30
0.0
 11
123.595197
 21
81.443916
 31
0.0
  0
ENDBLK
  5
38E
100
AcDbEntity
  8
2
100
AcDbBlockEnd
  0
BLOCK
  5
38F
100
AcDbEntity
  8
2
100
AcDbBlockBegin
  2
*D16
 70
     1
 10
0.0
 20
0.0
 30
0.0
  3
*D16
  1

  0
TEXT
  5
390
100
AcDbEntity
  8
2
370
    25
100
AcDbText
 10
169.771727
 20
46.943916
 30
0.0
 40
3.0
  1
37.3
 50
90.0
 41
2.0
 72
     5
 11
169.771727
 21
57.743916
 31
0.0
100
AcDbText
  0
LINE
  5
391
100
AcDbEntity
  8
2
370
    25
100
AcDbLine
 10
158.705872
 20
34.293943
 30
0.0
 11
171.271727
 21
34.293943
 31
0.0
  0
LINE
  5
392
100
AcDbEntity
  8
2
370
    25
100
AcDbLine
 10
170.271727
 20
34.293943
 30
0.0
 11
170.789366
 21
36.225794
 31
0.0
  0
LINE
  5
393
100
AcDbEntity
  8
2
370
    25
100
AcDbLine
 10
170.271727
 20
34.293943
 30
0.0
 11
169.754089
 21
36.225794
 31
0.0
  0
LINE
  5
394
100
AcDbEntity
  8
2
370
    25
100
AcDbLine
 10
170.271727
 20
34.293943
 30
0.0
 11
170.271727
 21
71.593889
 31
0.0
  0
LINE
  5
395
100
AcDbEntity
  8
2
370
    25
100
AcDbLine
 10
170.271727
 20
71.593889
 30
0.0
 11
169.754089
 21
69.662038
 31
0.0
  0
LINE
  5
396
100
AcDbEntity
  8
2
370
    25
100
AcDbLine
 10
170.271727
 20
71.593889
 30
0.0
 11
170.789366
 21
69.662038
 31
0.0
  0
LINE
  5
397
100
AcDbEntity
  8
2
370
    25
100
AcDbLine
 10
158.705872
 20
71.593889
 30
0.0
 11
171.271727
 21
71.593889
 31
0.0
  0
ENDBLK
  5
398
100
AcDbEntity
  8
2
100
AcDbBlockEnd
  0
BLOCK
  5
399
100
AcDbEntity
  8
2
100
AcDbBlockBegin
  2
*D17
 70
     1
 10
0.0
 20
0.0
 30
0.0
  3
*D17
  1

  0
TEXT
  5
39A
100
AcDbEntity
  8
2
370
    25
100
AcDbText
 10
114.657827
 20
-19.956084
 30
0.0
 40
3.0
  1
2.9
 50
90.0
 41
2.0
 72
     5
 11
114.657827
 21
-12.156084
 31
0.0
100
AcDbText
  0
LINE
  5
39B
100
AcDbEntity
  8
2
370
    25
100
AcDbLine
 10
108.605893
 20
-24.856084
 30
0.0
 11
116.157827
 21
-24.856084
 31
0.0
  0
LINE
  5
39C
100
AcDbEntity
  8
2
370
    25
100
AcDbLine
 10
115.157827
 20
-24.856084
 30
0.0
 11
114.640189
 21
-26.787936
 31
0.0
  0
LINE
  5
39D
100
AcDbEntity
  8
2
370
    25
100
AcDbLine
 10
115.157827
 20
-24.856084
 30
0.0
 11
115.675465
 21
-26.787936
 31
0.0
  0
LINE
  5
39E
100
AcDbEntity
  8
2
370
    25
100
AcDbLine
 10
115.157827
 20
-29.856084
 30
0.0
 11
115.157827
 21
-9.956084
 31
0.0
  0
LINE
  5
39F
100
AcDbEntity
  8
2
370
    25
100
AcDbLine
 10
115.157827
 20
-21.956084
 30
0.0
 11
115.675465
 21
-20.024232
 31
0.0
  0
LINE
  5
3A0
100
AcDbEntity
  8
2
370
    25
100
AcDbLine
 10
115.157827
 20
-21.956084
 30
0.0
 11
114.640189
 21
-20.024232
 31
0.0
  0
LINE
  5
3A1
100
AcDbEntity
  8
2
370
    25
100
AcDbLine
 10
109.105893
 20
-21.956084
 30
0.0
 11
116.157827
 21
-21.956084
 31
0.0
  0
ENDBLK
  5
3A2
100
AcDbEntity
  8
2
100
AcDbBlockEnd
  0
BLOCK
  5
3A3
100
AcDbEntity
  8
2
100
AcDbBlockBegin
  2
*D18
 70
     1
 10
0.0
 20
0.0
 30
0.0
  3
*D18
  1

  0
TEXT
  5
3A4
100
AcDbEntity
  8
2
370
    25
100
AcDbText
 10
121.264215
 20
-35.256084
 30
0.0
 40
3.0
  1
14.6
 50
90.0
 41
2.0
 72
     5
 11
121.264215
 21
-24.456084
 31
0.0
100
AcDbText
  0
LINE
  5
3A5
100
AcDbEntity
  8
2
370
    25
100
AcDbLine
 10
107.605893
 20
-36.556084
 30
0.0
 11
122.764215
 21
-36.556084
 31
0.0
  0
LINE
  5
3A6
100
AcDbEntity
  8
2
370
    25
100
AcDbLine
 10
121.764215
 20
-36.556084
 30
0.0
 11
122.281853
 21
-34.624232
 31
0.0
  0
LINE
  5
3A7
100
AcDbEntity
  8
2
370
    25
100
AcDbLine
 10
121.764215
 20
-36.556084
 30
0.0
 11
121.246577
 21
-34.624232
 31
0.0
  0
LINE
  5
3A8
100
AcDbEntity
  8
2
370
    25
100
AcDbLine
 10
121.764215
 20
-36.556084
 30
0.0
 11
121.764215
 21
-21.956084
 31
0.0
  0
LINE
  5
3A9
100
AcDbEntity
  8
2
370
    25
100
AcDbLine
 10
121.764215
 20
-21.956084
 30
0.0
 11
121.246577
 21
-23.887936
 31
0.0
  0
LINE
  5
3AA
100
AcDbEntity
  8
2
370
    25
100
AcDbLine
 10
121.764215
 20
-21.956084
 30
0.0
 11
122.281853
 21
-23.887936
 31
0.0
  0
LINE
  5
3AB
100
AcDbEntity
  8
2
370
    25
100
AcDbLine
 10
109.105893
 20
-21.956084
 30
0.0
 11
122.764215
 21
-21.956084
 31
0.0
  0
ENDBLK
  5
3AC
100
AcDbEntity
  8
2
100
AcDbBlockEnd
  0
BLOCK
  5
3AD
100
AcDbEntity
  8
2
100
AcDbBlockBegin
  2
*D19
 70
     1
 10
0.0
 20
0.0
 30
0.0
  3
*D19
  1

  0
TEXT
  5
3AE
100
AcDbEntity
  8
2
370
    25
100
AcDbText
 10
93.105893
 20
-45.259974
 30
0.0
 40
3.0
  1
24
 41
2.0
 72
     5
 11
97.905893
 21
-45.259974
 31
0.0
100
AcDbText
  0
LINE
  5
3AF
100
AcDbEntity
  8
2
370
    25
100
AcDbLine
 10
84.105893
 20
-36.056084
 30
0.0
 11
84.105893
 21
-46.759974
 31
0.0
  0
LINE
  5
3B0
100
AcDbEntity
  8
2
370
    25
100
AcDbLine
 10
84.105893
 20
-45.759974
 30
0.0
 11
86.037744
 21
-46.277612
 31
0.0
  0
LINE
  5
3B1
100
AcDbEntity
  8
2
370
    25
100
AcDbLine
 10
84.105893
 20
-45.759974
 30
0.0
 11
86.037744
 21
-45.242336
 31
0.0
  0
LINE
  5
3B2
100
AcDbEntity
  8
2
370
    25
100
AcDbLine
 10
84.105893
 20
-45.759974
 30
0.0
 11
108.105893
 21
-45.759974
 31
0.0
  0
LINE
  5
3B3
100
AcDbEntity
  8
2
370
    25
100
AcDbLine
 10
108.105893
 20
-45.759974
 30
0.0
 11
106.174041
 21
-45.242336
 31
0.0
  0
LINE
  5
3B4
100
AcDbEntity
  8
2
370
    25
100
AcDbLine
 10
108.105893
 20
-45.759974
 30
0.0
 11
106.174041
 21
-46.277612
 31
0.0
  0
LINE
  5
3B5
100
AcDbEntity
  8
2
370
    25
100
AcDbLine
 10
108.105893
 20
-36.056084
 30
0.0
 11
108.105893
 21
-46.759974
 31
0.0
  0
ENDBLK
  5
3B6
100
AcDbEntity
  8
2
100
AcDbBlockEnd
  0
BLOCK
  5
3B7
100
AcDbEntity
  8
2
100
AcDbBlockBegin
  2
*D20
 70
     1
 10
0.0
 20
0.0
 30
0.0
  3
*D20
  1

  0
TEXT
  5
3B8
100
AcDbEntity
  8
2
370
    25
100
AcDbText
 10
96.355893
 20
8.137336
 30
0.0
 40
3.0
  1
12.5
 41
2.0
 72
     5
 11
107.155893
 21
8.137336
 31
0.0
100
AcDbText
  0
LINE
  5
3B9
100
AcDbEntity
  8
2
370
    25
100
AcDbLine
 10
96.105893
 20
15.153281
 30
0.0
 11
96.105893
 21
6.637336
 31
0.0
  0
LINE
  5
3BA
100
AcDbEntity
  8
2
370
    25
100
AcDbLine
 10
96.105893
 20
7.637336
 30
0.0
 11
98.037744
 21
7.119698
 31
0.0
  0
LINE
  5
3BB
100
AcDbEntity
  8
2
370
    25
100
AcDbLine
 10
96.105893
 20
7.637336
 30
0.0
 11
98.037744
 21
8.154974
 31
0.0
  0
LINE
  5
3BC
100
AcDbEntity
  8
2
370
    25
100
AcDbLine
 10
96.105893
 20
7.637336
 30
0.0
 11
108.605893
 21
7.637336
 31
0.0
  0
LINE
  5
3BD
100
AcDbEntity
  8
2
370
    25
100
AcDbLine
 10
108.605893
 20
7.637336
 30
0.0
 11
106.674041
 21
8.154974
 31
0.0
  0
LINE
  5
3BE
100
AcDbEntity
  8
2
370
    25
100
AcDbLine
 10
108.605893
 20
7.637336
 30
0.0
 11
106.674041
 21
7.119698
 31
0.0
  0
LINE
  5
3BF
100
AcDbEntity
  8
2
370
    25
100
AcDbLine
 10
108.605893
 20
23.543916
 30
0.0
 11
108.605893
 21
6.637336
 31
0.0
  0
ENDBLK
  5
3C0
100
AcDbEntity
  8
2
100
AcDbBlockEnd
  0
BLOCK
  5
3C1
100
AcDbEntity
  8
2
100
AcDbBlockBegin
  2
*D21
 70
     1
 10
0.0
 20
0.0
 30
0.0
  3
*D21
  1

  0
TEXT
  5
3C2
100
AcDbEntity
  8
2
370
    25
100
AcDbText
 10
107.965765
 20
87.80393
 30
0.0
 40
3.0
  1
R6
 50
44.458449
 41
2.0
 72
     5
 11
111.391806
 21
91.165811
 31
0.0
100
AcDbText
  0
LINE
  5
3C3
100
AcDbEntity
  8
2
370
    25
100
AcDbLine
 10
102.605893
 20
81.843916
 30
0.0
 11
113.312271
 21
92.349794
 31
0.0
  0
LINE
  5
3C4
100
AcDbEntity
  8
2
370
    25
100
AcDbLine
 10
106.888444
 20
86.046267
 30
0.0
 11
108.629869
 21
87.029852
 31
0.0
  0
LINE
  5
3C5
100
AcDbEntity
  8
2
370
    25
100
AcDbLine
 10
106.888444
 20
86.046267
 30
0.0
 11
107.90477
 21
87.768789
 31
0.0
  0
ENDBLK
  5
3C6
100
AcDbEntity
  8
2
100
AcDbBlockEnd
  0
BLOCK
  5
3C7
100
AcDbEntity
  8
2
100
AcDbBlockBegin
  2
*D22
 70
     1
 10
0.0
 20
0.0
 30
0.0
  3
*D22
  1

  0
LINE
  5
3C8
100
AcDbEntity
  8
2
370
    25
100
AcDbLine
 10
86.805893
 20
69.443916
 30
0.0
 11
86.805893
 21
101.451724
 31
0.0
  0
LINE
  5
3C9
100
AcDbEntity
  8
2
370
    25
100
AcDbLine
 10
86.805893
 20
100.451724
 30
0.0
 11
84.874041
 21
100.969362
 31
0.0
  0
LINE
  5
3CA
100
AcDbEntity
  8
2
370
    25
100
AcDbLine
 10
86.805893
 20
100.451724
 30
0.0
 11
84.874041
 21
99.934086
 31
0.0
  0
LINE
  5
3CB
100
AcDbEntity
  8
2
370
    25
100
AcDbLine
 10
72.805893
 20
100.451724
 30
0.0
 11
89.105893
 21
100.451724
 31
0.0
  0
LINE
  5
3CC
100
AcDbEntity
  8
2
370
    25
100
AcDbLine
 10
89.105893
 20
67.643916
 30
0.0
 11
89.105893
 21
101.451724
 31
0.0
  0
CIRCLE
  5
3CD
100
AcDbEntity
  8
2
370
    25
100
AcDbCircle
 10
89.105893
 20
100.451724
 30
0.0
 40
0.5
  0
CIRCLE
  5
3CE
100
AcDbEntity
  8
2
370
    25
100
AcDbCircle
 10
89.105893
 20
100.451724
 30
0.0
 40
0.3
  0
ENDBLK
  5
3CF
100
AcDbEntity
  8
2
100
AcDbBlockEnd
  0
BLOCK
  5
3D0
100
AcDbEntity
  8
2
100
AcDbBlockBegin
  2
*D23
 70
     1
 10
0.0
 20
0.0
 30
0.0
  3
*D23
  1

  0
LINE
  5
3D1
100
AcDbEntity
  8
2
370
    25
100
AcDbLine
 10
89.105893
 20
67.643916
 30
0.0
 11
89.105893
 21
101.451724
 31
0.0
  0
LINE
  5
3D2
100
AcDbEntity
  8
2
370
    25
100
AcDbLine
 10
89.105893
 20
100.451724
 30
0.0
 11
105.405893
 21
100.451724
 31
0.0
  0
LINE
  5
3D3
100
AcDbEntity
  8
2
370
    25
100
AcDbLine
 10
91.405893
 20
100.451724
 30
0.0
 11
93.337744
 21
99.934086
 31
0.0
  0
LINE
  5
3D4
100
AcDbEntity
  8
2
370
    25
100
AcDbLine
 10
91.405893
 20
100.451724
 30
0.0
 11
93.337744
 21
100.969362
 31
0.0
  0
LINE
  5
3D5
100
AcDbEntity
  8
2
370
    25
100
AcDbLine
 10
91.405893
 20
69.443916
 30
0.0
 11
91.405893
 21
101.451724
 31
0.0
  0
CIRCLE
  5
3D6
100
AcDbEntity
  8
2
370
    25
100
AcDbCircle
 10
89.105893
 20
100.451724
 30
0.0
 40
0.5
  0
CIRCLE
  5
3D7
100
AcDbEntity
  8
2
370
    25
100
AcDbCircle
 10
89.105893
 20
100.451724
 30
0.0
 40
0.3
  0
ENDBLK
  5
3D8
100
AcDbEntity
  8
2
100
AcDbBlockEnd
  0
BLOCK
  5
3D9
100
AcDbEntity
  8
2
100
AcDbBlockBegin
  2
*D24
 70
     1
 10
0.0
 20
0.0
 30
0.0
  3
*D24
  1

  0
TEXT
  5
3DA
100
AcDbEntity
  8
2
370
    25
100
AcDbText
 10
84.105893
 20
8.137336
 30
0.0
 40
3.0
  1
18
 41
2.0
 72
     5
 11
88.905893
 21
8.137336
 31
0.0
100
AcDbText
  0
LINE
  5
3DB
100
AcDbEntity
  8
2
370
    25
100
AcDbLine
 10
78.105893
 20
17.543916
 30
0.0
 11
78.105893
 21
6.637336
 31
0.0
  0
LINE
  5
3DC
100
AcDbEntity
  8
2
370
    25
100
AcDbLine
 10
78.105893
 20
7.637336
 30
0.0
 11
80.037744
 21
7.119698
 31
0.0
  0
LINE
  5
3DD
100
AcDbEntity
  8
2
370
    25
100
AcDbLine
 10
78.105893
 20
7.637336
 30
0.0
 11
80.037744
 21
8.154974
 31
0.0
  0
LINE
  5
3DE
100
AcDbEntity
  8
2
370
    25
100
AcDbLine
 10
78.105893
 20
7.637336
 30
0.0
 11
96.105893
 21
7.637336
 31
0.0
  0
LINE
  5
3DF
100
AcDbEntity
  8
2
370
    25
100
AcDbLine
 10
96.105893
 20
7.637336
 30
0.0
 11
94.174041
 21
8.154974
 31
0.0
  0
LINE
  5
3E0
100
AcDbEntity
  8
2
370
    25
100
AcDbLine
 10
96.105893
 20
7.637336
 30
0.0
 11
94.174041
 21
7.119698
 31
0.0
  0
LINE
  5
3E1
100
AcDbEntity
  8
2
370
    25
100
AcDbLine
 10
96.105893
 20
15.667064
 30
0.0
 11
96.105893
 21
6.637336
 31
0.0
  0
ENDBLK
  5
3E2
100
AcDbEntity
  8
2
100
AcDbBlockEnd
  0
BLOCK
  5
3E3
100
AcDbEntity
  8
2
100
AcDbBlockBegin
  2
*D25
 70
     1
 10
0.0
 20
0.0
 30
0.0
  3
*D25
  1

  0
TEXT
  5
3E4
100
AcDbEntity
  8
2
370
    25
100
AcDbText
 10
87.355893
 20
1.320255
 30
0.0
 40
3.0
  1
30.5
 41
2.0
 72
     5
 11
98.155893
 21
1.320255
 31
0.0
100
AcDbText
  0
LINE
  5
3E5
100
AcDbEntity
  8
2
370
    25
100
AcDbLine
 10
78.105893
 20
17.543916
 30
0.0
 11
78.105893
 21
-0.179745
 31
0.0
  0
LINE
  5
3E6
100
AcDbEntity
  8
2
370
    25
100
AcDbLine
 10
78.105893
 20
0.820255
 30
0.0
 11
80.037744
 21
0.302617
 31
0.0
  0
LINE
  5
3E7
100
AcDbEntity
  8
2
370
    25
100
AcDbLine
 10
78.105893
 20
0.820255
 30
0.0
 11
80.037744
 21
1.337893
 31
0.0
  0
LINE
  5
3E8
100
AcDbEntity
  8
2
370
    25
100
AcDbLine
 10
78.105893
 20
0.820255
 30
0.0
 11
108.605893
 21
0.820255
 31
0.0
  0
LINE
  5
3E9
100
AcDbEntity
  8
2
370
    25
100
AcDbLine
 10
108.605893
 20
0.820255
 30
0.0
 11
106.674041
 21
1.337893
 31
0.0
  0
LINE
  5
3EA
100
AcDbEntity
  8
2
370
    25
100
AcDbLine
 10
108.605893
 20
0.820255
 30
0.0
 11
106.674041
 21
0.302617
 31
0.0
  0
LINE
  5
3EB
100
AcDbEntity
  8
2
370
    25
100
AcDbLine
 10
108.605893
 20
23.543916
 30
0.0
 11
108.605893
 21
-0.179745
 31
0.0
  0
ENDBLK
  5
3EC
100
AcDbEntity
  8
2
100
AcDbBlockEnd
  0
BLOCK
  5
3ED
100
AcDbEntity
  8
2
100
AcDbBlockBegin
  2
*D26
 70
     1
 10
0.0
 20
0.0
 30
0.0
  3
*D26
  1

  0
TEXT
  5
3EE
100
AcDbEntity
  8
2
370
    25
100
AcDbText
 10
72.547878
 20
-19.956084
 30
0.0
 40
3.0
  1
2.9
 50
90.0
 41
2.0
 72
     5
 11
72.547878
 21
-12.156084
 31
0.0
100
AcDbText
  0
LINE
  5
3EF
100
AcDbEntity
  8
2
370
    25
100
AcDbLine
 10
77.605893
 20
-24.856084
 30
0.0
 11
72.047878
 21
-24.856084
 31
0.0
  0
LINE
  5
3F0
100
AcDbEntity
  8
2
370
    25
100
AcDbLine
 10
73.047878
 20
-24.856084
 30
0.0
 11
72.53024
 21
-26.787936
 31
0.0
  0
LINE
  5
3F1
100
AcDbEntity
  8
2
370
    25
100
AcDbLine
 10
73.047878
 20
-24.856084
 30
0.0
 11
73.565516
 21
-26.787936
 31
0.0
  0
LINE
  5
3F2
100
AcDbEntity
  8
2
370
    25
100
AcDbLine
 10
73.047878
 20
-29.856084
 30
0.0
 11
73.047878
 21
-9.956084
 31
0.0
  0
LINE
  5
3F3
100
AcDbEntity
  8
2
370
    25
100
AcDbLine
 10
73.047878
 20
-21.956084
 30
0.0
 11
73.565516
 21
-20.024232
 31
0.0
  0
LINE
  5
3F4
100
AcDbEntity
  8
2
370
    25
100
AcDbLine
 10
73.047878
 20
-21.956084
 30
0.0
 11
72.53024
 21
-20.024232
 31
0.0
  0
LINE
  5
3F5
100
AcDbEntity
  8
2
370
    25
100
AcDbLine
 10
79.105893
 20
-21.956084
 30
0.0
 11
72.047878
 21
-21.956084
 31
0.0
  0
ENDBLK
  5
3F6
100
AcDbEntity
  8
2
100
AcDbBlockEnd
  0
BLOCK
  5
3F7
100
AcDbEntity
  8
2
100
AcDbBlockBegin
  2
*D27
 70
     1
 10
0.0
 20
0.0
 30
0.0
  3
*D27
  1

  0
TEXT
  5
3F8
100
AcDbEntity
  8
2
370
    25
100
AcDbText
 10
66.830383
 20
49.943916
 30
0.0
 40
3.0
  1
70
 50
90.0
 41
2.0
 72
     5
 11
66.830383
 21
54.743916
 31
0.0
100
AcDbText
  0
LINE
  5
3F9
100
AcDbEntity
  8
2
370
    25
100
AcDbLine
 10
77.605893
 20
18.043916
 30
0.0
 11
66.330383
 21
18.043916
 31
0.0
  0
LINE
  5
3FA
100
AcDbEntity
  8
2
370
    25
100
AcDbLine
 10
67.330383
 20
18.043916
 30
0.0
 11
67.848021
 21
19.975768
 31
0.0
  0
LINE
  5
3FB
100
AcDbEntity
  8
2
370
    25
100
AcDbLine
 10
67.330383
 20
18.043916
 30
0.0
 11
66.812745
 21
19.975768
 31
0.0
  0
LINE
  5
3FC
100
AcDbEntity
  8
2
370
    25
100
AcDbLine
 10
67.330383
 20
18.043916
 30
0.0
 11
67.330383
 21
87.843916
 31
0.0
  0
LINE
  5
3FD
100
AcDbEntity
  8
2
370
    25
100
AcDbLine
 10
67.330383
 20
87.843916
 30
0.0
 11
66.812745
 21
85.912064
 31
0.0
  0
LINE
  5
3FE
100
AcDbEntity
  8
2
370
    25
100
AcDbLine
 10
67.330383
 20
87.843916
 30
0.0
 11
67.848021
 21
85.912064
 31
0.0
  0
LINE
  5
3FF
100
AcDbEntity
  8
2
370
    25
100
AcDbLine
 10
77.605893
 20
87.843916
 30
0.0
 11
66.330383
 21
87.843916
 31
0.0
  0
ENDBLK
  5
400
100
AcDbEntity
  8
2
100
AcDbBlockEnd
  0
BLOCK
  5
401
100
AcDbEntity
  8
2
100
AcDbBlockBegin
  2
*D28
 70
     1
 10
0.0
 20
0.0
 30
0.0
  3
*D28
  1

  0
TEXT
  5
402
100
AcDbEntity
  8
2
370
    25
100
AcDbText
 10
-128.144107
 20
8.137336
 30
0.0
 40
3.0
  1
16.5
 41
2.0
 72
     5
 11
-117.344107
 21
8.137336
 31
0.0
100
AcDbText
  0
LINE
  5
403
100
AcDbEntity
  8
2
370
    25
100
AcDbLine
 10
-130.394107
 20
17.543916
 30
0.0
 11
-130.394107
 21
6.637336
 31
0.0
  0
LINE
  5
404
100
AcDbEntity
  8
2
370
    25
100
AcDbLine
 10
-130.394107
 20
7.637336
 30
0.0
 11
-128.462256
 21
7.119698
 31
0.0
  0
LINE
  5
405
100
AcDbEntity
  8
2
370
    25
100
AcDbLine
 10
-130.394107
 20
7.637336
 30
0.0
 11
-128.462256
 21
8.154974
 31
0.0
  0
LINE
  5
406
100
AcDbEntity
  8
2
370
    25
100
AcDbLine
 10
-130.394107
 20
7.637336
 30
0.0
 11
-113.894107
 21
7.637336
 31
0.0
  0
LINE
  5
407
100
AcDbEntity
  8
2
370
    25
100
AcDbLine
 10
-113.894107
 20
7.637336
 30
0.0
 11
-115.825959
 21
8.154974
 31
0.0
  0
LINE
  5
408
100
AcDbEntity
  8
2
370
    25
100
AcDbLine
 10
-113.894107
 20
7.637336
 30
0.0
 11
-115.825959
 21
7.119698
 31
0.0
  0
LINE
  5
409
100
AcDbEntity
  8
2
370
    25
100
AcDbLine
 10
-113.894107
 20
15.667064
 30
0.0
 11
-113.894107
 21
6.637336
 31
0.0
  0
ENDBLK
  5
40A
100
AcDbEntity
  8
2
100
AcDbBlockEnd
  0
BLOCK
  5
40B
100
AcDbEntity
  8
2
100
AcDbBlockBegin
  2
*D29
 70
     1
 10
0.0
 20
0.0
 30
0.0
  3
*D29
  1

  0
TEXT
  5
40C
100
AcDbEntity
  8
2
370
    25
100
AcDbText
 10
-118.894107
 20
1.320255
 30
0.0
 40
3.0
  1
29
 41
2.0
 72
     5
 11
-114.094107
 21
1.320255
 31
0.0
100
AcDbText
  0
LINE
  5
40D
100
AcDbEntity
  8
2
370
    25
100
AcDbLine
 10
-130.394107
 20
17.543916
 30
0.0
 11
-130.394107
 21
-0.179745
 31
0.0
  0
LINE
  5
40E
100
AcDbEntity
  8
2
370
    25
100
AcDbLine
 10
-130.394107
 20
0.820255
 30
0.0
 11
-128.462256
 21
0.302617
 31
0.0
  0
LINE
  5
40F
100
AcDbEntity
  8
2
370
    25
100
AcDbLine
 10
-130.394107
 20
0.820255
 30
0.0
 11
-128.462256
 21
1.337893
 31
0.0
  0
LINE
  5
410
100
AcDbEntity
  8
2
370
    25
100
AcDbLine
 10
-130.394107
 20
0.820255
 30
0.0
 11
-101.394107
 21
0.820255
 31
0.0
  0
LINE
  5
411
100
AcDbEntity
  8
2
370
    25
100
AcDbLine
 10
-101.394107
 20
0.820255
 30
0.0
 11
-103.325959
 21
1.337893
 31
0.0
  0
LINE
  5
412
100
AcDbEntity
  8
2
370
    25
100
AcDbLine
 10
-101.394107
 20
0.820255
 30
0.0
 11
-103.325959
 21
0.302617
 31
0.0
  0
LINE
  5
413
100
AcDbEntity
  8
2
370
    25
100
AcDbLine
 10
-101.394107
 20
23.543916
 30
0.0
 11
-101.394107
 21
-0.179745
 31
0.0
  0
ENDBLK
  5
414
100
AcDbEntity
  8
2
100
AcDbBlockEnd
  0
ENDSEC
  0
SECTION
  2
ENTITIES
  0
LINE
  5
43
100
AcDbEntity
  8
1
370
    25
  6
CENTER
100
AcDbLine
 10
-67.326413
 20
52.943916
 30
0.0
 11
-48.631135
 21
52.943916
 31
0.0
  0
LINE
  5
44
100
AcDbEntity
  8
1
370
    50
100
AcDbLine
 10
-66.394107
 20
52.943916
 30
0.0
 11
-66.394107
 21
87.843866
 31
0.0
  0
LINE
  5
45
100
AcDbEntity
  8
1
370
    50
100
AcDbLine
 10
-66.394107
 20
87.843866
 30
0.0
 11
-65.394109
 21
87.843866
 31
0.0
  0
LINE
  5
46
100
AcDbEntity
  8
1
370
    50
100
AcDbLine
 10
-65.394109
 20
52.943916
 30
0.0
 11
-65.394109
 21
87.843866
 31
0.0
  0
LINE
  5
47
100
AcDbEntity
  8
1
370
    50
100
AcDbLine
 10
-63.394112
 20
69.543892
 30
0.0
 11
-63.394112
 21
70.593891
 31
0.0
  0
LINE
  5
48
100
AcDbEntity
  8
1
370
    50
100
AcDbLine
 10
-66.394107
 20
52.943916
 30
0.0
 11
-66.394107
 21
18.043966
 31
0.0
  0
LINE
  5
49
100
AcDbEntity
  8
1
370
    50
100
AcDbLine
 10
-66.394107
 20
18.043966
 30
0.0
 11
-65.394109
 21
18.043966
 31
0.0
  0
LINE
  5
4A
100
AcDbEntity
  8
1
370
    50
100
AcDbLine
 10
-65.394109
 20
52.943916
 30
0.0
 11
-65.394109
 21
18.043966
 31
0.0
  0
LINE
  5
4B
100
AcDbEntity
  8
1
370
    50
100
AcDbLine
 10
-63.394112
 20
36.34394
 30
0.0
 11
-63.394112
 21
35.293941
 31
0.0
  0
LINE
  5
4C
100
AcDbEntity
  8
1
370
    25
  6
CENTER
100
AcDbLine
 10
-67.326413
 20
52.943916
 30
0.0
 11
-48.631135
 21
52.943916
 31
0.0
  0
LINE
  5
4D
100
AcDbEntity
  8
1
370
    50
100
AcDbLine
 10
-65.394109
 20
87.443867
 30
0.0
 11
-63.494111
 21
87.443867
 31
0.0
  0
LINE
  5
4E
100
AcDbEntity
  8
1
370
    50
100
AcDbLine
 10
-51.794128
 20
70.593891
 30
0.0
 11
-51.794128
 21
52.943916
 31
0.0
  0
LINE
  5
4F
100
AcDbEntity
  8
1
370
    50
100
AcDbLine
 10
-65.394109
 20
71.593889
 30
0.0
 11
-65.394109
 21
87.443867
 31
0.0
  0
LINE
  5
50
100
AcDbEntity
  8
1
370
    50
100
AcDbLine
 10
-63.494111
 20
73.343887
 30
0.0
 11
-63.494111
 21
74.443885
 31
0.0
  0
LINE
  5
51
100
AcDbEntity
  8
1
370
    50
100
AcDbLine
 10
-64.49411
 20
73.705781
 30
0.0
 11
-64.49411
 21
74.443885
 31
0.0
  0
ARC
  5
52
100
AcDbEntity
  8
1
370
    50
100
AcDbCircle
 10
-64.39411
 20
71.593889
 30
0.0
 40
0.999999
100
AcDbArc
 50
180.0
 51
270.0
  0
LINE
  5
53
100
AcDbEntity
  8
1
370
    50
100
AcDbLine
 10
-52.794127
 20
71.593889
 30
0.0
 11
-64.094111
 21
71.593889
 31
0.0
  0
ARC
  5
54
100
AcDbEntity
  8
1
370
    50
100
AcDbCircle
 10
-52.794127
 20
70.593891
 30
0.0
 40
0.999999
100
AcDbArc
 50
0.0
 51
90.0
  0
LINE
  5
55
100
AcDbEntity
  8
1
370
    50
100
AcDbLine
 10
-53.294126
 20
70.593891
 30
0.0
 11
-64.39411
 21
70.593891
 31
0.0
  0
LINE
  5
56
100
AcDbEntity
  8
1
370
    50
100
AcDbLine
 10
-63.594111
 20
68.943893
 30
0.0
 11
-63.594111
 21
52.943916
 31
0.0
  0
LINE
  5
57
100
AcDbEntity
  8
1
370
    50
100
AcDbLine
 10
-64.39411
 20
72.181994
 30
0.0
 11
-64.39411
 21
71.893889
 31
0.0
  0
ARC
  5
58
100
AcDbEntity
  8
1
370
    50
100
AcDbCircle
 10
-64.094111
 20
71.893889
 30
0.0
 40
0.3
100
AcDbArc
 50
180.0
 51
270.0
  0
LINE
  5
59
100
AcDbEntity
  8
1
370
    50
100
AcDbLine
 10
-52.794127
 20
70.093892
 30
0.0
 11
-52.794127
 21
69.943892
 31
0.0
  0
ARC
  5
5A
100
AcDbEntity
  8
1
370
    50
100
AcDbCircle
 10
-64.49411
 20
72.543888
 30
0.0
 40
0.899999
100
AcDbArc
 50
104.477512
 51
180.0
  0
ARC
  5
5B
100
AcDbEntity
  8
1
370
    50
100
AcDbCircle
 10
-64.39411
 20
73.343887
 30
0.0
 40
0.899999
100
AcDbArc
 50
284.477512
 51
0.0
  0
ARC
  5
5C
100
AcDbEntity
  8
1
370
    50
100
AcDbCircle
 10
-64.79411
 20
73.705781
 30
0.0
 40
0.3
100
AcDbArc
 50
284.477512
 51
0.0
  0
ARC
  5
5D
100
AcDbEntity
  8
1
370
    50
100
AcDbCircle
 10
-64.094111
 20
72.181994
 30
0.0
 40
0.3
100
AcDbArc
 50
104.477512
 51
180.0
  0
LINE
  5
5E
100
AcDbEntity
  8
1
370
    50
100
AcDbLine
 10
-63.494111
 20
87.443867
 30
0.0
 11
-63.494111
 21
74.443885
 31
0.0
  0
LINE
  5
5F
100
AcDbEntity
  8
1
370
    50
100
AcDbLine
 10
-64.49411
 20
87.443867
 30
0.0
 11
-64.49411
 21
74.443885
 31
0.0
  0
LINE
  5
60
100
AcDbEntity
  8
1
370
    50
100
AcDbLine
 10
-53.094126
 20
62.443903
 30
0.0
 11
-53.094126
 21
52.943916
 31
0.0
  0
LINE
  5
61
100
AcDbEntity
  8
1
370
    50
100
AcDbLine
 10
-52.594127
 20
62.943902
 30
0.0
 11
-51.794128
 21
62.943902
 31
0.0
  0
ARC
  5
62
100
AcDbEntity
  8
1
370
    50
100
AcDbCircle
 10
-52.594127
 20
62.443903
 30
0.0
 40
0.499999
100
AcDbArc
 50
90.0
 51
180.0
  0
LINE
  5
63
100
AcDbEntity
  8
1
370
    50
100
AcDbLine
 10
-56.594121
 20
68.943893
 30
0.0
 11
-56.594121
 21
52.943916
 31
0.0
  0
LINE
  5
64
100
AcDbEntity
  8
1
370
    50
100
AcDbLine
 10
-62.594113
 20
69.943892
 30
0.0
 11
-51.794128
 21
69.943892
 31
0.0
  0
ARC
  5
65
100
AcDbEntity
  8
1
370
    50
100
AcDbCircle
 10
-62.594113
 20
68.943893
 30
0.0
 40
0.999999
100
AcDbArc
 50
90.0
 51
180.0
  0
ARC
  5
66
100
AcDbEntity
  8
1
370
    50
100
AcDbCircle
 10
-55.594123
 20
68.943893
 30
0.0
 40
0.999999
100
AcDbArc
 50
90.0
 51
180.0
  0
ARC
  5
67
100
AcDbEntity
  8
1
370
    50
100
AcDbCircle
 10
-53.294126
 20
70.093892
 30
0.0
 40
0.499999
100
AcDbArc
 50
0.0
 51
90.0
  0
LINE
  5
68
100
AcDbEntity
  8
1
370
    25
  6
CENTER
100
AcDbLine
 10
-67.326413
 20
52.943916
 30
0.0
 11
-48.631135
 21
52.943916
 31
0.0
  0
LINE
  5
69
100
AcDbEntity
  8
1
370
    50
100
AcDbLine
 10
-65.394109
 20
18.443965
 30
0.0
 11
-63.494111
 21
18.443965
 31
0.0
  0
LINE
  5
6A
100
AcDbEntity
  8
1
370
    50
100
AcDbLine
 10
-51.794128
 20
35.293941
 30
0.0
 11
-51.794128
 21
52.943916
 31
0.0
  0
LINE
  5
6B
100
AcDbEntity
  8
1
370
    50
100
AcDbLine
 10
-65.394109
 20
34.293943
 30
0.0
 11
-65.394109
 21
18.443965
 31
0.0
  0
LINE
  5
6C
100
AcDbEntity
  8
1
370
    50
100
AcDbLine
 10
-63.494111
 20
32.543945
 30
0.0
 11
-63.494111
 21
31.443947
 31
0.0
  0
LINE
  5
6D
100
AcDbEntity
  8
1
370
    50
100
AcDbLine
 10
-64.49411
 20
32.182051
 30
0.0
 11
-64.49411
 21
31.443947
 31
0.0
  0
ARC
  5
6E
100
AcDbEntity
  8
1
370
    50
100
AcDbCircle
 10
-64.39411
 20
34.293943
 30
0.0
 40
0.999999
100
AcDbArc
 50
90.0
 51
180.0
  0
LINE
  5
6F
100
AcDbEntity
  8
1
370
    50
100
AcDbLine
 10
-52.794127
 20
34.293943
 30
0.0
 11
-64.094111
 21
34.293943
 31
0.0
  0
ARC
  5
70
100
AcDbEntity
  8
1
370
    50
100
AcDbCircle
 10
-52.794127
 20
35.293941
 30
0.0
 40
0.999999
100
AcDbArc
 50
270.0
 51
360.0
  0
LINE
  5
71
100
AcDbEntity
  8
1
370
    50
100
AcDbLine
 10
-53.294126
 20
35.293941
 30
0.0
 11
-64.39411
 21
35.293941
 31
0.0
  0
LINE
  5
72
100
AcDbEntity
  8
1
370
    50
100
AcDbLine
 10
-63.594111
 20
36.943939
 30
0.0
 11
-63.594111
 21
52.943916
 31
0.0
  0
LINE
  5
73
100
AcDbEntity
  8
1
370
    50
100
AcDbLine
 10
-64.39411
 20
33.705839
 30
0.0
 11
-64.39411
 21
33.993943
 31
0.0
  0
ARC
  5
74
100
AcDbEntity
  8
1
370
    50
100
AcDbCircle
 10
-64.094111
 20
33.993943
 30
0.0
 40
0.3
100
AcDbArc
 50
90.0
 51
180.0
  0
LINE
  5
75
100
AcDbEntity
  8
1
370
    50
100
AcDbLine
 10
-52.794127
 20
35.793941
 30
0.0
 11
-52.794127
 21
35.94394
 31
0.0
  0
ARC
  5
76
100
AcDbEntity
  8
1
370
    50
100
AcDbCircle
 10
-64.49411
 20
33.343944
 30
0.0
 40
0.899999
100
AcDbArc
 50
180.0
 51
255.522488
  0
ARC
  5
77
100
AcDbEntity
  8
1
370
    50
100
AcDbCircle
 10
-64.39411
 20
32.543945
 30
0.0
 40
0.899999
100
AcDbArc
 50
360.0
 51
75.522488
  0
ARC
  5
78
100
AcDbEntity
  8
1
370
    50
100
AcDbCircle
 10
-64.79411
 20
32.182051
 30
0.0
 40
0.3
100
AcDbArc
 50
360.0
 51
75.522488
  0
ARC
  5
79
100
AcDbEntity
  8
1
370
    50
100
AcDbCircle
 10
-64.094111
 20
33.705839
 30
0.0
 40
0.3
100
AcDbArc
 50
180.0
 51
255.522488
  0
LINE
  5
7A
100
AcDbEntity
  8
1
370
    50
100
AcDbLine
 10
-63.494111
 20
18.443965
 30
0.0
 11
-63.494111
 21
31.443947
 31
0.0
  0
LINE
  5
7B
100
AcDbEntity
  8
1
370
    50
100
AcDbLine
 10
-64.49411
 20
18.443965
 30
0.0
 11
-64.49411
 21
31.443947
 31
0.0
  0
LINE
  5
7C
100
AcDbEntity
  8
1
370
    50
100
AcDbLine
 10
-53.094126
 20
43.44393
 30
0.0
 11
-53.094126
 21
52.943916
 31
0.0
  0
LINE
  5
7D
100
AcDbEntity
  8
1
370
    50
100
AcDbLine
 10
-52.594127
 20
42.94393
 30
0.0
 11
-51.794128
 21
42.94393
 31
0.0
  0
ARC
  5
7E
100
AcDbEntity
  8
1
370
    50
100
AcDbCircle
 10
-52.594127
 20
43.44393
 30
0.0
 40
0.499999
100
AcDbArc
 50
180.0
 51
270.0
  0
LINE
  5
7F
100
AcDbEntity
  8
1
370
    50
100
AcDbLine
 10
-56.594121
 20
36.943939
 30
0.0
 11
-56.594121
 21
52.943916
 31
0.0
  0
LINE
  5
80
100
AcDbEntity
  8
1
370
    50
100
AcDbLine
 10
-62.594113
 20
35.94394
 30
0.0
 11
-51.794128
 21
35.94394
 31
0.0
  0
ARC
  5
81
100
AcDbEntity
  8
1
370
    50
100
AcDbCircle
 10
-62.594113
 20
36.943939
 30
0.0
 40
0.999999
100
AcDbArc
 50
180.0
 51
270.0
  0
ARC
  5
82
100
AcDbEntity
  8
1
370
    50
100
AcDbCircle
 10
-55.594123
 20
36.943939
 30
0.0
 40
0.999999
100
AcDbArc
 50
180.0
 51
270.0
  0
ARC
  5
83
100
AcDbEntity
  8
1
370
    50
100
AcDbCircle
 10
-53.294126
 20
35.793941
 30
0.0
 40
0.499999
100
AcDbArc
 50
270.0
 51
360.0
  0
LINE
  5
84
100
AcDbEntity
  8
1
370
    25
  6
CENTER
100
AcDbLine
 10
-68.285502
 20
81.443916
 30
0.0
 11
-49.506995
 21
81.443916
 31
0.0
  0
LINE
  5
85
100
AcDbEntity
  8
1
370
    50
100
AcDbLine
 10
-63.494111
 20
82.693916
 30
0.0
 11
-53.161874
 21
82.693916
 31
0.0
  0
LINE
  5
86
100
AcDbEntity
  8
1
370
    50
100
AcDbLine
 10
-63.494111
 20
80.193916
 30
0.0
 11
-53.161874
 21
80.193916
 31
0.0
  0
LINE
  5
87
100
AcDbEntity
  8
1
370
    50
100
AcDbLine
 10
-53.161874
 20
82.693916
 30
0.0
 11
-50.144107
 21
81.443916
 31
0.0
  0
LINE
  5
88
100
AcDbEntity
  8
1
370
    50
100
AcDbLine
 10
-53.161874
 20
80.193916
 30
0.0
 11
-50.144107
 21
81.443916
 31
0.0
  0
LINE
  5
89
100
AcDbEntity
  8
1
370
    25
100
AcDbLine
 10
-62.844107
 20
83.193916
 30
0.0
 11
-61.432996
 21
79.693916
 31
0.0
  0
LINE
  5
8A
100
AcDbEntity
  8
1
370
    25
100
AcDbLine
 10
-61.432996
 20
83.193916
 30
0.0
 11
-60.021885
 21
79.693916
 31
0.0
  0
LINE
  5
8B
100
AcDbEntity
  8
1
370
    25
100
AcDbLine
 10
-60.021885
 20
83.193916
 30
0.0
 11
-58.610774
 21
79.693916
 31
0.0
  0
LINE
  5
8C
100
AcDbEntity
  8
1
370
    25
100
AcDbLine
 10
-58.610774
 20
83.193916
 30
0.0
 11
-57.199663
 21
79.693916
 31
0.0
  0
LINE
  5
8D
100
AcDbEntity
  8
1
370
    25
100
AcDbLine
 10
-57.199663
 20
83.193916
 30
0.0
 11
-55.788552
 21
79.693916
 31
0.0
  0
LINE
  5
8E
100
AcDbEntity
  8
1
370
    25
100
AcDbLine
 10
-55.788552
 20
83.193916
 30
0.0
 11
-54.377441
 21
79.693916
 31
0.0
  0
LINE
  5
8F
100
AcDbEntity
  8
1
370
    25
100
AcDbLine
 10
-54.377441
 20
83.193916
 30
0.0
 11
-52.98008
 21
79.728022
 31
0.0
  0
LINE
  5
90
100
AcDbEntity
  8
1
370
    25
100
AcDbLine
 10
-52.947066
 20
83.146136
 30
0.0
 11
-51.770902
 21
80.22888
 31
0.0
  0
LINE
  5
91
100
AcDbEntity
  8
1
370
    25
100
AcDbLine
 10
-51.253054
 20
82.444453
 30
0.0
 11
-50.561724
 21
80.729737
 31
0.0
  0
LINE
  5
92
100
AcDbEntity
  8
1
370
    25
100
AcDbLine
 10
-63.494111
 20
81.306131
 30
0.0
 11
-62.844107
 21
79.693916
 31
0.0
  0
LINE
  5
93
100
AcDbEntity
  8
1
370
    25
  6
CENTER
100
AcDbLine
 10
-68.285502
 20
24.443916
 30
0.0
 11
-49.506995
 21
24.443916
 31
0.0
  0
LINE
  5
94
100
AcDbEntity
  8
1
370
    50
100
AcDbLine
 10
-63.494111
 20
25.693916
 30
0.0
 11
-53.161874
 21
25.693916
 31
0.0
  0
LINE
  5
95
100
AcDbEntity
  8
1
370
    50
100
AcDbLine
 10
-63.494111
 20
23.193916
 30
0.0
 11
-53.161874
 21
23.193916
 31
0.0
  0
LINE
  5
96
100
AcDbEntity
  8
1
370
    50
100
AcDbLine
 10
-53.161874
 20
25.693916
 30
0.0
 11
-50.144107
 21
24.443916
 31
0.0
  0
LINE
  5
97
100
AcDbEntity
  8
1
370
    50
100
AcDbLine
 10
-53.161874
 20
23.193916
 30
0.0
 11
-50.144107
 21
24.443916
 31
0.0
  0
LINE
  5
98
100
AcDbEntity
  8
1
370
    25
100
AcDbLine
 10
-62.844107
 20
26.193916
 30
0.0
 11
-61.432996
 21
22.693916
 31
0.0
  0
LINE
  5
99
100
AcDbEntity
  8
1
370
    25
100
AcDbLine
 10
-61.432996
 20
26.193916
 30
0.0
 11
-60.021885
 21
22.693916
 31
0.0
  0
LINE
  5
9A
100
AcDbEntity
  8
1
370
    25
100
AcDbLine
 10
-60.021885
 20
26.193916
 30
0.0
 11
-58.610774
 21
22.693916
 31
0.0
  0
LINE
  5
9B
100
AcDbEntity
  8
1
370
    25
100
AcDbLine
 10
-58.610774
 20
26.193916
 30
0.0
 11
-57.199663
 21
22.693916
 31
0.0
  0
LINE
  5
9C
100
AcDbEntity
  8
1
370
    25
100
AcDbLine
 10
-57.199663
 20
26.193916
 30
0.0
 11
-55.788552
 21
22.693916
 31
0.0
  0
LINE
  5
9D
100
AcDbEntity
  8
1
370
    25
100
AcDbLine
 10
-55.788552
 20
26.193916
 30
0.0
 11
-54.377441
 21
22.693916
 31
0.0
  0
LINE
  5
9E
100
AcDbEntity
  8
1
370
    25
100
AcDbLine
 10
-54.377441
 20
26.193916
 30
0.0
 11
-52.98008
 21
22.728022
 31
0.0
  0
LINE
  5
9F
100
AcDbEntity
  8
1
370
    25
100
AcDbLine
 10
-52.947066
 20
26.146136
 30
0.0
 11
-51.770902
 21
23.22888
 31
0.0
  0
LINE
  5
A0
100
AcDbEntity
  8
1
370
    25
100
AcDbLine
 10
-51.253054
 20
25.444453
 30
0.0
 11
-50.561724
 21
23.729737
 31
0.0
  0
LINE
  5
A1
100
AcDbEntity
  8
1
370
    25
100
AcDbLine
 10
-63.494111
 20
24.306131
 30
0.0
 11
-62.844107
 21
22.693916
 31
0.0
  0
ARC
  5
A2
100
AcDbEntity
  8
1
370
    50
100
AcDbCircle
 10
-65.394109
 20
85.843869
 30
0.0
 40
1.999997
100
AcDbArc
 50
0.0
 51
18.194872
  0
ARC
  5
A3
100
AcDbEntity
  8
1
370
    50
100
AcDbCircle
 10
-65.394109
 20
85.843869
 30
0.0
 40
1.999997
100
AcDbArc
 50
53.130102
 51
90.0
  0
ARC
  5
A4
100
AcDbEntity
  8
1
370
    50
100
AcDbCircle
 10
-65.394109
 20
20.043963
 30
0.0
 40
1.999997
100
AcDbArc
 50
270.0
 51
306.869898
  0
ARC
  5
A5
100
AcDbEntity
  8
1
370
    50
100
AcDbCircle
 10
-65.394109
 20
20.043963
 30
0.0
 40
1.999997
100
AcDbArc
 50
341.805128
 51
360.0
  0
LINE
  5
A6
100
AcDbEntity
  8
1
370
    50
100
AcDbLine
 10
-63.394112
 20
71.593889
 30
0.0
 11
-63.394112
 21
80.193916
 31
0.0
  0
LINE
  5
A7
100
AcDbEntity
  8
1
370
    50
100
AcDbLine
 10
-63.394112
 20
82.693916
 30
0.0
 11
-63.394112
 21
85.843869
 31
0.0
  0
LINE
  5
A8
100
AcDbEntity
  8
1
370
    50
100
AcDbLine
 10
-63.394112
 20
20.043963
 30
0.0
 11
-63.394112
 21
23.193916
 31
0.0
  0
LINE
  5
A9
100
AcDbEntity
  8
1
370
    50
100
AcDbLine
 10
-63.394112
 20
25.693916
 30
0.0
 11
-63.394112
 21
34.293943
 31
0.0
  0
LINE
  5
AA
100
AcDbEntity
  8
1
370
    25
  6
CENTER
100
AcDbLine
 10
-113.894107
 20
-20.06469
 30
0.0
 11
-113.894107
 21
-38.843197
 31
0.0
  0
LINE
  5
AB
100
AcDbEntity
  8
1
370
    50
100
AcDbLine
 10
-113.894107
 20
-22.956084
 30
0.0
 11
-125.894107
 21
-22.956084
 31
0.0
  0
LINE
  5
AC
100
AcDbEntity
  8
1
370
    50
100
AcDbLine
 10
-124.894107
 20
-24.856084
 30
0.0
 11
-124.894107
 21
-35.556084
 31
0.0
  0
LINE
  5
AD
100
AcDbEntity
  8
1
370
    50
100
AcDbLine
 10
-125.894107
 20
-24.856084
 30
0.0
 11
-125.894107
 21
-35.556084
 31
0.0
  0
LINE
  5
AE
100
AcDbEntity
  8
1
370
    50
100
AcDbLine
 10
-101.894107
 20
-32.056084
 30
0.0
 11
-101.894107
 21
-35.556084
 31
0.0
  0
ARC
  5
AF
100
AcDbEntity
  8
1
370
    50
100
AcDbCircle
 10
-124.894107
 20
-35.556084
 30
0.0
 40
1.0
100
AcDbArc
 50
180.0
 51
270.0
  0
ARC
  5
B0
100
AcDbEntity
  8
1
370
    50
100
AcDbCircle
 10
-102.894107
 20
-35.556084
 30
0.0
 40
1.0
100
AcDbArc
 50
270.0
 51
360.0
  0
LINE
  5
B1
100
AcDbEntity
  8
1
370
    50
100
AcDbLine
 10
-124.694107
 20
-24.856084
 30
0.0
 11
-124.694107
 21
-36.556084
 31
0.0
  0
LINE
  5
B2
100
AcDbEntity
  8
1
370
    50
100
AcDbLine
 10
-101.894107
 20
-32.056084
 30
0.0
 11
-102.894107
 21
-32.056084
 31
0.0
  0
LINE
  5
B3
100
AcDbEntity
  8
1
370
    50
100
AcDbLine
 10
-113.894107
 20
-22.956084
 30
0.0
 11
-101.894107
 21
-22.956084
 31
0.0
  0
LINE
  5
B4
100
AcDbEntity
  8
1
370
    50
100
AcDbLine
 10
-103.094107
 20
-24.856084
 30
0.0
 11
-103.094107
 21
-36.556084
 31
0.0
  0
LINE
  5
B5
100
AcDbEntity
  8
1
370
    50
100
AcDbLine
 10
-124.894107
 20
-24.856084
 30
0.0
 11
-125.894107
 21
-24.856084
 31
0.0
  0
LINE
  5
B6
100
AcDbEntity
  8
1
370
    50
100
AcDbLine
 10
-113.544102
 20
50.443909
 30
0.0
 11
-114.244102
 21
50.443909
 31
0.0
  0
LINE
  5
B7
100
AcDbEntity
  8
1
370
    50
100
AcDbLine
 10
-113.544102
 20
55.443909
 30
0.0
 11
-114.244102
 21
55.443909
 31
0.0
  0
LINE
  5
B8
100
AcDbEntity
  8
1
370
    50
100
AcDbLine
 10
-116.394102
 20
52.593909
 30
0.0
 11
-116.394102
 21
53.293909
 31
0.0
  0
LINE
  5
B9
100
AcDbEntity
  8
1
370
    50
100
AcDbLine
 10
-111.394102
 20
52.593909
 30
0.0
 11
-111.394102
 21
53.293909
 31
0.0
  0
LINE
  5
BA
100
AcDbEntity
  8
1
370
    50
100
AcDbLine
 10
-114.544102
 20
50.743909
 30
0.0
 11
-114.544102
 21
51.993909
 31
0.0
  0
LINE
  5
BB
100
AcDbEntity
  8
1
370
    50
100
AcDbLine
 10
-114.544102
 20
53.893909
 30
0.0
 11
-114.544102
 21
55.143909
 31
0.0
  0
LINE
  5
BC
100
AcDbEntity
  8
1
370
    50
100
AcDbLine
 10
-111.694102
 20
53.593909
 30
0.0
 11
-112.944102
 21
53.593909
 31
0.0
  0
LINE
  5
BD
100
AcDbEntity
  8
1
370
    50
100
AcDbLine
 10
-114.844102
 20
53.593909
 30
0.0
 11
-116.094102
 21
53.593909
 31
0.0
  0
LINE
  5
BE
100
AcDbEntity
  8
1
370
    50
100
AcDbLine
 10
-111.694102
 20
52.293909
 30
0.0
 11
-112.944102
 21
52.293909
 31
0.0
  0
LINE
  5
BF
100
AcDbEntity
  8
1
370
    50
100
AcDbLine
 10
-114.844102
 20
52.293909
 30
0.0
 11
-116.094102
 21
52.293909
 31
0.0
  0
LINE
  5
C0
100
AcDbEntity
  8
1
370
    50
100
AcDbLine
 10
-113.244102
 20
50.743909
 30
0.0
 11
-113.244102
 21
51.993909
 31
0.0
  0
LINE
  5
C1
100
AcDbEntity
  8
1
370
    50
100
AcDbLine
 10
-113.244102
 20
53.893909
 30
0.0
 11
-113.244102
 21
55.143909
 31
0.0
  0
ARC
  5
C2
100
AcDbEntity
  8
1
370
    50
100
AcDbCircle
 10
-114.844102
 20
51.993909
 30
0.0
 40
0.3
100
AcDbArc
 50
0.0
 51
90.0
  0
ARC
  5
C3
100
AcDbEntity
  8
1
370
    50
100
AcDbCircle
 10
-114.844102
 20
53.893909
 30
0.0
 40
0.3
100
AcDbArc
 50
270.0
 51
360.0
  0
ARC
  5
C4
100
AcDbEntity
  8
1
370
    50
100
AcDbCircle
 10
-112.944102
 20
51.993909
 30
0.0
 40
0.3
100
AcDbArc
 50
90.0
 51
180.0
  0
ARC
  5
C5
100
AcDbEntity
  8
1
370
    50
100
AcDbCircle
 10
-112.944102
 20
53.893909
 30
0.0
 40
0.3
100
AcDbArc
 50
180.0
 51
270.0
  0
ARC
  5
C6
100
AcDbEntity
  8
1
370
    50
100
AcDbCircle
 10
-114.244102
 20
50.743909
 30
0.0
 40
0.3
100
AcDbArc
 50
180.0
 51
270.0
  0
ARC
  5
C7
100
AcDbEntity
  8
1
370
    50
100
AcDbCircle
 10
-116.094102
 20
52.593909
 30
0.0
 40
0.3
100
AcDbArc
 50
180.0
 51
270.0
  0
ARC
  5
C8
100
AcDbEntity
  8
1
370
    50
100
AcDbCircle
 10
-116.094102
 20
53.293909
 30
0.0
 40
0.3
100
AcDbArc
 50
90.0
 51
180.0
  0
ARC
  5
C9
100
AcDbEntity
  8
1
370
    50
100
AcDbCircle
 10
-114.244102
 20
55.143909
 30
0.0
 40
0.3
100
AcDbArc
 50
90.0
 51
180.0
  0
ARC
  5
CA
100
AcDbEntity
  8
1
370
    50
100
AcDbCircle
 10
-113.544102
 20
55.143909
 30
0.0
 40
0.3
100
AcDbArc
 50
0.0
 51
90.0
  0
ARC
  5
CB
100
AcDbEntity
  8
1
370
    50
100
AcDbCircle
 10
-111.694102
 20
53.293909
 30
0.0
 40
0.3
100
AcDbArc
 50
0.0
 51
90.0
  0
ARC
  5
CC
100
AcDbEntity
  8
1
370
    50
100
AcDbCircle
 10
-111.694102
 20
52.593909
 30
0.0
 40
0.3
100
AcDbArc
 50
270.0
 51
0.0
  0
ARC
  5
CD
100
AcDbEntity
  8
1
370
    50
100
AcDbCircle
 10
-113.544102
 20
50.743909
 30
0.0
 40
0.3
100
AcDbArc
 50
270.0
 51
360.0
  0
LINE
  5
CE
100
AcDbEntity
  8
1
370
    50
100
AcDbLine
 10
-124.894115
 20
-33.756084
 30
0.0
 11
-124.694107
 21
-33.756084
 31
0.0
  0
LINE
  5
CF
100
AcDbEntity
  8
1
370
    25
  6
CENTER
100
AcDbLine
 10
-113.894107
 20
-29.569399
 30
0.0
 11
-113.894107
 21
-38.320318
 31
0.0
  0
LINE
  5
D0
100
AcDbEntity
  8
1
370
    50
100
AcDbLine
 10
-124.894115
 20
-33.756084
 30
0.0
 11
-124.894115
 21
-35.356084
 31
0.0
  0
LINE
  5
D1
100
AcDbEntity
  8
1
370
    50
100
AcDbLine
 10
-102.894115
 20
-32.056084
 30
0.0
 11
-102.894115
 21
-35.556084
 31
0.0
  0
LINE
  5
D2
100
AcDbEntity
  8
1
370
    50
100
AcDbLine
 10
-120.894107
 20
52.943916
 30
0.0
 11
-120.894107
 21
67.143916
 31
0.0
  0
ARC
  5
D3
100
AcDbEntity
  8
1
370
    50
100
AcDbCircle
 10
-118.894107
 20
67.143916
 30
0.0
 40
2.0
100
AcDbArc
 50
115.841933
 51
180.0
  0
LINE
  5
D4
100
AcDbEntity
  8
1
370
    50
100
AcDbLine
 10
-107.094107
 20
52.943916
 30
0.0
 11
-107.094107
 21
67.143916
 31
0.0
  0
ARC
  5
D5
100
AcDbEntity
  8
1
370
    50
100
AcDbCircle
 10
-109.094107
 20
67.143916
 30
0.0
 40
2.0
100
AcDbArc
 50
0.0
 51
64.145352
  0
LINE
  5
D6
100
AcDbEntity
  8
1
370
    50
100
AcDbLine
 10
-122.994107
 20
68.943916
 30
0.0
 11
-108.194107
 21
68.943916
 31
0.0
  0
LINE
  5
D7
100
AcDbEntity
  8
1
370
    25
  6
CENTER
100
AcDbLine
 10
-137.216032
 20
52.943916
 30
0.0
 11
-97.896348
 21
52.943916
 31
0.0
  0
LINE
  5
D8
100
AcDbEntity
  8
1
370
    25
  6
CENTER
100
AcDbLine
 10
-119.394107
 20
81.443916
 30
0.0
 11
-108.394107
 21
81.443916
 31
0.0
  0
LINE
  5
D9
100
AcDbEntity
  8
1
370
    25
  6
CENTER
100
AcDbLine
 10
-113.894107
 20
89.409374
 30
0.0
 11
-113.894107
 21
16.167064
 31
0.0
  0
LINE
  5
DA
100
AcDbEntity
  8
1
370
    50
100
AcDbLine
 10
-101.394107
 20
-22.956084
 30
0.0
 11
-101.394107
 21
-21.956084
 31
0.0
  0
LINE
  5
DB
100
AcDbEntity
  8
1
370
    25
100
AcDbLine
 10
-114.394107
 20
83.643916
 30
0.0
 11
-113.394107
 21
83.643916
 31
0.0
  0
ARC
  5
DC
100
AcDbEntity
  8
1
370
    25
100
AcDbCircle
 10
-111.694107
 20
83.643916
 30
0.0
 40
1.7
100
AcDbArc
 50
180.0
 51
270.0
  0
ARC
  5
DD
100
AcDbEntity
  8
1
370
    25
100
AcDbCircle
 10
-111.694107
 20
79.243916
 30
0.0
 40
1.7
100
AcDbArc
 50
90.0
 51
180.0
  0
LINE
  5
DE
100
AcDbEntity
  8
1
370
    25
100
AcDbLine
 10
-111.694107
 20
80.943916
 30
0.0
 11
-111.694107
 21
81.943916
 31
0.0
  0
ARC
  5
DF
100
AcDbEntity
  8
1
370
    25
100
AcDbCircle
 10
-116.094107
 20
83.643916
 30
0.0
 40
1.7
100
AcDbArc
 50
270.0
 51
360.0
  0
LINE
  5
E0
100
AcDbEntity
  8
1
370
    25
100
AcDbLine
 10
-116.094107
 20
81.943916
 30
0.0
 11
-116.094107
 21
80.943916
 31
0.0
  0
LINE
  5
E1
100
AcDbEntity
  8
1
370
    25
100
AcDbLine
 10
-113.394107
 20
79.243916
 30
0.0
 11
-114.394107
 21
79.243916
 31
0.0
  0
ARC
  5
E2
100
AcDbEntity
  8
1
370
    25
100
AcDbCircle
 10
-116.094107
 20
79.243916
 30
0.0
 40
1.7
100
AcDbArc
 50
0.0
 51
90.0
  0
CIRCLE
  5
E3
100
AcDbEntity
  8
1
370
    50
100
AcDbCircle
 10
-113.894107
 20
81.443916
 30
0.0
 40
3.5
  0
ARC
  5
E4
100
AcDbEntity
  8
1
370
    50
100
AcDbCircle
 10
-113.894109
 20
52.943916
 30
0.0
 40
4.1
100
AcDbArc
 50
0.0
 51
180.0
  0
LINE
  5
E5
100
AcDbEntity
  8
1
370
    50
100
AcDbLine
 10
-120.894107
 20
52.943916
 30
0.0
 11
-120.894107
 21
38.743916
 31
0.0
  0
ARC
  5
E6
100
AcDbEntity
  8
1
370
    50
100
AcDbCircle
 10
-118.894107
 20
38.743916
 30
0.0
 40
2.0
100
AcDbArc
 50
180.0
 51
244.158067
  0
LINE
  5
E7
100
AcDbEntity
  8
1
370
    50
100
AcDbLine
 10
-107.094107
 20
52.943916
 30
0.0
 11
-107.094107
 21
38.743916
 31
0.0
  0
ARC
  5
E8
100
AcDbEntity
  8
1
370
    50
100
AcDbCircle
 10
-109.094107
 20
38.743916
 30
0.0
 40
2.0
100
AcDbArc
 50
295.854648
 51
360.0
  0
LINE
  5
E9
100
AcDbEntity
  8
1
370
    50
100
AcDbLine
 10
-122.994107
 20
36.943916
 30
0.0
 11
-108.194107
 21
36.943916
 31
0.0
  0
LINE
  5
EA
100
AcDbEntity
  8
1
370
    25
  6
CENTER
100
AcDbLine
 10
-119.394107
 20
24.443916
 30
0.0
 11
-108.394107
 21
24.443916
 31
0.0
  0
LINE
  5
EB
100
AcDbEntity
  8
1
370
    25
100
AcDbLine
 10
-114.394107
 20
22.243916
 30
0.0
 11
-113.394107
 21
22.243916
 31
0.0
  0
ARC
  5
EC
100
AcDbEntity
  8
1
370
    25
100
AcDbCircle
 10
-111.694107
 20
22.243916
 30
0.0
 40
1.7
100
AcDbArc
 50
90.0
 51
180.0
  0
ARC
  5
ED
100
AcDbEntity
  8
1
370
    25
100
AcDbCircle
 10
-111.694107
 20
26.643916
 30
0.0
 40
1.7
100
AcDbArc
 50
180.0
 51
270.0
  0
LINE
  5
EE
100
AcDbEntity
  8
1
370
    25
100
AcDbLine
 10
-111.694107
 20
24.943916
 30
0.0
 11
-111.694107
 21
23.943916
 31
0.0
  0
ARC
  5
EF
100
AcDbEntity
  8
1
370
    25
100
AcDbCircle
 10
-116.094107
 20
22.243916
 30
0.0
 40
1.7
100
AcDbArc
 50
0.0
 51
90.0
  0
LINE
  5
F0
100
AcDbEntity
  8
1
370
    25
100
AcDbLine
 10
-116.094107
 20
23.943916
 30
0.0
 11
-116.094107
 21
24.943916
 31
0.0
  0
LINE
  5
F1
100
AcDbEntity
  8
1
370
    25
100
AcDbLine
 10
-113.394107
 20
26.643916
 30
0.0
 11
-114.394107
 21
26.643916
 31
0.0
  0
ARC
  5
F2
100
AcDbEntity
  8
1
370
    25
100
AcDbCircle
 10
-116.094107
 20
26.643916
 30
0.0
 40
1.7
100
AcDbArc
 50
270.0
 51
360.0
  0
CIRCLE
  5
F3
100
AcDbEntity
  8
1
370
    50
100
AcDbCircle
 10
-113.894107
 20
24.443916
 30
0.0
 40
3.5
  0
ARC
  5
F4
100
AcDbEntity
  8
1
370
    50
100
AcDbCircle
 10
-113.894109
 20
52.943916
 30
0.0
 40
4.1
100
AcDbArc
 50
180.0
 51
360.0
  0
LINE
  5
F5
100
AcDbEntity
  8
1
370
    50
100
AcDbLine
 10
-124.894107
 20
-35.556084
 30
0.0
 11
-124.694107
 21
-35.556084
 31
0.0
  0
LINE
  5
F6
100
AcDbEntity
  8
1
370
    50
100
AcDbLine
 10
-103.094107
 20
-35.556084
 30
0.0
 11
-102.894107
 21
-35.556084
 31
0.0
  0
LINE
  5
F7
100
AcDbEntity
  8
1
370
    50
100
AcDbLine
 10
-101.894107
 20
-22.956084
 30
0.0
 11
-101.894107
 21
-24.856084
 31
0.0
  0
LINE
  5
F8
100
AcDbEntity
  8
1
370
    50
100
AcDbLine
 10
-113.894107
 20
-22.956084
 30
0.0
 11
-125.894107
 21
-22.956084
 31
0.0
  0
LINE
  5
F9
100
AcDbEntity
  8
1
370
    50
100
AcDbLine
 10
-101.894107
 20
-23.856084
 30
0.0
 11
-109.632212
 21
-23.856084
 31
0.0
  0
LINE
  5
FA
100
AcDbEntity
  8
1
370
    50
100
AcDbLine
 10
-125.894107
 20
-22.956084
 30
0.0
 11
-125.894107
 21
-24.856084
 31
0.0
  0
LINE
  5
FB
100
AcDbEntity
  8
1
370
    50
100
AcDbLine
 10
-113.894107
 20
-23.956084
 30
0.0
 11
-116.652176
 21
-23.956084
 31
0.0
  0
LINE
  5
FC
100
AcDbEntity
  8
1
370
    50
100
AcDbLine
 10
-125.894107
 20
-23.856084
 30
0.0
 11
-118.156002
 21
-23.856084
 31
0.0
  0
ARC
  5
FD
100
AcDbEntity
  8
1
370
    50
100
AcDbCircle
 10
-117.889107
 20
-23.856084
 30
0.0
 40
1.0
100
AcDbArc
 50
270.0
 51
342.079787
  0
ARC
  5
FE
100
AcDbEntity
  8
1
370
    50
100
AcDbCircle
 10
-116.994107
 20
-23.856084
 30
0.0
 40
0.9
100
AcDbArc
 50
90.0
 51
165.522488
  0
ARC
  5
FF
100
AcDbEntity
  8
1
370
    50
100
AcDbCircle
 10
-110.794107
 20
-23.856084
 30
0.0
 40
0.9
100
AcDbArc
 50
14.477512
 51
90.0
  0
LINE
  5
100
100
AcDbEntity
  8
1
370
    50
100
AcDbLine
 10
-113.894107
 20
-23.956084
 30
0.0
 11
-111.136039
 21
-23.956084
 31
0.0
  0
ARC
  5
101
100
AcDbEntity
  8
1
370
    50
100
AcDbCircle
 10
-109.899107
 20
-23.856084
 30
0.0
 40
1.0
100
AcDbArc
 50
197.920213
 51
270.0
  0
ARC
  5
102
100
AcDbEntity
  8
1
370
    50
100
AcDbCircle
 10
-118.156002
 20
-23.556084
 30
0.0
 40
0.3
100
AcDbArc
 50
270.0
 51
345.522488
  0
ARC
  5
103
100
AcDbEntity
  8
1
370
    50
100
AcDbCircle
 10
-116.652176
 20
-24.256084
 30
0.0
 40
0.3
100
AcDbArc
 50
90.0
 51
162.079787
  0
ARC
  5
104
100
AcDbEntity
  8
1
370
    50
100
AcDbCircle
 10
-111.136039
 20
-24.256084
 30
0.0
 40
0.3
100
AcDbArc
 50
17.920213
 51
90.0
  0
ARC
  5
105
100
AcDbEntity
  8
1
370
    50
100
AcDbCircle
 10
-109.632212
 20
-23.556084
 30
0.0
 40
0.3
100
AcDbArc
 50
194.477512
 51
270.0
  0
ARC
  5
106
100
AcDbEntity
  8
1
370
    50
100
AcDbCircle
 10
-122.994107
 20
-23.856084
 30
0.0
 40
0.9
100
AcDbArc
 50
90.0
 51
165.522488
  0
ARC
  5
107
100
AcDbEntity
  8
1
370
    50
100
AcDbCircle
 10
-124.156002
 20
-23.556084
 30
0.0
 40
0.3
100
AcDbArc
 50
270.0
 51
345.522488
  0
LINE
  5
108
100
AcDbEntity
  8
1
370
    50
100
AcDbLine
 10
-113.894107
 20
-22.956084
 30
0.0
 11
-101.894107
 21
-22.956084
 31
0.0
  0
ARC
  5
109
100
AcDbEntity
  8
1
370
    50
100
AcDbCircle
 10
-104.794107
 20
-23.856084
 30
0.0
 40
0.9
100
AcDbArc
 50
14.477512
 51
90.0
  0
ARC
  5
10A
100
AcDbEntity
  8
1
370
    50
100
AcDbCircle
 10
-103.632212
 20
-23.556084
 30
0.0
 40
0.3
100
AcDbArc
 50
194.477512
 51
270.0
  0
LINE
  5
10B
100
AcDbEntity
  8
1
370
    50
100
AcDbLine
 10
-125.894107
 20
-24.856084
 30
0.0
 11
-115.144107
 21
-24.856084
 31
0.0
  0
LINE
  5
10C
100
AcDbEntity
  8
1
370
    50
100
AcDbLine
 10
-112.644107
 20
-24.856084
 30
0.0
 11
-101.894107
 21
-24.856084
 31
0.0
  0
LINE
  5
10D
100
AcDbEntity
  8
1
370
    50
100
AcDbLine
 10
-124.894107
 20
-36.556084
 30
0.0
 11
-114.57756
 21
-36.556084
 31
0.0
  0
LINE
  5
10E
100
AcDbEntity
  8
1
370
    50
100
AcDbLine
 10
-113.210655
 20
-36.556084
 30
0.0
 11
-102.894107
 21
-36.556084
 31
0.0
  0
LINE
  5
10F
100
AcDbEntity
  8
1
370
    50
100
AcDbLine
 10
-126.894107
 20
-22.956084
 30
0.0
 11
-125.894107
 21
-22.956084
 31
0.0
  0
LINE
  5
110
100
AcDbEntity
  8
1
370
    50
100
AcDbLine
 10
-126.376576
 20
-24.456084
 30
0.0
 11
-125.894107
 21
-24.456084
 31
0.0
  0
LINE
  5
111
100
AcDbEntity
  8
1
370
    50
100
AcDbLine
 10
-126.894107
 20
-22.956084
 30
0.0
 11
-126.8765
 21
-23.96481
 31
0.0
  0
ARC
  5
112
100
AcDbEntity
  8
1
370
    50
100
AcDbCircle
 10
-126.376576
 20
-23.956084
 30
0.0
 40
0.5
100
AcDbArc
 50
181.0
 51
270.0
  0
LINE
  5
113
100
AcDbEntity
  8
1
370
    50
100
AcDbLine
 10
-112.644107
 20
-24.706084
 30
0.0
 11
-112.644107
 21
-35.188317
 31
0.0
  0
LINE
  5
114
100
AcDbEntity
  8
1
370
    50
100
AcDbLine
 10
-115.144107
 20
-24.706084
 30
0.0
 11
-115.144107
 21
-35.188317
 31
0.0
  0
LINE
  5
115
100
AcDbEntity
  8
1
370
    50
100
AcDbLine
 10
-112.644107
 20
-35.188317
 30
0.0
 11
-113.894107
 21
-38.206084
 31
0.0
  0
LINE
  5
116
100
AcDbEntity
  8
1
370
    50
100
AcDbLine
 10
-115.144107
 20
-35.188317
 30
0.0
 11
-113.894107
 21
-38.206084
 31
0.0
  0
LINE
  5
117
100
AcDbEntity
  8
1
370
    25
100
AcDbLine
 10
-112.144107
 20
-25.506084
 30
0.0
 11
-115.644107
 21
-26.917195
 31
0.0
  0
LINE
  5
118
100
AcDbEntity
  8
1
370
    25
100
AcDbLine
 10
-112.144107
 20
-26.917195
 30
0.0
 11
-115.644107
 21
-28.328306
 31
0.0
  0
LINE
  5
119
100
AcDbEntity
  8
1
370
    25
100
AcDbLine
 10
-112.144107
 20
-28.328306
 30
0.0
 11
-115.644107
 21
-29.739417
 31
0.0
  0
LINE
  5
11A
100
AcDbEntity
  8
1
370
    25
100
AcDbLine
 10
-112.144107
 20
-29.739417
 30
0.0
 11
-115.644107
 21
-31.150528
 31
0.0
  0
LINE
  5
11B
100
AcDbEntity
  8
1
370
    25
100
AcDbLine
 10
-112.144107
 20
-31.150528
 30
0.0
 11
-115.644107
 21
-32.561639
 31
0.0
  0
LINE
  5
11C
100
AcDbEntity
  8
1
370
    25
100
AcDbLine
 10
-112.144107
 20
-32.561639
 30
0.0
 11
-115.644107
 21
-33.972751
 31
0.0
  0
LINE
  5
11D
100
AcDbEntity
  8
1
370
    25
100
AcDbLine
 10
-112.144107
 20
-33.972751
 30
0.0
 11
-115.610002
 21
-35.370111
 31
0.0
  0
LINE
  5
11E
100
AcDbEntity
  8
1
370
    25
100
AcDbLine
 10
-112.191888
 20
-35.403126
 30
0.0
 11
-115.109144
 21
-36.579289
 31
0.0
  0
LINE
  5
11F
100
AcDbEntity
  8
1
370
    25
100
AcDbLine
 10
-112.893571
 20
-37.097137
 30
0.0
 11
-114.608286
 21
-37.788467
 31
0.0
  0
LINE
  5
120
100
AcDbEntity
  8
1
370
    25
100
AcDbLine
 10
-113.659855
 20
-24.706084
 30
0.0
 11
-115.644107
 21
-25.506084
 31
0.0
  0
LINE
  5
121
100
AcDbEntity
  8
1
370
    50
100
AcDbLine
 10
-111.894107
 20
-23.956084
 30
0.0
 11
-112.644107
 21
-24.706084
 31
0.0
  0
LINE
  5
122
100
AcDbEntity
  8
1
370
    50
100
AcDbLine
 10
-115.894107
 20
-23.956084
 30
0.0
 11
-115.144107
 21
-24.706084
 31
0.0
  0
LINE
  5
123
100
AcDbEntity
  8
1
370
    50
100
AcDbLine
 10
-112.644107
 20
-24.706084
 30
0.0
 11
-115.144107
 21
-24.706084
 31
0.0
  0
LINE
  5
124
100
AcDbEntity
  8
1
370
    50
100
AcDbLine
 10
-130.394107
 20
87.843916
 30
0.0
 11
-107.394107
 21
87.843916
 31
0.0
  0
LINE
  5
125
100
AcDbEntity
  8
1
370
    50
100
AcDbLine
 10
-130.394107
 20
18.043916
 30
0.0
 11
-107.394107
 21
18.043916
 31
0.0
  0
LINE
  5
126
100
AcDbEntity
  8
1
370
    50
100
AcDbLine
 10
-101.394107
 20
24.043916
 30
0.0
 11
-101.394107
 21
81.843916
 31
0.0
  0
LINE
  5
127
100
AcDbEntity
  8
1
370
    50
100
AcDbLine
 10
-130.394107
 20
18.043916
 30
0.0
 11
-130.394107
 21
87.843916
 31
0.0
  0
ARC
  5
128
100
AcDbEntity
  8
1
370
    50
100
AcDbCircle
 10
-107.394107
 20
81.843916
 30
0.0
 40
6.0
100
AcDbArc
 50
0.0
 51
90.0
  0
ARC
  5
129
100
AcDbEntity
  8
1
370
    50
100
AcDbCircle
 10
-107.394107
 20
24.043916
 30
0.0
 40
6.0
100
AcDbArc
 50
270.0
 51
360.0
  0
LINE
  5
12A
100
AcDbEntity
  8
1
370
    50
100
AcDbLine
 10
-106.194107
 20
38.943916
 30
0.0
 11
-106.194107
 21
66.943916
 31
0.0
  0
LINE
  5
12B
100
AcDbEntity
  8
1
370
    25
100
AcDbLine
 10
-124.494107
 20
38.943916
 30
0.0
 11
-124.494107
 21
52.943916
 31
0.0
  0
LINE
  5
12C
100
AcDbEntity
  8
1
370
    25
100
AcDbLine
 10
-124.494107
 20
52.943916
 30
0.0
 11
-124.494107
 21
66.943916
 31
0.0
  0
LINE
  5
12D
100
AcDbEntity
  8
1
370
    25
  6
CENTER
100
AcDbLine
 10
-119.394107
 20
81.443916
 30
0.0
 11
-108.394107
 21
81.443916
 31
0.0
  0
LINE
  5
12E
100
AcDbEntity
  8
1
370
    25
  6
CENTER
100
AcDbLine
 10
-113.894107
 20
75.943916
 30
0.0
 11
-113.894107
 21
86.943916
 31
0.0
  0
LINE
  5
12F
100
AcDbEntity
  8
1
370
    25
  6
CENTER
100
AcDbLine
 10
-119.394107
 20
24.443916
 30
0.0
 11
-108.394107
 21
24.443916
 31
0.0
  0
ARC
  5
130
100
AcDbEntity
  8
1
370
    25
100
AcDbCircle
 10
-122.494107
 20
66.943916
 30
0.0
 40
2.0
100
AcDbArc
 50
90.0
 51
180.0
  0
ARC
  5
131
100
AcDbEntity
  8
1
370
    50
100
AcDbCircle
 10
-108.194107
 20
66.943916
 30
0.0
 40
2.0
100
AcDbArc
 50
0.0
 51
90.0
  0
ARC
  5
132
100
AcDbEntity
  8
1
370
    25
100
AcDbCircle
 10
-122.494107
 20
38.943916
 30
0.0
 40
2.0
100
AcDbArc
 50
180.0
 51
270.0
  0
ARC
  5
133
100
AcDbEntity
  8
1
370
    50
100
AcDbCircle
 10
-108.194107
 20
38.943916
 30
0.0
 40
2.0
100
AcDbArc
 50
270.0
 51
360.0
  0
LINE
  5
134
100
AcDbEntity
  8
1
370
    50
100
AcDbLine
 10
-124.994107
 20
38.943916
 30
0.0
 11
-124.994107
 21
66.943916
 31
0.0
  0
ARC
  5
135
100
AcDbEntity
  8
1
370
    50
100
AcDbCircle
 10
-122.994107
 20
66.943916
 30
0.0
 40
2.0
100
AcDbArc
 50
90.0
 51
180.0
  0
ARC
  5
136
100
AcDbEntity
  8
1
370
    50
100
AcDbCircle
 10
-122.994107
 20
38.943916
 30
0.0
 40
2.0
100
AcDbArc
 50
180.0
 51
270.0
  0
LINE
  5
137
100
AcDbEntity
  8
1
370
    50
100
AcDbLine
 10
-101.394107
 20
-21.956084
 30
0.0
 11
-128.894107
 21
-21.956084
 31
0.0
  0
LINE
  5
138
100
AcDbEntity
  8
1
370
    50
100
AcDbLine
 10
-101.394107
 20
-22.956084
 30
0.0
 11
-101.394107
 21
-21.956084
 31
0.0
  0
LINE
  5
139
100
AcDbEntity
  8
1
370
    50
100
AcDbLine
 10
-101.394107
 20
-22.956084
 30
0.0
 11
-129.094107
 21
-22.956084
 31
0.0
  0
LINE
  5
13A
100
AcDbEntity
  8
1
370
    50
100
AcDbLine
 10
-129.394107
 20
-24.856084
 30
0.0
 11
-130.394107
 21
-24.856084
 31
0.0
  0
LINE
  5
13B
100
AcDbEntity
  8
1
370
    50
100
AcDbLine
 10
-130.394107
 20
-23.456084
 30
0.0
 11
-130.394107
 21
-24.856084
 31
0.0
  0
LINE
  5
13C
100
AcDbEntity
  8
1
370
    50
100
AcDbLine
 10
-129.394107
 20
-23.256084
 30
0.0
 11
-129.394107
 21
-24.856084
 31
0.0
  0
ARC
  5
13D
100
AcDbEntity
  8
1
370
    50
100
AcDbCircle
 10
-128.894107
 20
-23.456084
 30
0.0
 40
1.5
100
AcDbArc
 50
90.0
 51
180.0
  0
ARC
  5
13E
100
AcDbEntity
  8
1
370
    50
100
AcDbCircle
 10
-129.094107
 20
-23.256084
 30
0.0
 40
0.3
100
AcDbArc
 50
90.0
 51
180.0
  0
LINE
  5
13F
100
AcDbEntity
  8
1
370
    25
  6
CENTER
100
AcDbLine
 10
142.673587
 20
52.943916
 30
0.0
 11
161.368865
 21
52.943916
 31
0.0
  0
LINE
  5
140
100
AcDbEntity
  8
1
370
    50
100
AcDbLine
 10
143.605893
 20
52.943916
 30
0.0
 11
143.605893
 21
87.843866
 31
0.0
  0
LINE
  5
141
100
AcDbEntity
  8
1
370
    50
100
AcDbLine
 10
143.605893
 20
87.843866
 30
0.0
 11
144.605891
 21
87.843866
 31
0.0
  0
LINE
  5
142
100
AcDbEntity
  8
1
370
    50
100
AcDbLine
 10
144.605891
 20
52.943916
 30
0.0
 11
144.605891
 21
87.843866
 31
0.0
  0
LINE
  5
143
100
AcDbEntity
  8
1
370
    50
100
AcDbLine
 10
146.605888
 20
69.543892
 30
0.0
 11
146.605888
 21
70.593891
 31
0.0
  0
LINE
  5
144
100
AcDbEntity
  8
1
370
    50
100
AcDbLine
 10
143.605893
 20
52.943916
 30
0.0
 11
143.605893
 21
18.043966
 31
0.0
  0
LINE
  5
145
100
AcDbEntity
  8
1
370
    50
100
AcDbLine
 10
143.605893
 20
18.043966
 30
0.0
 11
144.605891
 21
18.043966
 31
0.0
  0
LINE
  5
146
100
AcDbEntity
  8
1
370
    50
100
AcDbLine
 10
144.605891
 20
52.943916
 30
0.0
 11
144.605891
 21
18.043966
 31
0.0
  0
LINE
  5
147
100
AcDbEntity
  8
1
370
    50
100
AcDbLine
 10
146.605888
 20
36.34394
 30
0.0
 11
146.605888
 21
35.293941
 31
0.0
  0
LINE
  5
148
100
AcDbEntity
  8
1
370
    25
  6
CENTER
100
AcDbLine
 10
142.673587
 20
52.943916
 30
0.0
 11
161.368865
 21
52.943916
 31
0.0
  0
LINE
  5
149
100
AcDbEntity
  8
1
370
    50
100
AcDbLine
 10
144.605891
 20
87.443867
 30
0.0
 11
146.505889
 21
87.443867
 31
0.0
  0
LINE
  5
14A
100
AcDbEntity
  8
1
370
    50
100
AcDbLine
 10
158.205872
 20
70.593891
 30
0.0
 11
158.205872
 21
52.943916
 31
0.0
  0
LINE
  5
14B
100
AcDbEntity
  8
1
370
    50
100
AcDbLine
 10
144.605891
 20
71.593889
 30
0.0
 11
144.605891
 21
87.443867
 31
0.0
  0
LINE
  5
14C
100
AcDbEntity
  8
1
370
    50
100
AcDbLine
 10
146.505889
 20
73.343887
 30
0.0
 11
146.505889
 21
74.443885
 31
0.0
  0
LINE
  5
14D
100
AcDbEntity
  8
1
370
    50
100
AcDbLine
 10
145.50589
 20
73.705781
 30
0.0
 11
145.50589
 21
74.443885
 31
0.0
  0
ARC
  5
14E
100
AcDbEntity
  8
1
370
    50
100
AcDbCircle
 10
145.60589
 20
71.593889
 30
0.0
 40
0.999999
100
AcDbArc
 50
180.0
 51
270.0
  0
LINE
  5
14F
100
AcDbEntity
  8
1
370
    50
100
AcDbLine
 10
157.205873
 20
71.593889
 30
0.0
 11
145.905889
 21
71.593889
 31
0.0
  0
ARC
  5
150
100
AcDbEntity
  8
1
370
    50
100
AcDbCircle
 10
157.205873
 20
70.593891
 30
0.0
 40
0.999999
100
AcDbArc
 50
0.0
 51
90.0
  0
LINE
  5
151
100
AcDbEntity
  8
1
370
    50
100
AcDbLine
 10
156.705874
 20
70.593891
 30
0.0
 11
145.60589
 21
70.593891
 31
0.0
  0
LINE
  5
152
100
AcDbEntity
  8
1
370
    50
100
AcDbLine
 10
146.405889
 20
68.943893
 30
0.0
 11
146.405889
 21
52.943916
 31
0.0
  0
LINE
  5
153
100
AcDbEntity
  8
1
370
    50
100
AcDbLine
 10
145.60589
 20
72.181994
 30
0.0
 11
145.60589
 21
71.893889
 31
0.0
  0
ARC
  5
154
100
AcDbEntity
  8
1
370
    50
100
AcDbCircle
 10
145.905889
 20
71.893889
 30
0.0
 40
0.3
100
AcDbArc
 50
180.0
 51
270.0
  0
LINE
  5
155
100
AcDbEntity
  8
1
370
    50
100
AcDbLine
 10
157.205873
 20
70.093892
 30
0.0
 11
157.205873
 21
69.943892
 31
0.0
  0
ARC
  5
156
100
AcDbEntity
  8
1
370
    50
100
AcDbCircle
 10
145.50589
 20
72.543888
 30
0.0
 40
0.899999
100
AcDbArc
 50
104.477512
 51
180.0
  0
ARC
  5
157
100
AcDbEntity
  8
1
370
    50
100
AcDbCircle
 10
145.60589
 20
73.343887
 30
0.0
 40
0.899999
100
AcDbArc
 50
284.477512
 51
0.0
  0
ARC
  5
158
100
AcDbEntity
  8
1
370
    50
100
AcDbCircle
 10
145.20589
 20
73.705781
 30
0.0
 40
0.3
100
AcDbArc
 50
284.477512
 51
0.0
  0
ARC
  5
159
100
AcDbEntity
  8
1
370
    50
100
AcDbCircle
 10
145.905889
 20
72.181994
 30
0.0
 40
0.3
100
AcDbArc
 50
104.477512
 51
180.0
  0
LINE
  5
15A
100
AcDbEntity
  8
1
370
    50
100
AcDbLine
 10
146.505889
 20
87.443867
 30
0.0
 11
146.505889
 21
74.443885
 31
0.0
  0
LINE
  5
15B
100
AcDbEntity
  8
1
370
    50
100
AcDbLine
 10
145.50589
 20
87.443867
 30
0.0
 11
145.50589
 21
74.443885
 31
0.0
  0
LINE
  5
15C
100
AcDbEntity
  8
1
370
    50
100
AcDbLine
 10
156.905874
 20
62.443903
 30
0.0
 11
156.905874
 21
52.943916
 31
0.0
  0
LINE
  5
15D
100
AcDbEntity
  8
1
370
    50
100
AcDbLine
 10
157.405873
 20
62.943902
 30
0.0
 11
158.205872
 21
62.943902
 31
0.0
  0
ARC
  5
15E
100
AcDbEntity
  8
1
370
    50
100
AcDbCircle
 10
157.405873
 20
62.443903
 30
0.0
 40
0.499999
100
AcDbArc
 50
90.0
 51
180.0
  0
LINE
  5
15F
100
AcDbEntity
  8
1
370
    50
100
AcDbLine
 10
153.405879
 20
68.943893
 30
0.0
 11
153.405879
 21
52.943916
 31
0.0
  0
LINE
  5
160
100
AcDbEntity
  8
1
370
    50
100
AcDbLine
 10
147.405887
 20
69.943892
 30
0.0
 11
158.205872
 21
69.943892
 31
0.0
  0
ARC
  5
161
100
AcDbEntity
  8
1
370
    50
100
AcDbCircle
 10
147.405887
 20
68.943893
 30
0.0
 40
0.999999
100
AcDbArc
 50
90.0
 51
180.0
  0
ARC
  5
162
100
AcDbEntity
  8
1
370
    50
100
AcDbCircle
 10
154.405877
 20
68.943893
 30
0.0
 40
0.999999
100
AcDbArc
 50
90.0
 51
180.0
  0
ARC
  5
163
100
AcDbEntity
  8
1
370
    50
100
AcDbCircle
 10
156.705874
 20
70.093892
 30
0.0
 40
0.499999
100
AcDbArc
 50
0.0
 51
90.0
  0
LINE
  5
164
100
AcDbEntity
  8
1
370
    25
  6
CENTER
100
AcDbLine
 10
142.673587
 20
52.943916
 30
0.0
 11
161.368865
 21
52.943916
 31
0.0
  0
LINE
  5
165
100
AcDbEntity
  8
1
370
    50
100
AcDbLine
 10
144.605891
 20
18.443965
 30
0.0
 11
146.505889
 21
18.443965
 31
0.0
  0
LINE
  5
166
100
AcDbEntity
  8
1
370
    50
100
AcDbLine
 10
158.205872
 20
35.293941
 30
0.0
 11
158.205872
 21
52.943916
 31
0.0
  0
LINE
  5
167
100
AcDbEntity
  8
1
370
    50
100
AcDbLine
 10
144.605891
 20
34.293943
 30
0.0
 11
144.605891
 21
18.443965
 31
0.0
  0
LINE
  5
168
100
AcDbEntity
  8
1
370
    50
100
AcDbLine
 10
146.505889
 20
32.543945
 30
0.0
 11
146.505889
 21
31.443947
 31
0.0
  0
LINE
  5
169
100
AcDbEntity
  8
1
370
    50
100
AcDbLine
 10
145.50589
 20
32.182051
 30
0.0
 11
145.50589
 21
31.443947
 31
0.0
  0
ARC
  5
16A
100
AcDbEntity
  8
1
370
    50
100
AcDbCircle
 10
145.60589
 20
34.293943
 30
0.0
 40
0.999999
100
AcDbArc
 50
90.0
 51
180.0
  0
LINE
  5
16B
100
AcDbEntity
  8
1
370
    50
100
AcDbLine
 10
157.205873
 20
34.293943
 30
0.0
 11
145.905889
 21
34.293943
 31
0.0
  0
ARC
  5
16C
100
AcDbEntity
  8
1
370
    50
100
AcDbCircle
 10
157.205873
 20
35.293941
 30
0.0
 40
0.999999
100
AcDbArc
 50
270.0
 51
360.0
  0
LINE
  5
16D
100
AcDbEntity
  8
1
370
    50
100
AcDbLine
 10
156.705874
 20
35.293941
 30
0.0
 11
145.60589
 21
35.293941
 31
0.0
  0
LINE
  5
16E
100
AcDbEntity
  8
1
370
    50
100
AcDbLine
 10
146.405889
 20
36.943939
 30
0.0
 11
146.405889
 21
52.943916
 31
0.0
  0
LINE
  5
16F
100
AcDbEntity
  8
1
370
    50
100
AcDbLine
 10
145.60589
 20
33.705839
 30
0.0
 11
145.60589
 21
33.993943
 31
0.0
  0
ARC
  5
170
100
AcDbEntity
  8
1
370
    50
100
AcDbCircle
 10
145.905889
 20
33.993943
 30
0.0
 40
0.3
100
AcDbArc
 50
90.0
 51
180.0
  0
LINE
  5
171
100
AcDbEntity
  8
1
370
    50
100
AcDbLine
 10
157.205873
 20
35.793941
 30
0.0
 11
157.205873
 21
35.94394
 31
0.0
  0
ARC
  5
172
100
AcDbEntity
  8
1
370
    50
100
AcDbCircle
 10
145.50589
 20
33.343944
 30
0.0
 40
0.899999
100
AcDbArc
 50
180.0
 51
255.522488
  0
ARC
  5
173
100
AcDbEntity
  8
1
370
    50
100
AcDbCircle
 10
145.60589
 20
32.543945
 30
0.0
 40
0.899999
100
AcDbArc
 50
360.0
 51
75.522488
  0
ARC
  5
174
100
AcDbEntity
  8
1
370
    50
100
AcDbCircle
 10
145.20589
 20
32.182051
 30
0.0
 40
0.3
100
AcDbArc
 50
360.0
 51
75.522488
  0
ARC
  5
175
100
AcDbEntity
  8
1
370
    50
100
AcDbCircle
 10
145.905889
 20
33.705839
 30
0.0
 40
0.3
100
AcDbArc
 50
180.0
 51
255.522488
  0
LINE
  5
176
100
AcDbEntity
  8
1
370
    50
100
AcDbLine
 10
146.505889
 20
18.443965
 30
0.0
 11
146.505889
 21
31.443947
 31
0.0
  0
LINE
  5
177
100
AcDbEntity
  8
1
370
    50
100
AcDbLine
 10
145.50589
 20
18.443965
 30
0.0
 11
145.50589
 21
31.443947
 31
0.0
  0
LINE
  5
178
100
AcDbEntity
  8
1
370
    50
100
AcDbLine
 10
156.905874
 20
43.44393
 30
0.0
 11
156.905874
 21
52.943916
 31
0.0
  0
LINE
  5
179
100
AcDbEntity
  8
1
370
    50
100
AcDbLine
 10
157.405873
 20
42.94393
 30
0.0
 11
158.205872
 21
42.94393
 31
0.0
  0
ARC
  5
17A
100
AcDbEntity
  8
1
370
    50
100
AcDbCircle
 10
157.405873
 20
43.44393
 30
0.0
 40
0.499999
100
AcDbArc
 50
180.0
 51
270.0
  0
LINE
  5
17B
100
AcDbEntity
  8
1
370
    50
100
AcDbLine
 10
153.405879
 20
36.943939
 30
0.0
 11
153.405879
 21
52.943916
 31
0.0
  0
LINE
  5
17C
100
AcDbEntity
  8
1
370
    50
100
AcDbLine
 10
147.405887
 20
35.94394
 30
0.0
 11
158.205872
 21
35.94394
 31
0.0
  0
ARC
  5
17D
100
AcDbEntity
  8
1
370
    50
100
AcDbCircle
 10
147.405887
 20
36.943939
 30
0.0
 40
0.999999
100
AcDbArc
 50
180.0
 51
270.0
  0
ARC
  5
17E
100
AcDbEntity
  8
1
370
    50
100
AcDbCircle
 10
154.405877
 20
36.943939
 30
0.0
 40
0.999999
100
AcDbArc
 50
180.0
 51
270.0
  0
ARC
  5
17F
100
AcDbEntity
  8
1
370
    50
100
AcDbCircle
 10
156.705874
 20
35.793941
 30
0.0
 40
0.499999
100
AcDbArc
 50
270.0
 51
360.0
  0
LINE
  5
180
100
AcDbEntity
  8
1
370
    25
  6
CENTER
100
AcDbLine
 10
141.714498
 20
81.443916
 30
0.0
 11
160.493005
 21
81.443916
 31
0.0
  0
LINE
  5
181
100
AcDbEntity
  8
1
370
    50
100
AcDbLine
 10
146.505889
 20
82.693916
 30
0.0
 11
156.838126
 21
82.693916
 31
0.0
  0
LINE
  5
182
100
AcDbEntity
  8
1
370
    50
100
AcDbLine
 10
146.505889
 20
80.193916
 30
0.0
 11
156.838126
 21
80.193916
 31
0.0
  0
LINE
  5
183
100
AcDbEntity
  8
1
370
    50
100
AcDbLine
 10
156.838126
 20
82.693916
 30
0.0
 11
159.855893
 21
81.443916
 31
0.0
  0
LINE
  5
184
100
AcDbEntity
  8
1
370
    50
100
AcDbLine
 10
156.838126
 20
80.193916
 30
0.0
 11
159.855893
 21
81.443916
 31
0.0
  0
LINE
  5
185
100
AcDbEntity
  8
1
370
    25
100
AcDbLine
 10
147.155893
 20
83.193916
 30
0.0
 11
148.567004
 21
79.693916
 31
0.0
  0
LINE
  5
186
100
AcDbEntity
  8
1
370
    25
100
AcDbLine
 10
148.567004
 20
83.193916
 30
0.0
 11
149.978115
 21
79.693916
 31
0.0
  0
LINE
  5
187
100
AcDbEntity
  8
1
370
    25
100
AcDbLine
 10
149.978115
 20
83.193916
 30
0.0
 11
151.389226
 21
79.693916
 31
0.0
  0
LINE
  5
188
100
AcDbEntity
  8
1
370
    25
100
AcDbLine
 10
151.389226
 20
83.193916
 30
0.0
 11
152.800337
 21
79.693916
 31
0.0
  0
LINE
  5
189
100
AcDbEntity
  8
1
370
    25
100
AcDbLine
 10
152.800337
 20
83.193916
 30
0.0
 11
154.211448
 21
79.693916
 31
0.0
  0
LINE
  5
18A
100
AcDbEntity
  8
1
370
    25
100
AcDbLine
 10
154.211448
 20
83.193916
 30
0.0
 11
155.622559
 21
79.693916
 31
0.0
  0
LINE
  5
18B
100
AcDbEntity
  8
1
370
    25
100
AcDbLine
 10
155.622559
 20
83.193916
 30
0.0
 11
157.01992
 21
79.728022
 31
0.0
  0
LINE
  5
18C
100
AcDbEntity
  8
1
370
    25
100
AcDbLine
 10
157.052934
 20
83.146136
 30
0.0
 11
158.229098
 21
80.22888
 31
0.0
  0
LINE
  5
18D
100
AcDbEntity
  8
1
370
    25
100
AcDbLine
 10
158.746946
 20
82.444453
 30
0.0
 11
159.438276
 21
80.729737
 31
0.0
  0
LINE
  5
18E
100
AcDbEntity
  8
1
370
    25
100
AcDbLine
 10
146.505889
 20
81.306131
 30
0.0
 11
147.155893
 21
79.693916
 31
0.0
  0
LINE
  5
18F
100
AcDbEntity
  8
1
370
    25
  6
CENTER
100
AcDbLine
 10
141.714498
 20
24.443916
 30
0.0
 11
160.493005
 21
24.443916
 31
0.0
  0
LINE
  5
190
100
AcDbEntity
  8
1
370
    50
100
AcDbLine
 10
146.505889
 20
25.693916
 30
0.0
 11
156.838126
 21
25.693916
 31
0.0
  0
LINE
  5
191
100
AcDbEntity
  8
1
370
    50
100
AcDbLine
 10
146.505889
 20
23.193916
 30
0.0
 11
156.838126
 21
23.193916
 31
0.0
  0
LINE
  5
192
100
AcDbEntity
  8
1
370
    50
100
AcDbLine
 10
156.838126
 20
25.693916
 30
0.0
 11
159.855893
 21
24.443916
 31
0.0
  0
LINE
  5
193
100
AcDbEntity
  8
1
370
    50
100
AcDbLine
 10
156.838126
 20
23.193916
 30
0.0
 11
159.855893
 21
24.443916
 31
0.0
  0
LINE
  5
194
100
AcDbEntity
  8
1
370
    25
100
AcDbLine
 10
147.155893
 20
26.193916
 30
0.0
 11
148.567004
 21
22.693916
 31
0.0
  0
LINE
  5
195
100
AcDbEntity
  8
1
370
    25
100
AcDbLine
 10
148.567004
 20
26.193916
 30
0.0
 11
149.978115
 21
22.693916
 31
0.0
  0
LINE
  5
196
100
AcDbEntity
  8
1
370
    25
100
AcDbLine
 10
149.978115
 20
26.193916
 30
0.0
 11
151.389226
 21
22.693916
 31
0.0
  0
LINE
  5
197
100
AcDbEntity
  8
1
370
    25
100
AcDbLine
 10
151.389226
 20
26.193916
 30
0.0
 11
152.800337
 21
22.693916
 31
0.0
  0
LINE
  5
198
100
AcDbEntity
  8
1
370
    25
100
AcDbLine
 10
152.800337
 20
26.193916
 30
0.0
 11
154.211448
 21
22.693916
 31
0.0
  0
LINE
  5
199
100
AcDbEntity
  8
1
370
    25
100
AcDbLine
 10
154.211448
 20
26.193916
 30
0.0
 11
155.622559
 21
22.693916
 31
0.0
  0
LINE
  5
19A
100
AcDbEntity
  8
1
370
    25
100
AcDbLine
 10
155.622559
 20
26.193916
 30
0.0
 11
157.01992
 21
22.728022
 31
0.0
  0
LINE
  5
19B
100
AcDbEntity
  8
1
370
    25
100
AcDbLine
 10
157.052934
 20
26.146136
 30
0.0
 11
158.229098
 21
23.22888
 31
0.0
  0
LINE
  5
19C
100
AcDbEntity
  8
1
370
    25
100
AcDbLine
 10
158.746946
 20
25.444453
 30
0.0
 11
159.438276
 21
23.729737
 31
0.0
  0
LINE
  5
19D
100
AcDbEntity
  8
1
370
    25
100
AcDbLine
 10
146.505889
 20
24.306131
 30
0.0
 11
147.155893
 21
22.693916
 31
0.0
  0
ARC
  5
19E
100
AcDbEntity
  8
1
370
    50
100
AcDbCircle
 10
144.605891
 20
85.843869
 30
0.0
 40
1.999997
100
AcDbArc
 50
0.0
 51
18.194872
  0
ARC
  5
19F
100
AcDbEntity
  8
1
370
    50
100
AcDbCircle
 10
144.605891
 20
85.843869
 30
0.0
 40
1.999997
100
AcDbArc
 50
53.130102
 51
90.0
  0
ARC
  5
1A0
100
AcDbEntity
  8
1
370
    50
100
AcDbCircle
 10
144.605891
 20
20.043963
 30
0.0
 40
1.999997
100
AcDbArc
 50
270.0
 51
306.869898
  0
ARC
  5
1A1
100
AcDbEntity
  8
1
370
    50
100
AcDbCircle
 10
144.605891
 20
20.043963
 30
0.0
 40
1.999997
100
AcDbArc
 50
341.805128
 51
360.0
  0
LINE
  5
1A2
100
AcDbEntity
  8
1
370
    50
100
AcDbLine
 10
146.605888
 20
71.593889
 30
0.0
 11
146.605888
 21
80.193916
 31
0.0
  0
LINE
  5
1A3
100
AcDbEntity
  8
1
370
    50
100
AcDbLine
 10
146.605888
 20
82.693916
 30
0.0
 11
146.605888
 21
85.843869
 31
0.0
  0
LINE
  5
1A4
100
AcDbEntity
  8
1
370
    50
100
AcDbLine
 10
146.605888
 20
20.043963
 30
0.0
 11
146.605888
 21
23.193916
 31
0.0
  0
LINE
  5
1A5
100
AcDbEntity
  8
1
370
    50
100
AcDbLine
 10
146.605888
 20
25.693916
 30
0.0
 11
146.605888
 21
34.293943
 31
0.0
  0
LINE
  5
1A6
100
AcDbEntity
  8
1
370
    25
  6
CENTER
100
AcDbLine
 10
96.105893
 20
-20.06469
 30
0.0
 11
96.105893
 21
-38.843197
 31
0.0
  0
LINE
  5
1A7
100
AcDbEntity
  8
1
370
    50
100
AcDbLine
 10
96.105893
 20
-22.956084
 30
0.0
 11
84.105893
 21
-22.956084
 31
0.0
  0
LINE
  5
1A8
100
AcDbEntity
  8
1
370
    50
100
AcDbLine
 10
85.105893
 20
-24.856084
 30
0.0
 11
85.105893
 21
-35.556084
 31
0.0
  0
LINE
  5
1A9
100
AcDbEntity
  8
1
370
    50
100
AcDbLine
 10
84.105893
 20
-24.856084
 30
0.0
 11
84.105893
 21
-35.556084
 31
0.0
  0
LINE
  5
1AA
100
AcDbEntity
  8
1
370
    50
100
AcDbLine
 10
108.105893
 20
-32.056084
 30
0.0
 11
108.105893
 21
-35.556084
 31
0.0
  0
ARC
  5
1AB
100
AcDbEntity
  8
1
370
    50
100
AcDbCircle
 10
85.105893
 20
-35.556084
 30
0.0
 40
1.0
100
AcDbArc
 50
180.0
 51
270.0
  0
ARC
  5
1AC
100
AcDbEntity
  8
1
370
    50
100
AcDbCircle
 10
107.105893
 20
-35.556084
 30
0.0
 40
1.0
100
AcDbArc
 50
270.0
 51
360.0
  0
LINE
  5
1AD
100
AcDbEntity
  8
1
370
    50
100
AcDbLine
 10
85.305893
 20
-24.856084
 30
0.0
 11
85.305893
 21
-36.556084
 31
0.0
  0
LINE
  5
1AE
100
AcDbEntity
  8
1
370
    50
100
AcDbLine
 10
108.105893
 20
-32.056084
 30
0.0
 11
107.105893
 21
-32.056084
 31
0.0
  0
LINE
  5
1AF
100
AcDbEntity
  8
1
370
    50
100
AcDbLine
 10
96.105893
 20
-22.956084
 30
0.0
 11
108.105893
 21
-22.956084
 31
0.0
  0
LINE
  5
1B0
100
AcDbEntity
  8
1
370
    50
100
AcDbLine
 10
106.905893
 20
-24.856084
 30
0.0
 11
106.905893
 21
-36.556084
 31
0.0
  0
LINE
  5
1B1
100
AcDbEntity
  8
1
370
    50
100
AcDbLine
 10
85.105893
 20
-24.856084
 30
0.0
 11
84.105893
 21
-24.856084
 31
0.0
  0
LINE
  5
1B2
100
AcDbEntity
  8
1
370
    50
100
AcDbLine
 10
96.455898
 20
50.443909
 30
0.0
 11
95.755898
 21
50.443909
 31
0.0
  0
LINE
  5
1B3
100
AcDbEntity
  8
1
370
    50
100
AcDbLine
 10
96.455898
 20
55.443909
 30
0.0
 11
95.755898
 21
55.443909
 31
0.0
  0
LINE
  5
1B4
100
AcDbEntity
  8
1
370
    50
100
AcDbLine
 10
93.605898
 20
52.593909
 30
0.0
 11
93.605898
 21
53.293909
 31
0.0
  0
LINE
  5
1B5
100
AcDbEntity
  8
1
370
    50
100
AcDbLine
 10
98.605898
 20
52.593909
 30
0.0
 11
98.605898
 21
53.293909
 31
0.0
  0
LINE
  5
1B6
100
AcDbEntity
  8
1
370
    50
100
AcDbLine
 10
95.455898
 20
50.743909
 30
0.0
 11
95.455898
 21
51.993909
 31
0.0
  0
LINE
  5
1B7
100
AcDbEntity
  8
1
370
    50
100
AcDbLine
 10
95.455898
 20
53.893909
 30
0.0
 11
95.455898
 21
55.143909
 31
0.0
  0
LINE
  5
1B8
100
AcDbEntity
  8
1
370
    50
100
AcDbLine
 10
98.305898
 20
53.593909
 30
0.0
 11
97.055898
 21
53.593909
 31
0.0
  0
LINE
  5
1B9
100
AcDbEntity
  8
1
370
    50
100
AcDbLine
 10
95.155898
 20
53.593909
 30
0.0
 11
93.905898
 21
53.593909
 31
0.0
  0
LINE
  5
1BA
100
AcDbEntity
  8
1
370
    50
100
AcDbLine
 10
98.305898
 20
52.293909
 30
0.0
 11
97.055898
 21
52.293909
 31
0.0
  0
LINE
  5
1BB
100
AcDbEntity
  8
1
370
    50
100
AcDbLine
 10
95.155898
 20
52.293909
 30
0.0
 11
93.905898
 21
52.293909
 31
0.0
  0
LINE
  5
1BC
100
AcDbEntity
  8
1
370
    50
100
AcDbLine
 10
96.755898
 20
50.743909
 30
0.0
 11
96.755898
 21
51.993909
 31
0.0
  0
LINE
  5
1BD
100
AcDbEntity
  8
1
370
    50
100
AcDbLine
 10
96.755898
 20
53.893909
 30
0.0
 11
96.755898
 21
55.143909
 31
0.0
  0
ARC
  5
1BE
100
AcDbEntity
  8
1
370
    50
100
AcDbCircle
 10
95.155898
 20
51.993909
 30
0.0
 40
0.3
100
AcDbArc
 50
0.0
 51
90.0
  0
ARC
  5
1BF
100
AcDbEntity
  8
1
370
    50
100
AcDbCircle
 10
95.155898
 20
53.893909
 30
0.0
 40
0.3
100
AcDbArc
 50
270.0
 51
360.0
  0
ARC
  5
1C0
100
AcDbEntity
  8
1
370
    50
100
AcDbCircle
 10
97.055898
 20
51.993909
 30
0.0
 40
0.3
100
AcDbArc
 50
90.0
 51
180.0
  0
ARC
  5
1C1
100
AcDbEntity
  8
1
370
    50
100
AcDbCircle
 10
97.055898
 20
53.893909
 30
0.0
 40
0.3
100
AcDbArc
 50
180.0
 51
270.0
  0
ARC
  5
1C2
100
AcDbEntity
  8
1
370
    50
100
AcDbCircle
 10
95.755898
 20
50.743909
 30
0.0
 40
0.3
100
AcDbArc
 50
180.0
 51
270.0
  0
ARC
  5
1C3
100
AcDbEntity
  8
1
370
    50
100
AcDbCircle
 10
93.905898
 20
52.593909
 30
0.0
 40
0.3
100
AcDbArc
 50
180.0
 51
270.0
  0
ARC
  5
1C4
100
AcDbEntity
  8
1
370
    50
100
AcDbCircle
 10
93.905898
 20
53.293909
 30
0.0
 40
0.3
100
AcDbArc
 50
90.0
 51
180.0
  0
ARC
  5
1C5
100
AcDbEntity
  8
1
370
    50
100
AcDbCircle
 10
95.755898
 20
55.143909
 30
0.0
 40
0.3
100
AcDbArc
 50
90.0
 51
180.0
  0
ARC
  5
1C6
100
AcDbEntity
  8
1
370
    50
100
AcDbCircle
 10
96.455898
 20
55.143909
 30
0.0
 40
0.3
100
AcDbArc
 50
0.0
 51
90.0
  0
ARC
  5
1C7
100
AcDbEntity
  8
1
370
    50
100
AcDbCircle
 10
98.305898
 20
53.293909
 30
0.0
 40
0.3
100
AcDbArc
 50
0.0
 51
90.0
  0
ARC
  5
1C8
100
AcDbEntity
  8
1
370
    50
100
AcDbCircle
 10
98.305898
 20
52.593909
 30
0.0
 40
0.3
100
AcDbArc
 50
270.0
 51
0.0
  0
ARC
  5
1C9
100
AcDbEntity
  8
1
370
    50
100
AcDbCircle
 10
96.455898
 20
50.743909
 30
0.0
 40
0.3
100
AcDbArc
 50
270.0
 51
360.0
  0
LINE
  5
1CA
100
AcDbEntity
  8
1
370
    50
100
AcDbLine
 10
85.105885
 20
-33.756084
 30
0.0
 11
85.305893
 21
-33.756084
 31
0.0
  0
LINE
  5
1CB
100
AcDbEntity
  8
1
370
    25
  6
CENTER
100
AcDbLine
 10
96.105893
 20
-29.569399
 30
0.0
 11
96.105893
 21
-38.320318
 31
0.0
  0
LINE
  5
1CC
100
AcDbEntity
  8
1
370
    50
100
AcDbLine
 10
85.105885
 20
-33.756084
 30
0.0
 11
85.105885
 21
-35.356084
 31
0.0
  0
LINE
  5
1CD
100
AcDbEntity
  8
1
370
    50
100
AcDbLine
 10
107.105885
 20
-32.056084
 30
0.0
 11
107.105885
 21
-35.556084
 31
0.0
  0
LINE
  5
1CE
100
AcDbEntity
  8
1
370
    50
100
AcDbLine
 10
89.105893
 20
52.943916
 30
0.0
 11
89.105893
 21
67.143916
 31
0.0
  0
ARC
  5
1CF
100
AcDbEntity
  8
1
370
    50
100
AcDbCircle
 10
91.105893
 20
67.143916
 30
0.0
 40
2.0
100
AcDbArc
 50
115.841933
 51
180.0
  0
LINE
  5
1D0
100
AcDbEntity
  8
1
370
    50
100
AcDbLine
 10
102.905893
 20
52.943916
 30
0.0
 11
102.905893
 21
67.143916
 31
0.0
  0
ARC
  5
1D1
100
AcDbEntity
  8
1
370
    50
100
AcDbCircle
 10
100.905893
 20
67.143916
 30
0.0
 40
2.0
100
AcDbArc
 50
0.0
 51
64.145352
  0
LINE
  5
1D2
100
AcDbEntity
  8
1
370
    50
100
AcDbLine
 10
87.005893
 20
68.943916
 30
0.0
 11
101.805893
 21
68.943916
 31
0.0
  0
LINE
  5
1D3
100
AcDbEntity
  8
1
370
    25
  6
CENTER
100
AcDbLine
 10
71.283968
 20
52.943916
 30
0.0
 11
112.103652
 21
52.943916
 31
0.0
  0
LINE
  5
1D4
100
AcDbEntity
  8
1
370
    25
  6
CENTER
100
AcDbLine
 10
90.605893
 20
81.443916
 30
0.0
 11
101.605893
 21
81.443916
 31
0.0
  0
LINE
  5
1D5
100
AcDbEntity
  8
1
370
    25
  6
CENTER
100
AcDbLine
 10
96.105893
 20
89.409374
 30
0.0
 11
96.105893
 21
16.167064
 31
0.0
  0
LINE
  5
1D6
100
AcDbEntity
  8
1
370
    50
100
AcDbLine
 10
108.605893
 20
-22.956084
 30
0.0
 11
108.605893
 21
-21.956084
 31
0.0
  0
LINE
  5
1D7
100
AcDbEntity
  8
1
370
    25
100
AcDbLine
 10
95.605893
 20
83.643916
 30
0.0
 11
96.605893
 21
83.643916
 31
0.0
  0
ARC
  5
1D8
100
AcDbEntity
  8
1
370
    25
100
AcDbCircle
 10
98.305893
 20
83.643916
 30
0.0
 40
1.7
100
AcDbArc
 50
180.0
 51
270.0
  0
ARC
  5
1D9
100
AcDbEntity
  8
1
370
    25
100
AcDbCircle
 10
98.305893
 20
79.243916
 30
0.0
 40
1.7
100
AcDbArc
 50
90.0
 51
180.0
  0
LINE
  5
1DA
100
AcDbEntity
  8
1
370
    25
100
AcDbLine
 10
98.305893
 20
80.943916
 30
0.0
 11
98.305893
 21
81.943916
 31
0.0
  0
ARC
  5
1DB
100
AcDbEntity
  8
1
370
    25
100
AcDbCircle
 10
93.905893
 20
83.643916
 30
0.0
 40
1.7
100
AcDbArc
 50
270.0
 51
360.0
  0
LINE
  5
1DC
100
AcDbEntity
  8
1
370
    25
100
AcDbLine
 10
93.905893
 20
81.943916
 30
0.0
 11
93.905893
 21
80.943916
 31
0.0
  0
LINE
  5
1DD
100
AcDbEntity
  8
1
370
    25
100
AcDbLine
 10
96.605893
 20
79.243916
 30
0.0
 11
95.605893
 21
79.243916
 31
0.0
  0
ARC
  5
1DE
100
AcDbEntity
  8
1
370
    25
100
AcDbCircle
 10
93.905893
 20
79.243916
 30
0.0
 40
1.7
100
AcDbArc
 50
0.0
 51
90.0
  0
CIRCLE
  5
1DF
100
AcDbEntity
  8
1
370
    50
100
AcDbCircle
 10
96.105893
 20
81.443916
 30
0.0
 40
3.5
  0
ARC
  5
1E0
100
AcDbEntity
  8
1
370
    50
100
AcDbCircle
 10
96.105891
 20
52.943916
 30
0.0
 40
4.1
100
AcDbArc
 50
0.0
 51
180.0
  0
LINE
  5
1E1
100
AcDbEntity
  8
1
370
    50
100
AcDbLine
 10
89.105893
 20
52.943916
 30
0.0
 11
89.105893
 21
38.743916
 31
0.0
  0
ARC
  5
1E2
100
AcDbEntity
  8
1
370
    50
100
AcDbCircle
 10
91.105893
 20
38.743916
 30
0.0
 40
2.0
100
AcDbArc
 50
180.0
 51
244.158067
  0
LINE
  5
1E3
100
AcDbEntity
  8
1
370
    50
100
AcDbLine
 10
102.905893
 20
52.943916
 30
0.0
 11
102.905893
 21
38.743916
 31
0.0
  0
ARC
  5
1E4
100
AcDbEntity
  8
1
370
    50
100
AcDbCircle
 10
100.905893
 20
38.743916
 30
0.0
 40
2.0
100
AcDbArc
 50
295.854648
 51
360.0
  0
LINE
  5
1E5
100
AcDbEntity
  8
1
370
    50
100
AcDbLine
 10
87.005893
 20
36.943916
 30
0.0
 11
101.805893
 21
36.943916
 31
0.0
  0
LINE
  5
1E6
100
AcDbEntity
  8
1
370
    25
  6
CENTER
100
AcDbLine
 10
90.605893
 20
24.443916
 30
0.0
 11
101.605893
 21
24.443916
 31
0.0
  0
LINE
  5
1E7
100
AcDbEntity
  8
1
370
    25
100
AcDbLine
 10
95.605893
 20
22.243916
 30
0.0
 11
96.605893
 21
22.243916
 31
0.0
  0
ARC
  5
1E8
100
AcDbEntity
  8
1
370
    25
100
AcDbCircle
 10
98.305893
 20
22.243916
 30
0.0
 40
1.7
100
AcDbArc
 50
90.0
 51
180.0
  0
ARC
  5
1E9
100
AcDbEntity
  8
1
370
    25
100
AcDbCircle
 10
98.305893
 20
26.643916
 30
0.0
 40
1.7
100
AcDbArc
 50
180.0
 51
270.0
  0
LINE
  5
1EA
100
AcDbEntity
  8
1
370
    25
100
AcDbLine
 10
98.305893
 20
24.943916
 30
0.0
 11
98.305893
 21
23.943916
 31
0.0
  0
ARC
  5
1EB
100
AcDbEntity
  8
1
370
    25
100
AcDbCircle
 10
93.905893
 20
22.243916
 30
0.0
 40
1.7
100
AcDbArc
 50
0.0
 51
90.0
  0
LINE
  5
1EC
100
AcDbEntity
  8
1
370
    25
100
AcDbLine
 10
93.905893
 20
23.943916
 30
0.0
 11
93.905893
 21
24.943916
 31
0.0
  0
LINE
  5
1ED
100
AcDbEntity
  8
1
370
    25
100
AcDbLine
 10
96.605893
 20
26.643916
 30
0.0
 11
95.605893
 21
26.643916
 31
0.0
  0
ARC
  5
1EE
100
AcDbEntity
  8
1
370
    25
100
AcDbCircle
 10
93.905893
 20
26.643916
 30
0.0
 40
1.7
100
AcDbArc
 50
270.0
 51
360.0
  0
CIRCLE
  5
1EF
100
AcDbEntity
  8
1
370
    50
100
AcDbCircle
 10
96.105893
 20
24.443916
 30
0.0
 40
3.5
  0
ARC
  5
1F0
100
AcDbEntity
  8
1
370
    50
100
AcDbCircle
 10
96.105891
 20
52.943916
 30
0.0
 40
4.1
100
AcDbArc
 50
180.0
 51
360.0
  0
LINE
  5
1F1
100
AcDbEntity
  8
1
370
    50
100
AcDbLine
 10
85.105893
 20
-35.556084
 30
0.0
 11
85.305893
 21
-35.556084
 31
0.0
  0
LINE
  5
1F2
100
AcDbEntity
  8
1
370
    50
100
AcDbLine
 10
106.905893
 20
-35.556084
 30
0.0
 11
107.105893
 21
-35.556084
 31
0.0
  0
LINE
  5
1F3
100
AcDbEntity
  8
1
370
    50
100
AcDbLine
 10
108.105893
 20
-22.956084
 30
0.0
 11
108.105893
 21
-24.856084
 31
0.0
  0
LINE
  5
1F4
100
AcDbEntity
  8
1
370
    50
100
AcDbLine
 10
96.105893
 20
-22.956084
 30
0.0
 11
84.105893
 21
-22.956084
 31
0.0
  0
LINE
  5
1F5
100
AcDbEntity
  8
1
370
    50
100
AcDbLine
 10
108.105893
 20
-23.856084
 30
0.0
 11
100.367788
 21
-23.856084
 31
0.0
  0
LINE
  5
1F6
100
AcDbEntity
  8
1
370
    50
100
AcDbLine
 10
84.105893
 20
-22.956084
 30
0.0
 11
84.105893
 21
-24.856084
 31
0.0
  0
LINE
  5
1F7
100
AcDbEntity
  8
1
370
    50
100
AcDbLine
 10
96.105893
 20
-23.956084
 30
0.0
 11
93.347824
 21
-23.956084
 31
0.0
  0
LINE
  5
1F8
100
AcDbEntity
  8
1
370
    50
100
AcDbLine
 10
84.105893
 20
-23.856084
 30
0.0
 11
91.843998
 21
-23.856084
 31
0.0
  0
ARC
  5
1F9
100
AcDbEntity
  8
1
370
    50
100
AcDbCircle
 10
92.110893
 20
-23.856084
 30
0.0
 40
1.0
100
AcDbArc
 50
270.0
 51
342.079787
  0
ARC
  5
1FA
100
AcDbEntity
  8
1
370
    50
100
AcDbCircle
 10
93.005893
 20
-23.856084
 30
0.0
 40
0.9
100
AcDbArc
 50
90.0
 51
165.522488
  0
ARC
  5
1FB
100
AcDbEntity
  8
1
370
    50
100
AcDbCircle
 10
99.205893
 20
-23.856084
 30
0.0
 40
0.9
100
AcDbArc
 50
14.477512
 51
90.0
  0
LINE
  5
1FC
100
AcDbEntity
  8
1
370
    50
100
AcDbLine
 10
96.105893
 20
-23.956084
 30
0.0
 11
98.863961
 21
-23.956084
 31
0.0
  0
ARC
  5
1FD
100
AcDbEntity
  8
1
370
    50
100
AcDbCircle
 10
100.100893
 20
-23.856084
 30
0.0
 40
1.0
100
AcDbArc
 50
197.920213
 51
270.0
  0
ARC
  5
1FE
100
AcDbEntity
  8
1
370
    50
100
AcDbCircle
 10
91.843998
 20
-23.556084
 30
0.0
 40
0.3
100
AcDbArc
 50
270.0
 51
345.522488
  0
ARC
  5
1FF
100
AcDbEntity
  8
1
370
    50
100
AcDbCircle
 10
93.347824
 20
-24.256084
 30
0.0
 40
0.3
100
AcDbArc
 50
90.0
 51
162.079787
  0
ARC
  5
200
100
AcDbEntity
  8
1
370
    50
100
AcDbCircle
 10
98.863961
 20
-24.256084
 30
0.0
 40
0.3
100
AcDbArc
 50
17.920213
 51
90.0
  0
ARC
  5
201
100
AcDbEntity
  8
1
370
    50
100
AcDbCircle
 10
100.367788
 20
-23.556084
 30
0.0
 40
0.3
100
AcDbArc
 50
194.477512
 51
270.0
  0
ARC
  5
202
100
AcDbEntity
  8
1
370
    50
100
AcDbCircle
 10
87.005893
 20
-23.856084
 30
0.0
 40
0.9
100
AcDbArc
 50
90.0
 51
165.522488
  0
ARC
  5
203
100
AcDbEntity
  8
1
370
    50
100
AcDbCircle
 10
85.843998
 20
-23.556084
 30
0.0
 40
0.3
100
AcDbArc
 50
270.0
 51
345.522488
  0
LINE
  5
204
100
AcDbEntity
  8
1
370
    50
100
AcDbLine
 10
96.105893
 20
-22.956084
 30
0.0
 11
108.105893
 21
-22.956084
 31
0.0
  0
ARC
  5
205
100
AcDbEntity
  8
1
370
    50
100
AcDbCircle
 10
105.205893
 20
-23.856084
 30
0.0
 40
0.9
100
AcDbArc
 50
14.477512
 51
90.0
  0
ARC
  5
206
100
AcDbEntity
  8
1
370
    50
100
AcDbCircle
 10
106.367788
 20
-23.556084
 30
0.0
 40
0.3
100
AcDbArc
 50
194.477512
 51
270.0
  0
LINE
  5
207
100
AcDbEntity
  8
1
370
    50
100
AcDbLine
 10
84.105893
 20
-24.856084
 30
0.0
 11
94.855893
 21
-24.856084
 31
0.0
  0
LINE
  5
208
100
AcDbEntity
  8
1
370
    50
100
AcDbLine
 10
97.355893
 20
-24.856084
 30
0.0
 11
108.105893
 21
-24.856084
 31
0.0
  0
LINE
  5
209
100
AcDbEntity
  8
1
370
    50
100
AcDbLine
 10
85.105893
 20
-36.556084
 30
0.0
 11
95.42244
 21
-36.556084
 31
0.0
  0
LINE
  5
20A
100
AcDbEntity
  8
1
370
    50
100
AcDbLine
 10
96.789345
 20
-36.556084
 30
0.0
 11
107.105893
 21
-36.556084
 31
0.0
  0
LINE
  5
20B
100
AcDbEntity
  8
1
370
    50
100
AcDbLine
 10
83.105893
 20
-22.956084
 30
0.0
 11
84.105893
 21
-22.956084
 31
0.0
  0
LINE
  5
20C
100
AcDbEntity
  8
1
370
    50
100
AcDbLine
 10
83.623424
 20
-24.456084
 30
0.0
 11
84.105893
 21
-24.456084
 31
0.0
  0
LINE
  5
20D
100
AcDbEntity
  8
1
370
    50
100
AcDbLine
 10
83.105893
 20
-22.956084
 30
0.0
 11
83.1235
 21
-23.96481
 31
0.0
  0
ARC
  5
20E
100
AcDbEntity
  8
1
370
    50
100
AcDbCircle
 10
83.623424
 20
-23.956084
 30
0.0
 40
0.5
100
AcDbArc
 50
181.0
 51
270.0
  0
LINE
  5
20F
100
AcDbEntity
  8
1
370
    50
100
AcDbLine
 10
97.355893
 20
-24.706084
 30
0.0
 11
97.355893
 21
-35.188317
 31
0.0
  0
LINE
  5
210
100
AcDbEntity
  8
1
370
    50
100
AcDbLine
 10
94.855893
 20
-24.706084
 30
0.0
 11
94.855893
 21
-35.188317
 31
0.0
  0
LINE
  5
211
100
AcDbEntity
  8
1
370
    50
100
AcDbLine
 10
97.355893
 20
-35.188317
 30
0.0
 11
96.105893
 21
-38.206084
 31
0.0
  0
LINE
  5
212
100
AcDbEntity
  8
1
370
    50
100
AcDbLine
 10
94.855893
 20
-35.188317
 30
0.0
 11
96.105893
 21
-38.206084
 31
0.0
  0
LINE
  5
213
100
AcDbEntity
  8
1
370
    25
100
AcDbLine
 10
97.855893
 20
-25.506084
 30
0.0
 11
94.355893
 21
-26.917195
 31
0.0
  0
LINE
  5
214
100
AcDbEntity
  8
1
370
    25
100
AcDbLine
 10
97.855893
 20
-26.917195
 30
0.0
 11
94.355893
 21
-28.328306
 31
0.0
  0
LINE
  5
215
100
AcDbEntity
  8
1
370
    25
100
AcDbLine
 10
97.855893
 20
-28.328306
 30
0.0
 11
94.355893
 21
-29.739417
 31
0.0
  0
LINE
  5
216
100
AcDbEntity
  8
1
370
    25
100
AcDbLine
 10
97.855893
 20
-29.739417
 30
0.0
 11
94.355893
 21
-31.150528
 31
0.0
  0
LINE
  5
217
100
AcDbEntity
  8
1
370
    25
100
AcDbLine
 10
97.855893
 20
-31.150528
 30
0.0
 11
94.355893
 21
-32.561639
 31
0.0
  0
LINE
  5
218
100
AcDbEntity
  8
1
370
    25
100
AcDbLine
 10
97.855893
 20
-32.561639
 30
0.0
 11
94.355893
 21
-33.972751
 31
0.0
  0
LINE
  5
219
100
AcDbEntity
  8
1
370
    25
100
AcDbLine
 10
97.855893
 20
-33.972751
 30
0.0
 11
94.389998
 21
-35.370111
 31
0.0
  0
LINE
  5
21A
100
AcDbEntity
  8
1
370
    25
100
AcDbLine
 10
97.808112
 20
-35.403126
 30
0.0
 11
94.890856
 21
-36.579289
 31
0.0
  0
LINE
  5
21B
100
AcDbEntity
  8
1
370
    25
100
AcDbLine
 10
97.106429
 20
-37.097137
 30
0.0
 11
95.391714
 21
-37.788467
 31
0.0
  0
LINE
  5
21C
100
AcDbEntity
  8
1
370
    25
100
AcDbLine
 10
96.340145
 20
-24.706084
 30
0.0
 11
94.355893
 21
-25.506084
 31
0.0
  0
LINE
  5
21D
100
AcDbEntity
  8
1
370
    50
100
AcDbLine
 10
98.105893
 20
-23.956084
 30
0.0
 11
97.355893
 21
-24.706084
 31
0.0
  0
LINE
  5
21E
100
AcDbEntity
  8
1
370
    50
100
AcDbLine
 10
94.105893
 20
-23.956084
 30
0.0
 11
94.855893
 21
-24.706084
 31
0.0
  0
LINE
  5
21F
100
AcDbEntity
  8
1
370
    50
100
AcDbLine
 10
97.355893
 20
-24.706084
 30
0.0
 11
94.855893
 21
-24.706084
 31
0.0
  0
LINE
  5
220
100
AcDbEntity
  8
1
370
    50
100
AcDbLine
 10
78.105893
 20
87.843916
 30
0.0
 11
102.605893
 21
87.843916
 31
0.0
  0
LINE
  5
221
100
AcDbEntity
  8
1
370
    50
100
AcDbLine
 10
78.105893
 20
18.043916
 30
0.0
 11
102.605893
 21
18.043916
 31
0.0
  0
LINE
  5
222
100
AcDbEntity
  8
1
370
    50
100
AcDbLine
 10
108.605893
 20
24.043916
 30
0.0
 11
108.605893
 21
81.843916
 31
0.0
  0
LINE
  5
223
100
AcDbEntity
  8
1
370
    50
100
AcDbLine
 10
78.105893
 20
18.043916
 30
0.0
 11
78.105893
 21
87.843916
 31
0.0
  0
ARC
  5
224
100
AcDbEntity
  8
1
370
    50
100
AcDbCircle
 10
102.605893
 20
81.843916
 30
0.0
 40
6.0
100
AcDbArc
 50
0.0
 51
90.0
  0
ARC
  5
225
100
AcDbEntity
  8
1
370
    50
100
AcDbCircle
 10
102.605893
 20
24.043916
 30
0.0
 40
6.0
100
AcDbArc
 50
270.0
 51
360.0
  0
LINE
  5
226
100
AcDbEntity
  8
1
370
    50
100
AcDbLine
 10
103.805893
 20
38.943916
 30
0.0
 11
103.805893
 21
66.943916
 31
0.0
  0
LINE
  5
227
100
AcDbEntity
  8
1
370
    25
100
AcDbLine
 10
85.505893
 20
38.943916
 30
0.0
 11
85.505893
 21
52.943916
 31
0.0
  0
LINE
  5
228
100
AcDbEntity
  8
1
370
    25
100
AcDbLine
 10
85.505893
 20
52.943916
 30
0.0
 11
85.505893
 21
66.943916
 31
0.0
  0
LINE
  5
229
100
AcDbEntity
  8
1
370
    25
  6
CENTER
100
AcDbLine
 10
90.605893
 20
81.443916
 30
0.0
 11
101.605893
 21
81.443916
 31
0.0
  0
LINE
  5
22A
100
AcDbEntity
  8
1
370
    25
  6
CENTER
100
AcDbLine
 10
96.105893
 20
75.943916
 30
0.0
 11
96.105893
 21
86.943916
 31
0.0
  0
LINE
  5
22B
100
AcDbEntity
  8
1
370
    25
  6
CENTER
100
AcDbLine
 10
90.605893
 20
24.443916
 30
0.0
 11
101.605893
 21
24.443916
 31
0.0
  0
ARC
  5
22C
100
AcDbEntity
  8
1
370
    25
100
AcDbCircle
 10
87.505893
 20
66.943916
 30
0.0
 40
2.0
100
AcDbArc
 50
90.0
 51
180.0
  0
ARC
  5
22D
100
AcDbEntity
  8
1
370
    50
100
AcDbCircle
 10
101.805893
 20
66.943916
 30
0.0
 40
2.0
100
AcDbArc
 50
0.0
 51
90.0
  0
ARC
  5
22E
100
AcDbEntity
  8
1
370
    25
100
AcDbCircle
 10
87.505893
 20
38.943916
 30
0.0
 40
2.0
100
AcDbArc
 50
180.0
 51
270.0
  0
ARC
  5
22F
100
AcDbEntity
  8
1
370
    50
100
AcDbCircle
 10
101.805893
 20
38.943916
 30
0.0
 40
2.0
100
AcDbArc
 50
270.0
 51
360.0
  0
LINE
  5
230
100
AcDbEntity
  8
1
370
    50
100
AcDbLine
 10
85.005893
 20
38.943916
 30
0.0
 11
85.005893
 21
66.943916
 31
0.0
  0
ARC
  5
231
100
AcDbEntity
  8
1
370
    50
100
AcDbCircle
 10
87.005893
 20
66.943916
 30
0.0
 40
2.0
100
AcDbArc
 50
90.0
 51
180.0
  0
ARC
  5
232
100
AcDbEntity
  8
1
370
    50
100
AcDbCircle
 10
87.005893
 20
38.943916
 30
0.0
 40
2.0
100
AcDbArc
 50
180.0
 51
270.0
  0
LINE
  5
233
100
AcDbEntity
  8
1
370
    50
100
AcDbLine
 10
108.605893
 20
-21.956084
 30
0.0
 11
79.605893
 21
-21.956084
 31
0.0
  0
LINE
  5
234
100
AcDbEntity
  8
1
370
    50
100
AcDbLine
 10
108.605893
 20
-22.956084
 30
0.0
 11
108.605893
 21
-21.956084
 31
0.0
  0
LINE
  5
235
100
AcDbEntity
  8
1
370
    50
100
AcDbLine
 10
108.605893
 20
-22.956084
 30
0.0
 11
79.405893
 21
-22.956084
 31
0.0
  0
LINE
  5
236
100
AcDbEntity
  8
1
370
    50
100
AcDbLine
 10
79.105893
 20
-24.856084
 30
0.0
 11
78.105893
 21
-24.856084
 31
0.0
  0
LINE
  5
237
100
AcDbEntity
  8
1
370
    50
100
AcDbLine
 10
78.105893
 20
-23.456084
 30
0.0
 11
78.105893
 21
-24.856084
 31
0.0
  0
LINE
  5
238
100
AcDbEntity
  8
1
370
    50
100
AcDbLine
 10
79.105893
 20
-23.256084
 30
0.0
 11
79.105893
 21
-24.856084
 31
0.0
  0
ARC
  5
239
100
AcDbEntity
  8
1
370
    50
100
AcDbCircle
 10
79.605893
 20
-23.456084
 30
0.0
 40
1.5
100
AcDbArc
 50
90.0
 51
180.0
  0
ARC
  5
23A
100
AcDbEntity
  8
1
370
    50
100
AcDbCircle
 10
79.405893
 20
-23.256084
 30
0.0
 40
0.3
100
AcDbArc
 50
90.0
 51
180.0
  0
DIMENSION
  5
23B
100
AcDbEntity
  8
2
370
    25
100
AcDbDimension
  2
*D0
 10
-113.894107
 20
106.93914
 30
0.0
 11
-117.394107
 21
108.93914
 31
0.0
 71
     0
 72
     0
 41
0.0
 42
0.0
  3
Standard
100
AcDbAlignedDimension
 13
-120.894107
 23
67.143916
 33
0.0
 14
-113.894107
 24
89.662589
 34
0.0
100
AcDbRotatedDimension
  0
TEXT
  5
23C
100
AcDbEntity
  8
2
370
    18
100
AcDbText
 10
-156.801451
 20
106.620292
 30
0.0
 40
3.2
  1
（調整量４．６ｍｍ）
 72
     5
 11
-125.441451
 21
106.620292
 31
0.0
100
AcDbText
  0
TEXT
  5
23D
100
AcDbEntity
  8
2
370
    18
100
AcDbText
 10
-116.093053
 20
116.293287
 30
0.0
 40
3.2
  1
調整基準位置
 72
     5
 11
-97.533053
 21
116.293287
 31
0.0
100
AcDbText
  0
LWPOLYLINE
  5
23E
100
AcDbEntity
  8
2
370
    18
100
AcDbPolyline
 90
        3
 70
     0
 10
-120.96247
 20
107.835829
 10
-118.002678
 20
115.793287
 10
-96.611096
 20
115.793287
  0
LINE
  5
243
100
AcDbEntity
  8
2
370
    25
100
AcDbLine
 10
-120.774157
 20
109.826944
 30
0.0
 11
-120.96247
 21
107.835829
 31
0.0
  0
LINE
  5
244
100
AcDbEntity
  8
2
370
    25
100
AcDbLine
 10
-120.96247
 20
107.835829
 30
0.0
 11
-119.803829
 21
109.466028
 31
0.0
  0
DIMENSION
  5
245
100
AcDbEntity
  8
2
370
    25
100
AcDbDimension
  2
*D1
 10
-92.790747
 20
68.943916
 30
0.0
 11
-96.290747
 21
52.943916
 31
0.0
 71
     0
 72
     0
 41
0.0
 42
0.0
  3
Standard
100
AcDbAlignedDimension
 13
-108.194107
 23
36.943916
 33
0.0
 14
-108.194107
 24
68.943916
 34
0.0
 50
90.0
100
AcDbRotatedDimension
  0
DIMENSION
  5
246
100
AcDbEntity
  8
2
370
    25
100
AcDbDimension
  2
*D2
 10
-87.404803
 20
81.443916
 30
0.0
 11
-90.904803
 21
52.943916
 31
0.0
 71
     0
 72
     0
 41
0.0
 42
0.0
  3
Standard
100
AcDbAlignedDimension
 13
-108.394107
 23
24.443916
 33
0.0
 14
-108.394107
 24
81.443916
 34
0.0
 50
90.0
100
AcDbRotatedDimension
  0
DIMENSION
  5
247
100
AcDbEntity
  8
2
370
    25
100
AcDbDimension
  2
*D3
 10
-39.728273
 20
71.593889
 30
0.0
 11
-46.228273
 21
49.943916
 31
0.0
 71
     0
 72
     0
 41
0.0
 42
0.0
  3
Standard
100
AcDbAlignedDimension
 13
-51.794128
 23
34.293943
 33
0.0
 14
-51.794128
 24
71.593889
 34
0.0
 50
90.0
100
AcDbRotatedDimension
  0
DIMENSION
  5
248
100
AcDbEntity
  8
2
370
    25
100
AcDbDimension
  2
*D4
 10
-94.842173
 20
-21.956084
 30
0.0
 11
-99.842173
 21
-16.956084
 31
0.0
 71
     0
 72
     0
 41
0.0
 42
0.0
  3
Standard
100
AcDbAlignedDimension
 13
-101.894107
 23
-24.856084
 33
0.0
 14
-101.394107
 24
-21.956084
 34
0.0
 50
90.0
100
AcDbRotatedDimension
  0
DIMENSION
  5
249
100
AcDbEntity
  8
2
370
    25
100
AcDbDimension
  2
*D5
 10
-88.235785
 20
-21.956084
 30
0.0
 11
-94.735785
 21
-32.256084
 31
0.0
 71
     0
 72
     0
 41
0.0
 42
0.0
  3
Standard
100
AcDbAlignedDimension
 13
-102.894107
 23
-36.556084
 33
0.0
 14
-101.394107
 24
-21.956084
 34
0.0
 50
90.0
100
AcDbRotatedDimension
  0
DIMENSION
  5
24A
100
AcDbEntity
  8
2
370
    25
100
AcDbDimension
  2
*D6
 10
-101.894107
 20
-45.759974
 30
0.0
 11
-113.894107
 21
-43.759974
 31
0.0
 71
     0
 72
     0
 41
0.0
 42
0.0
  3
Standard
100
AcDbAlignedDimension
 13
-125.894107
 23
-35.556084
 33
0.0
 14
-101.894107
 24
-35.556084
 34
0.0
100
AcDbRotatedDimension
  0
DIMENSION
  5
24B
100
AcDbEntity
  8
2
370
    25
100
AcDbDimension
  2
*D7
 10
-101.394107
 20
7.637336
 30
0.0
 11
-107.644107
 21
9.637336
 31
0.0
 71
     0
 72
     0
 41
0.0
 42
0.0
  3
Standard
100
AcDbAlignedDimension
 13
-113.894107
 23
15.653281
 33
0.0
 14
-101.394107
 24
24.043916
 34
0.0
100
AcDbRotatedDimension
  0
DIMENSION
  5
24C
100
AcDbEntity
  8
2
370
    25
100
AcDbDimension
  2
*D8
 10
-107.394107
 20
81.843916
 30
0.0
 11
-97.751683
 21
92.006281
 31
0.0
 70
     4
 71
     0
 72
     0
 41
0.0
 42
0.0
  3
Standard
100
AcDbRadialDimension
 15
-103.111556
 25
86.046267
 35
0.0
 40
4.5
  0
CIRCLE
  5
24D
100
AcDbEntity
  8
2
370
    25
100
AcDbCircle
 10
-77.158026
 20
6.352428
 30
0.0
 40
3.0
  0
CIRCLE
  5
24E
100
AcDbEntity
  8
2
370
    25
100
AcDbCircle
 10
-39.794924
 20
6.352428
 30
0.0
 40
3.0
  0
TEXT
  5
24F
100
AcDbEntity
  8
2
370
    25
100
AcDbText
 10
-41.294924
 20
4.852428
 30
0.0
 40
3.0
  1
３
 72
     5
 11
-38.894924
 21
4.852428
 31
0.0
100
AcDbText
  0
TEXT
  5
250
100
AcDbEntity
  8
2
370
    25
100
AcDbText
 10
-78.658026
 20
4.852428
 30
0.0
 40
3.0
  1
１
 72
     5
 11
-76.258026
 21
4.852428
 31
0.0
100
AcDbText
  0
LWPOLYLINE
  5
251
100
AcDbEntity
  8
2
370
    25
100
AcDbPolyline
 90
        2
 70
     0
 10
-66.394107
 20
21.046575
 10
-75.225757
 20
8.990226
  0
LINE
  5
255
100
AcDbEntity
  8
2
370
    25
100
AcDbLine
 10
-66.223517
 20
21.279453
 30
0.0
 11
-66.626874
 21
21.574924
 31
0.0
  0
LINE
  5
256
100
AcDbEntity
  8
2
370
    25
100
AcDbLine
 10
-66.626874
 20
21.574924
 30
0.0
 11
-66.735288
 21
20.580819
 31
0.0
  0
LINE
  5
257
100
AcDbEntity
  8
2
370
    25
100
AcDbLine
 10
-66.735288
 20
20.580819
 30
0.0
 11
-65.82016
 21
20.983982
 31
0.0
  0
LINE
  5
258
100
AcDbEntity
  8
2
370
    25
100
AcDbLine
 10
-65.82016
 20
20.983982
 30
0.0
 11
-66.223517
 21
21.279453
 31
0.0
  0
LWPOLYLINE
  5
259
100
AcDbEntity
  8
2
370
    25
100
AcDbPolyline
 90
        2
 70
     0
 10
-55.508213
 20
24.453984
 10
-41.771269
 20
8.692337
  0
LINE
  5
25D
100
AcDbEntity
  8
2
370
    25
100
AcDbLine
 10
-55.69788
 20
24.671607
 30
0.0
 11
-56.074814
 21
24.343093
 31
0.0
  0
LINE
  5
25E
100
AcDbEntity
  8
2
370
    25
100
AcDbLine
 10
-56.074814
 20
24.343093
 30
0.0
 11
-55.128878
 21
24.018739
 31
0.0
  0
LINE
  5
25F
100
AcDbEntity
  8
2
370
    25
100
AcDbLine
 10
-55.128878
 20
24.018739
 30
0.0
 11
-55.320947
 21
25.000121
 31
0.0
  0
LINE
  5
260
100
AcDbEntity
  8
2
370
    25
100
AcDbLine
 10
-55.320947
 20
25.000121
 30
0.0
 11
-55.69788
 21
24.671607
 31
0.0
  0
TEXT
  5
261
100
AcDbEntity
  8
2
370
    18
100
AcDbText
 10
-136.194107
 20
100.951724
 30
0.0
 40
3.0
  1
+2.3
 41
2.0
 72
     5
 11
-125.394107
 21
100.951724
 31
0.0
100
AcDbText
  0
DIMENSION
  5
262
100
AcDbEntity
  8
2
370
    25
100
AcDbDimension
  2
*D9
 10
-120.894107
 20
100.451724
 30
0.0
 11
-122.044107
 21
102.451724
 31
0.0
 71
     0
 72
     0
 41
0.0
 42
0.0
  3
Standard
100
AcDbAlignedDimension
 13
-123.194107
 23
68.943916
 33
0.0
 14
-120.894107
 24
67.143916
 34
0.0
100
AcDbRotatedDimension
  0
TEXT
  5
263
100
AcDbEntity
  8
2
370
    18
100
AcDbText
 10
-114.594107
 20
100.951724
 30
0.0
 40
3.0
  1
-2.3
 41
2.0
 72
     5
 11
-103.794107
 21
100.951724
 31
0.0
100
AcDbText
  0
DIMENSION
  5
264
100
AcDbEntity
  8
2
370
    25
100
AcDbDimension
  2
*D10
 10
-118.594107
 20
100.451724
 30
0.0
 11
-119.744107
 21
102.451724
 31
0.0
 71
     0
 72
     0
 41
0.0
 42
0.0
  3
Standard
100
AcDbAlignedDimension
 13
-120.894107
 23
67.143916
 33
0.0
 14
-118.594107
 24
68.943916
 34
0.0
100
AcDbRotatedDimension
  0
DIMENSION
  5
265
100
AcDbEntity
  8
2
370
    25
100
AcDbDimension
  2
*D11
 10
-135.452122
 20
-21.956084
 30
0.0
 11
-140.452122
 21
-16.956084
 31
0.0
 71
     0
 72
     0
 41
0.0
 42
0.0
  3
Standard
100
AcDbAlignedDimension
 13
-130.394107
 23
-24.856084
 33
0.0
 14
-128.894107
 24
-21.956084
 34
0.0
 50
90.0
100
AcDbRotatedDimension
  0
DIMENSION
  5
266
100
AcDbEntity
  8
2
370
    25
100
AcDbDimension
  2
*D12
 10
-141.169617
 20
87.843916
 30
0.0
 11
-144.669617
 21
52.943916
 31
0.0
 71
     0
 72
     0
 41
0.0
 42
0.0
  3
Standard
100
AcDbAlignedDimension
 13
-130.394107
 23
18.043916
 33
0.0
 14
-130.394107
 24
87.843916
 34
0.0
 50
90.0
100
AcDbRotatedDimension
  0
DIMENSION
  5
267
100
AcDbEntity
  8
2
370
    25
100
AcDbDimension
  2
*D13
 10
96.105893
 20
106.93914
 30
0.0
 11
92.605893
 21
108.93914
 31
0.0
 71
     0
 72
     0
 41
0.0
 42
0.0
  3
Standard
100
AcDbAlignedDimension
 13
89.105893
 23
67.143916
 33
0.0
 14
96.105893
 24
89.662589
 34
0.0
100
AcDbRotatedDimension
  0
TEXT
  5
268
100
AcDbEntity
  8
2
370
    18
100
AcDbText
 10
53.198549
 20
106.620292
 30
0.0
 40
3.2
  1
（調整量４．６ｍｍ）
 72
     5
 11
84.558549
 21
106.620292
 31
0.0
100
AcDbText
  0
TEXT
  5
269
100
AcDbEntity
  8
2
370
    18
100
AcDbText
 10
93.906947
 20
116.293287
 30
0.0
 40
3.2
  1
調整基準位置
 72
     5
 11
112.466947
 21
116.293287
 31
0.0
100
AcDbText
  0
LWPOLYLINE
  5
26A
100
AcDbEntity
  8
2
370
    18
100
AcDbPolyline
 90
        3
 70
     0
 10
89.03753
 20
107.835829
 10
91.997322
 20
115.793287
 10
113.388904
 20
115.793287
  0
LINE
  5
26F
100
AcDbEntity
  8
2
370
    25
100
AcDbLine
 10
89.225843
 20
109.826944
 30
0.0
 11
89.03753
 21
107.835829
 31
0.0
  0
LINE
  5
270
100
AcDbEntity
  8
2
370
    25
100
AcDbLine
 10
89.03753
 20
107.835829
 30
0.0
 11
90.196171
 21
109.466028
 31
0.0
  0
DIMENSION
  5
271
100
AcDbEntity
  8
2
370
    25
100
AcDbDimension
  2
*D14
 10
117.209253
 20
68.943916
 30
0.0
 11
113.709253
 21
52.943916
 31
0.0
 71
     0
 72
     0
 41
0.0
 42
0.0
  3
Standard
100
AcDbAlignedDimension
 13
101.805893
 23
36.943916
 33
0.0
 14
101.805893
 24
68.943916
 34
0.0
 50
90.0
100
AcDbRotatedDimension
  0
DIMENSION
  5
272
100
AcDbEntity
  8
2
370
    25
100
AcDbDimension
  2
*D15
 10
122.595197
 20
81.443916
 30
0.0
 11
119.095197
 21
52.943916
 31
0.0
 71
     0
 72
     0
 41
0.0
 42
0.0
  3
Standard
100
AcDbAlignedDimension
 13
101.605893
 23
24.443916
 33
0.0
 14
101.605893
 24
81.443916
 34
0.0
 50
90.0
100
AcDbRotatedDimension
  0
DIMENSION
  5
273
100
AcDbEntity
  8
2
370
    25
100
AcDbDimension
  2
*D16
 10
170.271727
 20
71.593889
 30
0.0
 11
163.771727
 21
49.943916
 31
0.0
 71
     0
 72
     0
 41
0.0
 42
0.0
  3
Standard
100
AcDbAlignedDimension
 13
158.205872
 23
34.293943
 33
0.0
 14
158.205872
 24
71.593889
 34
0.0
 50
90.0
100
AcDbRotatedDimension
  0
DIMENSION
  5
274
100
AcDbEntity
  8
2
370
    25
100
AcDbDimension
  2
*D17
 10
115.157827
 20
-21.956084
 30
0.0
 11
110.157827
 21
-16.956084
 31
0.0
 71
     0
 72
     0
 41
0.0
 42
0.0
  3
Standard
100
AcDbAlignedDimension
 13
108.105893
 23
-24.856084
 33
0.0
 14
108.605893
 24
-21.956084
 34
0.0
 50
90.0
100
AcDbRotatedDimension
  0
DIMENSION
  5
275
100
AcDbEntity
  8
2
370
    25
100
AcDbDimension
  2
*D18
 10
121.764215
 20
-21.956084
 30
0.0
 11
115.264215
 21
-32.256084
 31
0.0
 71
     0
 72
     0
 41
0.0
 42
0.0
  3
Standard
100
AcDbAlignedDimension
 13
107.105893
 23
-36.556084
 33
0.0
 14
108.605893
 24
-21.956084
 34
0.0
 50
90.0
100
AcDbRotatedDimension
  0
DIMENSION
  5
276
100
AcDbEntity
  8
2
370
    25
100
AcDbDimension
  2
*D19
 10
108.105893
 20
-45.759974
 30
0.0
 11
96.105893
 21
-43.759974
 31
0.0
 71
     0
 72
     0
 41
0.0
 42
0.0
  3
Standard
100
AcDbAlignedDimension
 13
84.105893
 23
-35.556084
 33
0.0
 14
108.105893
 24
-35.556084
 34
0.0
100
AcDbRotatedDimension
  0
DIMENSION
  5
277
100
AcDbEntity
  8
2
370
    25
100
AcDbDimension
  2
*D20
 10
108.605893
 20
7.637336
 30
0.0
 11
102.355893
 21
9.637336
 31
0.0
 71
     0
 72
     0
 41
0.0
 42
0.0
  3
Standard
100
AcDbAlignedDimension
 13
96.105893
 23
15.653281
 33
0.0
 14
108.605893
 24
24.043916
 34
0.0
100
AcDbRotatedDimension
  0
DIMENSION
  5
278
100
AcDbEntity
  8
2
370
    25
100
AcDbDimension
  2
*D21
 10
102.605893
 20
81.843916
 30
0.0
 11
112.248317
 21
92.006281
 31
0.0
 70
     4
 71
     0
 72
     0
 41
0.0
 42
0.0
  3
Standard
100
AcDbRadialDimension
 15
106.888444
 25
86.046267
 35
0.0
 40
4.5
  0
CIRCLE
  5
279
100
AcDbEntity
  8
2
370
    25
100
AcDbCircle
 10
132.841974
 20
6.352428
 30
0.0
 40
3.0
  0
CIRCLE
  5
27A
100
AcDbEntity
  8
2
370
    25
100
AcDbCircle
 10
170.205076
 20
6.352428
 30
0.0
 40
3.0
  0
TEXT
  5
27B
100
AcDbEntity
  8
2
370
    25
100
AcDbText
 10
168.705076
 20
4.852428
 30
0.0
 40
3.0
  1
３
 72
     5
 11
171.105076
 21
4.852428
 31
0.0
100
AcDbText
  0
TEXT
  5
27C
100
AcDbEntity
  8
2
370
    25
100
AcDbText
 10
131.341974
 20
4.852428
 30
0.0
 40
3.0
  1
１
 72
     5
 11
133.741974
 21
4.852428
 31
0.0
100
AcDbText
  0
LWPOLYLINE
  5
27D
100
AcDbEntity
  8
2
370
    25
100
AcDbPolyline
 90
        2
 70
     0
 10
143.605893
 20
21.046575
 10
134.774243
 20
8.990226
  0
LINE
  5
281
100
AcDbEntity
  8
2
370
    25
100
AcDbLine
 10
143.776483
 20
21.279453
 30
0.0
 11
143.373126
 21
21.574924
 31
0.0
  0
LINE
  5
282
100
AcDbEntity
  8
2
370
    25
100
AcDbLine
 10
143.373126
 20
21.574924
 30
0.0
 11
143.264712
 21
20.580819
 31
0.0
  0
LINE
  5
283
100
AcDbEntity
  8
2
370
    25
100
AcDbLine
 10
143.264712
 20
20.580819
 30
0.0
 11
144.17984
 21
20.983982
 31
0.0
  0
LINE
  5
284
100
AcDbEntity
  8
2
370
    25
100
AcDbLine
 10
144.17984
 20
20.983982
 30
0.0
 11
143.776483
 21
21.279453
 31
0.0
  0
LWPOLYLINE
  5
285
100
AcDbEntity
  8
2
370
    25
100
AcDbPolyline
 90
        2
 70
     0
 10
154.491787
 20
24.453984
 10
168.228731
 20
8.692337
  0
LINE
  5
289
100
AcDbEntity
  8
2
370
    25
100
AcDbLine
 10
154.30212
 20
24.671607
 30
0.0
 11
153.925186
 21
24.343093
 31
0.0
  0
LINE
  5
28A
100
AcDbEntity
  8
2
370
    25
100
AcDbLine
 10
153.925186
 20
24.343093
 30
0.0
 11
154.871122
 21
24.018739
 31
0.0
  0
LINE
  5
28B
100
AcDbEntity
  8
2
370
    25
100
AcDbLine
 10
154.871122
 20
24.018739
 30
0.0
 11
154.679053
 21
25.000121
 31
0.0
  0
LINE
  5
28C
100
AcDbEntity
  8
2
370
    25
100
AcDbLine
 10
154.679053
 20
25.000121
 30
0.0
 11
154.30212
 21
24.671607
 31
0.0
  0
TEXT
  5
28D
100
AcDbEntity
  8
2
370
    18
100
AcDbText
 10
73.805893
 20
100.951724
 30
0.0
 40
3.0
  1
+2.3
 41
2.0
 72
     5
 11
84.605893
 21
100.951724
 31
0.0
100
AcDbText
  0
DIMENSION
  5
28E
100
AcDbEntity
  8
2
370
    25
100
AcDbDimension
  2
*D22
 10
89.105893
 20
100.451724
 30
0.0
 11
87.955893
 21
102.451724
 31
0.0
 71
     0
 72
     0
 41
0.0
 42
0.0
  3
Standard
100
AcDbAlignedDimension
 13
86.805893
 23
68.943916
 33
0.0
 14
89.105893
 24
67.143916
 34
0.0
100
AcDbRotatedDimension
  0
TEXT
  5
28F
100
AcDbEntity
  8
2
370
    18
100
AcDbText
 10
95.405893
 20
100.951724
 30
0.0
 40
3.0
  1
-2.3
 41
2.0
 72
     5
 11
106.205893
 21
100.951724
 31
0.0
100
AcDbText
  0
DIMENSION
  5
290
100
AcDbEntity
  8
2
370
    25
100
AcDbDimension
  2
*D23
 10
91.405893
 20
100.451724
 30
0.0
 11
90.255893
 21
102.451724
 31
0.0
 71
     0
 72
     0
 41
0.0
 42
0.0
  3
Standard
100
AcDbAlignedDimension
 13
89.105893
 23
67.143916
 33
0.0
 14
91.405893
 24
68.943916
 34
0.0
100
AcDbRotatedDimension
  0
DIMENSION
  5
291
100
AcDbEntity
  8
2
370
    25
100
AcDbDimension
  2
*D24
 10
96.105893
 20
7.637336
 30
0.0
 11
87.105893
 21
9.637336
 31
0.0
 71
     0
 72
     0
 41
0.0
 42
0.0
  3
Standard
100
AcDbAlignedDimension
 13
78.105893
 23
18.043916
 33
0.0
 14
96.105893
 24
16.167064
 34
0.0
100
AcDbRotatedDimension
  0
DIMENSION
  5
292
100
AcDbEntity
  8
2
370
    25
100
AcDbDimension
  2
*D25
 10
108.605893
 20
0.820255
 30
0.0
 11
93.355893
 21
2.820255
 31
0.0
 71
     0
 72
     0
 41
0.0
 42
0.0
  3
Standard
100
AcDbAlignedDimension
 13
78.105893
 23
18.043916
 33
0.0
 14
108.605893
 24
24.043916
 34
0.0
100
AcDbRotatedDimension
  0
DIMENSION
  5
293
100
AcDbEntity
  8
2
370
    25
100
AcDbDimension
  2
*D26
 10
73.047878
 20
-21.956084
 30
0.0
 11
68.047878
 21
-16.956084
 31
0.0
 71
     0
 72
     0
 41
0.0
 42
0.0
  3
Standard
100
AcDbAlignedDimension
 13
78.105893
 23
-24.856084
 33
0.0
 14
79.605893
 24
-21.956084
 34
0.0
 50
90.0
100
AcDbRotatedDimension
  0
DIMENSION
  5
294
100
AcDbEntity
  8
2
370
    25
100
AcDbDimension
  2
*D27
 10
67.330383
 20
87.843916
 30
0.0
 11
63.830383
 21
52.943916
 31
0.0
 71
     0
 72
     0
 41
0.0
 42
0.0
  3
Standard
100
AcDbAlignedDimension
 13
78.105893
 23
18.043916
 33
0.0
 14
78.105893
 24
87.843916
 34
0.0
 50
90.0
100
AcDbRotatedDimension
  0
DIMENSION
  5
295
100
AcDbEntity
  8
2
370
    25
100
AcDbDimension
  2
*D28
 10
-113.894107
 20
7.637336
 30
0.0
 11
-122.144107
 21
9.637336
 31
0.0
 71
     0
 72
     0
 41
0.0
 42
0.0
  3
Standard
100
AcDbAlignedDimension
 13
-130.394107
 23
18.043916
 33
0.0
 14
-113.894107
 24
16.167064
 34
0.0
100
AcDbRotatedDimension
  0
DIMENSION
  5
296
100
AcDbEntity
  8
2
370
    25
100
AcDbDimension
  2
*D29
 10
-101.394107
 20
0.820255
 30
0.0
 11
-115.894107
 21
2.820255
 31
0.0
 71
     0
 72
     0
 41
0.0
 42
0.0
  3
Standard
100
AcDbAlignedDimension
 13
-130.394107
 23
18.043916
 33
0.0
 14
-101.394107
 24
24.043916
 34
0.0
100
AcDbRotatedDimension
  0
LINE
  5
297
100
AcDbEntity
  8
3
370
   100
100
AcDbLine
 10
-187.5
 20
138.0
 30
0.0
 11
-187.5
 21
-138.0
 31
0.0
  0
LINE
  5
298
100
AcDbEntity
  8
3
370
   100
100
AcDbLine
 10
-9.5
 20
-138.0
 30
0.0
 11
-9.5
 21
138.0
 31
0.0
  0
LINE
  5
299
100
AcDbEntity
  8
3
370
   100
100
AcDbLine
 10
-187.5
 20
-138.0
 30
0.0
 11
-9.5
 21
-138.0
 31
0.0
  0
LINE
  5
29A
100
AcDbEntity
  8
3
370
   100
100
AcDbLine
 10
-9.5
 20
138.0
 30
0.0
 11
-187.5
 21
138.0
 31
0.0
  0
LINE
  5
29B
100
AcDbEntity
  8
3
370
   100
100
AcDbLine
 10
-187.5
 20
138.3
 30
0.0
 11
-9.2
 21
138.3
 31
0.0
  0
LINE
  5
29C
100
AcDbEntity
  8
3
370
   100
100
AcDbLine
 10
-9.2
 20
138.3
 30
0.0
 11
-9.2
 21
-138.3
 31
0.0
  0
LINE
  5
29D
100
AcDbEntity
  8
3
370
   100
100
AcDbLine
 10
-9.2
 20
-138.3
 30
0.0
 11
-187.8
 21
-138.3
 31
0.0
  0
LINE
  5
29E
100
AcDbEntity
  8
3
370
   100
100
AcDbLine
 10
-187.8
 20
-138.3
 30
0.0
 11
-187.8
 21
138.0
 31
0.0
  0
LINE
  5
29F
100
AcDbEntity
  8
3
370
    50
100
AcDbLine
 10
-187.5
 20
-108.0
 30
0.0
 11
-9.5
 21
-108.0
 31
0.0
  0
LINE
  5
2A0
100
AcDbEntity
  8
3
370
    50
100
AcDbLine
 10
-119.5
 20
-101.5
 30
0.0
 11
-9.5
 21
-101.5
 31
0.0
  0
LINE
  5
2A1
100
AcDbEntity
  8
3
370
    50
100
AcDbLine
 10
-109.5
 20
-108.0
 30
0.0
 11
-109.5
 21
-138.0
 31
0.0
  0
LINE
  5
2A2
100
AcDbEntity
  8
3
370
    50
100
AcDbLine
 10
-109.5
 20
-88.5
 30
0.0
 11
-109.5
 21
-108.0
 31
0.0
  0
LINE
  5
2A3
100
AcDbEntity
  8
3
370
    50
100
AcDbLine
 10
-49.5
 20
-88.5
 30
0.0
 11
-49.5
 21
-108.0
 31
0.0
  0
TEXT
  5
2A4
100
AcDbEntity
  8
3
370
    25
100
AcDbText
 10
-118.5
 20
-106.75
 30
0.0
 40
4.0
  1
品番
 72
     5
 11
-111.3
 21
-106.75
 31
0.0
100
AcDbText
  0
TEXT
  5
2A5
100
AcDbEntity
  8
3
370
    25
100
AcDbText
 10
-94.5
 20
-106.75
 30
0.0
 40
4.0
  1
品     名
 72
     5
 11
-67.3
 21
-106.75
 31
0.0
100
AcDbText
  0
TEXT
  5
2A6
100
AcDbEntity
  8
3
370
    25
100
AcDbText
 10
-18.5
 20
-106.75
 30
0.0
 40
4.0
  1
員数
 72
     5
 11
-11.3
 21
-106.75
 31
0.0
100
AcDbText
  0
TEXT
  5
2A7
100
AcDbEntity
  8
3
370
    25
100
AcDbText
 10
-182.5
 20
-112.5
 30
0.0
 40
4.0
  1
図  法
 72
     5
 11
-167.3
 21
-112.5
 31
0.0
100
AcDbText
  0
TEXT
  5
2A8
100
AcDbEntity
  8
3
370
    25
100
AcDbText
 10
-156.5
 20
-112.5
 30
0.0
 40
4.0
  1
単  位
 72
     5
 11
-141.3
 21
-112.5
 31
0.0
100
AcDbText
  0
TEXT
  5
2A9
100
AcDbEntity
  8
3
370
    25
100
AcDbText
 10
-130.5
 20
-112.5
 30
0.0
 40
4.0
  1
尺  度
 72
     5
 11
-115.3
 21
-112.5
 31
0.0
100
AcDbText
  0
TEXT
  5
2AA
100
AcDbEntity
  8
3
370
   100
100
AcDbText
 10
-176.5
 20
-135.5
 30
0.0
 40
8.0
  1
（株）川口技研
 72
     5
 11
-122.1
 21
-135.5
 31
0.0
100
AcDbText
  0
TEXT
  5
2AB
100
AcDbEntity
  8
3
370
    25
100
AcDbText
 10
-107.5
 20
-112.5
 30
0.0
 40
4.0
  1
図面名称
 72
     5
 11
-92.3
 21
-112.5
 31
0.0
100
AcDbText
  0
TEXT
  5
2AC
100
AcDbEntity
  8
3
370
    25
100
AcDbText
 10
-107.5
 20
-129.5
 30
0.0
 40
4.0
  1
図面番号
 72
     5
 11
-92.3
 21
-129.5
 31
0.0
100
AcDbText
  0
LINE
  5
2AD
100
AcDbEntity
  8
3
370
    25
100
AcDbLine
 10
-187.5
 20
-113.0
 30
0.0
 11
-89.5
 21
-113.0
 31
0.0
  0
LINE
  5
2AE
100
AcDbEntity
  8
3
370
    25
100
AcDbLine
 10
-89.5
 20
-108.0
 30
0.0
 11
-89.5
 21
-113.0
 31
0.0
  0
LINE
  5
2AF
100
AcDbEntity
  8
3
370
    25
100
AcDbLine
 10
-109.5
 20
-130.0
 30
0.0
 11
-89.5
 21
-130.0
 31
0.0
  0
LINE
  5
2B0
100
AcDbEntity
  8
3
370
    25
100
AcDbLine
 10
-89.5
 20
-125.0
 30
0.0
 11
-89.5
 21
-130.0
 31
0.0
  0
TEXT
  5
2B1
100
AcDbEntity
  8
3
370
    25
100
AcDbText
 10
-153.5
 20
-121.5
 30
0.0
 40
5.0
  1
ｍｍ
 72
     5
 11
-144.5
 21
-121.5
 31
0.0
100
AcDbText
  0
TEXT
  5
2B2
100
AcDbEntity
  8
3
370
    25
100
AcDbText
 10
-128.5
 20
-121.5
 30
0.0
 40
4.0
  1
１／１
 72
     5
 11
-117.3
 21
-121.5
 31
0.0
100
AcDbText
  0
LINE
  5
2B3
100
AcDbEntity
  8
3
370
    50
100
AcDbLine
 10
-119.5
 20
-95.0
 30
0.0
 11
-9.5
 21
-95.0
 31
0.0
  0
LINE
  5
2B4
100
AcDbEntity
  8
3
370
    50
100
AcDbLine
 10
-119.5
 20
-88.5
 30
0.0
 11
-9.5
 21
-88.5
 31
0.0
  0
TEXT
  5
2B5
100
AcDbEntity
  8
3
370
    25
100
AcDbText
 10
-116.5
 20
-100.25
 30
0.0
 40
4.0
  1
１
 72
     5
 11
-113.3
 21
-100.25
 31
0.0
100
AcDbText
  0
TEXT
  5
2B6
100
AcDbEntity
  8
3
370
    25
100
AcDbText
 10
-116.5
 20
-93.75
 30
0.0
 40
4.0
  1
２
 72
     5
 11
-113.3
 21
-93.75
 31
0.0
100
AcDbText
  0
TEXT
  5
2B7
100
AcDbEntity
  8
3
370
    25
100
AcDbText
 10
-107.5
 20
-93.75
 30
0.0
 40
3.5
  1
ストライク取付木ネジ
 72
     5
 11
-73.2
 21
-93.75
 31
0.0
100
AcDbText
  0
TEXT
  5
2B8
100
AcDbEntity
  8
3
370
    25
100
AcDbText
 10
-16.5
 20
-100.25
 30
0.0
 40
4.0
  1
１
 72
     5
 11
-13.3
 21
-100.25
 31
0.0
100
AcDbText
  0
TEXT
  5
2B9
100
AcDbEntity
  8
3
370
    25
100
AcDbText
 10
-16.5
 20
-93.75
 30
0.0
 40
4.0
  1
２
 72
     5
 11
-13.3
 21
-93.75
 31
0.0
100
AcDbText
  0
TEXT
  5
2BA
100
AcDbEntity
  8
3
370
    25
100
AcDbText
 10
-180.5
 20
-121.5
 30
0.0
 40
4.0
  1
３角法
 72
     5
 11
-169.3
 21
-121.5
 31
0.0
100
AcDbText
  0
LINE
  5
2BB
100
AcDbEntity
  8
3
370
    50
100
AcDbLine
 10
-19.5
 20
-88.5
 30
0.0
 11
-19.5
 21
-108.0
 31
0.0
  0
LINE
  5
2BC
100
AcDbEntity
  8
3
370
    50
100
AcDbLine
 10
-119.5
 20
-88.5
 30
0.0
 11
-119.5
 21
-108.0
 31
0.0
  0
LINE
  5
2BD
100
AcDbEntity
  8
3
370
    50
100
AcDbLine
 10
-187.5
 20
-125.0
 30
0.0
 11
-109.5
 21
-125.0
 31
0.0
  0
LINE
  5
2BE
100
AcDbEntity
  8
3
370
    50
100
AcDbLine
 10
-109.5
 20
-125.0
 30
0.0
 11
-9.5
 21
-125.0
 31
0.0
  0
LINE
  5
2BF
100
AcDbEntity
  8
3
370
    50
100
AcDbLine
 10
-161.5
 20
-125.0
 30
0.0
 11
-161.5
 21
-108.0
 31
0.0
  0
LINE
  5
2C0
100
AcDbEntity
  8
3
370
    50
100
AcDbLine
 10
-135.5
 20
-125.0
 30
0.0
 11
-135.5
 21
-108.0
 31
0.0
  0
TEXT
  5
2C1
100
AcDbEntity
  8
3
370
    25
100
AcDbText
 10
-40.5
 20
-106.75
 30
0.0
 40
4.0
  1
寸　法
 72
     5
 11
-29.3
 21
-106.75
 31
0.0
100
AcDbText
  0
LINE
  5
2C2
100
AcDbEntity
  8
3
370
   100
100
AcDbLine
 10
22.5
 20
138.0
 30
0.0
 11
22.5
 21
-138.0
 31
0.0
  0
LINE
  5
2C3
100
AcDbEntity
  8
3
370
   100
100
AcDbLine
 10
200.5
 20
-138.0
 30
0.0
 11
200.5
 21
138.0
 31
0.0
  0
LINE
  5
2C4
100
AcDbEntity
  8
3
370
   100
100
AcDbLine
 10
22.5
 20
-138.0
 30
0.0
 11
200.5
 21
-138.0
 31
0.0
  0
LINE
  5
2C5
100
AcDbEntity
  8
3
370
   100
100
AcDbLine
 10
200.5
 20
138.0
 30
0.0
 11
22.5
 21
138.0
 31
0.0
  0
LINE
  5
2C6
100
AcDbEntity
  8
3
370
   100
100
AcDbLine
 10
22.5
 20
138.3
 30
0.0
 11
200.8
 21
138.3
 31
0.0
  0
LINE
  5
2C7
100
AcDbEntity
  8
3
370
   100
100
AcDbLine
 10
200.8
 20
138.3
 30
0.0
 11
200.8
 21
-138.3
 31
0.0
  0
LINE
  5
2C8
100
AcDbEntity
  8
3
370
   100
100
AcDbLine
 10
200.8
 20
-138.3
 30
0.0
 11
22.2
 21
-138.3
 31
0.0
  0
LINE
  5
2C9
100
AcDbEntity
  8
3
370
   100
100
AcDbLine
 10
22.2
 20
-138.3
 30
0.0
 11
22.2
 21
138.0
 31
0.0
  0
LINE
  5
2CA
100
AcDbEntity
  8
3
370
    50
100
AcDbLine
 10
22.5
 20
-108.0
 30
0.0
 11
200.5
 21
-108.0
 31
0.0
  0
LINE
  5
2CB
100
AcDbEntity
  8
3
370
    50
100
AcDbLine
 10
90.5
 20
-101.5
 30
0.0
 11
200.5
 21
-101.5
 31
0.0
  0
LINE
  5
2CC
100
AcDbEntity
  8
3
370
    50
100
AcDbLine
 10
100.5
 20
-108.0
 30
0.0
 11
100.5
 21
-138.0
 31
0.0
  0
LINE
  5
2CD
100
AcDbEntity
  8
3
370
    50
100
AcDbLine
 10
100.5
 20
-88.5
 30
0.0
 11
100.5
 21
-108.0
 31
0.0
  0
LINE
  5
2CE
100
AcDbEntity
  8
3
370
    50
100
AcDbLine
 10
160.5
 20
-88.5
 30
0.0
 11
160.5
 21
-108.0
 31
0.0
  0
TEXT
  5
2CF
100
AcDbEntity
  8
3
370
    25
100
AcDbText
 10
91.5
 20
-106.75
 30
0.0
 40
4.0
  1
品番
 72
     5
 11
98.7
 21
-106.75
 31
0.0
100
AcDbText
  0
TEXT
  5
2D0
100
AcDbEntity
  8
3
370
    25
100
AcDbText
 10
115.5
 20
-106.75
 30
0.0
 40
4.0
  1
品     名
 72
     5
 11
142.7
 21
-106.75
 31
0.0
100
AcDbText
  0
TEXT
  5
2D1
100
AcDbEntity
  8
3
370
    25
100
AcDbText
 10
191.5
 20
-106.75
 30
0.0
 40
4.0
  1
員数
 72
     5
 11
198.7
 21
-106.75
 31
0.0
100
AcDbText
  0
TEXT
  5
2D2
100
AcDbEntity
  8
3
370
    25
100
AcDbText
 10
27.5
 20
-112.5
 30
0.0
 40
4.0
  1
図  法
 72
     5
 11
42.7
 21
-112.5
 31
0.0
100
AcDbText
  0
TEXT
  5
2D3
100
AcDbEntity
  8
3
370
    25
100
AcDbText
 10
53.5
 20
-112.5
 30
0.0
 40
4.0
  1
単  位
 72
     5
 11
68.7
 21
-112.5
 31
0.0
100
AcDbText
  0
TEXT
  5
2D4
100
AcDbEntity
  8
3
370
    25
100
AcDbText
 10
79.5
 20
-112.5
 30
0.0
 40
4.0
  1
尺  度
 72
     5
 11
94.7
 21
-112.5
 31
0.0
100
AcDbText
  0
TEXT
  5
2D5
100
AcDbEntity
  8
3
370
   100
100
AcDbText
 10
33.5
 20
-135.5
 30
0.0
 40
8.0
  1
（株）川口技研
 72
     5
 11
87.9
 21
-135.5
 31
0.0
100
AcDbText
  0
TEXT
  5
2D6
100
AcDbEntity
  8
3
370
    25
100
AcDbText
 10
102.5
 20
-112.5
 30
0.0
 40
4.0
  1
図面名称
 72
     5
 11
117.7
 21
-112.5
 31
0.0
100
AcDbText
  0
TEXT
  5
2D7
100
AcDbEntity
  8
3
370
    25
100
AcDbText
 10
102.5
 20
-129.5
 30
0.0
 40
4.0
  1
図面番号
 72
     5
 11
117.7
 21
-129.5
 31
0.0
100
AcDbText
  0
LINE
  5
2D8
100
AcDbEntity
  8
3
370
    25
100
AcDbLine
 10
22.5
 20
-113.0
 30
0.0
 11
120.5
 21
-113.0
 31
0.0
  0
LINE
  5
2D9
100
AcDbEntity
  8
3
370
    25
100
AcDbLine
 10
120.5
 20
-108.0
 30
0.0
 11
120.5
 21
-113.0
 31
0.0
  0
LINE
  5
2DA
100
AcDbEntity
  8
3
370
    25
100
AcDbLine
 10
100.5
 20
-130.0
 30
0.0
 11
120.5
 21
-130.0
 31
0.0
  0
LINE
  5
2DB
100
AcDbEntity
  8
3
370
    25
100
AcDbLine
 10
120.5
 20
-125.0
 30
0.0
 11
120.5
 21
-130.0
 31
0.0
  0
TEXT
  5
2DC
100
AcDbEntity
  8
3
370
    25
100
AcDbText
 10
56.5
 20
-121.5
 30
0.0
 40
5.0
  1
ｍｍ
 72
     5
 11
65.5
 21
-121.5
 31
0.0
100
AcDbText
  0
TEXT
  5
2DD
100
AcDbEntity
  8
3
370
    25
100
AcDbText
 10
81.5
 20
-121.5
 30
0.0
 40
4.0
  1
１／１
 72
     5
 11
92.7
 21
-121.5
 31
0.0
100
AcDbText
  0
LINE
  5
2DE
100
AcDbEntity
  8
3
370
    50
100
AcDbLine
 10
90.5
 20
-95.0
 30
0.0
 11
200.5
 21
-95.0
 31
0.0
  0
LINE
  5
2DF
100
AcDbEntity
  8
3
370
    50
100
AcDbLine
 10
90.5
 20
-88.5
 30
0.0
 11
200.5
 21
-88.5
 31
0.0
  0
TEXT
  5
2E0
100
AcDbEntity
  8
3
370
    25
100
AcDbText
 10
93.5
 20
-100.25
 30
0.0
 40
4.0
  1
１
 72
     5
 11
96.7
 21
-100.25
 31
0.0
100
AcDbText
  0
TEXT
  5
2E1
100
AcDbEntity
  8
3
370
    25
100
AcDbText
 10
93.5
 20
-93.75
 30
0.0
 40
4.0
  1
２
 72
     5
 11
96.7
 21
-93.75
 31
0.0
100
AcDbText
  0
TEXT
  5
2E2
100
AcDbEntity
  8
3
370
    25
100
AcDbText
 10
102.5
 20
-93.75
 30
0.0
 40
3.5
  1
ストライク取付木ネジ
 72
     5
 11
136.8
 21
-93.75
 31
0.0
100
AcDbText
  0
TEXT
  5
2E3
100
AcDbEntity
  8
3
370
    25
100
AcDbText
 10
193.5
 20
-100.25
 30
0.0
 40
4.0
  1
１
 72
     5
 11
196.7
 21
-100.25
 31
0.0
100
AcDbText
  0
TEXT
  5
2E4
100
AcDbEntity
  8
3
370
    25
100
AcDbText
 10
193.5
 20
-93.75
 30
0.0
 40
4.0
  1
２
 72
     5
 11
196.7
 21
-93.75
 31
0.0
100
AcDbText
  0
TEXT
  5
2E5
100
AcDbEntity
  8
3
370
    25
100
AcDbText
 10
29.5
 20
-121.5
 30
0.0
 40
4.0
  1
３角法
 72
     5
 11
40.7
 21
-121.5
 31
0.0
100
AcDbText
  0
LINE
  5
2E6
100
AcDbEntity
  8
3
370
    50
100
AcDbLine
 10
190.5
 20
-88.5
 30
0.0
 11
190.5
 21
-108.0
 31
0.0
  0
LINE
  5
2E7
100
AcDbEntity
  8
3
370
    50
100
AcDbLine
 10
90.5
 20
-88.5
 30
0.0
 11
90.5
 21
-108.0
 31
0.0
  0
LINE
  5
2E8
100
AcDbEntity
  8
3
370
    50
100
AcDbLine
 10
22.5
 20
-125.0
 30
0.0
 11
100.5
 21
-125.0
 31
0.0
  0
LINE
  5
2E9
100
AcDbEntity
  8
3
370
    50
100
AcDbLine
 10
100.5
 20
-125.0
 30
0.0
 11
200.5
 21
-125.0
 31
0.0
  0
LINE
  5
2EA
100
AcDbEntity
  8
3
370
    50
100
AcDbLine
 10
48.5
 20
-125.0
 30
0.0
 11
48.5
 21
-108.0
 31
0.0
  0
LINE
  5
2EB
100
AcDbEntity
  8
3
370
    50
100
AcDbLine
 10
74.5
 20
-125.0
 30
0.0
 11
74.5
 21
-108.0
 31
0.0
  0
TEXT
  5
2EC
100
AcDbEntity
  8
3
370
    25
100
AcDbText
 10
169.5
 20
-106.75
 30
0.0
 40
4.0
  1
寸　法
 72
     5
 11
180.7
 21
-106.75
 31
0.0
100
AcDbText
  0
TEXT
  5
2ED
100
AcDbEntity
  8
3
370
    25
100
AcDbText
 10
-46.849052
 20
-93.48735
 30
0.0
 40
3.2
  1
サラタッピング３．５×１６
 41
0.6
 72
     5
 11
-22.273052
 21
-93.48735
 31
0.0
100
AcDbText
  0
TEXT
  5
2EE
100
AcDbEntity
  8
3
370
    25
100
AcDbText
 10
163.150948
 20
-93.48735
 30
0.0
 40
3.2
  1
サラタッピング３．５×１６
 41
0.6
 72
     5
 11
187.726948
 21
-93.48735
 31
0.0
100
AcDbText
  0
TEXT
  5
2EF
100
AcDbEntity
  8
3
370
    50
100
AcDbText
 10
-101.404442
 20
-120.800041
 30
0.0
 40
5.0
  1
カム式調整ストライク　ＫＭ-１６．５
 72
     5
 11
-14.904442
 21
-120.800041
 31
0.0
100
AcDbText
  0
TEXT
  5
2F0
100
AcDbEntity
  8
3
370
    25
100
AcDbText
 10
-107.5
 20
-100.25
 30
0.0
 40
3.5
  1
カム式調整ストライク　ＫＭ-１６．５
 41
0.9
 72
     5
 11
-53.005
 21
-100.25
 31
0.0
100
AcDbText
  0
TEXT
  5
2F1
100
AcDbEntity
  8
3
370
    25
100
AcDbText
 10
102.5
 20
-100.25
 30
0.0
 40
3.5
  1
カム式調整ストライク　ＫＭ-１８
 72
     5
 11
156.05
 21
-100.25
 31
0.0
100
AcDbText
  0
TEXT
  5
2F2
100
AcDbEntity
  8
3
370
    50
100
AcDbText
 10
109.595558
 20
-120.800041
 30
0.0
 40
5.0
  1
カム式調整ストライク　ＫＭ-１８
 72
     5
 11
186.095558
 21
-120.800041
 31
0.0
100
AcDbText
  0
TEXT
  5
2F3
100
AcDbEntity
  8
3
370
   100
100
AcDbText
 10
-79.078545
 20
-134.545471
 30
0.0
 40
6.0
  1
ＥＺ－１４２３－００
 72
     5
 11
-20.278545
 21
-134.545471
 31
0.0
100
AcDbText
  0
TEXT
  5
2F4
100
AcDbEntity
  8
3
370
   100
100
AcDbText
 10
130.921455
 20
-134.545471
 30
0.0
 40
6.0
  1
ＥＺ－１４２４－００
 72
     5
 11
189.721455
 21
-134.545471
 31
0.0
100
AcDbText
  0
ENDSEC
  0
SECTION
  2
OBJECTS
  0
DICTIONARY
  5
415
100
AcDbDictionary
280
     0
281
     1
  3
ACAD_GROUP
350
416
  3
ACAD_MLINESTYLE
350
417
  0
DICTIONARY
  5
416
102
{ACAD_REACTORS
330
415
102
}
100
AcDbDictionary
280
     0
281
     1
  0
DICTIONARY
  5
417
102
{ACAD_REACTORS
330
415
102
}
100
AcDbDictionary
280
     0
281
     1
  3
Standard
350
418
  0
MLINESTYLE
  5
418
102
{ACAD_REACTORS
330
417
102
}
100
AcDbMlineStyle
  2
Standard
 70
     0
  3

 62
     0
 51
90.0
 52
90.0
 71
     2
 49
0.5
 62
   256
  6
ByLayer
 49
-0.5
 62
   256
  6
ByLayer
  0
ENDSEC
  0
EOF
