  0
SECTION
  2
HEADER
  9
$ACADVER
  1
AC1015
  9
$ACADMAINTVER
 70
     6
  9
$DWGCODEPAGE
  3
ANSI_932
  9
$INSBASE
 10
0.0
 20
0.0
 30
0.0
  9
$EXTMIN
 10
-420.0
 20
-297.0
 30
1.000000E+20
  9
$EXTMAX
 10
420.0
 20
297.0
 30
-1.000000E+20
  9
$LIMMIN
 10
-420.0
 20
-297.0
  9
$LIMMAX
 10
420.0
 20
297.0
  9
$ORTHOMODE
 70
     0
  9
$REGENMODE
 70
     1
  9
$FILLMODE
 70
     1
  9
$QTEXTMODE
 70
     0
  9
$MIRRTEXT
 70
     1
  9
$LTSCALE
 40
1.0
  9
$ATTMODE
 70
     1
  9
$TEXTSIZE
 40
0.2
  9
$TRACEWID
 40
0.05
  9
$TEXTSTYLE
  7
STANDARD
  9
$CLAYER
  8
0
  9
$CELTYPE
  6
CONTINUOUS
  9
$CECOLOR
 62
   256
  9
$CELTSCALE
 40
1.0
  9
$DISPSILH
 70
     0
  9
$DIMSCALE
 40
2.0
  9
$DIMASZ
 40
2.0
  9
$DIMEXO
 40
0.5
  9
$DIMDLI
 40
0.38
  9
$DIMRND
 40
0.0
  9
$DIMDLE
 40
0.0
  9
$DIMEXE
 40
2.0
  9
$DIMTP
 40
0.0
  9
$DIMTM
 40
0.0
  9
$DIMTXT
 40
2.5
  9
$DIMCEN
 40
0.09
  9
$DIMTSZ
 40
0.0
  9
$DIMTOL
 70
     0
  9
$DIMLIM
 70
     0
  9
$DIMTIH
 70
     0
  9
$DIMTOH
 70
     0
  9
$DIMSE1
 70
     0
  9
$DIMSE2
 70
     0
  9
$DIMTAD
 70
     1
  9
$DIMZIN
 70
     0
  9
$DIMBLK
  1

  9
$DIMASO
 70
     1
  9
$DIMSHO
 70
     1
  9
$DIMPOST
  1

  9
$DIMAPOST
  1

  9
$DIMALT
 70
     0
  9
$DIMALTD
 70
     2
  9
$DIMALTF
 40
25.4
  9
$DIMLFAC
 40
1.0
  9
$DIMTOFL
 70
     0
  9
$DIMTVP
 40
0.0
  9
$DIMTIX
 70
     0
  9
$DIMSOXD
 70
     0
  9
$DIMSAH
 70
     0
  9
$DIMBLK1
  1

  9
$DIMBLK2
  1

  9
$DIMSTYLE
  2
Standard
  9
$DIMCLRD
 70
     0
  9
$DIMCLRE
 70
     0
  9
$DIMCLRT
 70
     0
  9
$DIMTFAC
 40
1.0
  9
$DIMGAP
 40
0.5
  9
$DIMJUST
 70
     0
  9
$DIMSD1
 70
     0
  9
$DIMSD2
 70
     0
  9
$DIMTOLJ
 70
     1
  9
$DIMTZIN
 70
     0
  9
$DIMALTZ
 70
     0
  9
$DIMALTTZ
 70
     0
  9
$DIMUPT
 70
     0
  9
$DIMDEC
 70
     2
  9
$DIMTDEC
 70
     4
  9
$DIMALTU
 70
     2
  9
$DIMALTTD
 70
     2
  9
$DIMTXSTY
  7
STANDARD
  9
$DIMAUNIT
 70
     0
  9
$DIMADEC
 70
     2
  9
$DIMALTRND
 40
0.0
  9
$DIMAZIN
 70
     0
  9
$DIMDSEP
 70
     0
  9
$DIMATFIT
 70
     3
  9
$DIMFRAC
 70
     0
  9
$DIMLDRBLK
  1

  9
$DIMLUNIT
 70
     2
  9
$DIMLWD
 70
     0
  9
$DIMLWE
 70
     0
  9
$DIMTMOVE
 70
     0
  9
$LUNITS
 70
     2
  9
$LUPREC
 70
     4
  9
$SKETCHINC
 40
0.1
  9
$FILLETRAD
 40
0.0
  9
$AUNITS
 70
     0
  9
$AUPREC
 70
     0
  9
$MENU
  1
acad
  9
$ELEVATION
 40
0.0
  9
$PELEVATION
 40
0.0
  9
$THICKNESS
 40
0.0
  9
$LIMCHECK
 70
     0
  9
$CHAMFERA
 40
0.0
  9
$CHAMFERB
 40
0.0
  9
$CHAMFERC
 40
0.0
  9
$CHAMFERD
 40
0.0
  9
$SKPOLY
 70
     0
  9
$TDCREATE
 40
2457354.000000000
  9
$TDUCREATE
 40
0.000000000
  9
$TDUPDATE
 40
0.000000000
  9
$TDUUPDATE
 40
2447892.625000000
  9
$TDINDWG
 40
0.0000000000
  9
$TDUSRTIMER
 40
0.0000000000
  9
$USRTIMER
 70
     1
  9
$ANGBASE
 50
0.0
  9
$ANGDIR
 70
     0
  9
$PDMODE
 70
     0
  9
$PDSIZE
 40
0.0
  9
$PLINEWID
 40
0.0
  9
$SPLFRAME
 70
     0
  9
$SPLINETYPE
 70
     6
  9
$SPLINESEGS
 70
     8
  9
$HANDSEED
  5
89B
  9
$SURFTAB1
 70
     6
  9
$SURFTAB2
 70
     6
  9
$SURFTYPE
 70
     6
  9
$SURFU
 70
     6
  9
$SURFV
 70
     6
  9
$UCSBASE
  2

  9
$UCSNAME
  2

  9
$UCSORG
 10
0.0
 20
0.0
 30
0.0
  9
$UCSXDIR
 10
1.0
 20
0.0
 30
0.0
  9
$UCSYDIR
 10
0.0
 20
1.0
 30
0.0
  9
$UCSORTHOREF
  2

  9
$UCSORTHOVIEW
 70
     0
  9
$UCSORGTOP
 10
0.0
 20
0.0
 30
0.0
  9
$UCSORGBOTTOM
 10
0.0
 20
0.0
 30
0.0
  9
$UCSORGLEFT
 10
0.0
 20
0.0
 30
0.0
  9
$UCSORGRIGHT
 10
0.0
 20
0.0
 30
0.0
  9
$UCSORGFRONT
 10
0.0
 20
0.0
 30
0.0
  9
$UCSORGBACK
 10
0.0
 20
0.0
 30
0.0
  9
$PUCSBASE
  2

  9
$PUCSNAME
  2

  9
$PUCSORG
 10
0.0
 20
0.0
 30
0.0
  9
$PUCSXDIR
 10
1.0
 20
0.0
 30
0.0
  9
$PUCSYDIR
 10
0.0
 20
1.0
 30
0.0
  9
$PUCSORTHOREF
  2

  9
$PUCSORTHOVIEW
 70
     0
  9
$PUCSORGTOP
 10
0.0
 20
0.0
 30
0.0
  9
$PUCSORGBOTTOM
 10
0.0
 20
0.0
 30
0.0
  9
$PUCSORGLEFT
 10
0.0
 20
0.0
 30
0.0
  9
$PUCSORGRIGHT
 10
0.0
 20
0.0
 30
0.0
  9
$PUCSORGFRONT
 10
0.0
 20
0.0
 30
0.0
  9
$PUCSORGBACK
 10
0.0
 20
0.0
 30
0.0
  9
$USERI1
 70
     0
  9
$USERI2
 70
     0
  9
$USERI3
 70
     0
  9
$USERI4
 70
     0
  9
$USERI5
 70
     0
  9
$USERR1
 40
0.0
  9
$USERR2
 40
0.0
  9
$USERR3
 40
0.0
  9
$USERR4
 40
0.0
  9
$USERR5
 40
0.0
  9
$WORLDVIEW
 70
     1
  9
$SHADEDGE
 70
     3
  9
$SHADEDIF
 70
    70
  9
$TILEMODE
 70
     1
  9
$MAXACTVP
 70
    16
  9
$PINSBASE
 10
0.0
 20
0.0
 30
0.0
  9
$PLIMCHECK
 70
     0
  9
$PEXTMIN
 10
1.000000E+20
 20
1.000000E+20
 30
1.000000E+20
  9
$PEXTMAX
 10
-1.000000E+20
 20
-1.000000E+20
 30
-1.000000E+20
  9
$PLIMMIN
 10
0.0
 20
0.0
  9
$PLIMMAX
 10
12.0
 20
9.0
  9
$UNITMODE
 70
     0
  9
$VISRETAIN
 70
     0
  9
$PLINEGEN
 70
     1
  9
$PSLTSCALE
 70
     0
  9
$TREEDEPTH
 70
  3020
  9
$CMLSTYLE
  2
Standard
  9
$CMLJUST
 70
     0
  9
$CMLSCALE
 40
1.0
  9
$PROXYGRAPHICS
 70
     0
  9
$MEASUREMENT
 70
     0
  9
$CELWEIGHT
370
     0
  9
$ENDCAPS
280
     0
  9
$JOINSTYLE
280
     0
  9
$LWDISPLAY
290
     0
  9
$INSUNITS
 70
     0
  9
$HYPERLINKBASE
  1

  9
$STYLESHEET
  1

  9
$XEDIT
290
     1
  9
$CEPSNTYPE
380
     0
  9
$PSTYLEMODE
290
     1
  9
$FINGERPRINTGUID
  2

  9
$VERSIONGUID
  2

  9
$EXTNAMES
290
     1
  9
$PSVPSCALE
 40
0.0
  0
ENDSEC
  0
SECTION
  2
CLASSES
  0
CLASS
  1
LWPOLYLINE
  2
AcDbPolyline
  3
AutoCAD 2000
 90
        0
280
     0
281
     1
  0
CLASS
  1
IMAGE
  2
AcDbRasterImage
  3
ISM
 90
      127
280
     0
281
     1
  0
CLASS
  1
OLE2FRAME
  2
AcDbOle2Frame
  3
AutoCAD 2000
 90
        0
280
     0
281
     1
  0
CLASS
  1
HATCH
  2
AcDbHatch
  3
AutoCAD 2000
 90
        0
280
     0
281
     1
  0
CLASS
  1
DICTIONARYVAR
  2
AcDbDictionaryVar
  3
AutoCAD 2000
 90
        0
280
     0
281
     0
  0
CLASS
  1
RASTERVARIABLES
  2
AcDbRasterVariables
  3
ISM
 90
        0
280
     0
281
     0
  0
CLASS
  1
IMAGEDEF
  2
AcDbRasterImageDef
  3
ISM
 90
        0
280
     0
281
     0
  0
CLASS
  1
IMAGEDEF_REACTOR
  2
AcDbRasterImageDefReactor
  3
ISM
 90
        1
280
     0
281
     0
  0
CLASS
  1
IDBUFFER
  2
AcDbIdBuffer
  3
AutoCAD 2000
 90
        0
280
     0
281
     0
  0
CLASS
  1
SPATIAL_FILTER
  2
AcDbSpatialFilter
  3
AutoCAD 2000
 90
        0
280
     0
281
     0
  0
CLASS
  1
XRECORD
  2
AcDbXrecord
  3
AutoCAD 2000
 90
        0
280
     0
281
     0
  0
CLASS
  1
SORTENTSTABLE
  2
AcDbSortentsTable
  3
AutoCAD 2000
 90
        0
280
     0
281
     0
  0
CLASS
  1
LAYER_INDEX
  2
AcDbLayerIndex
  3
AutoCAD 2000
 90
        0
280
     0
281
     0
  0
CLASS
  1
SPATIAL_INDEX
  2
AcDbSpatialIndex
  3
AutoCAD 2000
 90
        0
280
     0
281
     0
  0
CLASS
  1
OBJECT_PTR
  2
CAseDLPNTableRecord
  3
"ASE-LPNTableRecord"
 90
        1
280
     0
281
     0
  0
CLASS
  1
LAYOUT
  2
AcDbLayout
  3
AutoCAD 2000
 90
        0
280
     0
281
     0
  0
CLASS
  1
PLOTSETTINGS
  2
AcDbPlotSettings
  3
AutoCAD 2000
 90
        0
280
     0
281
     0
  0
CLASS
  1
ACDBDICTIONARYWDFLT
  2
AcDbDictionaryWithDefault
  3
AutoCAD 2000
 90
        0
280
     0
281
     0
  0
CLASS
  1
ACDBPLACEHOLDER
  2
AcDbPlaceHolder
  3
AutoCAD 2000
 90
        0
280
     0
281
     0
  0
CLASS
  1
VBA_PROJECT
  2
AcDbVbaProject
  3
acadvba
 90
        0
280
     0
281
     0
  0
CLASS
  1
WIPEOUT
  2
AcDbWipeout
  3
WipeOut|AutoCAD Express Tool|expresstools@autodesk.com
 90
      127
280
     0
281
     1
  0
CLASS
  1
WIPEOUTVARIABLES
  2
AcDbWipeoutVariables
  3
WipeOut|AutoCAD Express Tool|expresstools@autodesk.com
 90
        0
280
     0
281
     0
  0
CLASS
  1
RTEXT
  2
RText
  3
RText|AutoCAD Express Tool|expresstools@autodesk.com
 90
        0
280
     0
281
     1
  0
CLASS
  1
ARCALIGNEDTEXT
  2
AcDbArcAlignedText
  3
ATEXT|AutoCAD Express Tool|expresstools@autodesk.com
 90
        0
280
     0
281
     1
  0
ENDSEC
  0
SECTION
  2
TABLES
  0
TABLE
  2
VPORT
  5
6
100
AcDbSymbolTable
 70
     1
  0
VPORT
  5
1A
100
AcDbSymbolTableRecord
100
AcDbViewportTableRecord
  2
*ACTIVE
 70
     0
 10
0.0
 20
0.0
 11
1.0
 21
1.0
 12
0.0
 22
0.0
 13
0.0
 23
0.0
 14
1.0
 24
1.0
 15
0.0
 25
0.0
 16
0.0
 26
0.0
 36
1.0
 17
0.0
 27
0.0
 37
0.0
 40
594.0
 41
1.414141
 42
50.0
 43
0.0
 44
0.0
 50
0.0
 51
0.0
 71
     0
 72
   500
 73
     1
 74
     1
 75
     0
 76
     0
 77
     0
 78
     0
281
     0
 65
     0
110
0.0
120
0.0
130
0.0
111
1.0
121
0.0
131
0.0
112
0.0
122
1.0
132
0.0
345
0
346
0
 79
     0
146
0.0
  0
ENDTAB
  0
TABLE
  2
LTYPE
  5
3
100
AcDbSymbolTable
 70
     9
  0
LTYPE
  5
C
100
AcDbSymbolTableRecord
100
AcDbLinetypeTableRecord
  2
ByBlock
 70
    64
  3

 72
    65
 73
     0
 40
0.0
  0
LTYPE
  5
D
100
AcDbSymbolTableRecord
100
AcDbLinetypeTableRecord
  2
ByLayer
 70
    64
  3

 72
    65
 73
     0
 40
0.0
  0
LTYPE
  5
E
100
AcDbSymbolTableRecord
100
AcDbLinetypeTableRecord
  2
CONTINUOUS
 70
     0
  3
Solid line
 72
    65
 73
     0
 40
0.0
  0
LTYPE
  5
F
100
AcDbSymbolTableRecord
100
AcDbLinetypeTableRecord
  2
DASHED
 70
     0
  3
__ __ __ __ __ __ __ __ __ __ __ __ __ __ __
 72
    65
 73
     2
 40
2.0
 49
1.2
 74
     0
 49
-0.8
 74
     0
  0
LTYPE
  5
10
100
AcDbSymbolTableRecord
100
AcDbLinetypeTableRecord
  2
CENTER
 70
     0
  3
____ _ ____ _ ____ _ ____ _ ____ _ ____ _ ____
 72
    65
 73
     4
 40
12.0
 49
9.0
 74
     0
 49
-1.0
 74
     0
 49
1.0
 74
     0
 49
-1.0
 74
     0
  0
LTYPE
  5
11
100
AcDbSymbolTableRecord
100
AcDbLinetypeTableRecord
  2
HIDDEN
 70
     0
  3
_ _ _ _ _ _ _ _ _ _ _ _ _ _ _ _ _ _ _ _ _ _ _
 72
    65
 73
     2
 40
3.2
 49
1.3
 74
     0
 49
-1.9
 74
     0
  0
LTYPE
  5
12
100
AcDbSymbolTableRecord
100
AcDbLinetypeTableRecord
  2
PHANTOM
 70
     0
  3
_____ _ _ _____ _ _ _____ _ _ _____ _ _ _____
 72
    65
 73
     6
 40
12.5
 49
9.0
 74
     0
 49
-1.0
 74
     0
 49
0.5
 74
     0
 49
-0.5
 74
     0
 49
0.5
 74
     0
 49
-1.0
 74
     0
  0
LTYPE
  5
13
100
AcDbSymbolTableRecord
100
AcDbLinetypeTableRecord
  2
DOT
 70
     0
  3
...............................................
 72
    65
 73
     2
 40
1.0
 49
0.5
 74
     0
 49
-0.5
 74
     0
  0
LTYPE
  5
14
100
AcDbSymbolTableRecord
100
AcDbLinetypeTableRecord
  2
DASHDOT
 70
     0
  3
__ . __ . __ . __ . __ . __ . __ . __ . __ . __
 72
    65
 73
     4
 40
8.0
 49
5.0
 74
     0
 49
-1.0
 74
     0
 49
1.0
 74
     0
 49
-1.0
 74
     0
  0
ENDTAB
  0
TABLE
  2
LAYER
  5
1
100
AcDbSymbolTable
 70
     5
  0
LAYER
  5
15
100
AcDbSymbolTableRecord
100
AcDbLayerTableRecord
  2
0
 70
     0
 62
     8
  6
CONTINUOUS
290
     1
370
    -3
390
0
  0
LAYER
  5
16
100
AcDbSymbolTableRecord
100
AcDbLayerTableRecord
  2
1
 70
     0
 62
     2
  6
CONTINUOUS
290
     1
370
    -3
390
0
  0
LAYER
  5
17
100
AcDbSymbolTableRecord
100
AcDbLayerTableRecord
  2
2
 70
     0
 62
     3
  6
CONTINUOUS
290
     1
370
    -3
390
0
  0
LAYER
  5
18
100
AcDbSymbolTableRecord
100
AcDbLayerTableRecord
  2
3
 70
     0
 62
     4
  6
CONTINUOUS
290
     1
370
    -3
390
0
  0
LAYER
  5
19
100
AcDbSymbolTableRecord
100
AcDbLayerTableRecord
  2
4
 70
     0
 62
     1
  6
CONTINUOUS
290
     1
370
    -3
390
0
  0
ENDTAB
  0
TABLE
  2
STYLE
  5
2
100
AcDbSymbolTable
 70
     1
  0
STYLE
  5
1C
100
AcDbSymbolTableRecord
100
AcDbTextStyleTableRecord
  2
STANDARD
 70
    64
 40
0.0
 41
1.0
 50
0.0
 71
     0
 42
1.0
  3
txt
  4
BIGFONT
  0
ENDTAB
  0
TABLE
  2
VIEW
  5
4
100
AcDbSymbolTable
 70
     0
  0
ENDTAB
  0
TABLE
  2
UCS
  5
5
100
AcDbSymbolTable
 70
     0
  0
ENDTAB
  0
TABLE
  2
APPID
  5
7
100
AcDbSymbolTable
 70
     1
  0
APPID
  5
1B
100
AcDbSymbolTableRecord
100
AcDbRegAppTableRecord
  2
ACAD
 70
     0
  0
ENDTAB
  0
TABLE
  2
DIMSTYLE
  5
8
100
AcDbSymbolTable
 70
     1
100
AcDbDimStyleTable
 71
     0
  0
DIMSTYLE
105
5E
100
AcDbSymbolTableRecord
100
AcDbDimStyleTableRecord
  2
Standard
 70
     0
  3

  4

 40
2.0
 41
2.0
 42
0.5
 43
0.38
 44
2.0
 45
0.0
 46
0.0
 47
0.0
 48
0.0
 71
     0
 72
     0
 73
     0
 74
     0
 75
     0
 76
     0
 77
     1
 78
     0
 79
     0
140
2.5
141
0.09
142
0.0
143
25.4
144
1.0
145
0.0
146
1.0
147
0.5
148
0.0
170
     0
171
     2
172
     0
173
     0
174
     0
175
     0
176
     0
177
     0
178
     0
179
     0
271
     2
272
     4
273
     2
274
     2
275
     0
276
     0
277
     2
278
    46
279
     0
280
     0
281
     0
282
     0
283
     1
284
     0
285
     0
286
     0
288
     0
289
     3
340
1C
341
0
342
0
343
0
344
0
371
    -2
372
    -2
  0
ENDTAB
  0
TABLE
  2
BLOCK_RECORD
  5
59
100
AcDbSymbolTable
 70
    58
  0
BLOCK_RECORD
  5
57
100
AcDbSymbolTableRecord
100
AcDbBlockTableRecord
  2
*Model_Space
340
0
  0
BLOCK_RECORD
  5
58
100
AcDbSymbolTableRecord
100
AcDbBlockTableRecord
  2
*Paper_Space
340
0
  0
BLOCK_RECORD
  5
1D
100
AcDbSymbolTableRecord
100
AcDbBlockTableRecord
  2
*D0
340
0
  0
BLOCK_RECORD
  5
1E
100
AcDbSymbolTableRecord
100
AcDbBlockTableRecord
  2
*D1
340
0
  0
BLOCK_RECORD
  5
1F
100
AcDbSymbolTableRecord
100
AcDbBlockTableRecord
  2
*D2
340
0
  0
BLOCK_RECORD
  5
20
100
AcDbSymbolTableRecord
100
AcDbBlockTableRecord
  2
*D3
340
0
  0
BLOCK_RECORD
  5
21
100
AcDbSymbolTableRecord
100
AcDbBlockTableRecord
  2
*D4
340
0
  0
BLOCK_RECORD
  5
22
100
AcDbSymbolTableRecord
100
AcDbBlockTableRecord
  2
*D5
340
0
  0
BLOCK_RECORD
  5
23
100
AcDbSymbolTableRecord
100
AcDbBlockTableRecord
  2
*D6
340
0
  0
BLOCK_RECORD
  5
24
100
AcDbSymbolTableRecord
100
AcDbBlockTableRecord
  2
*D7
340
0
  0
BLOCK_RECORD
  5
25
100
AcDbSymbolTableRecord
100
AcDbBlockTableRecord
  2
*D8
340
0
  0
BLOCK_RECORD
  5
26
100
AcDbSymbolTableRecord
100
AcDbBlockTableRecord
  2
*D9
340
0
  0
BLOCK_RECORD
  5
27
100
AcDbSymbolTableRecord
100
AcDbBlockTableRecord
  2
*D10
340
0
  0
BLOCK_RECORD
  5
28
100
AcDbSymbolTableRecord
100
AcDbBlockTableRecord
  2
*D11
340
0
  0
BLOCK_RECORD
  5
29
100
AcDbSymbolTableRecord
100
AcDbBlockTableRecord
  2
*D12
340
0
  0
BLOCK_RECORD
  5
2A
100
AcDbSymbolTableRecord
100
AcDbBlockTableRecord
  2
*D13
340
0
  0
BLOCK_RECORD
  5
2B
100
AcDbSymbolTableRecord
100
AcDbBlockTableRecord
  2
*D14
340
0
  0
BLOCK_RECORD
  5
2C
100
AcDbSymbolTableRecord
100
AcDbBlockTableRecord
  2
*D15
340
0
  0
BLOCK_RECORD
  5
2D
100
AcDbSymbolTableRecord
100
AcDbBlockTableRecord
  2
*D16
340
0
  0
BLOCK_RECORD
  5
2E
100
AcDbSymbolTableRecord
100
AcDbBlockTableRecord
  2
*D17
340
0
  0
BLOCK_RECORD
  5
2F
100
AcDbSymbolTableRecord
100
AcDbBlockTableRecord
  2
*D18
340
0
  0
BLOCK_RECORD
  5
30
100
AcDbSymbolTableRecord
100
AcDbBlockTableRecord
  2
*D19
340
0
  0
BLOCK_RECORD
  5
31
100
AcDbSymbolTableRecord
100
AcDbBlockTableRecord
  2
*D20
340
0
  0
BLOCK_RECORD
  5
32
100
AcDbSymbolTableRecord
100
AcDbBlockTableRecord
  2
*D21
340
0
  0
BLOCK_RECORD
  5
33
100
AcDbSymbolTableRecord
100
AcDbBlockTableRecord
  2
*D22
340
0
  0
BLOCK_RECORD
  5
34
100
AcDbSymbolTableRecord
100
AcDbBlockTableRecord
  2
*D23
340
0
  0
BLOCK_RECORD
  5
35
100
AcDbSymbolTableRecord
100
AcDbBlockTableRecord
  2
*D24
340
0
  0
BLOCK_RECORD
  5
36
100
AcDbSymbolTableRecord
100
AcDbBlockTableRecord
  2
*D25
340
0
  0
BLOCK_RECORD
  5
37
100
AcDbSymbolTableRecord
100
AcDbBlockTableRecord
  2
*D26
340
0
  0
BLOCK_RECORD
  5
38
100
AcDbSymbolTableRecord
100
AcDbBlockTableRecord
  2
*D27
340
0
  0
BLOCK_RECORD
  5
39
100
AcDbSymbolTableRecord
100
AcDbBlockTableRecord
  2
*D28
340
0
  0
BLOCK_RECORD
  5
3A
100
AcDbSymbolTableRecord
100
AcDbBlockTableRecord
  2
*D29
340
0
  0
BLOCK_RECORD
  5
3B
100
AcDbSymbolTableRecord
100
AcDbBlockTableRecord
  2
*D30
340
0
  0
BLOCK_RECORD
  5
3C
100
AcDbSymbolTableRecord
100
AcDbBlockTableRecord
  2
*D31
340
0
  0
BLOCK_RECORD
  5
3D
100
AcDbSymbolTableRecord
100
AcDbBlockTableRecord
  2
*D32
340
0
  0
BLOCK_RECORD
  5
3E
100
AcDbSymbolTableRecord
100
AcDbBlockTableRecord
  2
*D33
340
0
  0
BLOCK_RECORD
  5
3F
100
AcDbSymbolTableRecord
100
AcDbBlockTableRecord
  2
*D34
340
0
  0
BLOCK_RECORD
  5
40
100
AcDbSymbolTableRecord
100
AcDbBlockTableRecord
  2
*D35
340
0
  0
BLOCK_RECORD
  5
41
100
AcDbSymbolTableRecord
100
AcDbBlockTableRecord
  2
*D36
340
0
  0
BLOCK_RECORD
  5
42
100
AcDbSymbolTableRecord
100
AcDbBlockTableRecord
  2
*D37
340
0
  0
BLOCK_RECORD
  5
43
100
AcDbSymbolTableRecord
100
AcDbBlockTableRecord
  2
*D38
340
0
  0
BLOCK_RECORD
  5
44
100
AcDbSymbolTableRecord
100
AcDbBlockTableRecord
  2
*D39
340
0
  0
BLOCK_RECORD
  5
45
100
AcDbSymbolTableRecord
100
AcDbBlockTableRecord
  2
*D40
340
0
  0
BLOCK_RECORD
  5
46
100
AcDbSymbolTableRecord
100
AcDbBlockTableRecord
  2
*D41
340
0
  0
BLOCK_RECORD
  5
47
100
AcDbSymbolTableRecord
100
AcDbBlockTableRecord
  2
*D42
340
0
  0
BLOCK_RECORD
  5
48
100
AcDbSymbolTableRecord
100
AcDbBlockTableRecord
  2
*D43
340
0
  0
BLOCK_RECORD
  5
49
100
AcDbSymbolTableRecord
100
AcDbBlockTableRecord
  2
*D44
340
0
  0
BLOCK_RECORD
  5
4A
100
AcDbSymbolTableRecord
100
AcDbBlockTableRecord
  2
*D45
340
0
  0
BLOCK_RECORD
  5
4B
100
AcDbSymbolTableRecord
100
AcDbBlockTableRecord
  2
*D46
340
0
  0
BLOCK_RECORD
  5
4C
100
AcDbSymbolTableRecord
100
AcDbBlockTableRecord
  2
*D47
340
0
  0
BLOCK_RECORD
  5
4D
100
AcDbSymbolTableRecord
100
AcDbBlockTableRecord
  2
*D48
340
0
  0
BLOCK_RECORD
  5
4E
100
AcDbSymbolTableRecord
100
AcDbBlockTableRecord
  2
*D49
340
0
  0
BLOCK_RECORD
  5
4F
100
AcDbSymbolTableRecord
100
AcDbBlockTableRecord
  2
*D50
340
0
  0
BLOCK_RECORD
  5
50
100
AcDbSymbolTableRecord
100
AcDbBlockTableRecord
  2
*D51
340
0
  0
BLOCK_RECORD
  5
51
100
AcDbSymbolTableRecord
100
AcDbBlockTableRecord
  2
*D52
340
0
  0
BLOCK_RECORD
  5
52
100
AcDbSymbolTableRecord
100
AcDbBlockTableRecord
  2
*D53
340
0
  0
BLOCK_RECORD
  5
53
100
AcDbSymbolTableRecord
100
AcDbBlockTableRecord
  2
*D54
340
0
  0
BLOCK_RECORD
  5
54
100
AcDbSymbolTableRecord
100
AcDbBlockTableRecord
  2
*D55
340
0
  0
BLOCK_RECORD
  5
55
100
AcDbSymbolTableRecord
100
AcDbBlockTableRecord
  2
*D56
340
0
  0
BLOCK_RECORD
  5
56
100
AcDbSymbolTableRecord
100
AcDbBlockTableRecord
  2
*D57
340
0
  0
ENDTAB
  0
ENDSEC
  0
SECTION
  2
BLOCKS
  0
BLOCK
  5
5A
100
AcDbEntity
  8
0
390
0
100
AcDbBlockBegin
  2
*Model_Space
 70
     0
 10
0.0
 20
0.0
 30
0.0
  3
*Model_Space
  1

  0
ENDBLK
  5
5B
100
AcDbEntity
  8
0
390
0
100
AcDbBlockEnd
  0
BLOCK
  5
5C
100
AcDbEntity
 67
     1
  8
0
390
0
100
AcDbBlockBegin
  2
*Paper_Space
 70
     0
 10
0.0
 20
0.0
 30
0.0
  3
*Paper_Space
  1

  0
ENDBLK
  5
5D
100
AcDbEntity
 67
     1
  8
0
390
0
100
AcDbBlockEnd
  0
BLOCK
  5
66C
100
AcDbEntity
  8
2
100
AcDbBlockBegin
  2
*D0
 70
     1
 10
0.0
 20
0.0
 30
0.0
  3
*D0
  1

  0
TEXT
  5
66D
100
AcDbEntity
  8
2
370
    25
100
AcDbText
 10
93.618276
 20
-21.5
 30
0.0
 40
5.0
  1
%%c20
 50
90.0
 41
2.0
 72
     5
 11
93.618276
 21
-8.5
 31
0.0
100
AcDbText
  0
LINE
  5
66E
100
AcDbEntity
  8
2
370
    25
100
AcDbLine
 10
127.153078
 20
-4.0
 30
0.0
 11
92.618276
 21
-4.0
 31
0.0
  0
LINE
  5
66F
100
AcDbEntity
  8
2
370
    25
100
AcDbLine
 10
94.618276
 20
-4.0
 30
0.0
 11
93.583
 21
-7.863703
 31
0.0
  0
LINE
  5
670
100
AcDbEntity
  8
2
370
    25
100
AcDbLine
 10
94.618276
 20
-4.0
 30
0.0
 11
95.653552
 21
-7.863703
 31
0.0
  0
LINE
  5
671
100
AcDbEntity
  8
2
370
    25
100
AcDbLine
 10
94.618276
 20
-4.0
 30
0.0
 11
94.618276
 21
-24.0
 31
0.0
  0
LINE
  5
672
100
AcDbEntity
  8
2
370
    25
100
AcDbLine
 10
94.618276
 20
-24.0
 30
0.0
 11
95.653552
 21
-20.136297
 31
0.0
  0
LINE
  5
673
100
AcDbEntity
  8
2
370
    25
100
AcDbLine
 10
94.618276
 20
-24.0
 30
0.0
 11
93.583
 21
-20.136297
 31
0.0
  0
LINE
  5
674
100
AcDbEntity
  8
2
370
    25
100
AcDbLine
 10
127.153078
 20
-24.0
 30
0.0
 11
92.618276
 21
-24.0
 31
0.0
  0
ENDBLK
  5
675
100
AcDbEntity
  8
2
100
AcDbBlockEnd
  0
BLOCK
  5
676
100
AcDbEntity
  8
2
100
AcDbBlockBegin
  2
*D1
 70
     1
 10
0.0
 20
0.0
 30
0.0
  3
*D1
  1

  0
TEXT
  5
677
100
AcDbEntity
  8
2
370
    25
100
AcDbText
 10
103.618276
 20
-52.0
 30
0.0
 40
5.0
  1
66
 50
90.0
 41
2.0
 72
     5
 11
103.618276
 21
-44.0
 31
0.0
100
AcDbText
  0
LINE
  5
678
100
AcDbEntity
  8
2
370
    25
100
AcDbLine
 10
104.618276
 20
-80.0
 30
0.0
 11
105.653552
 21
-76.136297
 31
0.0
  0
LINE
  5
679
100
AcDbEntity
  8
2
370
    25
100
AcDbLine
 10
104.618276
 20
-80.0
 30
0.0
 11
103.583
 21
-76.136297
 31
0.0
  0
LINE
  5
67A
100
AcDbEntity
  8
2
370
    25
100
AcDbLine
 10
104.618276
 20
-80.0
 30
0.0
 11
104.618276
 21
-14.0
 31
0.0
  0
LINE
  5
67B
100
AcDbEntity
  8
2
370
    25
100
AcDbLine
 10
104.618276
 20
-14.0
 30
0.0
 11
103.583
 21
-17.863703
 31
0.0
  0
LINE
  5
67C
100
AcDbEntity
  8
2
370
    25
100
AcDbLine
 10
104.618276
 20
-14.0
 30
0.0
 11
105.653552
 21
-17.863703
 31
0.0
  0
LINE
  5
67D
100
AcDbEntity
  8
2
370
    25
100
AcDbLine
 10
119.983211
 20
-14.0
 30
0.0
 11
102.618276
 21
-14.0
 31
0.0
  0
ENDBLK
  5
67E
100
AcDbEntity
  8
2
100
AcDbBlockEnd
  0
BLOCK
  5
67F
100
AcDbEntity
  8
2
100
AcDbBlockBegin
  2
*D2
 70
     1
 10
0.0
 20
0.0
 30
0.0
  3
*D2
  1

  0
TEXT
  5
680
100
AcDbEntity
  8
2
370
    25
100
AcDbText
 10
73.618276
 20
-22.5
 30
0.0
 40
5.0
  1
130
 50
90.0
 41
2.0
 72
     5
 11
73.618276
 21
-9.5
 31
0.0
100
AcDbText
  0
LINE
  5
681
100
AcDbEntity
  8
2
370
    25
100
AcDbLine
 10
134.118263
 20
-80.0
 30
0.0
 11
72.618276
 21
-80.0
 31
0.0
  0
LINE
  5
682
100
AcDbEntity
  8
2
370
    25
100
AcDbLine
 10
74.618276
 20
-80.0
 30
0.0
 11
75.653552
 21
-76.136297
 31
0.0
  0
LINE
  5
683
100
AcDbEntity
  8
2
370
    25
100
AcDbLine
 10
74.618276
 20
-80.0
 30
0.0
 11
73.583
 21
-76.136297
 31
0.0
  0
LINE
  5
684
100
AcDbEntity
  8
2
370
    25
100
AcDbLine
 10
74.618276
 20
-80.0
 30
0.0
 11
74.618276
 21
50.0
 31
0.0
  0
LINE
  5
685
100
AcDbEntity
  8
2
370
    25
100
AcDbLine
 10
74.618276
 20
50.0
 30
0.0
 11
73.583
 21
46.136297
 31
0.0
  0
LINE
  5
686
100
AcDbEntity
  8
2
370
    25
100
AcDbLine
 10
74.618276
 20
50.0
 30
0.0
 11
75.653552
 21
46.136297
 31
0.0
  0
LINE
  5
687
100
AcDbEntity
  8
2
370
    25
100
AcDbLine
 10
134.118263
 20
50.0
 30
0.0
 11
72.618276
 21
50.0
 31
0.0
  0
ENDBLK
  5
688
100
AcDbEntity
  8
2
100
AcDbBlockEnd
  0
BLOCK
  5
689
100
AcDbEntity
  8
2
100
AcDbBlockBegin
  2
*D3
 70
     1
 10
0.0
 20
0.0
 30
0.0
  3
*D3
  1

  0
TEXT
  5
68A
100
AcDbEntity
  8
2
370
    25
100
AcDbText
 10
83.618276
 20
-22.5
 30
0.0
 40
5.0
  1
114
 50
90.0
 41
2.0
 72
     5
 11
83.618276
 21
-9.5
 31
0.0
100
AcDbText
  0
LINE
  5
68B
100
AcDbEntity
  8
2
370
    25
100
AcDbLine
 10
128.328007
 20
-72.0
 30
0.0
 11
82.618276
 21
-72.0
 31
0.0
  0
LINE
  5
68C
100
AcDbEntity
  8
2
370
    25
100
AcDbLine
 10
84.618276
 20
-72.0
 30
0.0
 11
85.653552
 21
-68.136297
 31
0.0
  0
LINE
  5
68D
100
AcDbEntity
  8
2
370
    25
100
AcDbLine
 10
84.618276
 20
-72.0
 30
0.0
 11
83.583
 21
-68.136297
 31
0.0
  0
LINE
  5
68E
100
AcDbEntity
  8
2
370
    25
100
AcDbLine
 10
84.618276
 20
-72.0
 30
0.0
 11
84.618276
 21
42.0
 31
0.0
  0
LINE
  5
68F
100
AcDbEntity
  8
2
370
    25
100
AcDbLine
 10
84.618276
 20
42.0
 30
0.0
 11
83.583
 21
38.136297
 31
0.0
  0
LINE
  5
690
100
AcDbEntity
  8
2
370
    25
100
AcDbLine
 10
84.618276
 20
42.0
 30
0.0
 11
85.653552
 21
38.136297
 31
0.0
  0
ENDBLK
  5
691
100
AcDbEntity
  8
2
100
AcDbBlockEnd
  0
BLOCK
  5
692
100
AcDbEntity
  8
2
100
AcDbBlockBegin
  2
*D4
 70
     1
 10
0.0
 20
0.0
 30
0.0
  3
*D4
  1

  0
TEXT
  5
693
100
AcDbEntity
  8
2
370
    25
100
AcDbText
 10
83.618276
 20
58.0
 30
0.0
 40
5.0
  1
8
 50
90.0
 41
2.0
 72
     5
 11
83.618276
 21
61.0
 31
0.0
100
AcDbText
  0
LINE
  5
694
100
AcDbEntity
  8
2
370
    25
100
AcDbLine
 10
128.328007
 20
42.0
 30
0.0
 11
82.618276
 21
42.0
 31
0.0
  0
LINE
  5
695
100
AcDbEntity
  8
2
370
    25
100
AcDbLine
 10
84.618276
 20
42.0
 30
0.0
 11
83.583
 21
38.136297
 31
0.0
  0
LINE
  5
696
100
AcDbEntity
  8
2
370
    25
100
AcDbLine
 10
84.618276
 20
42.0
 30
0.0
 11
85.653552
 21
38.136297
 31
0.0
  0
LINE
  5
697
100
AcDbEntity
  8
2
370
    25
100
AcDbLine
 10
84.618276
 20
32.0
 30
0.0
 11
84.618276
 21
65.0
 31
0.0
  0
LINE
  5
698
100
AcDbEntity
  8
2
370
    25
100
AcDbLine
 10
84.618276
 20
50.0
 30
0.0
 11
85.653552
 21
53.863703
 31
0.0
  0
LINE
  5
699
100
AcDbEntity
  8
2
370
    25
100
AcDbLine
 10
84.618276
 20
50.0
 30
0.0
 11
83.583
 21
53.863703
 31
0.0
  0
ENDBLK
  5
69A
100
AcDbEntity
  8
2
100
AcDbBlockEnd
  0
BLOCK
  5
69B
100
AcDbEntity
  8
2
100
AcDbBlockBegin
  2
*D5
 70
     1
 10
0.0
 20
0.0
 30
0.0
  3
*D5
  1

  0
TEXT
  5
69C
100
AcDbEntity
  8
2
370
    25
100
AcDbText
 10
83.618276
 20
-93.0
 30
0.0
 40
5.0
  1
8
 50
90.0
 41
2.0
 72
     5
 11
83.618276
 21
-90.0
 31
0.0
100
AcDbText
  0
LINE
  5
69D
100
AcDbEntity
  8
2
370
    25
100
AcDbLine
 10
84.618276
 20
-80.0
 30
0.0
 11
83.583
 21
-83.863703
 31
0.0
  0
LINE
  5
69E
100
AcDbEntity
  8
2
370
    25
100
AcDbLine
 10
84.618276
 20
-80.0
 30
0.0
 11
85.653552
 21
-83.863703
 31
0.0
  0
LINE
  5
69F
100
AcDbEntity
  8
2
370
    25
100
AcDbLine
 10
84.618276
 20
-95.0
 30
0.0
 11
84.618276
 21
-62.0
 31
0.0
  0
LINE
  5
6A0
100
AcDbEntity
  8
2
370
    25
100
AcDbLine
 10
84.618276
 20
-72.0
 30
0.0
 11
85.653552
 21
-68.136297
 31
0.0
  0
LINE
  5
6A1
100
AcDbEntity
  8
2
370
    25
100
AcDbLine
 10
84.618276
 20
-72.0
 30
0.0
 11
83.583
 21
-68.136297
 31
0.0
  0
ENDBLK
  5
6A2
100
AcDbEntity
  8
2
100
AcDbBlockEnd
  0
BLOCK
  5
6A3
100
AcDbEntity
  8
2
100
AcDbBlockBegin
  2
*D6
 70
     1
 10
0.0
 20
0.0
 30
0.0
  3
*D6
  1

  0
TEXT
  5
6A4
100
AcDbEntity
  8
2
370
    25
100
AcDbText
 10
324.0
 20
-49.0
 30
0.0
 40
5.0
  1
16
 50
90.0
 41
2.0
 72
     5
 11
324.0
 21
-41.0
 31
0.0
100
AcDbText
  0
LINE
  5
6A5
100
AcDbEntity
  8
2
370
    25
100
AcDbLine
 10
325.0
 20
-52.0
 30
0.0
 11
326.035276
 21
-48.136297
 31
0.0
  0
LINE
  5
6A6
100
AcDbEntity
  8
2
370
    25
100
AcDbLine
 10
325.0
 20
-52.0
 30
0.0
 11
323.964724
 21
-48.136297
 31
0.0
  0
LINE
  5
6A7
100
AcDbEntity
  8
2
370
    25
100
AcDbLine
 10
325.0
 20
-52.0
 30
0.0
 11
325.0
 21
-36.0
 31
0.0
  0
LINE
  5
6A8
100
AcDbEntity
  8
2
370
    25
100
AcDbLine
 10
325.0
 20
-36.0
 30
0.0
 11
323.964724
 21
-39.863703
 31
0.0
  0
LINE
  5
6A9
100
AcDbEntity
  8
2
370
    25
100
AcDbLine
 10
325.0
 20
-36.0
 30
0.0
 11
326.035276
 21
-39.863703
 31
0.0
  0
ENDBLK
  5
6AA
100
AcDbEntity
  8
2
100
AcDbBlockEnd
  0
BLOCK
  5
6AB
100
AcDbEntity
  8
2
100
AcDbBlockBegin
  2
*D7
 70
     1
 10
0.0
 20
0.0
 30
0.0
  3
*D7
  1

  0
TEXT
  5
6AC
100
AcDbEntity
  8
2
370
    25
100
AcDbText
 10
324.0
 20
-12.0
 30
0.0
 40
5.0
  1
58
 50
90.0
 41
2.0
 72
     5
 11
324.0
 21
-4.0
 31
0.0
100
AcDbText
  0
LINE
  5
6AD
100
AcDbEntity
  8
2
370
    25
100
AcDbLine
 10
216.118263
 20
-36.0
 30
0.0
 11
327.0
 21
-36.0
 31
0.0
  0
LINE
  5
6AE
100
AcDbEntity
  8
2
370
    25
100
AcDbLine
 10
325.0
 20
-36.0
 30
0.0
 11
326.035276
 21
-32.136297
 31
0.0
  0
LINE
  5
6AF
100
AcDbEntity
  8
2
370
    25
100
AcDbLine
 10
325.0
 20
-36.0
 30
0.0
 11
323.964724
 21
-32.136297
 31
0.0
  0
LINE
  5
6B0
100
AcDbEntity
  8
2
370
    25
100
AcDbLine
 10
325.0
 20
-36.0
 30
0.0
 11
325.0
 21
22.0
 31
0.0
  0
LINE
  5
6B1
100
AcDbEntity
  8
2
370
    25
100
AcDbLine
 10
325.0
 20
22.0
 30
0.0
 11
323.964724
 21
18.136297
 31
0.0
  0
LINE
  5
6B2
100
AcDbEntity
  8
2
370
    25
100
AcDbLine
 10
325.0
 20
22.0
 30
0.0
 11
326.035276
 21
18.136297
 31
0.0
  0
ENDBLK
  5
6B3
100
AcDbEntity
  8
2
100
AcDbBlockEnd
  0
BLOCK
  5
6B4
100
AcDbEntity
  8
2
100
AcDbBlockBegin
  2
*D8
 70
     1
 10
0.0
 20
0.0
 30
0.0
  3
*D8
  1

  0
TEXT
  5
6B5
100
AcDbEntity
  8
2
370
    25
100
AcDbText
 10
334.0
 20
-70.95
 30
0.0
 40
5.0
  1
28
 50
90.0
 41
2.0
 72
     5
 11
334.0
 21
-62.95
 31
0.0
100
AcDbText
  0
LINE
  5
6B6
100
AcDbEntity
  8
2
370
    25
100
AcDbLine
 10
140.118263
 20
-79.9
 30
0.0
 11
337.0
 21
-79.9
 31
0.0
  0
LINE
  5
6B7
100
AcDbEntity
  8
2
370
    25
100
AcDbLine
 10
335.0
 20
-79.9
 30
0.0
 11
336.035276
 21
-76.036297
 31
0.0
  0
LINE
  5
6B8
100
AcDbEntity
  8
2
370
    25
100
AcDbLine
 10
335.0
 20
-79.9
 30
0.0
 11
333.964724
 21
-76.036297
 31
0.0
  0
LINE
  5
6B9
100
AcDbEntity
  8
2
370
    25
100
AcDbLine
 10
335.0
 20
-79.9
 30
0.0
 11
335.0
 21
-52.0
 31
0.0
  0
LINE
  5
6BA
100
AcDbEntity
  8
2
370
    25
100
AcDbLine
 10
335.0
 20
-52.0
 30
0.0
 11
333.964724
 21
-55.863703
 31
0.0
  0
LINE
  5
6BB
100
AcDbEntity
  8
2
370
    25
100
AcDbLine
 10
335.0
 20
-52.0
 30
0.0
 11
336.035276
 21
-55.863703
 31
0.0
  0
LINE
  5
6BC
100
AcDbEntity
  8
2
370
    25
100
AcDbLine
 10
206.118263
 20
-52.0
 30
0.0
 11
337.0
 21
-52.0
 31
0.0
  0
ENDBLK
  5
6BD
100
AcDbEntity
  8
2
100
AcDbBlockEnd
  0
BLOCK
  5
6BE
100
AcDbEntity
  8
2
100
AcDbBlockBegin
  2
*D9
 70
     1
 10
0.0
 20
0.0
 30
0.0
  3
*D9
  1

  0
TEXT
  5
6BF
100
AcDbEntity
  8
2
370
    25
100
AcDbText
 10
334.0
 20
-20.0
 30
0.0
 40
5.0
  1
74
 50
90.0
 41
2.0
 72
     5
 11
334.0
 21
-12.0
 31
0.0
100
AcDbText
  0
LINE
  5
6C0
100
AcDbEntity
  8
2
370
    25
100
AcDbLine
 10
335.0
 20
-52.0
 30
0.0
 11
336.035276
 21
-48.136297
 31
0.0
  0
LINE
  5
6C1
100
AcDbEntity
  8
2
370
    25
100
AcDbLine
 10
335.0
 20
-52.0
 30
0.0
 11
333.964724
 21
-48.136297
 31
0.0
  0
LINE
  5
6C2
100
AcDbEntity
  8
2
370
    25
100
AcDbLine
 10
335.0
 20
-52.0
 30
0.0
 11
335.0
 21
22.0
 31
0.0
  0
LINE
  5
6C3
100
AcDbEntity
  8
2
370
    25
100
AcDbLine
 10
335.0
 20
22.0
 30
0.0
 11
333.964724
 21
18.136297
 31
0.0
  0
LINE
  5
6C4
100
AcDbEntity
  8
2
370
    25
100
AcDbLine
 10
335.0
 20
22.0
 30
0.0
 11
336.035276
 21
18.136297
 31
0.0
  0
LINE
  5
6C5
100
AcDbEntity
  8
2
370
    25
100
AcDbLine
 10
206.118263
 20
22.0
 30
0.0
 11
337.0
 21
22.0
 31
0.0
  0
ENDBLK
  5
6C6
100
AcDbEntity
  8
2
100
AcDbBlockEnd
  0
BLOCK
  5
6C7
100
AcDbEntity
  8
2
100
AcDbBlockBegin
  2
*D10
 70
     1
 10
0.0
 20
0.0
 30
0.0
  3
*D10
  1

  0
TEXT
  5
6C8
100
AcDbEntity
  8
2
370
    25
100
AcDbText
 10
96.618276
 20
17.0
 30
0.0
 40
5.0
  1
10.5
 41
2.0
 72
     5
 11
114.618276
 21
17.0
 31
0.0
100
AcDbText
  0
LINE
  5
6C9
100
AcDbEntity
  8
2
370
    25
100
AcDbLine
 10
124.618276
 20
-4.448449
 30
0.0
 11
124.618276
 21
18.0
 31
0.0
  0
LINE
  5
6CA
100
AcDbEntity
  8
2
370
    25
100
AcDbLine
 10
124.618276
 20
16.0
 30
0.0
 11
120.754573
 21
17.035276
 31
0.0
  0
LINE
  5
6CB
100
AcDbEntity
  8
2
370
    25
100
AcDbLine
 10
124.618276
 20
16.0
 30
0.0
 11
120.754573
 21
14.964724
 31
0.0
  0
LINE
  5
6CC
100
AcDbEntity
  8
2
370
    25
100
AcDbLine
 10
94.618276
 20
16.0
 30
0.0
 11
145.118263
 21
16.0
 31
0.0
  0
LINE
  5
6CD
100
AcDbEntity
  8
2
370
    25
100
AcDbLine
 10
135.118263
 20
16.0
 30
0.0
 11
138.981967
 21
14.964724
 31
0.0
  0
LINE
  5
6CE
100
AcDbEntity
  8
2
370
    25
100
AcDbLine
 10
135.118263
 20
16.0
 30
0.0
 11
138.981967
 21
17.035276
 31
0.0
  0
ENDBLK
  5
6CF
100
AcDbEntity
  8
2
100
AcDbBlockEnd
  0
BLOCK
  5
6D0
100
AcDbEntity
  8
2
100
AcDbBlockBegin
  2
*D11
 70
     1
 10
0.0
 20
0.0
 30
0.0
  3
*D11
  1

  0
TEXT
  5
6D1
100
AcDbEntity
  8
2
370
    25
100
AcDbText
 10
-22.0
 20
-73.0
 30
0.0
 40
5.0
  1
10
 41
2.0
 72
     5
 11
-14.0
 21
-73.0
 31
0.0
100
AcDbText
  0
LINE
  5
6D2
100
AcDbEntity
  8
2
370
    25
100
AcDbLine
 10
-40.0
 20
-74.0
 30
0.0
 11
-43.863703
 21
-72.964724
 31
0.0
  0
LINE
  5
6D3
100
AcDbEntity
  8
2
370
    25
100
AcDbLine
 10
-40.0
 20
-74.0
 30
0.0
 11
-43.863703
 21
-75.035276
 31
0.0
  0
LINE
  5
6D4
100
AcDbEntity
  8
2
370
    25
100
AcDbLine
 10
-50.0
 20
-74.0
 30
0.0
 11
-10.0
 21
-74.0
 31
0.0
  0
LINE
  5
6D5
100
AcDbEntity
  8
2
370
    25
100
AcDbLine
 10
-30.0
 20
-74.0
 30
0.0
 11
-26.136297
 21
-75.035276
 31
0.0
  0
LINE
  5
6D6
100
AcDbEntity
  8
2
370
    25
100
AcDbLine
 10
-30.0
 20
-74.0
 30
0.0
 11
-26.136297
 21
-72.964724
 31
0.0
  0
LINE
  5
6D7
100
AcDbEntity
  8
2
370
    25
100
AcDbLine
 10
-30.0
 20
-58.5
 30
0.0
 11
-30.0
 21
-76.0
 31
0.0
  0
ENDBLK
  5
6D8
100
AcDbEntity
  8
2
100
AcDbBlockEnd
  0
BLOCK
  5
6D9
100
AcDbEntity
  8
2
100
AcDbBlockBegin
  2
*D12
 70
     1
 10
0.0
 20
0.0
 30
0.0
  3
*D12
  1

  0
TEXT
  5
6DA
100
AcDbEntity
  8
2
370
    25
100
AcDbText
 10
-108.0
 20
-73.0
 30
0.0
 40
5.0
  1
10
 41
2.0
 72
     5
 11
-100.0
 21
-73.0
 31
0.0
100
AcDbText
  0
LINE
  5
6DB
100
AcDbEntity
  8
2
370
    25
100
AcDbLine
 10
-80.0
 20
-74.0
 30
0.0
 11
-76.136297
 21
-75.035276
 31
0.0
  0
LINE
  5
6DC
100
AcDbEntity
  8
2
370
    25
100
AcDbLine
 10
-80.0
 20
-74.0
 30
0.0
 11
-76.136297
 21
-72.964724
 31
0.0
  0
LINE
  5
6DD
100
AcDbEntity
  8
2
370
    25
100
AcDbLine
 10
-70.0
 20
-74.0
 30
0.0
 11
-110.0
 21
-74.0
 31
0.0
  0
LINE
  5
6DE
100
AcDbEntity
  8
2
370
    25
100
AcDbLine
 10
-90.0
 20
-74.0
 30
0.0
 11
-93.863703
 21
-72.964724
 31
0.0
  0
LINE
  5
6DF
100
AcDbEntity
  8
2
370
    25
100
AcDbLine
 10
-90.0
 20
-74.0
 30
0.0
 11
-93.863703
 21
-75.035276
 31
0.0
  0
LINE
  5
6E0
100
AcDbEntity
  8
2
370
    25
100
AcDbLine
 10
-90.0
 20
-58.5
 30
0.0
 11
-90.0
 21
-76.0
 31
0.0
  0
ENDBLK
  5
6E1
100
AcDbEntity
  8
2
100
AcDbBlockEnd
  0
BLOCK
  5
6E2
100
AcDbEntity
  8
2
100
AcDbBlockBegin
  2
*D13
 70
     1
 10
0.0
 20
0.0
 30
0.0
  3
*D13
  1

  0
TEXT
  5
6E3
100
AcDbEntity
  8
2
370
    25
100
AcDbText
 10
-102.0
 20
51.0
 30
0.0
 40
5.0
  1
9
 72
     5
 11
-98.0
 21
51.0
 31
0.0
100
AcDbText
  0
LINE
  5
6E4
100
AcDbEntity
  8
2
370
    25
100
AcDbLine
 10
-89.0
 20
38.5
 30
0.0
 11
-89.0
 21
52.0
 31
0.0
  0
LINE
  5
6E5
100
AcDbEntity
  8
2
370
    25
100
AcDbLine
 10
-89.0
 20
50.0
 30
0.0
 11
-92.863703
 21
51.035276
 31
0.0
  0
LINE
  5
6E6
100
AcDbEntity
  8
2
370
    25
100
AcDbLine
 10
-89.0
 20
50.0
 30
0.0
 11
-92.863703
 21
48.964724
 31
0.0
  0
LINE
  5
6E7
100
AcDbEntity
  8
2
370
    25
100
AcDbLine
 10
-104.0
 20
50.0
 30
0.0
 11
-70.0
 21
50.0
 31
0.0
  0
LINE
  5
6E8
100
AcDbEntity
  8
2
370
    25
100
AcDbLine
 10
-80.0
 20
50.0
 30
0.0
 11
-76.136297
 21
48.964724
 31
0.0
  0
LINE
  5
6E9
100
AcDbEntity
  8
2
370
    25
100
AcDbLine
 10
-80.0
 20
50.0
 30
0.0
 11
-76.136297
 21
51.035276
 31
0.0
  0
ENDBLK
  5
6EA
100
AcDbEntity
  8
2
100
AcDbBlockEnd
  0
BLOCK
  5
6EB
100
AcDbEntity
  8
2
100
AcDbBlockBegin
  2
*D14
 70
     1
 10
0.0
 20
0.0
 30
0.0
  3
*D14
  1

  0
TEXT
  5
6EC
100
AcDbEntity
  8
2
370
    25
100
AcDbText
 10
-232.872635
 20
159.835451
 30
0.0
 40
5.0
  1
20.5
 50
90.0
 72
     5
 11
-232.872635
 21
178.835451
 31
0.0
100
AcDbText
  0
LINE
  5
6ED
100
AcDbEntity
  8
2
370
    25
100
AcDbLine
 10
-260.137973
 20
159.585451
 30
0.0
 11
-229.872635
 21
159.585451
 31
0.0
  0
LINE
  5
6EE
100
AcDbEntity
  8
2
370
    25
100
AcDbLine
 10
-231.872635
 20
159.585451
 30
0.0
 11
-230.837359
 21
163.449154
 31
0.0
  0
LINE
  5
6EF
100
AcDbEntity
  8
2
370
    25
100
AcDbLine
 10
-231.872635
 20
159.585451
 30
0.0
 11
-232.907911
 21
163.449154
 31
0.0
  0
LINE
  5
6F0
100
AcDbEntity
  8
2
370
    25
100
AcDbLine
 10
-231.872635
 20
159.585451
 30
0.0
 11
-231.872635
 21
180.085451
 31
0.0
  0
LINE
  5
6F1
100
AcDbEntity
  8
2
370
    25
100
AcDbLine
 10
-231.872635
 20
180.085451
 30
0.0
 11
-232.907911
 21
176.221748
 31
0.0
  0
LINE
  5
6F2
100
AcDbEntity
  8
2
370
    25
100
AcDbLine
 10
-231.872635
 20
180.085451
 30
0.0
 11
-230.837359
 21
176.221748
 31
0.0
  0
LINE
  5
6F3
100
AcDbEntity
  8
2
370
    25
100
AcDbLine
 10
-260.137973
 20
180.085451
 30
0.0
 11
-229.872635
 21
180.085451
 31
0.0
  0
ENDBLK
  5
6F4
100
AcDbEntity
  8
2
100
AcDbBlockEnd
  0
BLOCK
  5
6F5
100
AcDbEntity
  8
2
100
AcDbBlockBegin
  2
*D15
 70
     1
 10
0.0
 20
0.0
 30
0.0
  3
*D15
  1

  0
TEXT
  5
6F6
100
AcDbEntity
  8
2
370
    25
100
AcDbText
 10
-270.129548
 20
190.633026
 30
0.0
 40
5.0
  1
22.5
 72
     5
 11
-251.129548
 21
190.633026
 31
0.0
100
AcDbText
  0
LINE
  5
6F7
100
AcDbEntity
  8
2
370
    25
100
AcDbLine
 10
-271.371123
 20
177.570856
 30
0.0
 11
-271.371123
 21
191.633026
 31
0.0
  0
LINE
  5
6F8
100
AcDbEntity
  8
2
370
    25
100
AcDbLine
 10
-271.371123
 20
189.633026
 30
0.0
 11
-267.50742
 21
188.59775
 31
0.0
  0
LINE
  5
6F9
100
AcDbEntity
  8
2
370
    25
100
AcDbLine
 10
-271.371123
 20
189.633026
 30
0.0
 11
-267.50742
 21
190.668302
 31
0.0
  0
LINE
  5
6FA
100
AcDbEntity
  8
2
370
    25
100
AcDbLine
 10
-271.371123
 20
189.633026
 30
0.0
 11
-248.887973
 21
189.633026
 31
0.0
  0
LINE
  5
6FB
100
AcDbEntity
  8
2
370
    25
100
AcDbLine
 10
-248.887973
 20
189.633026
 30
0.0
 11
-252.751676
 21
190.668302
 31
0.0
  0
LINE
  5
6FC
100
AcDbEntity
  8
2
370
    25
100
AcDbLine
 10
-248.887973
 20
189.633026
 30
0.0
 11
-252.751676
 21
188.59775
 31
0.0
  0
ENDBLK
  5
6FD
100
AcDbEntity
  8
2
100
AcDbBlockEnd
  0
BLOCK
  5
6FE
100
AcDbEntity
  8
2
100
AcDbBlockBegin
  2
*D16
 70
     1
 10
0.0
 20
0.0
 30
0.0
  3
*D16
  1

  0
TEXT
  5
6FF
100
AcDbEntity
  8
2
370
    25
100
AcDbText
 10
-283.137973
 20
199.469299
 30
0.0
 40
5.0
  1
48.5
 72
     5
 11
-264.137973
 21
199.469299
 31
0.0
100
AcDbText
  0
LINE
  5
700
100
AcDbEntity
  8
2
370
    25
100
AcDbLine
 10
-297.387973
 20
171.735451
 30
0.0
 11
-297.387973
 21
200.469299
 31
0.0
  0
LINE
  5
701
100
AcDbEntity
  8
2
370
    25
100
AcDbLine
 10
-297.387973
 20
198.469299
 30
0.0
 11
-293.524269
 21
197.434023
 31
0.0
  0
LINE
  5
702
100
AcDbEntity
  8
2
370
    25
100
AcDbLine
 10
-297.387973
 20
198.469299
 30
0.0
 11
-293.524269
 21
199.504575
 31
0.0
  0
LINE
  5
703
100
AcDbEntity
  8
2
370
    25
100
AcDbLine
 10
-297.387973
 20
198.469299
 30
0.0
 11
-248.887973
 21
198.469299
 31
0.0
  0
LINE
  5
704
100
AcDbEntity
  8
2
370
    25
100
AcDbLine
 10
-248.887973
 20
198.469299
 30
0.0
 11
-252.751676
 21
199.504575
 31
0.0
  0
LINE
  5
705
100
AcDbEntity
  8
2
370
    25
100
AcDbLine
 10
-248.887973
 20
198.469299
 30
0.0
 11
-252.751676
 21
197.434023
 31
0.0
  0
LINE
  5
706
100
AcDbEntity
  8
2
370
    25
100
AcDbLine
 10
-248.887973
 20
176.904479
 30
0.0
 11
-248.887973
 21
200.469299
 31
0.0
  0
ENDBLK
  5
707
100
AcDbEntity
  8
2
100
AcDbBlockEnd
  0
BLOCK
  5
708
100
AcDbEntity
  8
2
100
AcDbBlockBegin
  2
*D17
 70
     1
 10
0.0
 20
0.0
 30
0.0
  3
*D17
  1

  0
TEXT
  5
709
100
AcDbEntity
  8
2
370
    25
100
AcDbText
 10
-232.872635
 20
118.061424
 30
0.0
 40
5.0
  1
2
 50
90.0
 72
     5
 11
-232.872635
 21
122.061424
 31
0.0
100
AcDbText
  0
LINE
  5
70A
100
AcDbEntity
  8
2
370
    25
100
AcDbLine
 10
-247.887973
 20
131.061424
 30
0.0
 11
-229.872635
 21
131.061424
 31
0.0
  0
LINE
  5
70B
100
AcDbEntity
  8
2
370
    25
100
AcDbLine
 10
-231.872635
 20
131.061424
 30
0.0
 11
-232.907911
 21
127.197721
 31
0.0
  0
LINE
  5
70C
100
AcDbEntity
  8
2
370
    25
100
AcDbLine
 10
-231.872635
 20
131.061424
 30
0.0
 11
-230.837359
 21
127.197721
 31
0.0
  0
LINE
  5
70D
100
AcDbEntity
  8
2
370
    25
100
AcDbLine
 10
-231.872635
 20
116.061424
 30
0.0
 11
-231.872635
 21
143.061424
 31
0.0
  0
LINE
  5
70E
100
AcDbEntity
  8
2
370
    25
100
AcDbLine
 10
-231.872635
 20
133.061424
 30
0.0
 11
-230.837359
 21
136.925128
 31
0.0
  0
LINE
  5
70F
100
AcDbEntity
  8
2
370
    25
100
AcDbLine
 10
-231.872635
 20
133.061424
 30
0.0
 11
-232.907911
 21
136.925128
 31
0.0
  0
LINE
  5
710
100
AcDbEntity
  8
2
370
    25
100
AcDbLine
 10
-247.887973
 20
133.061424
 30
0.0
 11
-229.872635
 21
133.061424
 31
0.0
  0
ENDBLK
  5
711
100
AcDbEntity
  8
2
100
AcDbBlockEnd
  0
BLOCK
  5
712
100
AcDbEntity
  8
2
100
AcDbBlockBegin
  2
*D18
 70
     1
 10
0.0
 20
0.0
 30
0.0
  3
*D18
  1

  0
TEXT
  5
713
100
AcDbEntity
  8
2
370
    25
100
AcDbText
 10
178.618263
 20
51.570023
 30
0.0
 40
5.0
  1
%%c38
 41
2.0
 72
     5
 11
191.618263
 21
51.570023
 31
0.0
100
AcDbText
  0
LINE
  5
714
100
AcDbEntity
  8
2
370
    25
100
AcDbLine
 10
167.118263
 20
20.5
 30
0.0
 11
167.118263
 21
52.570023
 31
0.0
  0
LINE
  5
715
100
AcDbEntity
  8
2
370
    25
100
AcDbLine
 10
167.118263
 20
50.570023
 30
0.0
 11
170.981967
 21
49.534746
 31
0.0
  0
LINE
  5
716
100
AcDbEntity
  8
2
370
    25
100
AcDbLine
 10
167.118263
 20
50.570023
 30
0.0
 11
170.981967
 21
51.605299
 31
0.0
  0
LINE
  5
717
100
AcDbEntity
  8
2
370
    25
100
AcDbLine
 10
167.118263
 20
50.570023
 30
0.0
 11
205.118263
 21
50.570023
 31
0.0
  0
LINE
  5
718
100
AcDbEntity
  8
2
370
    25
100
AcDbLine
 10
205.118263
 20
50.570023
 30
0.0
 11
201.25456
 21
51.605299
 31
0.0
  0
LINE
  5
719
100
AcDbEntity
  8
2
370
    25
100
AcDbLine
 10
205.118263
 20
50.570023
 30
0.0
 11
201.25456
 21
49.534746
 31
0.0
  0
LINE
  5
71A
100
AcDbEntity
  8
2
370
    25
100
AcDbLine
 10
205.118263
 20
20.5
 30
0.0
 11
205.118263
 21
52.570023
 31
0.0
  0
ENDBLK
  5
71B
100
AcDbEntity
  8
2
100
AcDbBlockEnd
  0
BLOCK
  5
71C
100
AcDbEntity
  8
2
100
AcDbBlockBegin
  2
*D19
 70
     1
 10
0.0
 20
0.0
 30
0.0
  3
*D19
  1

  0
TEXT
  5
71D
100
AcDbEntity
  8
2
370
    25
100
AcDbText
 10
314.0
 20
-18.25
 30
0.0
 40
5.0
  1
55.5
 50
90.0
 41
2.0
 72
     5
 11
314.0
 21
-0.25
 31
0.0
100
AcDbText
  0
LINE
  5
71E
100
AcDbEntity
  8
2
370
    25
100
AcDbLine
 10
315.0
 20
-36.0
 30
0.0
 11
316.035276
 21
-32.136297
 31
0.0
  0
LINE
  5
71F
100
AcDbEntity
  8
2
370
    25
100
AcDbLine
 10
315.0
 20
-36.0
 30
0.0
 11
313.964724
 21
-32.136297
 31
0.0
  0
LINE
  5
720
100
AcDbEntity
  8
2
370
    25
100
AcDbLine
 10
315.0
 20
-36.0
 30
0.0
 11
315.0
 21
19.5
 31
0.0
  0
LINE
  5
721
100
AcDbEntity
  8
2
370
    25
100
AcDbLine
 10
315.0
 20
19.5
 30
0.0
 11
313.964724
 21
15.636297
 31
0.0
  0
LINE
  5
722
100
AcDbEntity
  8
2
370
    25
100
AcDbLine
 10
315.0
 20
19.5
 30
0.0
 11
316.035276
 21
15.636297
 31
0.0
  0
LINE
  5
723
100
AcDbEntity
  8
2
370
    25
100
AcDbLine
 10
209.118263
 20
19.5
 30
0.0
 11
317.0
 21
19.5
 31
0.0
  0
ENDBLK
  5
724
100
AcDbEntity
  8
2
100
AcDbBlockEnd
  0
BLOCK
  5
725
100
AcDbEntity
  8
2
100
AcDbBlockBegin
  2
*D20
 70
     1
 10
0.0
 20
0.0
 30
0.0
  3
*D20
  1

  0
TEXT
  5
726
100
AcDbEntity
  8
2
370
    25
100
AcDbText
 10
304.0
 20
27.5
 30
0.0
 40
5.0
  1
5.5
 50
90.0
 41
2.0
 72
     5
 11
304.0
 21
40.5
 31
0.0
100
AcDbText
  0
LINE
  5
727
100
AcDbEntity
  8
2
370
    25
100
AcDbLine
 10
196.618263
 20
14.0
 30
0.0
 11
307.0
 21
14.0
 31
0.0
  0
LINE
  5
728
100
AcDbEntity
  8
2
370
    25
100
AcDbLine
 10
305.0
 20
14.0
 30
0.0
 11
303.964724
 21
10.136297
 31
0.0
  0
LINE
  5
729
100
AcDbEntity
  8
2
370
    25
100
AcDbLine
 10
305.0
 20
14.0
 30
0.0
 11
306.035276
 21
10.136297
 31
0.0
  0
LINE
  5
72A
100
AcDbEntity
  8
2
370
    25
100
AcDbLine
 10
305.0
 20
4.0
 30
0.0
 11
305.0
 21
44.5
 31
0.0
  0
LINE
  5
72B
100
AcDbEntity
  8
2
370
    25
100
AcDbLine
 10
305.0
 20
19.5
 30
0.0
 11
306.035276
 21
23.363703
 31
0.0
  0
LINE
  5
72C
100
AcDbEntity
  8
2
370
    25
100
AcDbLine
 10
305.0
 20
19.5
 30
0.0
 11
303.964724
 21
23.363703
 31
0.0
  0
ENDBLK
  5
72D
100
AcDbEntity
  8
2
100
AcDbBlockEnd
  0
BLOCK
  5
72E
100
AcDbEntity
  8
2
100
AcDbBlockBegin
  2
*D21
 70
     1
 10
0.0
 20
0.0
 30
0.0
  3
*D21
  1

  0
TEXT
  5
72F
100
AcDbEntity
  8
2
370
    25
100
AcDbText
 10
-189.275879
 20
-33.885689
 30
0.0
 40
5.0
  1
%%c46
 50
90.0
 41
2.0
 72
     5
 11
-189.275879
 21
-20.885689
 31
0.0
100
AcDbText
  0
LINE
  5
730
100
AcDbEntity
  8
2
370
    25
100
AcDbLine
 10
-225.118263
 20
-59.0
 30
0.0
 11
-186.126114
 21
-59.0
 31
0.0
  0
LINE
  5
731
100
AcDbEntity
  8
2
370
    25
100
AcDbLine
 10
-188.126114
 20
-59.0
 30
0.0
 11
-187.090838
 21
-55.136297
 31
0.0
  0
LINE
  5
732
100
AcDbEntity
  8
2
370
    25
100
AcDbLine
 10
-188.126114
 20
-59.0
 30
0.0
 11
-189.16139
 21
-55.136297
 31
0.0
  0
LINE
  5
733
100
AcDbEntity
  8
2
370
    25
100
AcDbLine
 10
-188.126114
 20
-59.0
 30
0.0
 11
-188.126114
 21
-13.0
 31
0.0
  0
LINE
  5
734
100
AcDbEntity
  8
2
370
    25
100
AcDbLine
 10
-188.126114
 20
-13.0
 30
0.0
 11
-189.16139
 21
-16.863703
 31
0.0
  0
LINE
  5
735
100
AcDbEntity
  8
2
370
    25
100
AcDbLine
 10
-188.126114
 20
-13.0
 30
0.0
 11
-187.090838
 21
-16.863703
 31
0.0
  0
LINE
  5
736
100
AcDbEntity
  8
2
370
    25
100
AcDbLine
 10
-225.118263
 20
-13.0
 30
0.0
 11
-186.126114
 21
-13.0
 31
0.0
  0
ENDBLK
  5
737
100
AcDbEntity
  8
2
100
AcDbBlockEnd
  0
BLOCK
  5
738
100
AcDbEntity
  8
2
100
AcDbBlockBegin
  2
*D22
 70
     1
 10
0.0
 20
0.0
 30
0.0
  3
*D22
  1

  0
TEXT
  5
739
100
AcDbEntity
  8
2
370
    25
100
AcDbText
 10
-259.077789
 20
27.5
 30
0.0
 40
5.0
  1
5.5
 50
90.0
 41
2.0
 72
     5
 11
-259.077789
 21
40.5
 31
0.0
100
AcDbText
  0
LINE
  5
73A
100
AcDbEntity
  8
2
370
    25
100
AcDbLine
 10
-236.618263
 20
14.0
 30
0.0
 11
-260.077789
 21
14.0
 31
0.0
  0
LINE
  5
73B
100
AcDbEntity
  8
2
370
    25
100
AcDbLine
 10
-258.077789
 20
14.0
 30
0.0
 11
-259.113065
 21
10.136297
 31
0.0
  0
LINE
  5
73C
100
AcDbEntity
  8
2
370
    25
100
AcDbLine
 10
-258.077789
 20
14.0
 30
0.0
 11
-257.042513
 21
10.136297
 31
0.0
  0
LINE
  5
73D
100
AcDbEntity
  8
2
370
    25
100
AcDbLine
 10
-258.077789
 20
4.0
 30
0.0
 11
-258.077789
 21
44.5
 31
0.0
  0
LINE
  5
73E
100
AcDbEntity
  8
2
370
    25
100
AcDbLine
 10
-258.077789
 20
19.5
 30
0.0
 11
-257.042513
 21
23.363703
 31
0.0
  0
LINE
  5
73F
100
AcDbEntity
  8
2
370
    25
100
AcDbLine
 10
-258.077789
 20
19.5
 30
0.0
 11
-259.113065
 21
23.363703
 31
0.0
  0
LINE
  5
740
100
AcDbEntity
  8
2
370
    25
100
AcDbLine
 10
-249.118263
 20
19.5
 30
0.0
 11
-260.077789
 21
19.5
 31
0.0
  0
ENDBLK
  5
741
100
AcDbEntity
  8
2
100
AcDbBlockEnd
  0
BLOCK
  5
742
100
AcDbEntity
  8
2
100
AcDbBlockBegin
  2
*D23
 70
     1
 10
0.0
 20
0.0
 30
0.0
  3
*D23
  1

  0
TEXT
  5
743
100
AcDbEntity
  8
2
370
    25
100
AcDbText
 10
-19.703018
 20
171.149401
 30
0.0
 40
5.0
  1
30
 50
90.0
 41
2.0
 72
     5
 11
-19.703018
 21
179.149401
 31
0.0
100
AcDbText
  0
LINE
  5
744
100
AcDbEntity
  8
2
370
    25
100
AcDbLine
 10
-39.0
 20
133.149401
 30
0.0
 11
-16.703018
 21
133.149401
 31
0.0
  0
LINE
  5
745
100
AcDbEntity
  8
2
370
    25
100
AcDbLine
 10
-18.703018
 20
133.149401
 30
0.0
 11
-19.738294
 21
129.285697
 31
0.0
  0
LINE
  5
746
100
AcDbEntity
  8
2
370
    25
100
AcDbLine
 10
-18.703018
 20
133.149401
 30
0.0
 11
-17.667742
 21
129.285697
 31
0.0
  0
LINE
  5
747
100
AcDbEntity
  8
2
370
    25
100
AcDbLine
 10
-18.703018
 20
123.149401
 30
0.0
 11
-18.703018
 21
183.149401
 31
0.0
  0
LINE
  5
748
100
AcDbEntity
  8
2
370
    25
100
AcDbLine
 10
-18.703018
 20
163.149401
 30
0.0
 11
-17.667742
 21
167.013104
 31
0.0
  0
LINE
  5
749
100
AcDbEntity
  8
2
370
    25
100
AcDbLine
 10
-18.703018
 20
163.149401
 30
0.0
 11
-19.738294
 21
167.013104
 31
0.0
  0
LINE
  5
74A
100
AcDbEntity
  8
2
370
    25
100
AcDbLine
 10
-39.0
 20
163.149401
 30
0.0
 11
-16.703018
 21
163.149401
 31
0.0
  0
ENDBLK
  5
74B
100
AcDbEntity
  8
2
100
AcDbBlockEnd
  0
BLOCK
  5
74C
100
AcDbEntity
  8
2
100
AcDbBlockBegin
  2
*D24
 70
     1
 10
0.0
 20
0.0
 30
0.0
  3
*D24
  1

  0
TEXT
  5
74D
100
AcDbEntity
  8
2
370
    25
100
AcDbText
 10
-75.451134
 20
174.149401
 30
0.0
 40
5.0
  1
%%c6
 50
90.0
 41
2.0
 72
     5
 11
-75.451134
 21
182.149401
 31
0.0
100
AcDbText
  0
LINE
  5
74E
100
AcDbEntity
  8
2
370
    25
100
AcDbLine
 10
-74.451134
 20
166.149401
 30
0.0
 11
-73.415858
 21
170.013104
 31
0.0
  0
LINE
  5
74F
100
AcDbEntity
  8
2
370
    25
100
AcDbLine
 10
-74.451134
 20
166.149401
 30
0.0
 11
-75.48641
 21
170.013104
 31
0.0
  0
LINE
  5
750
100
AcDbEntity
  8
2
370
    25
100
AcDbLine
 10
-74.451134
 20
186.149401
 30
0.0
 11
-74.451134
 21
150.149401
 31
0.0
  0
LINE
  5
751
100
AcDbEntity
  8
2
370
    25
100
AcDbLine
 10
-74.451134
 20
160.149401
 30
0.0
 11
-75.48641
 21
156.285697
 31
0.0
  0
LINE
  5
752
100
AcDbEntity
  8
2
370
    25
100
AcDbLine
 10
-74.451134
 20
160.149401
 30
0.0
 11
-73.415858
 21
156.285697
 31
0.0
  0
ENDBLK
  5
753
100
AcDbEntity
  8
2
100
AcDbBlockEnd
  0
BLOCK
  5
754
100
AcDbEntity
  8
2
100
AcDbBlockBegin
  2
*D25
 70
     1
 10
0.0
 20
0.0
 30
0.0
  3
*D25
  1

  0
TEXT
  5
755
100
AcDbEntity
  8
2
370
    25
100
AcDbText
 10
-70.0
 20
189.649401
 30
0.0
 40
5.0
  1
16.4
 41
2.0
 72
     5
 11
-52.0
 21
189.649401
 31
0.0
100
AcDbText
  0
LINE
  5
756
100
AcDbEntity
  8
2
370
    25
100
AcDbLine
 10
-68.2
 20
168.449401
 30
0.0
 11
-68.2
 21
190.649401
 31
0.0
  0
LINE
  5
757
100
AcDbEntity
  8
2
370
    25
100
AcDbLine
 10
-68.2
 20
188.649401
 30
0.0
 11
-64.336297
 21
187.614125
 31
0.0
  0
LINE
  5
758
100
AcDbEntity
  8
2
370
    25
100
AcDbLine
 10
-68.2
 20
188.649401
 30
0.0
 11
-64.336297
 21
189.684677
 31
0.0
  0
LINE
  5
759
100
AcDbEntity
  8
2
370
    25
100
AcDbLine
 10
-68.2
 20
188.649401
 30
0.0
 11
-51.8
 21
188.649401
 31
0.0
  0
LINE
  5
75A
100
AcDbEntity
  8
2
370
    25
100
AcDbLine
 10
-51.8
 20
188.649401
 30
0.0
 11
-55.663703
 21
189.684677
 31
0.0
  0
LINE
  5
75B
100
AcDbEntity
  8
2
370
    25
100
AcDbLine
 10
-51.8
 20
188.649401
 30
0.0
 11
-55.663703
 21
187.614125
 31
0.0
  0
LINE
  5
75C
100
AcDbEntity
  8
2
370
    25
100
AcDbLine
 10
-51.8
 20
168.449401
 30
0.0
 11
-51.8
 21
190.649401
 31
0.0
  0
ENDBLK
  5
75D
100
AcDbEntity
  8
2
100
AcDbBlockEnd
  0
BLOCK
  5
75E
100
AcDbEntity
  8
2
100
AcDbBlockBegin
  2
*D26
 70
     1
 10
0.0
 20
0.0
 30
0.0
  3
*D26
  1

  0
TEXT
  5
75F
100
AcDbEntity
  8
2
370
    25
100
AcDbText
 10
122.118263
 20
75.207794
 30
0.0
 40
5.0
  1
4
 41
2.0
 72
     5
 11
125.118263
 21
75.207794
 31
0.0
100
AcDbText
  0
LINE
  5
760
100
AcDbEntity
  8
2
370
    25
100
AcDbLine
 10
135.118263
 20
51.0
 30
0.0
 11
135.118263
 21
76.207794
 31
0.0
  0
LINE
  5
761
100
AcDbEntity
  8
2
370
    25
100
AcDbLine
 10
135.118263
 20
74.207794
 30
0.0
 11
131.25456
 21
75.24307
 31
0.0
  0
LINE
  5
762
100
AcDbEntity
  8
2
370
    25
100
AcDbLine
 10
135.118263
 20
74.207794
 30
0.0
 11
131.25456
 21
73.172518
 31
0.0
  0
LINE
  5
763
100
AcDbEntity
  8
2
370
    25
100
AcDbLine
 10
120.118263
 20
74.207794
 30
0.0
 11
149.118263
 21
74.207794
 31
0.0
  0
LINE
  5
764
100
AcDbEntity
  8
2
370
    25
100
AcDbLine
 10
139.118263
 20
74.207794
 30
0.0
 11
142.981967
 21
73.172518
 31
0.0
  0
LINE
  5
765
100
AcDbEntity
  8
2
370
    25
100
AcDbLine
 10
139.118263
 20
74.207794
 30
0.0
 11
142.981967
 21
75.24307
 31
0.0
  0
LINE
  5
766
100
AcDbEntity
  8
2
370
    25
100
AcDbLine
 10
139.118263
 20
50.9
 30
0.0
 11
139.118263
 21
76.207794
 31
0.0
  0
ENDBLK
  5
767
100
AcDbEntity
  8
2
100
AcDbBlockEnd
  0
BLOCK
  5
768
100
AcDbEntity
  8
2
100
AcDbBlockBegin
  2
*D27
 70
     1
 10
0.0
 20
0.0
 30
0.0
  3
*D27
  1

  0
TEXT
  5
769
100
AcDbEntity
  8
2
370
    25
100
AcDbText
 10
114.27916
 20
-54.0
 30
0.0
 40
5.0
  1
22
 50
90.0
 41
2.0
 72
     5
 11
114.27916
 21
-46.0
 31
0.0
100
AcDbText
  0
LINE
  5
76A
100
AcDbEntity
  8
2
370
    25
100
AcDbLine
 10
156.118263
 20
-36.0
 30
0.0
 11
113.27916
 21
-36.0
 31
0.0
  0
LINE
  5
76B
100
AcDbEntity
  8
2
370
    25
100
AcDbLine
 10
115.27916
 20
-36.0
 30
0.0
 11
114.243883
 21
-39.863703
 31
0.0
  0
LINE
  5
76C
100
AcDbEntity
  8
2
370
    25
100
AcDbLine
 10
115.27916
 20
-36.0
 30
0.0
 11
116.314436
 21
-39.863703
 31
0.0
  0
LINE
  5
76D
100
AcDbEntity
  8
2
370
    25
100
AcDbLine
 10
115.27916
 20
-56.0
 30
0.0
 11
115.27916
 21
-4.0
 31
0.0
  0
LINE
  5
76E
100
AcDbEntity
  8
2
370
    25
100
AcDbLine
 10
115.27916
 20
-14.0
 30
0.0
 11
116.314436
 21
-10.136297
 31
0.0
  0
LINE
  5
76F
100
AcDbEntity
  8
2
370
    25
100
AcDbLine
 10
115.27916
 20
-14.0
 30
0.0
 11
114.243883
 21
-10.136297
 31
0.0
  0
LINE
  5
770
100
AcDbEntity
  8
2
370
    25
100
AcDbLine
 10
119.983211
 20
-14.0
 30
0.0
 11
113.27916
 21
-14.0
 31
0.0
  0
ENDBLK
  5
771
100
AcDbEntity
  8
2
100
AcDbBlockEnd
  0
BLOCK
  5
772
100
AcDbEntity
  8
2
100
AcDbBlockBegin
  2
*D28
 70
     1
 10
0.0
 20
0.0
 30
0.0
  3
*D28
  1

  0
TEXT
  5
773
100
AcDbEntity
  8
2
370
    25
100
AcDbText
 10
-189.275879
 20
16.407314
 30
0.0
 40
5.0
  1
%%c38
 50
90.0
 41
2.0
 72
     5
 11
-189.275879
 21
29.407314
 31
0.0
100
AcDbText
  0
LINE
  5
774
100
AcDbEntity
  8
2
370
    25
100
AcDbLine
 10
-225.118263
 20
38.5
 30
0.0
 11
-186.126114
 21
38.5
 31
0.0
  0
LINE
  5
775
100
AcDbEntity
  8
2
370
    25
100
AcDbLine
 10
-188.126114
 20
38.5
 30
0.0
 11
-189.16139
 21
34.636297
 31
0.0
  0
LINE
  5
776
100
AcDbEntity
  8
2
370
    25
100
AcDbLine
 10
-188.126114
 20
38.5
 30
0.0
 11
-187.090838
 21
34.636297
 31
0.0
  0
LINE
  5
777
100
AcDbEntity
  8
2
370
    25
100
AcDbLine
 10
-188.126114
 20
38.5
 30
0.0
 11
-188.126114
 21
0.5
 31
0.0
  0
LINE
  5
778
100
AcDbEntity
  8
2
370
    25
100
AcDbLine
 10
-188.126114
 20
0.5
 30
0.0
 11
-187.090838
 21
4.363703
 31
0.0
  0
LINE
  5
779
100
AcDbEntity
  8
2
370
    25
100
AcDbLine
 10
-188.126114
 20
0.5
 30
0.0
 11
-189.16139
 21
4.363703
 31
0.0
  0
LINE
  5
77A
100
AcDbEntity
  8
2
370
    25
100
AcDbLine
 10
-225.118263
 20
0.5
 30
0.0
 11
-186.126114
 21
0.5
 31
0.0
  0
ENDBLK
  5
77B
100
AcDbEntity
  8
2
100
AcDbBlockEnd
  0
BLOCK
  5
77C
100
AcDbEntity
  8
2
100
AcDbBlockBegin
  2
*D29
 70
     1
 10
0.0
 20
0.0
 30
0.0
  3
*D29
  1

  0
TEXT
  5
77D
100
AcDbEntity
  8
2
370
    25
100
AcDbText
 10
161.268263
 20
-104.292931
 30
0.0
 40
5.0
  1
72.3
 41
2.0
 72
     5
 11
179.268263
 21
-104.292931
 31
0.0
100
AcDbText
  0
LINE
  5
77E
100
AcDbEntity
  8
2
370
    25
100
AcDbLine
 10
135.118263
 20
-81.0
 30
0.0
 11
135.118263
 21
-107.292931
 31
0.0
  0
LINE
  5
77F
100
AcDbEntity
  8
2
370
    25
100
AcDbLine
 10
135.118263
 20
-105.292931
 30
0.0
 11
138.981967
 21
-106.328207
 31
0.0
  0
LINE
  5
780
100
AcDbEntity
  8
2
370
    25
100
AcDbLine
 10
135.118263
 20
-105.292931
 30
0.0
 11
138.981967
 21
-104.257654
 31
0.0
  0
LINE
  5
781
100
AcDbEntity
  8
2
370
    25
100
AcDbLine
 10
135.118263
 20
-105.292931
 30
0.0
 11
207.418263
 21
-105.292931
 31
0.0
  0
LINE
  5
782
100
AcDbEntity
  8
2
370
    25
100
AcDbLine
 10
207.418263
 20
-105.292931
 30
0.0
 11
203.55456
 21
-104.257654
 31
0.0
  0
LINE
  5
783
100
AcDbEntity
  8
2
370
    25
100
AcDbLine
 10
207.418263
 20
-105.292931
 30
0.0
 11
203.55456
 21
-106.328207
 31
0.0
  0
LINE
  5
784
100
AcDbEntity
  8
2
370
    25
100
AcDbLine
 10
207.418263
 20
-46.129654
 30
0.0
 11
207.418263
 21
-107.292931
 31
0.0
  0
ENDBLK
  5
785
100
AcDbEntity
  8
2
100
AcDbBlockEnd
  0
BLOCK
  5
786
100
AcDbEntity
  8
2
100
AcDbBlockBegin
  2
*D30
 70
     1
 10
0.0
 20
0.0
 30
0.0
  3
*D30
  1

  0
TEXT
  5
787
100
AcDbEntity
  8
2
370
    25
100
AcDbText
 10
-70.0
 20
198.492554
 30
0.0
 40
5.0
  1
18.4
 41
2.0
 72
     5
 11
-52.0
 21
198.492554
 31
0.0
100
AcDbText
  0
LINE
  5
788
100
AcDbEntity
  8
2
370
    25
100
AcDbLine
 10
-69.2
 20
156.799401
 30
0.0
 11
-69.2
 21
199.492554
 31
0.0
  0
LINE
  5
789
100
AcDbEntity
  8
2
370
    25
100
AcDbLine
 10
-69.2
 20
197.492554
 30
0.0
 11
-65.336297
 21
196.457278
 31
0.0
  0
LINE
  5
78A
100
AcDbEntity
  8
2
370
    25
100
AcDbLine
 10
-69.2
 20
197.492554
 30
0.0
 11
-65.336297
 21
198.52783
 31
0.0
  0
LINE
  5
78B
100
AcDbEntity
  8
2
370
    25
100
AcDbLine
 10
-69.2
 20
197.492554
 30
0.0
 11
-50.8
 21
197.492554
 31
0.0
  0
LINE
  5
78C
100
AcDbEntity
  8
2
370
    25
100
AcDbLine
 10
-50.8
 20
197.492554
 30
0.0
 11
-54.663703
 21
198.52783
 31
0.0
  0
LINE
  5
78D
100
AcDbEntity
  8
2
370
    25
100
AcDbLine
 10
-50.8
 20
197.492554
 30
0.0
 11
-54.663703
 21
196.457278
 31
0.0
  0
LINE
  5
78E
100
AcDbEntity
  8
2
370
    25
100
AcDbLine
 10
-50.8
 20
156.799401
 30
0.0
 11
-50.8
 21
199.492554
 31
0.0
  0
ENDBLK
  5
78F
100
AcDbEntity
  8
2
100
AcDbBlockEnd
  0
BLOCK
  5
790
100
AcDbEntity
  8
2
100
AcDbBlockBegin
  2
*D31
 70
     1
 10
0.0
 20
0.0
 30
0.0
  3
*D31
  1

  0
TEXT
  5
791
100
AcDbEntity
  8
2
370
    25
100
AcDbText
 10
-178.591537
 20
-16.0
 30
0.0
 40
5.0
  1
50
 50
90.0
 41
2.0
 72
     5
 11
-178.591537
 21
-8.0
 31
0.0
100
AcDbText
  0
LINE
  5
792
100
AcDbEntity
  8
2
370
    25
100
AcDbLine
 10
-196.118263
 20
-36.0
 30
0.0
 11
-175.591537
 21
-36.0
 31
0.0
  0
LINE
  5
793
100
AcDbEntity
  8
2
370
    25
100
AcDbLine
 10
-177.591537
 20
-36.0
 30
0.0
 11
-176.556261
 21
-32.136297
 31
0.0
  0
LINE
  5
794
100
AcDbEntity
  8
2
370
    25
100
AcDbLine
 10
-177.591537
 20
-36.0
 30
0.0
 11
-178.626814
 21
-32.136297
 31
0.0
  0
LINE
  5
795
100
AcDbEntity
  8
2
370
    25
100
AcDbLine
 10
-177.591537
 20
-36.0
 30
0.0
 11
-177.591537
 21
14.0
 31
0.0
  0
LINE
  5
796
100
AcDbEntity
  8
2
370
    25
100
AcDbLine
 10
-177.591537
 20
14.0
 30
0.0
 11
-178.626814
 21
10.136297
 31
0.0
  0
LINE
  5
797
100
AcDbEntity
  8
2
370
    25
100
AcDbLine
 10
-177.591537
 20
14.0
 30
0.0
 11
-176.556261
 21
10.136297
 31
0.0
  0
LINE
  5
798
100
AcDbEntity
  8
2
370
    25
100
AcDbLine
 10
-211.118263
 20
14.0
 30
0.0
 11
-175.591537
 21
14.0
 31
0.0
  0
ENDBLK
  5
799
100
AcDbEntity
  8
2
100
AcDbBlockEnd
  0
BLOCK
  5
79A
100
AcDbEntity
  8
2
100
AcDbBlockBegin
  2
*D32
 70
     1
 10
0.0
 20
0.0
 30
0.0
  3
*D32
  1

  0
TEXT
  5
79B
100
AcDbEntity
  8
2
370
    25
100
AcDbText
 10
-119.454544
 20
7.25
 30
0.0
 40
5.0
  1
25.5
 50
90.0
 41
2.0
 72
     5
 11
-119.454544
 21
25.25
 31
0.0
100
AcDbText
  0
LINE
  5
79C
100
AcDbEntity
  8
2
370
    25
100
AcDbLine
 10
-94.5
 20
4.5
 30
0.0
 11
-120.454544
 21
4.5
 31
0.0
  0
LINE
  5
79D
100
AcDbEntity
  8
2
370
    25
100
AcDbLine
 10
-118.454544
 20
4.5
 30
0.0
 11
-117.419268
 21
8.363703
 31
0.0
  0
LINE
  5
79E
100
AcDbEntity
  8
2
370
    25
100
AcDbLine
 10
-118.454544
 20
4.5
 30
0.0
 11
-119.48982
 21
8.363703
 31
0.0
  0
LINE
  5
79F
100
AcDbEntity
  8
2
370
    25
100
AcDbLine
 10
-118.454544
 20
4.5
 30
0.0
 11
-118.454544
 21
30.0
 31
0.0
  0
LINE
  5
7A0
100
AcDbEntity
  8
2
370
    25
100
AcDbLine
 10
-118.454544
 20
30.0
 30
0.0
 11
-119.48982
 21
26.136297
 31
0.0
  0
LINE
  5
7A1
100
AcDbEntity
  8
2
370
    25
100
AcDbLine
 10
-118.454544
 20
30.0
 30
0.0
 11
-117.419268
 21
26.136297
 31
0.0
  0
LINE
  5
7A2
100
AcDbEntity
  8
2
370
    25
100
AcDbLine
 10
-94.5
 20
30.0
 30
0.0
 11
-120.454544
 21
30.0
 31
0.0
  0
ENDBLK
  5
7A3
100
AcDbEntity
  8
2
100
AcDbBlockEnd
  0
BLOCK
  5
7A4
100
AcDbEntity
  8
2
100
AcDbBlockBegin
  2
*D33
 70
     1
 10
0.0
 20
0.0
 30
0.0
  3
*D33
  1

  0
TEXT
  5
7A5
100
AcDbEntity
  8
2
370
    25
100
AcDbText
 10
-103.75
 20
61.0
 30
0.0
 40
5.0
  1
27.5
 41
2.0
 72
     5
 11
-85.75
 21
61.0
 31
0.0
100
AcDbText
  0
LINE
  5
7A6
100
AcDbEntity
  8
2
370
    25
100
AcDbLine
 10
-107.5
 20
20.0
 30
0.0
 11
-107.5
 21
62.0
 31
0.0
  0
LINE
  5
7A7
100
AcDbEntity
  8
2
370
    25
100
AcDbLine
 10
-107.5
 20
60.0
 30
0.0
 11
-103.636297
 21
58.964724
 31
0.0
  0
LINE
  5
7A8
100
AcDbEntity
  8
2
370
    25
100
AcDbLine
 10
-107.5
 20
60.0
 30
0.0
 11
-103.636297
 21
61.035276
 31
0.0
  0
LINE
  5
7A9
100
AcDbEntity
  8
2
370
    25
100
AcDbLine
 10
-107.5
 20
60.0
 30
0.0
 11
-80.0
 21
60.0
 31
0.0
  0
LINE
  5
7AA
100
AcDbEntity
  8
2
370
    25
100
AcDbLine
 10
-80.0
 20
60.0
 30
0.0
 11
-83.863703
 21
61.035276
 31
0.0
  0
LINE
  5
7AB
100
AcDbEntity
  8
2
370
    25
100
AcDbLine
 10
-80.0
 20
60.0
 30
0.0
 11
-83.863703
 21
58.964724
 31
0.0
  0
LINE
  5
7AC
100
AcDbEntity
  8
2
370
    25
100
AcDbLine
 10
-80.0
 20
39.5
 30
0.0
 11
-80.0
 21
62.0
 31
0.0
  0
ENDBLK
  5
7AD
100
AcDbEntity
  8
2
100
AcDbBlockEnd
  0
BLOCK
  5
7AE
100
AcDbEntity
  8
2
100
AcDbBlockBegin
  2
*D34
 70
     1
 10
0.0
 20
0.0
 30
0.0
  3
*D34
  1

  0
TEXT
  5
7AF
100
AcDbEntity
  8
2
370
    25
100
AcDbText
 10
-41.65
 20
51.0
 30
0.0
 40
5.0
  1
16.7
 41
2.0
 72
     5
 11
-23.65
 21
51.0
 31
0.0
100
AcDbText
  0
LINE
  5
7B0
100
AcDbEntity
  8
2
370
    25
100
AcDbLine
 10
-40.0
 20
39.5
 30
0.0
 11
-40.0
 21
52.0
 31
0.0
  0
LINE
  5
7B1
100
AcDbEntity
  8
2
370
    25
100
AcDbLine
 10
-40.0
 20
50.0
 30
0.0
 11
-36.136297
 21
48.964724
 31
0.0
  0
LINE
  5
7B2
100
AcDbEntity
  8
2
370
    25
100
AcDbLine
 10
-40.0
 20
50.0
 30
0.0
 11
-36.136297
 21
51.035276
 31
0.0
  0
LINE
  5
7B3
100
AcDbEntity
  8
2
370
    25
100
AcDbLine
 10
-40.0
 20
50.0
 30
0.0
 11
-23.3
 21
50.0
 31
0.0
  0
LINE
  5
7B4
100
AcDbEntity
  8
2
370
    25
100
AcDbLine
 10
-23.3
 20
50.0
 30
0.0
 11
-27.163703
 21
51.035276
 31
0.0
  0
LINE
  5
7B5
100
AcDbEntity
  8
2
370
    25
100
AcDbLine
 10
-23.3
 20
50.0
 30
0.0
 11
-27.163703
 21
48.964724
 31
0.0
  0
LINE
  5
7B6
100
AcDbEntity
  8
2
370
    25
100
AcDbLine
 10
-23.3
 20
38.5
 30
0.0
 11
-23.3
 21
52.0
 31
0.0
  0
ENDBLK
  5
7B7
100
AcDbEntity
  8
2
100
AcDbBlockEnd
  0
BLOCK
  5
7B8
100
AcDbEntity
  8
2
100
AcDbBlockBegin
  2
*D35
 70
     1
 10
0.0
 20
0.0
 30
0.0
  3
*D35
  1

  0
TEXT
  5
7B9
100
AcDbEntity
  8
2
370
    25
100
AcDbText
 10
-14.1
 20
61.0
 30
0.0
 40
5.0
  1
17.9
 41
2.0
 72
     5
 11
3.9
 21
61.0
 31
0.0
100
AcDbText
  0
LINE
  5
7BA
100
AcDbEntity
  8
2
370
    25
100
AcDbLine
 10
-40.0
 20
39.5
 30
0.0
 11
-40.0
 21
62.0
 31
0.0
  0
LINE
  5
7BB
100
AcDbEntity
  8
2
370
    25
100
AcDbLine
 10
-40.0
 20
60.0
 30
0.0
 11
-43.863703
 21
61.035276
 31
0.0
  0
LINE
  5
7BC
100
AcDbEntity
  8
2
370
    25
100
AcDbLine
 10
-40.0
 20
60.0
 30
0.0
 11
-43.863703
 21
58.964724
 31
0.0
  0
LINE
  5
7BD
100
AcDbEntity
  8
2
370
    25
100
AcDbLine
 10
-50.0
 20
60.0
 30
0.0
 11
7.9
 21
60.0
 31
0.0
  0
LINE
  5
7BE
100
AcDbEntity
  8
2
370
    25
100
AcDbLine
 10
-22.1
 20
60.0
 30
0.0
 11
-18.236297
 21
58.964724
 31
0.0
  0
LINE
  5
7BF
100
AcDbEntity
  8
2
370
    25
100
AcDbLine
 10
-22.1
 20
60.0
 30
0.0
 11
-18.236297
 21
61.035276
 31
0.0
  0
LINE
  5
7C0
100
AcDbEntity
  8
2
370
    25
100
AcDbLine
 10
-22.1
 20
15.0
 30
0.0
 11
-22.1
 21
62.0
 31
0.0
  0
ENDBLK
  5
7C1
100
AcDbEntity
  8
2
100
AcDbBlockEnd
  0
BLOCK
  5
7C2
100
AcDbEntity
  8
2
100
AcDbBlockBegin
  2
*D36
 70
     1
 10
0.0
 20
0.0
 30
0.0
  3
*D36
  1

  0
TEXT
  5
7C3
100
AcDbEntity
  8
2
370
    25
100
AcDbText
 10
277.359039
 20
182.406181
 30
0.0
 40
5.0
  1
27
 50
90.0
 41
2.0
 72
     5
 11
277.359039
 21
190.406181
 31
0.0
100
AcDbText
  0
LINE
  5
7C4
100
AcDbEntity
  8
2
370
    25
100
AcDbLine
 10
256.359039
 20
173.906181
 30
0.0
 11
280.359039
 21
173.906181
 31
0.0
  0
LINE
  5
7C5
100
AcDbEntity
  8
2
370
    25
100
AcDbLine
 10
278.359039
 20
173.906181
 30
0.0
 11
279.394315
 21
177.769885
 31
0.0
  0
LINE
  5
7C6
100
AcDbEntity
  8
2
370
    25
100
AcDbLine
 10
278.359039
 20
173.906181
 30
0.0
 11
277.323763
 21
177.769885
 31
0.0
  0
LINE
  5
7C7
100
AcDbEntity
  8
2
370
    25
100
AcDbLine
 10
278.359039
 20
173.906181
 30
0.0
 11
278.359039
 21
200.906181
 31
0.0
  0
LINE
  5
7C8
100
AcDbEntity
  8
2
370
    25
100
AcDbLine
 10
278.359039
 20
200.906181
 30
0.0
 11
277.323763
 21
197.042478
 31
0.0
  0
LINE
  5
7C9
100
AcDbEntity
  8
2
370
    25
100
AcDbLine
 10
278.359039
 20
200.906181
 30
0.0
 11
279.394315
 21
197.042478
 31
0.0
  0
LINE
  5
7CA
100
AcDbEntity
  8
2
370
    25
100
AcDbLine
 10
256.359039
 20
200.906181
 30
0.0
 11
280.359039
 21
200.906181
 31
0.0
  0
ENDBLK
  5
7CB
100
AcDbEntity
  8
2
100
AcDbBlockEnd
  0
BLOCK
  5
7CC
100
AcDbEntity
  8
2
100
AcDbBlockBegin
  2
*D37
 70
     1
 10
0.0
 20
0.0
 30
0.0
  3
*D37
  1

  0
TEXT
  5
7CD
100
AcDbEntity
  8
2
370
    25
100
AcDbText
 10
285.359039
 20
182.406181
 30
0.0
 40
5.0
  1
50
 50
90.0
 41
2.0
 72
     5
 11
285.359039
 21
190.406181
 31
0.0
100
AcDbText
  0
LINE
  5
7CE
100
AcDbEntity
  8
2
370
    25
100
AcDbLine
 10
257.883886
 20
162.406181
 30
0.0
 11
288.359039
 21
162.406181
 31
0.0
  0
LINE
  5
7CF
100
AcDbEntity
  8
2
370
    25
100
AcDbLine
 10
286.359039
 20
162.406181
 30
0.0
 11
287.394315
 21
166.269885
 31
0.0
  0
LINE
  5
7D0
100
AcDbEntity
  8
2
370
    25
100
AcDbLine
 10
286.359039
 20
162.406181
 30
0.0
 11
285.323763
 21
166.269885
 31
0.0
  0
LINE
  5
7D1
100
AcDbEntity
  8
2
370
    25
100
AcDbLine
 10
286.359039
 20
162.406181
 30
0.0
 11
286.359039
 21
212.406181
 31
0.0
  0
LINE
  5
7D2
100
AcDbEntity
  8
2
370
    25
100
AcDbLine
 10
286.359039
 20
212.406181
 30
0.0
 11
285.323763
 21
208.542478
 31
0.0
  0
LINE
  5
7D3
100
AcDbEntity
  8
2
370
    25
100
AcDbLine
 10
286.359039
 20
212.406181
 30
0.0
 11
287.394315
 21
208.542478
 31
0.0
  0
LINE
  5
7D4
100
AcDbEntity
  8
2
370
    25
100
AcDbLine
 10
257.883886
 20
212.406181
 30
0.0
 11
288.359039
 21
212.406181
 31
0.0
  0
ENDBLK
  5
7D5
100
AcDbEntity
  8
2
100
AcDbBlockEnd
  0
BLOCK
  5
7D6
100
AcDbEntity
  8
2
100
AcDbBlockBegin
  2
*D38
 70
     1
 10
0.0
 20
0.0
 30
0.0
  3
*D38
  1

  0
TEXT
  5
7D7
100
AcDbEntity
  8
2
370
    25
100
AcDbText
 10
293.359039
 20
182.406181
 30
0.0
 40
5.0
  1
66
 50
90.0
 41
2.0
 72
     5
 11
293.359039
 21
190.406181
 31
0.0
100
AcDbText
  0
LINE
  5
7D8
100
AcDbEntity
  8
2
370
    25
100
AcDbLine
 10
263.359039
 20
154.406181
 30
0.0
 11
296.359039
 21
154.406181
 31
0.0
  0
LINE
  5
7D9
100
AcDbEntity
  8
2
370
    25
100
AcDbLine
 10
294.359039
 20
154.406181
 30
0.0
 11
295.394315
 21
158.269885
 31
0.0
  0
LINE
  5
7DA
100
AcDbEntity
  8
2
370
    25
100
AcDbLine
 10
294.359039
 20
154.406181
 30
0.0
 11
293.323763
 21
158.269885
 31
0.0
  0
LINE
  5
7DB
100
AcDbEntity
  8
2
370
    25
100
AcDbLine
 10
294.359039
 20
154.406181
 30
0.0
 11
294.359039
 21
220.406181
 31
0.0
  0
LINE
  5
7DC
100
AcDbEntity
  8
2
370
    25
100
AcDbLine
 10
294.359039
 20
220.406181
 30
0.0
 11
293.323763
 21
216.542478
 31
0.0
  0
LINE
  5
7DD
100
AcDbEntity
  8
2
370
    25
100
AcDbLine
 10
294.359039
 20
220.406181
 30
0.0
 11
295.394315
 21
216.542478
 31
0.0
  0
LINE
  5
7DE
100
AcDbEntity
  8
2
370
    25
100
AcDbLine
 10
263.359039
 20
220.406181
 30
0.0
 11
296.359039
 21
220.406181
 31
0.0
  0
ENDBLK
  5
7DF
100
AcDbEntity
  8
2
100
AcDbBlockEnd
  0
BLOCK
  5
7E0
100
AcDbEntity
  8
2
100
AcDbBlockBegin
  2
*D39
 70
     1
 10
0.0
 20
0.0
 30
0.0
  3
*D39
  1

  0
TEXT
  5
7E1
100
AcDbEntity
  8
2
370
    25
100
AcDbText
 10
344.330943
 20
177.40618
 30
0.0
 40
5.0
  1
30.2
 50
90.0
 41
2.0
 72
     5
 11
344.330943
 21
195.40618
 31
0.0
100
AcDbText
  0
LINE
  5
7E2
100
AcDbEntity
  8
2
370
    25
100
AcDbLine
 10
318.057732
 20
172.30618
 30
0.0
 11
347.330943
 21
172.30618
 31
0.0
  0
LINE
  5
7E3
100
AcDbEntity
  8
2
370
    25
100
AcDbLine
 10
345.330943
 20
172.30618
 30
0.0
 11
346.366219
 21
176.169883
 31
0.0
  0
LINE
  5
7E4
100
AcDbEntity
  8
2
370
    25
100
AcDbLine
 10
345.330943
 20
172.30618
 30
0.0
 11
344.295667
 21
176.169883
 31
0.0
  0
LINE
  5
7E5
100
AcDbEntity
  8
2
370
    25
100
AcDbLine
 10
345.330943
 20
172.30618
 30
0.0
 11
345.330943
 21
202.50618
 31
0.0
  0
LINE
  5
7E6
100
AcDbEntity
  8
2
370
    25
100
AcDbLine
 10
345.330943
 20
202.50618
 30
0.0
 11
344.295667
 21
198.642477
 31
0.0
  0
LINE
  5
7E7
100
AcDbEntity
  8
2
370
    25
100
AcDbLine
 10
345.330943
 20
202.50618
 30
0.0
 11
346.366219
 21
198.642477
 31
0.0
  0
LINE
  5
7E8
100
AcDbEntity
  8
2
370
    25
100
AcDbLine
 10
318.057732
 20
202.50618
 30
0.0
 11
347.330943
 21
202.50618
 31
0.0
  0
ENDBLK
  5
7E9
100
AcDbEntity
  8
2
100
AcDbBlockEnd
  0
BLOCK
  5
7EA
100
AcDbEntity
  8
2
100
AcDbBlockBegin
  2
*D40
 70
     1
 10
0.0
 20
0.0
 30
0.0
  3
*D40
  1

  0
TEXT
  5
7EB
100
AcDbEntity
  8
2
370
    25
100
AcDbText
 10
352.330943
 20
177.40618
 30
0.0
 40
5.0
  1
65.6
 50
90.0
 41
2.0
 72
     5
 11
352.330943
 21
195.40618
 31
0.0
100
AcDbText
  0
LINE
  5
7EC
100
AcDbEntity
  8
2
370
    25
100
AcDbLine
 10
316.657047
 20
154.606059
 30
0.0
 11
355.330943
 21
154.606059
 31
0.0
  0
LINE
  5
7ED
100
AcDbEntity
  8
2
370
    25
100
AcDbLine
 10
353.330943
 20
154.606059
 30
0.0
 11
354.366219
 21
158.469762
 31
0.0
  0
LINE
  5
7EE
100
AcDbEntity
  8
2
370
    25
100
AcDbLine
 10
353.330943
 20
154.606059
 30
0.0
 11
352.295667
 21
158.469762
 31
0.0
  0
LINE
  5
7EF
100
AcDbEntity
  8
2
370
    25
100
AcDbLine
 10
353.330943
 20
154.606059
 30
0.0
 11
353.330943
 21
220.206301
 31
0.0
  0
LINE
  5
7F0
100
AcDbEntity
  8
2
370
    25
100
AcDbLine
 10
353.330943
 20
220.206301
 30
0.0
 11
352.295667
 21
216.342597
 31
0.0
  0
LINE
  5
7F1
100
AcDbEntity
  8
2
370
    25
100
AcDbLine
 10
353.330943
 20
220.206301
 30
0.0
 11
354.366219
 21
216.342597
 31
0.0
  0
LINE
  5
7F2
100
AcDbEntity
  8
2
370
    25
100
AcDbLine
 10
316.657047
 20
220.206301
 30
0.0
 11
355.330943
 21
220.206301
 31
0.0
  0
ENDBLK
  5
7F3
100
AcDbEntity
  8
2
100
AcDbBlockEnd
  0
BLOCK
  5
7F4
100
AcDbEntity
  8
2
100
AcDbBlockBegin
  2
*D41
 70
     1
 10
0.0
 20
0.0
 30
0.0
  3
*D41
  1

  0
TEXT
  5
7F5
100
AcDbEntity
  8
2
370
    25
100
AcDbText
 10
257.859039
 20
249.406181
 30
0.0
 40
5.0
  1
7
 41
2.0
 72
     5
 11
260.859039
 21
249.406181
 31
0.0
100
AcDbText
  0
LINE
  5
7F6
100
AcDbEntity
  8
2
370
    25
100
AcDbLine
 10
242.859039
 20
199.206181
 30
0.0
 11
242.859039
 21
250.406181
 31
0.0
  0
LINE
  5
7F7
100
AcDbEntity
  8
2
370
    25
100
AcDbLine
 10
242.859039
 20
248.406181
 30
0.0
 11
238.995336
 21
249.441457
 31
0.0
  0
LINE
  5
7F8
100
AcDbEntity
  8
2
370
    25
100
AcDbLine
 10
242.859039
 20
248.406181
 30
0.0
 11
238.995336
 21
247.370905
 31
0.0
  0
LINE
  5
7F9
100
AcDbEntity
  8
2
370
    25
100
AcDbLine
 10
232.859039
 20
248.406181
 30
0.0
 11
264.859039
 21
248.406181
 31
0.0
  0
LINE
  5
7FA
100
AcDbEntity
  8
2
370
    25
100
AcDbLine
 10
249.859039
 20
248.406181
 30
0.0
 11
253.722743
 21
247.370905
 31
0.0
  0
LINE
  5
7FB
100
AcDbEntity
  8
2
370
    25
100
AcDbLine
 10
249.859039
 20
248.406181
 30
0.0
 11
253.722743
 21
249.441457
 31
0.0
  0
LINE
  5
7FC
100
AcDbEntity
  8
2
370
    25
100
AcDbLine
 10
249.859039
 20
226.353597
 30
0.0
 11
249.859039
 21
250.406181
 31
0.0
  0
ENDBLK
  5
7FD
100
AcDbEntity
  8
2
100
AcDbBlockEnd
  0
BLOCK
  5
7FE
100
AcDbEntity
  8
2
100
AcDbBlockBegin
  2
*D42
 70
     1
 10
0.0
 20
0.0
 30
0.0
  3
*D42
  1

  0
TEXT
  5
7FF
100
AcDbEntity
  8
2
370
    25
100
AcDbText
 10
232.359039
 20
139.406181
 30
0.0
 40
5.0
  1
25
 41
2.0
 72
     5
 11
240.359039
 21
139.406181
 31
0.0
100
AcDbText
  0
LINE
  5
800
100
AcDbEntity
  8
2
370
    25
100
AcDbLine
 10
224.859039
 20
138.406181
 30
0.0
 11
228.722743
 21
137.370905
 31
0.0
  0
LINE
  5
801
100
AcDbEntity
  8
2
370
    25
100
AcDbLine
 10
224.859039
 20
138.406181
 30
0.0
 11
228.722743
 21
139.441457
 31
0.0
  0
LINE
  5
802
100
AcDbEntity
  8
2
370
    25
100
AcDbLine
 10
224.859039
 20
138.406181
 30
0.0
 11
249.859039
 21
138.406181
 31
0.0
  0
LINE
  5
803
100
AcDbEntity
  8
2
370
    25
100
AcDbLine
 10
249.859039
 20
138.406181
 30
0.0
 11
245.995336
 21
139.441457
 31
0.0
  0
LINE
  5
804
100
AcDbEntity
  8
2
370
    25
100
AcDbLine
 10
249.859039
 20
138.406181
 30
0.0
 11
245.995336
 21
137.370905
 31
0.0
  0
LINE
  5
805
100
AcDbEntity
  8
2
370
    25
100
AcDbLine
 10
249.859039
 20
151.072301
 30
0.0
 11
249.859039
 21
136.406181
 31
0.0
  0
ENDBLK
  5
806
100
AcDbEntity
  8
2
100
AcDbBlockEnd
  0
BLOCK
  5
807
100
AcDbEntity
  8
2
100
AcDbBlockBegin
  2
*D43
 70
     1
 10
0.0
 20
0.0
 30
0.0
  3
*D43
  1

  0
TEXT
  5
808
100
AcDbEntity
  8
2
370
    25
100
AcDbText
 10
270.359039
 20
139.406181
 30
0.0
 40
5.0
  1
12.5
 41
2.0
 72
     5
 11
288.359039
 21
139.406181
 31
0.0
100
AcDbText
  0
LINE
  5
809
100
AcDbEntity
  8
2
370
    25
100
AcDbLine
 10
249.859039
 20
138.406181
 30
0.0
 11
245.995336
 21
139.441457
 31
0.0
  0
LINE
  5
80A
100
AcDbEntity
  8
2
370
    25
100
AcDbLine
 10
249.859039
 20
138.406181
 30
0.0
 11
245.995336
 21
137.370905
 31
0.0
  0
LINE
  5
80B
100
AcDbEntity
  8
2
370
    25
100
AcDbLine
 10
239.859039
 20
138.406181
 30
0.0
 11
292.359039
 21
138.406181
 31
0.0
  0
LINE
  5
80C
100
AcDbEntity
  8
2
370
    25
100
AcDbLine
 10
262.359039
 20
138.406181
 30
0.0
 11
266.222743
 21
137.370905
 31
0.0
  0
LINE
  5
80D
100
AcDbEntity
  8
2
370
    25
100
AcDbLine
 10
262.359039
 20
138.406181
 30
0.0
 11
266.222743
 21
139.441457
 31
0.0
  0
ENDBLK
  5
80E
100
AcDbEntity
  8
2
100
AcDbBlockEnd
  0
BLOCK
  5
80F
100
AcDbEntity
  8
2
100
AcDbBlockBegin
  2
*D44
 70
     1
 10
0.0
 20
0.0
 30
0.0
  3
*D44
  1

  0
TEXT
  5
810
100
AcDbEntity
  8
2
370
    25
100
AcDbText
 10
233.609039
 20
129.406181
 30
0.0
 40
5.0
  1
37.5
 41
2.0
 72
     5
 11
251.609039
 21
129.406181
 31
0.0
100
AcDbText
  0
LINE
  5
811
100
AcDbEntity
  8
2
370
    25
100
AcDbLine
 10
224.859039
 20
158.406181
 30
0.0
 11
224.859039
 21
126.406181
 31
0.0
  0
LINE
  5
812
100
AcDbEntity
  8
2
370
    25
100
AcDbLine
 10
224.859039
 20
128.406181
 30
0.0
 11
228.722743
 21
127.370905
 31
0.0
  0
LINE
  5
813
100
AcDbEntity
  8
2
370
    25
100
AcDbLine
 10
224.859039
 20
128.406181
 30
0.0
 11
228.722743
 21
129.441457
 31
0.0
  0
LINE
  5
814
100
AcDbEntity
  8
2
370
    25
100
AcDbLine
 10
224.859039
 20
128.406181
 30
0.0
 11
262.359039
 21
128.406181
 31
0.0
  0
LINE
  5
815
100
AcDbEntity
  8
2
370
    25
100
AcDbLine
 10
262.359039
 20
128.406181
 30
0.0
 11
258.495336
 21
129.441457
 31
0.0
  0
LINE
  5
816
100
AcDbEntity
  8
2
370
    25
100
AcDbLine
 10
262.359039
 20
128.406181
 30
0.0
 11
258.495336
 21
127.370905
 31
0.0
  0
LINE
  5
817
100
AcDbEntity
  8
2
370
    25
100
AcDbLine
 10
262.359039
 20
153.406181
 30
0.0
 11
262.359039
 21
126.406181
 31
0.0
  0
ENDBLK
  5
818
100
AcDbEntity
  8
2
100
AcDbBlockEnd
  0
BLOCK
  5
819
100
AcDbEntity
  8
2
100
AcDbBlockBegin
  2
*D45
 70
     1
 10
0.0
 20
0.0
 30
0.0
  3
*D45
  1

  0
TEXT
  5
81A
100
AcDbEntity
  8
2
370
    25
100
AcDbText
 10
274.624752
 20
116.883154
 30
0.0
 40
5.0
  1
1
 50
90.0
 41
2.0
 72
     5
 11
274.624752
 21
119.883154
 31
0.0
100
AcDbText
  0
LINE
  5
81B
100
AcDbEntity
  8
2
370
    25
100
AcDbLine
 10
263.359039
 20
111.883154
 30
0.0
 11
277.624752
 21
111.883154
 31
0.0
  0
LINE
  5
81C
100
AcDbEntity
  8
2
370
    25
100
AcDbLine
 10
275.624752
 20
111.883154
 30
0.0
 11
275.624752
 21
123.883154
 31
0.0
  0
LINE
  5
81D
100
AcDbEntity
  8
2
370
    25
100
AcDbLine
 10
275.624752
 20
112.883154
 30
0.0
 11
276.660028
 21
116.746857
 31
0.0
  0
LINE
  5
81E
100
AcDbEntity
  8
2
370
    25
100
AcDbLine
 10
275.624752
 20
112.883154
 30
0.0
 11
274.589476
 21
116.746857
 31
0.0
  0
CIRCLE
  5
81F
100
AcDbEntity
  8
2
370
    25
100
AcDbCircle
 10
275.624752
 20
111.883154
 30
0.0
 40
1.0
  0
CIRCLE
  5
820
100
AcDbEntity
  8
2
370
    25
100
AcDbCircle
 10
275.624752
 20
111.883154
 30
0.0
 40
0.6
  0
ENDBLK
  5
821
100
AcDbEntity
  8
2
100
AcDbBlockEnd
  0
BLOCK
  5
822
100
AcDbEntity
  8
2
100
AcDbBlockBegin
  2
*D46
 70
     1
 10
0.0
 20
0.0
 30
0.0
  3
*D46
  1

  0
TEXT
  5
823
100
AcDbEntity
  8
2
370
    25
100
AcDbText
 10
274.439999
 20
87.435422
 30
0.0
 40
5.0
  1
1.9
 50
90.0
 41
2.0
 72
     5
 11
274.439999
 21
100.435422
 31
0.0
100
AcDbText
  0
LINE
  5
824
100
AcDbEntity
  8
2
370
    25
100
AcDbLine
 10
260.692632
 20
109.983154
 30
0.0
 11
277.624752
 21
109.983154
 31
0.0
  0
LINE
  5
825
100
AcDbEntity
  8
2
370
    25
100
AcDbLine
 10
275.624752
 20
109.983154
 30
0.0
 11
274.589476
 21
106.11945
 31
0.0
  0
LINE
  5
826
100
AcDbEntity
  8
2
370
    25
100
AcDbLine
 10
275.624752
 20
109.983154
 30
0.0
 11
276.660028
 21
106.11945
 31
0.0
  0
LINE
  5
827
100
AcDbEntity
  8
2
370
    25
100
AcDbLine
 10
275.624752
 20
88.983154
 30
0.0
 11
275.624752
 21
111.883154
 31
0.0
  0
CIRCLE
  5
828
100
AcDbEntity
  8
2
370
    25
100
AcDbCircle
 10
275.624752
 20
111.883154
 30
0.0
 40
1.0
  0
CIRCLE
  5
829
100
AcDbEntity
  8
2
370
    25
100
AcDbCircle
 10
275.624752
 20
111.883154
 30
0.0
 40
0.6
  0
ENDBLK
  5
82A
100
AcDbEntity
  8
2
100
AcDbBlockEnd
  0
BLOCK
  5
82B
100
AcDbEntity
  8
2
100
AcDbBlockBegin
  2
*D47
 70
     1
 10
0.0
 20
0.0
 30
0.0
  3
*D47
  1

  0
TEXT
  5
82C
100
AcDbEntity
  8
2
370
    25
100
AcDbText
 10
283.959713
 20
102.883154
 30
0.0
 40
5.0
  1
10
 50
90.0
 41
2.0
 72
     5
 11
283.959713
 21
110.883154
 31
0.0
100
AcDbText
  0
LINE
  5
82D
100
AcDbEntity
  8
2
370
    25
100
AcDbLine
 10
257.979724
 20
102.883154
 30
0.0
 11
286.959713
 21
102.883154
 31
0.0
  0
LINE
  5
82E
100
AcDbEntity
  8
2
370
    25
100
AcDbLine
 10
284.959713
 20
102.883154
 30
0.0
 11
285.994989
 21
106.746857
 31
0.0
  0
LINE
  5
82F
100
AcDbEntity
  8
2
370
    25
100
AcDbLine
 10
284.959713
 20
102.883154
 30
0.0
 11
283.924437
 21
106.746857
 31
0.0
  0
LINE
  5
830
100
AcDbEntity
  8
2
370
    25
100
AcDbLine
 10
284.959713
 20
102.883154
 30
0.0
 11
284.959713
 21
112.883154
 31
0.0
  0
LINE
  5
831
100
AcDbEntity
  8
2
370
    25
100
AcDbLine
 10
284.959713
 20
112.883154
 30
0.0
 11
283.924437
 21
109.01945
 31
0.0
  0
LINE
  5
832
100
AcDbEntity
  8
2
370
    25
100
AcDbLine
 10
284.959713
 20
112.883154
 30
0.0
 11
285.994989
 21
109.01945
 31
0.0
  0
LINE
  5
833
100
AcDbEntity
  8
2
370
    25
100
AcDbLine
 10
263.359039
 20
112.883154
 30
0.0
 11
286.959713
 21
112.883154
 31
0.0
  0
ENDBLK
  5
834
100
AcDbEntity
  8
2
100
AcDbBlockEnd
  0
BLOCK
  5
835
100
AcDbEntity
  8
2
100
AcDbBlockBegin
  2
*D48
 70
     1
 10
0.0
 20
0.0
 30
0.0
  3
*D48
  1

  0
TEXT
  5
836
100
AcDbEntity
  8
2
370
    25
100
AcDbText
 10
240.109039
 20
82.275968
 30
0.0
 40
5.0
  1
18.1
 41
2.0
 72
     5
 11
258.109039
 21
82.275968
 31
0.0
100
AcDbText
  0
LINE
  5
837
100
AcDbEntity
  8
2
370
    25
100
AcDbLine
 10
241.059039
 20
108.983154
 30
0.0
 11
241.059039
 21
79.275968
 31
0.0
  0
LINE
  5
838
100
AcDbEntity
  8
2
370
    25
100
AcDbLine
 10
241.059039
 20
81.275968
 30
0.0
 11
244.922743
 21
80.240692
 31
0.0
  0
LINE
  5
839
100
AcDbEntity
  8
2
370
    25
100
AcDbLine
 10
241.059039
 20
81.275968
 30
0.0
 11
244.922743
 21
82.311244
 31
0.0
  0
LINE
  5
83A
100
AcDbEntity
  8
2
370
    25
100
AcDbLine
 10
241.059039
 20
81.275968
 30
0.0
 11
259.159039
 21
81.275968
 31
0.0
  0
LINE
  5
83B
100
AcDbEntity
  8
2
370
    25
100
AcDbLine
 10
259.159039
 20
81.275968
 30
0.0
 11
255.295336
 21
82.311244
 31
0.0
  0
LINE
  5
83C
100
AcDbEntity
  8
2
370
    25
100
AcDbLine
 10
259.159039
 20
81.275968
 30
0.0
 11
255.295336
 21
80.240692
 31
0.0
  0
LINE
  5
83D
100
AcDbEntity
  8
2
370
    25
100
AcDbLine
 10
259.159039
 20
108.983154
 30
0.0
 11
259.159039
 21
79.275968
 31
0.0
  0
ENDBLK
  5
83E
100
AcDbEntity
  8
2
100
AcDbBlockEnd
  0
BLOCK
  5
83F
100
AcDbEntity
  8
2
100
AcDbBlockBegin
  2
*D49
 70
     1
 10
0.0
 20
0.0
 30
0.0
  3
*D49
  1

  0
TEXT
  5
840
100
AcDbEntity
  8
2
370
    25
100
AcDbText
 10
257.859039
 20
241.406181
 30
0.0
 40
5.0
  1
2
 41
2.0
 72
     5
 11
260.859039
 21
241.406181
 31
0.0
100
AcDbText
  0
LINE
  5
841
100
AcDbEntity
  8
2
370
    25
100
AcDbLine
 10
242.859039
 20
240.406181
 30
0.0
 11
264.859039
 21
240.406181
 31
0.0
  0
LINE
  5
842
100
AcDbEntity
  8
2
370
    25
100
AcDbLine
 10
244.859039
 20
240.406181
 30
0.0
 11
248.722743
 21
239.370905
 31
0.0
  0
LINE
  5
843
100
AcDbEntity
  8
2
370
    25
100
AcDbLine
 10
244.859039
 20
240.406181
 30
0.0
 11
248.722743
 21
241.441457
 31
0.0
  0
LINE
  5
844
100
AcDbEntity
  8
2
370
    25
100
AcDbLine
 10
244.859039
 20
199.206181
 30
0.0
 11
244.859039
 21
242.406181
 31
0.0
  0
CIRCLE
  5
845
100
AcDbEntity
  8
2
370
    25
100
AcDbCircle
 10
242.859039
 20
240.406181
 30
0.0
 40
1.0
  0
CIRCLE
  5
846
100
AcDbEntity
  8
2
370
    25
100
AcDbCircle
 10
242.859039
 20
240.406181
 30
0.0
 40
0.6
  0
ENDBLK
  5
847
100
AcDbEntity
  8
2
100
AcDbBlockEnd
  0
BLOCK
  5
848
100
AcDbEntity
  8
2
100
AcDbBlockBegin
  2
*D50
 70
     1
 10
0.0
 20
0.0
 30
0.0
  3
*D50
  1

  0
TEXT
  5
849
100
AcDbEntity
  8
2
370
    25
100
AcDbText
 10
226.859039
 20
241.406181
 30
0.0
 40
5.0
  1
3
 41
2.0
 72
     5
 11
229.859039
 21
241.406181
 31
0.0
100
AcDbText
  0
LINE
  5
84A
100
AcDbEntity
  8
2
370
    25
100
AcDbLine
 10
239.859039
 20
199.206181
 30
0.0
 11
239.859039
 21
242.406181
 31
0.0
  0
LINE
  5
84B
100
AcDbEntity
  8
2
370
    25
100
AcDbLine
 10
239.859039
 20
240.406181
 30
0.0
 11
235.995336
 21
241.441457
 31
0.0
  0
LINE
  5
84C
100
AcDbEntity
  8
2
370
    25
100
AcDbLine
 10
239.859039
 20
240.406181
 30
0.0
 11
235.995336
 21
239.370905
 31
0.0
  0
LINE
  5
84D
100
AcDbEntity
  8
2
370
    25
100
AcDbLine
 10
219.859039
 20
240.406181
 30
0.0
 11
242.859039
 21
240.406181
 31
0.0
  0
CIRCLE
  5
84E
100
AcDbEntity
  8
2
370
    25
100
AcDbCircle
 10
242.859039
 20
240.406181
 30
0.0
 40
1.0
  0
CIRCLE
  5
84F
100
AcDbEntity
  8
2
370
    25
100
AcDbCircle
 10
242.859039
 20
240.406181
 30
0.0
 40
0.6
  0
ENDBLK
  5
850
100
AcDbEntity
  8
2
100
AcDbBlockEnd
  0
BLOCK
  5
851
100
AcDbEntity
  8
2
100
AcDbBlockBegin
  2
*D51
 70
     1
 10
0.0
 20
0.0
 30
0.0
  3
*D51
  1

  0
TEXT
  5
852
100
AcDbEntity
  8
2
370
    18
100
AcDbText
 10
225.118263
 20
-70.124163
 30
0.0
 40
5.0
  1
１３５
 72
     5
 11
239.118263
 21
-70.124163
 31
0.0
100
AcDbText
  0
LINE
  5
853
100
AcDbEntity
  8
2
370
    25
100
AcDbLine
 10
165.118263
 20
-37.0
 30
0.0
 11
165.118263
 21
-73.124163
 31
0.0
  0
LINE
  5
854
100
AcDbEntity
  8
2
370
    25
100
AcDbLine
 10
165.118263
 20
-71.124163
 30
0.0
 11
168.981967
 21
-72.15944
 31
0.0
  0
LINE
  5
855
100
AcDbEntity
  8
2
370
    25
100
AcDbLine
 10
165.118263
 20
-71.124163
 30
0.0
 11
168.981967
 21
-70.088887
 31
0.0
  0
LINE
  5
856
100
AcDbEntity
  8
2
370
    25
100
AcDbLine
 10
165.118263
 20
-71.124163
 30
0.0
 11
300.118263
 21
-71.124163
 31
0.0
  0
LINE
  5
857
100
AcDbEntity
  8
2
370
    25
100
AcDbLine
 10
300.118263
 20
-71.124163
 30
0.0
 11
296.25456
 21
-70.088887
 31
0.0
  0
LINE
  5
858
100
AcDbEntity
  8
2
370
    25
100
AcDbLine
 10
300.118263
 20
-71.124163
 30
0.0
 11
296.25456
 21
-72.15944
 31
0.0
  0
LINE
  5
859
100
AcDbEntity
  8
2
370
    25
100
AcDbLine
 10
300.118263
 20
-37.0
 30
0.0
 11
300.118263
 21
-73.124163
 31
0.0
  0
ENDBLK
  5
85A
100
AcDbEntity
  8
2
100
AcDbBlockEnd
  0
BLOCK
  5
85B
100
AcDbEntity
  8
2
100
AcDbBlockBegin
  2
*D52
 70
     1
 10
0.0
 20
0.0
 30
0.0
  3
*D52
  1

  0
TEXT
  5
85C
100
AcDbEntity
  8
2
370
    18
100
AcDbText
 10
-64.999978
 20
-33.330566
 30
0.0
 40
5.0
  1
１２
 72
     5
 11
-55.999978
 21
-33.330566
 31
0.0
100
AcDbText
  0
LINE
  5
85D
100
AcDbEntity
  8
2
370
    25
100
AcDbLine
 10
-65.999978
 20
-22.483319
 30
0.0
 11
-65.999978
 21
-36.330566
 31
0.0
  0
LINE
  5
85E
100
AcDbEntity
  8
2
370
    25
100
AcDbLine
 10
-65.999978
 20
-34.330566
 30
0.0
 11
-62.136275
 21
-35.365843
 31
0.0
  0
LINE
  5
85F
100
AcDbEntity
  8
2
370
    25
100
AcDbLine
 10
-65.999978
 20
-34.330566
 30
0.0
 11
-62.136275
 21
-33.29529
 31
0.0
  0
LINE
  5
860
100
AcDbEntity
  8
2
370
    25
100
AcDbLine
 10
-65.999978
 20
-34.330566
 30
0.0
 11
-53.999978
 21
-34.330566
 31
0.0
  0
LINE
  5
861
100
AcDbEntity
  8
2
370
    25
100
AcDbLine
 10
-53.999978
 20
-34.330566
 30
0.0
 11
-57.863682
 21
-33.29529
 31
0.0
  0
LINE
  5
862
100
AcDbEntity
  8
2
370
    25
100
AcDbLine
 10
-53.999978
 20
-34.330566
 30
0.0
 11
-57.863682
 21
-35.365843
 31
0.0
  0
LINE
  5
863
100
AcDbEntity
  8
2
370
    25
100
AcDbLine
 10
-53.999978
 20
-22.483319
 30
0.0
 11
-53.999978
 21
-36.330566
 31
0.0
  0
ENDBLK
  5
864
100
AcDbEntity
  8
2
100
AcDbBlockEnd
  0
BLOCK
  5
865
100
AcDbEntity
  8
2
100
AcDbBlockBegin
  2
*D53
 70
     1
 10
0.0
 20
0.0
 30
0.0
  3
*D53
  1

  0
TEXT
  5
866
100
AcDbEntity
  8
2
370
    18
100
AcDbText
 10
-65.0
 20
-99.0
 30
0.0
 40
5.0
  1
25
 41
2.0
 72
     5
 11
-57.0
 21
-99.0
 31
0.0
100
AcDbText
  0
LINE
  5
867
100
AcDbEntity
  8
2
370
    25
100
AcDbLine
 10
-72.5
 20
-75.0
 30
0.0
 11
-72.5
 21
-102.0
 31
0.0
  0
LINE
  5
868
100
AcDbEntity
  8
2
370
    25
100
AcDbLine
 10
-72.5
 20
-100.0
 30
0.0
 11
-68.636297
 21
-101.035276
 31
0.0
  0
LINE
  5
869
100
AcDbEntity
  8
2
370
    25
100
AcDbLine
 10
-72.5
 20
-100.0
 30
0.0
 11
-68.636297
 21
-98.964724
 31
0.0
  0
LINE
  5
86A
100
AcDbEntity
  8
2
370
    25
100
AcDbLine
 10
-72.5
 20
-100.0
 30
0.0
 11
-47.5
 21
-100.0
 31
0.0
  0
LINE
  5
86B
100
AcDbEntity
  8
2
370
    25
100
AcDbLine
 10
-47.5
 20
-100.0
 30
0.0
 11
-51.363703
 21
-98.964724
 31
0.0
  0
LINE
  5
86C
100
AcDbEntity
  8
2
370
    25
100
AcDbLine
 10
-47.5
 20
-100.0
 30
0.0
 11
-51.363703
 21
-101.035276
 31
0.0
  0
LINE
  5
86D
100
AcDbEntity
  8
2
370
    25
100
AcDbLine
 10
-47.5
 20
-75.0
 30
0.0
 11
-47.5
 21
-102.0
 31
0.0
  0
ENDBLK
  5
86E
100
AcDbEntity
  8
2
100
AcDbBlockEnd
  0
BLOCK
  5
86F
100
AcDbEntity
  8
2
100
AcDbBlockBegin
  2
*D54
 70
     1
 10
0.0
 20
0.0
 30
0.0
  3
*D54
  1

  0
TEXT
  5
870
100
AcDbEntity
  8
2
370
    25
100
AcDbText
 10
-20.75
 20
-99.0
 30
0.0
 40
5.0
  1
５８．５
 72
     5
 11
-1.75
 21
-99.0
 31
0.0
100
AcDbText
  0
LINE
  5
871
100
AcDbEntity
  8
2
370
    25
100
AcDbLine
 10
-40.0
 20
-60.0
 30
0.0
 11
-40.0
 21
-102.0
 31
0.0
  0
LINE
  5
872
100
AcDbEntity
  8
2
370
    25
100
AcDbLine
 10
-40.0
 20
-100.0
 30
0.0
 11
-36.136297
 21
-101.035276
 31
0.0
  0
LINE
  5
873
100
AcDbEntity
  8
2
370
    25
100
AcDbLine
 10
-40.0
 20
-100.0
 30
0.0
 11
-36.136297
 21
-98.964724
 31
0.0
  0
LINE
  5
874
100
AcDbEntity
  8
2
370
    25
100
AcDbLine
 10
-40.0
 20
-100.0
 30
0.0
 11
18.5
 21
-100.0
 31
0.0
  0
LINE
  5
875
100
AcDbEntity
  8
2
370
    25
100
AcDbLine
 10
18.5
 20
-100.0
 30
0.0
 11
14.636297
 21
-98.964724
 31
0.0
  0
LINE
  5
876
100
AcDbEntity
  8
2
370
    25
100
AcDbLine
 10
18.5
 20
-100.0
 30
0.0
 11
14.636297
 21
-101.035276
 31
0.0
  0
LINE
  5
877
100
AcDbEntity
  8
2
370
    25
100
AcDbLine
 10
18.5
 20
-37.0
 30
0.0
 11
18.5
 21
-102.0
 31
0.0
  0
ENDBLK
  5
878
100
AcDbEntity
  8
2
100
AcDbBlockEnd
  0
BLOCK
  5
879
100
AcDbEntity
  8
2
100
AcDbBlockBegin
  2
*D55
 70
     1
 10
0.0
 20
0.0
 30
0.0
  3
*D55
  1

  0
TEXT
  5
87A
100
AcDbEntity
  8
2
370
    25
100
AcDbText
 10
-119.25
 20
-99.0
 30
0.0
 40
5.0
  1
５８．５
 72
     5
 11
-100.25
 21
-99.0
 31
0.0
100
AcDbText
  0
LINE
  5
87B
100
AcDbEntity
  8
2
370
    25
100
AcDbLine
 10
-138.5
 20
-37.0
 30
0.0
 11
-138.5
 21
-102.0
 31
0.0
  0
LINE
  5
87C
100
AcDbEntity
  8
2
370
    25
100
AcDbLine
 10
-138.5
 20
-100.0
 30
0.0
 11
-134.636297
 21
-101.035276
 31
0.0
  0
LINE
  5
87D
100
AcDbEntity
  8
2
370
    25
100
AcDbLine
 10
-138.5
 20
-100.0
 30
0.0
 11
-134.636297
 21
-98.964724
 31
0.0
  0
LINE
  5
87E
100
AcDbEntity
  8
2
370
    25
100
AcDbLine
 10
-138.5
 20
-100.0
 30
0.0
 11
-80.0
 21
-100.0
 31
0.0
  0
LINE
  5
87F
100
AcDbEntity
  8
2
370
    25
100
AcDbLine
 10
-80.0
 20
-100.0
 30
0.0
 11
-83.863703
 21
-98.964724
 31
0.0
  0
LINE
  5
880
100
AcDbEntity
  8
2
370
    25
100
AcDbLine
 10
-80.0
 20
-100.0
 30
0.0
 11
-83.863703
 21
-101.035276
 31
0.0
  0
LINE
  5
881
100
AcDbEntity
  8
2
370
    25
100
AcDbLine
 10
-80.0
 20
-60.0
 30
0.0
 11
-80.0
 21
-102.0
 31
0.0
  0
ENDBLK
  5
882
100
AcDbEntity
  8
2
100
AcDbBlockEnd
  0
BLOCK
  5
883
100
AcDbEntity
  8
2
100
AcDbBlockBegin
  2
*D56
 70
     1
 10
0.0
 20
0.0
 30
0.0
  3
*D56
  1

  0
TEXT
  5
884
100
AcDbEntity
  8
2
370
    25
100
AcDbText
 10
170.618263
 20
-94.0
 30
0.0
 40
5.0
  1
51
 41
2.0
 72
     5
 11
178.618263
 21
-94.0
 31
0.0
100
AcDbText
  0
LINE
  5
885
100
AcDbEntity
  8
2
370
    25
100
AcDbLine
 10
135.118263
 20
-81.0
 30
0.0
 11
135.118263
 21
-97.0
 31
0.0
  0
LINE
  5
886
100
AcDbEntity
  8
2
370
    25
100
AcDbLine
 10
135.118263
 20
-95.0
 30
0.0
 11
138.981967
 21
-96.035276
 31
0.0
  0
LINE
  5
887
100
AcDbEntity
  8
2
370
    25
100
AcDbLine
 10
135.118263
 20
-95.0
 30
0.0
 11
138.981967
 21
-93.964724
 31
0.0
  0
LINE
  5
888
100
AcDbEntity
  8
2
370
    25
100
AcDbLine
 10
135.118263
 20
-95.0
 30
0.0
 11
186.118263
 21
-95.0
 31
0.0
  0
LINE
  5
889
100
AcDbEntity
  8
2
370
    25
100
AcDbLine
 10
186.118263
 20
-95.0
 30
0.0
 11
182.25456
 21
-93.964724
 31
0.0
  0
LINE
  5
88A
100
AcDbEntity
  8
2
370
    25
100
AcDbLine
 10
186.118263
 20
-95.0
 30
0.0
 11
182.25456
 21
-96.035276
 31
0.0
  0
LINE
  5
88B
100
AcDbEntity
  8
2
370
    25
100
AcDbLine
 10
186.118263
 20
-66.0
 30
0.0
 11
186.118263
 21
-97.0
 31
0.0
  0
ENDBLK
  5
88C
100
AcDbEntity
  8
2
100
AcDbBlockEnd
  0
BLOCK
  5
88D
100
AcDbEntity
  8
2
100
AcDbBlockBegin
  2
*D57
 70
     1
 10
0.0
 20
0.0
 30
0.0
  3
*D57
  1

  0
LINE
  5
88E
100
AcDbEntity
  8
2
370
    25
100
AcDbLine
 10
-80.0
 20
39.5
 30
0.0
 11
-80.0
 21
62.0
 31
0.0
  0
LINE
  5
88F
100
AcDbEntity
  8
2
370
    25
100
AcDbLine
 10
-80.0
 20
60.0
 30
0.0
 11
-76.136297
 21
58.964724
 31
0.0
  0
LINE
  5
890
100
AcDbEntity
  8
2
370
    25
100
AcDbLine
 10
-80.0
 20
60.0
 30
0.0
 11
-76.136297
 21
61.035276
 31
0.0
  0
LINE
  5
891
100
AcDbEntity
  8
2
370
    25
100
AcDbLine
 10
-80.0
 20
60.0
 30
0.0
 11
-40.0
 21
60.0
 31
0.0
  0
LINE
  5
892
100
AcDbEntity
  8
2
370
    25
100
AcDbLine
 10
-40.0
 20
60.0
 30
0.0
 11
-43.863703
 21
61.035276
 31
0.0
  0
LINE
  5
893
100
AcDbEntity
  8
2
370
    25
100
AcDbLine
 10
-40.0
 20
60.0
 30
0.0
 11
-43.863703
 21
58.964724
 31
0.0
  0
LINE
  5
894
100
AcDbEntity
  8
2
370
    25
100
AcDbLine
 10
-40.0
 20
39.5
 30
0.0
 11
-40.0
 21
62.0
 31
0.0
  0
ENDBLK
  5
895
100
AcDbEntity
  8
2
100
AcDbBlockEnd
  0
ENDSEC
  0
SECTION
  2
ENTITIES
  0
LINE
  5
5F
100
AcDbEntity
  8
1
370
    50
100
AcDbLine
 10
-30.0
 20
-14.5
 30
0.0
 11
-30.0
 21
-57.5
 31
0.0
  0
LINE
  5
60
100
AcDbEntity
  8
1
370
    50
100
AcDbLine
 10
-40.0
 20
-59.0
 30
0.0
 11
-31.5
 21
-59.0
 31
0.0
  0
LINE
  5
61
100
AcDbEntity
  8
1
370
    50
100
AcDbLine
 10
-40.0
 20
-13.0
 30
0.0
 11
-31.5
 21
-13.0
 31
0.0
  0
ARC
  5
62
100
AcDbEntity
  8
1
370
    50
100
AcDbCircle
 10
-30.0
 20
-25.500186
 30
0.0
 40
0.500186
100
AcDbArc
 50
358.435894
 51
90.0
  0
ARC
  5
63
100
AcDbEntity
  8
1
370
    50
100
AcDbCircle
 10
-30.0
 20
-46.486161
 30
0.0
 40
0.5
100
AcDbArc
 50
268.415439
 51
360.0
  0
ARC
  5
64
100
AcDbEntity
  8
1
370
    50
100
AcDbCircle
 10
-31.5
 20
-14.5
 30
0.0
 40
1.5
100
AcDbArc
 50
0.0
 51
90.0
  0
ARC
  5
65
100
AcDbEntity
  8
1
370
    50
100
AcDbCircle
 10
-31.5
 20
-57.5
 30
0.0
 40
1.5
100
AcDbArc
 50
270.0
 51
360.0
  0
LINE
  5
66
100
AcDbEntity
  8
1
370
    50
100
AcDbLine
 10
-38.5
 20
-34.0
 30
0.0
 11
-36.0
 21
-34.0
 31
0.0
  0
LINE
  5
67
100
AcDbEntity
  8
1
370
    50
100
AcDbLine
 10
-38.5
 20
-38.0
 30
0.0
 11
-36.0
 21
-38.0
 31
0.0
  0
LINE
  5
68
100
AcDbEntity
  8
1
370
    50
100
AcDbLine
 10
-36.0
 20
-34.0
 30
0.0
 11
-36.0
 21
-38.0
 31
0.0
  0
LINE
  5
69
100
AcDbEntity
  8
1
370
    50
100
AcDbLine
 10
-37.0
 20
-34.0
 30
0.0
 11
-37.0
 21
-38.0
 31
0.0
  0
LINE
  5
6A
100
AcDbEntity
  8
1
370
    50
100
AcDbLine
 10
-38.5
 20
-34.0
 30
0.0
 11
-38.5
 21
-38.0
 31
0.0
  0
LINE
  5
6B
100
AcDbEntity
  8
1
370
    50
100
AcDbLine
 10
-39.0
 20
-33.0
 30
0.0
 11
-39.0
 21
-39.0
 31
0.0
  0
LINE
  5
6C
100
AcDbEntity
  8
1
370
    50
100
AcDbLine
 10
-39.0
 20
-33.0
 30
0.0
 11
-40.0
 21
-33.0
 31
0.0
  0
LINE
  5
6D
100
AcDbEntity
  8
1
370
    50
100
AcDbLine
 10
-39.0
 20
-39.0
 30
0.0
 11
-40.0
 21
-39.0
 31
0.0
  0
LINE
  5
6E
100
AcDbEntity
  8
1
370
    50
100
AcDbLine
 10
-40.0
 20
-59.0
 30
0.0
 11
-40.0
 21
-13.0
 31
0.0
  0
LINE
  5
6F
100
AcDbEntity
  8
1
370
    50
100
AcDbLine
 10
-90.0
 20
-14.5
 30
0.0
 11
-90.0
 21
-57.5
 31
0.0
  0
LINE
  5
70
100
AcDbEntity
  8
1
370
    50
100
AcDbLine
 10
-80.0
 20
-59.0
 30
0.0
 11
-88.5
 21
-59.0
 31
0.0
  0
LINE
  5
71
100
AcDbEntity
  8
1
370
    50
100
AcDbLine
 10
-80.0
 20
-13.0
 30
0.0
 11
-88.5
 21
-13.0
 31
0.0
  0
ARC
  5
72
100
AcDbEntity
  8
1
370
    50
100
AcDbCircle
 10
-90.0
 20
-25.500186
 30
0.0
 40
0.500186
100
AcDbArc
 50
90.0
 51
181.564106
  0
ARC
  5
73
100
AcDbEntity
  8
1
370
    50
100
AcDbCircle
 10
-90.0
 20
-46.486161
 30
0.0
 40
0.5
100
AcDbArc
 50
180.0
 51
271.584561
  0
ARC
  5
74
100
AcDbEntity
  8
1
370
    50
100
AcDbCircle
 10
-88.5
 20
-14.5
 30
0.0
 40
1.5
100
AcDbArc
 50
90.0
 51
180.0
  0
ARC
  5
75
100
AcDbEntity
  8
1
370
    50
100
AcDbCircle
 10
-88.5
 20
-57.5
 30
0.0
 40
1.5
100
AcDbArc
 50
180.0
 51
270.0
  0
LINE
  5
76
100
AcDbEntity
  8
1
370
    50
100
AcDbLine
 10
-81.5
 20
-34.0
 30
0.0
 11
-84.0
 21
-34.0
 31
0.0
  0
LINE
  5
77
100
AcDbEntity
  8
1
370
    50
100
AcDbLine
 10
-81.5
 20
-38.0
 30
0.0
 11
-84.0
 21
-38.0
 31
0.0
  0
LINE
  5
78
100
AcDbEntity
  8
1
370
    50
100
AcDbLine
 10
-84.0
 20
-34.0
 30
0.0
 11
-84.0
 21
-38.0
 31
0.0
  0
LINE
  5
79
100
AcDbEntity
  8
1
370
    50
100
AcDbLine
 10
-83.0
 20
-34.0
 30
0.0
 11
-83.0
 21
-38.0
 31
0.0
  0
LINE
  5
7A
100
AcDbEntity
  8
1
370
    50
100
AcDbLine
 10
-81.5
 20
-34.0
 30
0.0
 11
-81.5
 21
-38.0
 31
0.0
  0
LINE
  5
7B
100
AcDbEntity
  8
1
370
    50
100
AcDbLine
 10
-81.0
 20
-33.0
 30
0.0
 11
-81.0
 21
-39.0
 31
0.0
  0
LINE
  5
7C
100
AcDbEntity
  8
1
370
    50
100
AcDbLine
 10
-81.0
 20
-33.0
 30
0.0
 11
-80.0
 21
-33.0
 31
0.0
  0
LINE
  5
7D
100
AcDbEntity
  8
1
370
    50
100
AcDbLine
 10
-81.0
 20
-39.0
 30
0.0
 11
-80.0
 21
-39.0
 31
0.0
  0
LINE
  5
7E
100
AcDbEntity
  8
1
370
    50
100
AcDbLine
 10
-80.0
 20
-59.0
 30
0.0
 11
-80.0
 21
-13.0
 31
0.0
  0
ARC
  5
7F
100
AcDbEntity
  8
1
370
    50
100
AcDbCircle
 10
186.118263
 20
-36.0
 30
0.0
 40
23.0
100
AcDbArc
 50
22.188806
 51
338.811194
  0
LINE
  5
80
100
AcDbEntity
  8
1
370
    50
100
AcDbLine
 10
-72.5
 20
-33.0
 30
0.0
 11
-80.0
 21
-33.0
 31
0.0
  0
LINE
  5
81
100
AcDbEntity
  8
1
370
    50
100
AcDbLine
 10
-72.5
 20
-39.0
 30
0.0
 11
-80.0
 21
-39.0
 31
0.0
  0
LINE
  5
82
100
AcDbEntity
  8
1
370
    50
100
AcDbLine
 10
-40.0
 20
-34.0
 30
0.0
 11
-47.5
 21
-34.0
 31
0.0
  0
LINE
  5
83
100
AcDbEntity
  8
1
370
    50
100
AcDbLine
 10
-40.0
 20
-38.0
 30
0.0
 11
-47.5
 21
-38.0
 31
0.0
  0
LINE
  5
84
100
AcDbEntity
  8
1
370
    25
100
AcDbLine
 10
-40.0
 20
-37.5
 30
0.0
 11
-47.5
 21
-37.5
 31
0.0
  0
LINE
  5
85
100
AcDbEntity
  8
1
370
    25
100
AcDbLine
 10
-47.5
 20
-34.5
 30
0.0
 11
-40.0
 21
-34.5
 31
0.0
  0
LINE
  5
86
100
AcDbEntity
  8
1
370
    50
100
AcDbLine
 10
-80.0
 20
-32.5
 30
0.0
 11
-72.5
 21
-32.5
 31
0.0
  0
LINE
  5
87
100
AcDbEntity
  8
1
370
    50
100
AcDbLine
 10
-47.5
 20
-32.5
 30
0.0
 11
-40.0
 21
-32.5
 31
0.0
  0
LINE
  5
88
100
AcDbEntity
  8
1
370
    50
100
AcDbLine
 10
-80.0
 20
-39.5
 30
0.0
 11
-72.5
 21
-39.5
 31
0.0
  0
LINE
  5
89
100
AcDbEntity
  8
1
370
    50
100
AcDbLine
 10
-47.5
 20
-39.5
 30
0.0
 11
-40.0
 21
-39.5
 31
0.0
  0
LINE
  5
8A
100
AcDbEntity
  8
1
370
    50
100
AcDbLine
 10
-40.0
 20
171.149401
 30
0.0
 11
-40.0
 21
125.149401
 31
0.0
  0
LINE
  5
8B
100
AcDbEntity
  8
1
370
    50
100
AcDbLine
 10
-40.0
 20
171.149401
 30
0.0
 11
-31.5
 21
171.149401
 31
0.0
  0
ARC
  5
8C
100
AcDbEntity
  8
1
370
    50
100
AcDbCircle
 10
-31.5
 20
169.649401
 30
0.0
 40
1.5
100
AcDbArc
 50
0.0
 51
90.0
  0
ARC
  5
8D
100
AcDbEntity
  8
1
370
    50
100
AcDbCircle
 10
-31.5
 20
126.649401
 30
0.0
 40
1.5
100
AcDbArc
 50
270.0
 51
360.0
  0
LINE
  5
8E
100
AcDbEntity
  8
1
370
    50
100
AcDbLine
 10
-40.0
 20
125.149401
 30
0.0
 11
-31.5
 21
125.149401
 31
0.0
  0
LINE
  5
8F
100
AcDbEntity
  8
1
370
    50
100
AcDbLine
 10
-80.0
 20
171.149401
 30
0.0
 11
-80.0
 21
125.149401
 31
0.0
  0
LINE
  5
90
100
AcDbEntity
  8
1
370
    50
100
AcDbLine
 10
-80.0
 20
171.149401
 30
0.0
 11
-88.5
 21
171.149401
 31
0.0
  0
ARC
  5
91
100
AcDbEntity
  8
1
370
    50
100
AcDbCircle
 10
-88.5
 20
169.649401
 30
0.0
 40
1.5
100
AcDbArc
 50
90.0
 51
180.0
  0
ARC
  5
92
100
AcDbEntity
  8
1
370
    50
100
AcDbCircle
 10
-88.5
 20
126.649401
 30
0.0
 40
1.5
100
AcDbArc
 50
180.0
 51
270.0
  0
LINE
  5
93
100
AcDbEntity
  8
1
370
    50
100
AcDbLine
 10
-80.0
 20
125.149401
 30
0.0
 11
-88.5
 21
125.149401
 31
0.0
  0
ARC
  5
94
100
AcDbEntity
  8
1
370
    25
100
AcDbCircle
 10
-90.0
 20
137.649401
 30
0.0
 40
0.5
100
AcDbArc
 50
180.0
 51
270.0
  0
ARC
  5
95
100
AcDbEntity
  8
1
370
    25
100
AcDbCircle
 10
-90.0
 20
158.649401
 30
0.0
 40
0.5
100
AcDbArc
 50
90.0
 51
180.0
  0
LINE
  5
96
100
AcDbEntity
  8
1
370
    18
  6
CENTER
100
AcDbLine
 10
-40.0
 20
133.149401
 30
0.0
 11
-80.0
 21
133.149401
 31
0.0
  0
LINE
  5
97
100
AcDbEntity
  8
1
370
    18
  6
CENTER
100
AcDbLine
 10
-40.0
 20
163.149401
 30
0.0
 11
-80.0
 21
163.149401
 31
0.0
  0
LINE
  5
98
100
AcDbEntity
  8
1
370
    50
100
AcDbLine
 10
-80.0
 20
166.149401
 30
0.0
 11
-68.2
 21
166.149401
 31
0.0
  0
LINE
  5
99
100
AcDbEntity
  8
1
370
    50
100
AcDbLine
 10
-80.0
 20
160.149401
 30
0.0
 11
-68.2
 21
160.149401
 31
0.0
  0
LINE
  5
9A
100
AcDbEntity
  8
1
370
    50
100
AcDbLine
 10
-80.0
 20
136.149401
 30
0.0
 11
-68.2
 21
136.149401
 31
0.0
  0
LINE
  5
9B
100
AcDbEntity
  8
1
370
    50
100
AcDbLine
 10
-68.2
 20
130.149401
 30
0.0
 11
-80.0
 21
130.149401
 31
0.0
  0
LINE
  5
9C
100
AcDbEntity
  8
1
370
    50
100
AcDbLine
 10
-51.8
 20
135.149401
 30
0.0
 11
-40.0
 21
135.149401
 31
0.0
  0
LINE
  5
9D
100
AcDbEntity
  8
1
370
    50
100
AcDbLine
 10
-51.8
 20
131.149401
 30
0.0
 11
-40.0
 21
131.149401
 31
0.0
  0
LINE
  5
9E
100
AcDbEntity
  8
1
370
    25
100
AcDbLine
 10
-51.8
 20
131.549401
 30
0.0
 11
-40.0
 21
131.549401
 31
0.0
  0
LINE
  5
9F
100
AcDbEntity
  8
1
370
    25
100
AcDbLine
 10
-40.0
 20
134.749401
 30
0.0
 11
-51.8
 21
134.749401
 31
0.0
  0
LINE
  5
A0
100
AcDbEntity
  8
1
370
    50
100
AcDbLine
 10
-51.8
 20
165.149401
 30
0.0
 11
-40.0
 21
165.149401
 31
0.0
  0
LINE
  5
A1
100
AcDbEntity
  8
1
370
    50
100
AcDbLine
 10
-51.8
 20
161.149401
 30
0.0
 11
-40.0
 21
161.149401
 31
0.0
  0
LINE
  5
A2
100
AcDbEntity
  8
1
370
    25
100
AcDbLine
 10
-51.8
 20
161.549401
 30
0.0
 11
-40.0
 21
161.549401
 31
0.0
  0
LINE
  5
A3
100
AcDbEntity
  8
1
370
    25
100
AcDbLine
 10
-40.0
 20
164.749401
 30
0.0
 11
-51.8
 21
164.749401
 31
0.0
  0
ARC
  5
A4
100
AcDbEntity
  8
1
370
    50
100
AcDbCircle
 10
-226.118263
 20
-36.0
 30
0.0
 40
23.0
100
AcDbArc
 50
201.188806
 51
157.811194
  0
LINE
  5
A5
100
AcDbEntity
  8
1
370
    50
100
AcDbLine
 10
-72.5
 20
50.0
 30
0.0
 11
-72.5
 21
-80.0
 31
0.0
  0
LINE
  5
A6
100
AcDbEntity
  8
1
370
    50
100
AcDbLine
 10
-47.5
 20
50.0
 30
0.0
 11
-47.5
 21
-80.0
 31
0.0
  0
LINE
  5
A7
100
AcDbEntity
  8
1
370
    50
100
AcDbLine
 10
-72.5
 20
-80.0
 30
0.0
 11
-47.5
 21
-80.0
 31
0.0
  0
LINE
  5
A8
100
AcDbEntity
  8
1
370
    18
  6
CENTER
100
AcDbLine
 10
-60.0
 20
56.381966
 30
0.0
 11
-60.0
 21
-86.74741
 31
0.0
  0
LINE
  5
A9
100
AcDbEntity
  8
1
370
    50
100
AcDbLine
 10
-67.4
 20
-22.671793
 30
0.0
 11
-67.4
 21
-5.328207
 31
0.0
  0
LINE
  5
AA
100
AcDbEntity
  8
1
370
    50
100
AcDbLine
 10
-52.6
 20
-22.671793
 30
0.0
 11
-52.6
 21
-5.328207
 31
0.0
  0
LINE
  5
AB
100
AcDbEntity
  8
1
370
    50
100
AcDbLine
 10
-72.5
 20
50.0
 30
0.0
 11
-47.5
 21
50.0
 31
0.0
  0
LINE
  5
AC
100
AcDbEntity
  8
1
370
    18
  6
CENTER
100
AcDbLine
 10
-66.69899
 20
42.0
 30
0.0
 11
-53.434334
 21
42.0
 31
0.0
  0
LINE
  5
AD
100
AcDbEntity
  8
1
370
    18
  6
CENTER
100
AcDbLine
 10
-66.69899
 20
-72.0
 30
0.0
 11
-53.434334
 21
-72.0
 31
0.0
  0
ARC
  5
AE
100
AcDbEntity
  8
1
370
    50
100
AcDbCircle
 10
-60.0
 20
-14.0
 30
0.0
 40
11.4
100
AcDbArc
 50
49.524502
 51
61.18994
  0
ARC
  5
AF
100
AcDbEntity
  8
1
370
    50
100
AcDbCircle
 10
-60.0
 20
-14.0
 30
0.0
 40
11.4
100
AcDbArc
 50
118.81006
 51
130.475498
  0
ARC
  5
B0
100
AcDbEntity
  8
1
370
    50
100
AcDbCircle
 10
-60.0
 20
-14.0
 30
0.0
 40
11.4
100
AcDbArc
 50
229.524502
 51
241.18994
  0
ARC
  5
B1
100
AcDbEntity
  8
1
370
    50
100
AcDbCircle
 10
-60.0
 20
-14.0
 30
0.0
 40
11.4
100
AcDbArc
 50
298.81006
 51
310.475498
  0
ARC
  5
B2
100
AcDbEntity
  8
1
370
    50
100
AcDbCircle
 10
-59.999978
 20
-14.000004
 30
0.0
 40
10.0
100
AcDbArc
 50
56.251011
 51
123.748989
  0
ARC
  5
B3
100
AcDbEntity
  8
1
370
    50
100
AcDbCircle
 10
-59.999978
 20
-14.000004
 30
0.0
 40
10.0
100
AcDbArc
 50
236.251011
 51
303.748989
  0
LINE
  5
B4
100
AcDbEntity
  8
1
370
    25
100
AcDbLine
 10
-54.401878
 20
-6.000004
 30
0.0
 11
-54.401878
 21
-9.540716
 31
0.0
  0
LINE
  5
B5
100
AcDbEntity
  8
1
370
    25
100
AcDbLine
 10
-54.401878
 20
-18.459284
 30
0.0
 11
-54.401878
 21
-22.000004
 31
0.0
  0
ARC
  5
B6
100
AcDbEntity
  8
1
370
    50
100
AcDbCircle
 10
-54.999978
 20
-6.516689
 30
0.0
 40
1.0
100
AcDbArc
 50
0.0
 51
56.251011
  0
ARC
  5
B7
100
AcDbEntity
  8
1
370
    50
100
AcDbCircle
 10
-64.999978
 20
-6.516689
 30
0.0
 40
1.0
100
AcDbArc
 50
123.748989
 51
180.0
  0
ARC
  5
B8
100
AcDbEntity
  8
1
370
    50
100
AcDbCircle
 10
-54.999978
 20
-21.483319
 30
0.0
 40
1.0
100
AcDbArc
 50
303.748989
 51
360.0
  0
ARC
  5
B9
100
AcDbEntity
  8
1
370
    50
100
AcDbCircle
 10
-64.999978
 20
-21.483319
 30
0.0
 40
1.0
100
AcDbArc
 50
180.0
 51
236.251011
  0
LINE
  5
BA
100
AcDbEntity
  8
1
370
    50
100
AcDbLine
 10
-65.999978
 20
-11.985299
 30
0.0
 11
-65.999978
 21
-6.516689
 31
0.0
  0
LINE
  5
BB
100
AcDbEntity
  8
1
370
    50
100
AcDbLine
 10
-65.999978
 20
-21.483319
 30
0.0
 11
-65.999978
 21
-16.014747
 31
0.0
  0
LINE
  5
BC
100
AcDbEntity
  8
1
370
    50
100
AcDbLine
 10
-53.999978
 20
-11.985298
 30
0.0
 11
-53.999978
 21
-6.516689
 31
0.0
  0
LINE
  5
BD
100
AcDbEntity
  8
1
370
    50
100
AcDbLine
 10
-53.999978
 20
-21.483319
 30
0.0
 11
-53.999978
 21
-16.014748
 31
0.0
  0
LINE
  5
BE
100
AcDbEntity
  8
1
370
    50
100
AcDbLine
 10
-65.999978
 20
-16.014747
 30
0.0
 11
-65.999978
 21
-11.985299
 31
0.0
  0
LINE
  5
BF
100
AcDbEntity
  8
1
370
    50
100
AcDbLine
 10
-53.999978
 20
-16.014748
 30
0.0
 11
-53.999978
 21
-11.985298
 31
0.0
  0
ARC
  5
C0
100
AcDbEntity
  8
1
370
    50
100
AcDbCircle
 10
-60.0
 20
-14.0
 30
0.0
 40
11.6
100
AcDbArc
 50
243.227412
 51
296.772588
  0
ARC
  5
C1
100
AcDbEntity
  8
1
370
    50
100
AcDbCircle
 10
-60.0
 20
-14.0
 30
0.0
 40
11.6
100
AcDbArc
 50
63.227412
 51
116.772588
  0
LINE
  5
C2
100
AcDbEntity
  8
1
370
    50
100
AcDbLine
 10
-65.5
 20
-23.910096
 30
0.0
 11
-65.5
 21
-23.813893
 31
0.0
  0
LINE
  5
C3
100
AcDbEntity
  8
1
370
    50
100
AcDbLine
 10
-65.5
 20
-4.186107
 30
0.0
 11
-65.5
 21
-4.089904
 31
0.0
  0
LINE
  5
C4
100
AcDbEntity
  8
1
370
    50
100
AcDbLine
 10
-54.5
 20
-23.910096
 30
0.0
 11
-54.5
 21
-23.813893
 31
0.0
  0
LINE
  5
C5
100
AcDbEntity
  8
1
370
    50
100
AcDbLine
 10
-54.5
 20
-4.186107
 30
0.0
 11
-54.5
 21
-4.089904
 31
0.0
  0
LINE
  5
C6
100
AcDbEntity
  8
1
370
    50
100
AcDbLine
 10
-52.75
 20
-22.3666
 30
0.0
 11
-52.75
 21
-5.6334
 31
0.0
  0
ARC
  5
C7
100
AcDbEntity
  8
1
370
    50
100
AcDbCircle
 10
-60.0
 20
-14.0
 30
0.0
 40
11.25
100
AcDbArc
 50
119.267578
 51
129.93069
  0
ARC
  5
C8
100
AcDbEntity
  8
1
370
    50
100
AcDbCircle
 10
-60.0
 20
-14.0
 30
0.0
 40
11.25
100
AcDbArc
 50
50.06931
 51
60.732422
  0
ARC
  5
C9
100
AcDbEntity
  8
1
370
    50
100
AcDbCircle
 10
-60.0
 20
-14.0
 30
0.0
 40
11.25
100
AcDbArc
 50
230.06931
 51
240.732422
  0
ARC
  5
CA
100
AcDbEntity
  8
1
370
    50
100
AcDbCircle
 10
-60.0
 20
-14.0
 30
0.0
 40
11.25
100
AcDbArc
 50
299.267578
 51
309.93069
  0
ARC
  5
CB
100
AcDbEntity
  8
1
370
    50
100
AcDbCircle
 10
-53.1
 20
-22.243331
 30
0.0
 40
0.5
100
AcDbArc
 50
309.93069
 51
360.0
  0
ARC
  5
CC
100
AcDbEntity
  8
1
370
    50
100
AcDbCircle
 10
-53.25
 20
-22.3666
 30
0.0
 40
0.5
100
AcDbArc
 50
308.895871
 51
360.0
  0
ARC
  5
CD
100
AcDbEntity
  8
1
370
    50
100
AcDbCircle
 10
-53.1
 20
-5.756669
 30
0.0
 40
0.5
100
AcDbArc
 50
0.0
 51
50.06931
  0
ARC
  5
CE
100
AcDbEntity
  8
1
370
    50
100
AcDbCircle
 10
-66.9
 20
-5.756669
 30
0.0
 40
0.5
100
AcDbArc
 50
129.93069
 51
180.0
  0
ARC
  5
CF
100
AcDbEntity
  8
1
370
    50
100
AcDbCircle
 10
-66.9
 20
-22.243331
 30
0.0
 40
0.5
100
AcDbArc
 50
180.0
 51
230.06931
  0
ARC
  5
D0
100
AcDbEntity
  8
1
370
    50
100
AcDbCircle
 10
-66.75
 20
-22.3666
 30
0.0
 40
0.5
100
AcDbArc
 50
180.0
 51
231.104129
  0
ARC
  5
D1
100
AcDbEntity
  8
1
370
    50
100
AcDbCircle
 10
-66.75
 20
-5.6334
 30
0.0
 40
0.5
100
AcDbArc
 50
128.895871
 51
180.0
  0
ARC
  5
D2
100
AcDbEntity
  8
1
370
    50
100
AcDbCircle
 10
-53.25
 20
-5.6334
 30
0.0
 40
0.5
100
AcDbArc
 50
0.0
 51
51.104129
  0
ARC
  5
D3
100
AcDbEntity
  8
1
370
    50
100
AcDbCircle
 10
-55.0
 20
-4.089904
 30
0.0
 40
0.5
100
AcDbArc
 50
0.0
 51
63.227412
  0
ARC
  5
D4
100
AcDbEntity
  8
1
370
    50
100
AcDbCircle
 10
-65.0
 20
-4.089904
 30
0.0
 40
0.5
100
AcDbArc
 50
116.772588
 51
180.0
  0
ARC
  5
D5
100
AcDbEntity
  8
1
370
    50
100
AcDbCircle
 10
-65.0
 20
-23.910096
 30
0.0
 40
0.5
100
AcDbArc
 50
180.0
 51
243.227412
  0
ARC
  5
D6
100
AcDbEntity
  8
1
370
    50
100
AcDbCircle
 10
-55.0
 20
-23.910096
 30
0.0
 40
0.5
100
AcDbArc
 50
296.772588
 51
360.0
  0
LINE
  5
D7
100
AcDbEntity
  8
1
370
    50
100
AcDbLine
 10
-67.25
 20
-22.3666
 30
0.0
 11
-67.25
 21
-5.6334
 31
0.0
  0
LINE
  5
D8
100
AcDbEntity
  8
1
370
    25
100
AcDbLine
 10
-59.999977
 20
44.199965
 30
0.0
 11
-59.499977
 21
44.199965
 31
0.0
  0
ARC
  5
D9
100
AcDbEntity
  8
1
370
    25
100
AcDbCircle
 10
-57.799977
 20
44.199965
 30
0.0
 40
1.7
100
AcDbArc
 50
180.0
 51
270.0
  0
LINE
  5
DA
100
AcDbEntity
  8
1
370
    25
100
AcDbLine
 10
-57.799977
 20
42.499965
 30
0.0
 11
-57.799977
 21
41.999965
 31
0.0
  0
LINE
  5
DB
100
AcDbEntity
  8
1
370
    25
100
AcDbLine
 10
-59.999977
 20
39.799965
 30
0.0
 11
-59.499977
 21
39.799965
 31
0.0
  0
ARC
  5
DC
100
AcDbEntity
  8
1
370
    25
100
AcDbCircle
 10
-57.799977
 20
39.799965
 30
0.0
 40
1.7
100
AcDbArc
 50
90.0
 51
180.0
  0
LINE
  5
DD
100
AcDbEntity
  8
1
370
    25
100
AcDbLine
 10
-57.799977
 20
41.499965
 30
0.0
 11
-57.799977
 21
41.999965
 31
0.0
  0
LINE
  5
DE
100
AcDbEntity
  8
1
370
    25
100
AcDbLine
 10
-59.999977
 20
44.199965
 30
0.0
 11
-60.499977
 21
44.199965
 31
0.0
  0
ARC
  5
DF
100
AcDbEntity
  8
1
370
    25
100
AcDbCircle
 10
-62.199977
 20
44.199965
 30
0.0
 40
1.7
100
AcDbArc
 50
270.0
 51
360.0
  0
LINE
  5
E0
100
AcDbEntity
  8
1
370
    25
100
AcDbLine
 10
-62.199977
 20
42.499965
 30
0.0
 11
-62.199977
 21
41.999965
 31
0.0
  0
LINE
  5
E1
100
AcDbEntity
  8
1
370
    25
100
AcDbLine
 10
-59.999977
 20
39.799965
 30
0.0
 11
-60.499977
 21
39.799965
 31
0.0
  0
ARC
  5
E2
100
AcDbEntity
  8
1
370
    25
100
AcDbCircle
 10
-62.199977
 20
39.799965
 30
0.0
 40
1.7
100
AcDbArc
 50
0.0
 51
90.0
  0
LINE
  5
E3
100
AcDbEntity
  8
1
370
    25
100
AcDbLine
 10
-62.199977
 20
41.499965
 30
0.0
 11
-62.199977
 21
41.999965
 31
0.0
  0
LINE
  5
E4
100
AcDbEntity
  8
1
370
    25
100
AcDbLine
 10
-59.999977
 20
-69.800035
 30
0.0
 11
-59.499977
 21
-69.800035
 31
0.0
  0
ARC
  5
E5
100
AcDbEntity
  8
1
370
    25
100
AcDbCircle
 10
-57.799977
 20
-69.800035
 30
0.0
 40
1.7
100
AcDbArc
 50
180.0
 51
270.0
  0
LINE
  5
E6
100
AcDbEntity
  8
1
370
    25
100
AcDbLine
 10
-57.799977
 20
-71.500035
 30
0.0
 11
-57.799977
 21
-72.000035
 31
0.0
  0
LINE
  5
E7
100
AcDbEntity
  8
1
370
    25
100
AcDbLine
 10
-59.999977
 20
-74.200035
 30
0.0
 11
-59.499977
 21
-74.200035
 31
0.0
  0
ARC
  5
E8
100
AcDbEntity
  8
1
370
    25
100
AcDbCircle
 10
-57.799977
 20
-74.200035
 30
0.0
 40
1.7
100
AcDbArc
 50
90.0
 51
180.0
  0
LINE
  5
E9
100
AcDbEntity
  8
1
370
    25
100
AcDbLine
 10
-57.799977
 20
-72.500035
 30
0.0
 11
-57.799977
 21
-72.000035
 31
0.0
  0
LINE
  5
EA
100
AcDbEntity
  8
1
370
    25
100
AcDbLine
 10
-59.999977
 20
-69.800035
 30
0.0
 11
-60.499977
 21
-69.800035
 31
0.0
  0
ARC
  5
EB
100
AcDbEntity
  8
1
370
    25
100
AcDbCircle
 10
-62.199977
 20
-69.800035
 30
0.0
 40
1.7
100
AcDbArc
 50
270.0
 51
360.0
  0
LINE
  5
EC
100
AcDbEntity
  8
1
370
    25
100
AcDbLine
 10
-62.199977
 20
-71.500035
 30
0.0
 11
-62.199977
 21
-72.000035
 31
0.0
  0
LINE
  5
ED
100
AcDbEntity
  8
1
370
    25
100
AcDbLine
 10
-59.999977
 20
-74.200035
 30
0.0
 11
-60.499977
 21
-74.200035
 31
0.0
  0
ARC
  5
EE
100
AcDbEntity
  8
1
370
    25
100
AcDbCircle
 10
-62.199977
 20
-74.200035
 30
0.0
 40
1.7
100
AcDbArc
 50
0.0
 51
90.0
  0
LINE
  5
EF
100
AcDbEntity
  8
1
370
    25
100
AcDbLine
 10
-62.199977
 20
-72.500035
 30
0.0
 11
-62.199977
 21
-72.000035
 31
0.0
  0
CIRCLE
  5
F0
100
AcDbEntity
  8
1
370
    25
100
AcDbCircle
 10
-60.0
 20
42.0
 30
0.0
 40
3.5
  0
CIRCLE
  5
F1
100
AcDbEntity
  8
1
370
    25
100
AcDbCircle
 10
-60.0
 20
-72.0
 30
0.0
 40
3.5
  0
LINE
  5
F2
100
AcDbEntity
  8
1
370
    50
100
AcDbLine
 10
139.118263
 20
49.9
 30
0.0
 11
137.918263
 21
49.9
 31
0.0
  0
LINE
  5
F3
100
AcDbEntity
  8
1
370
    50
100
AcDbLine
 10
137.918263
 20
-79.9
 30
0.0
 11
139.118263
 21
-79.9
 31
0.0
  0
LINE
  5
F4
100
AcDbEntity
  8
1
370
    50
100
AcDbLine
 10
137.518263
 20
-75.224636
 30
0.0
 11
138.718263
 21
-75.224636
 31
0.0
  0
LINE
  5
F5
100
AcDbEntity
  8
1
370
    50
100
AcDbLine
 10
137.518263
 20
45.224636
 30
0.0
 11
138.718263
 21
45.224636
 31
0.0
  0
LINE
  5
F6
100
AcDbEntity
  8
1
370
    50
100
AcDbLine
 10
137.518263
 20
22.5
 30
0.0
 11
138.718263
 21
22.5
 31
0.0
  0
LINE
  5
F7
100
AcDbEntity
  8
1
370
    50
100
AcDbLine
 10
137.518263
 20
-52.5
 30
0.0
 11
138.718263
 21
-52.5
 31
0.0
  0
LINE
  5
F8
100
AcDbEntity
  8
1
370
    50
100
AcDbLine
 10
137.518263
 20
22.5
 30
0.0
 11
137.518263
 21
24.5
 31
0.0
  0
LINE
  5
F9
100
AcDbEntity
  8
1
370
    25
100
AcDbLine
 10
141.118263
 20
-52.4
 30
0.0
 11
151.718263
 21
-52.4
 31
0.0
  0
ARC
  5
FA
100
AcDbEntity
  8
1
370
    25
100
AcDbCircle
 10
151.718263
 20
-52.0
 30
0.0
 40
0.4
100
AcDbArc
 50
270.0
 51
360.0
  0
LINE
  5
FB
100
AcDbEntity
  8
1
370
    25
100
AcDbLine
 10
141.118263
 20
22.4
 30
0.0
 11
151.718263
 21
22.4
 31
0.0
  0
ARC
  5
FC
100
AcDbEntity
  8
1
370
    25
100
AcDbCircle
 10
151.718263
 20
22.0
 30
0.0
 40
0.4
100
AcDbArc
 50
0.0
 51
90.0
  0
ARC
  5
FD
100
AcDbEntity
  8
1
370
    50
100
AcDbCircle
 10
139.318263
 20
22.2
 30
0.0
 40
0.2
100
AcDbArc
 50
180.0
 51
270.0
  0
ARC
  5
FE
100
AcDbEntity
  8
1
370
    50
100
AcDbCircle
 10
139.318263
 20
-52.2
 30
0.0
 40
0.2
100
AcDbArc
 50
90.0
 51
180.0
  0
LINE
  5
FF
100
AcDbEntity
  8
1
370
    50
100
AcDbLine
 10
139.118263
 20
-79.9
 30
0.0
 11
139.118263
 21
-52.2
 31
0.0
  0
ARC
  5
100
100
AcDbEntity
  8
1
370
    50
100
AcDbCircle
 10
134.918263
 20
46.721299
 30
0.0
 40
3.0
100
AcDbArc
 50
330.073565
 51
360.0
  0
ARC
  5
101
100
AcDbEntity
  8
1
370
    50
100
AcDbCircle
 10
136.118263
 20
46.721299
 30
0.0
 40
3.0
100
AcDbArc
 50
330.073565
 51
360.0
  0
LINE
  5
102
100
AcDbEntity
  8
1
370
    50
100
AcDbLine
 10
137.918263
 20
22.0
 30
0.0
 11
137.918263
 21
22.5
 31
0.0
  0
LINE
  5
103
100
AcDbEntity
  8
1
370
    50
100
AcDbLine
 10
137.918263
 20
46.721299
 30
0.0
 11
137.918263
 21
49.9
 31
0.0
  0
ARC
  5
104
100
AcDbEntity
  8
1
370
    50
100
AcDbCircle
 10
134.918263
 20
-76.721299
 30
0.0
 40
3.0
100
AcDbArc
 50
0.0
 51
29.926435
  0
ARC
  5
105
100
AcDbEntity
  8
1
370
    50
100
AcDbCircle
 10
136.118263
 20
-76.721299
 30
0.0
 40
3.0
100
AcDbArc
 50
0.0
 51
29.926435
  0
LINE
  5
106
100
AcDbEntity
  8
1
370
    50
100
AcDbLine
 10
137.918263
 20
-79.9
 30
0.0
 11
137.918263
 21
-76.721299
 31
0.0
  0
LINE
  5
107
100
AcDbEntity
  8
1
370
    50
100
AcDbLine
 10
137.918263
 20
-52.5
 30
0.0
 11
137.918263
 21
-52.0
 31
0.0
  0
LINE
  5
108
100
AcDbEntity
  8
1
370
    25
100
AcDbLine
 10
141.118263
 20
22.0
 30
0.0
 11
141.118263
 21
22.4
 31
0.0
  0
LINE
  5
109
100
AcDbEntity
  8
1
370
    25
100
AcDbLine
 10
141.118263
 20
-52.4
 30
0.0
 11
141.118263
 21
-52.0
 31
0.0
  0
LINE
  5
10A
100
AcDbEntity
  8
1
370
    50
100
AcDbLine
 10
137.518263
 20
-54.5
 30
0.0
 11
137.518263
 21
-52.5
 31
0.0
  0
LINE
  5
10B
100
AcDbEntity
  8
1
370
    50
100
AcDbLine
 10
157.618263
 20
22.0
 30
0.0
 11
167.283455
 21
22.0
 31
0.0
  0
LINE
  5
10C
100
AcDbEntity
  8
1
370
    50
100
AcDbLine
 10
157.618263
 20
-52.0
 30
0.0
 11
168.618263
 21
-52.0
 31
0.0
  0
LINE
  5
10D
100
AcDbEntity
  8
1
370
    50
100
AcDbLine
 10
206.618263
 20
4.0
 30
0.0
 11
206.618263
 21
6.5
 31
0.0
  0
LINE
  5
10E
100
AcDbEntity
  8
1
370
    25
100
AcDbLine
 10
138.018263
 20
13.5
 30
0.0
 11
142.418263
 21
13.5
 31
0.0
  0
LINE
  5
10F
100
AcDbEntity
  8
1
370
    25
100
AcDbLine
 10
138.018263
 20
9.0
 30
0.0
 11
142.418263
 21
9.0
 31
0.0
  0
LINE
  5
110
100
AcDbEntity
  8
1
370
    25
100
AcDbLine
 10
143.418263
 20
10.0
 30
0.0
 11
143.418263
 21
12.5
 31
0.0
  0
ARC
  5
111
100
AcDbEntity
  8
1
370
    25
100
AcDbCircle
 10
142.418263
 20
12.5
 30
0.0
 40
1.0
100
AcDbArc
 50
0.0
 51
90.0
  0
ARC
  5
112
100
AcDbEntity
  8
1
370
    25
100
AcDbCircle
 10
142.418263
 20
10.0
 30
0.0
 40
1.0
100
AcDbArc
 50
270.0
 51
360.0
  0
LINE
  5
113
100
AcDbEntity
  8
1
370
    25
100
AcDbLine
 10
138.018263
 20
-39.0
 30
0.0
 11
142.418263
 21
-39.0
 31
0.0
  0
LINE
  5
114
100
AcDbEntity
  8
1
370
    25
100
AcDbLine
 10
138.018263
 20
-43.5
 30
0.0
 11
142.418263
 21
-43.5
 31
0.0
  0
LINE
  5
115
100
AcDbEntity
  8
1
370
    25
100
AcDbLine
 10
143.418263
 20
-42.5
 30
0.0
 11
143.418263
 21
-40.0
 31
0.0
  0
ARC
  5
116
100
AcDbEntity
  8
1
370
    25
100
AcDbCircle
 10
142.418263
 20
-40.0
 30
0.0
 40
1.0
100
AcDbArc
 50
0.0
 51
90.0
  0
ARC
  5
117
100
AcDbEntity
  8
1
370
    25
100
AcDbCircle
 10
142.418263
 20
-42.5
 30
0.0
 40
1.0
100
AcDbArc
 50
270.0
 51
360.0
  0
LINE
  5
118
100
AcDbEntity
  8
1
370
    50
100
AcDbLine
 10
139.218263
 20
-29.6
 30
0.0
 11
139.218263
 21
1.6
 31
0.0
  0
LINE
  5
119
100
AcDbEntity
  8
1
370
    50
100
AcDbLine
 10
139.118263
 20
22.2
 30
0.0
 11
139.118263
 21
49.9
 31
0.0
  0
LINE
  5
11A
100
AcDbEntity
  8
1
370
    50
100
AcDbLine
 10
138.018263
 20
-29.6
 30
0.0
 11
138.018263
 21
1.6
 31
0.0
  0
LINE
  5
11B
100
AcDbEntity
  8
1
370
    50
100
AcDbLine
 10
137.918263
 20
49.9
 30
0.0
 11
136.718263
 21
49.9
 31
0.0
  0
LINE
  5
11C
100
AcDbEntity
  8
1
370
    50
100
AcDbLine
 10
137.518263
 20
46.335723
 30
0.0
 11
137.518263
 21
24.5
 31
0.0
  0
LINE
  5
11D
100
AcDbEntity
  8
1
370
    50
100
AcDbLine
 10
137.518263
 20
24.5
 30
0.0
 11
136.318263
 21
24.5
 31
0.0
  0
LINE
  5
11E
100
AcDbEntity
  8
1
370
    50
100
AcDbLine
 10
136.318263
 20
46.335723
 30
0.0
 11
137.518263
 21
46.335723
 31
0.0
  0
LINE
  5
11F
100
AcDbEntity
  8
1
370
    50
100
AcDbLine
 10
136.718263
 20
47.832386
 30
0.0
 11
136.718263
 21
49.9
 31
0.0
  0
ARC
  5
120
100
AcDbEntity
  8
1
370
    50
100
AcDbCircle
 10
133.718263
 20
47.832386
 30
0.0
 40
3.0
100
AcDbArc
 50
330.073565
 51
360.0
  0
ARC
  5
121
100
AcDbEntity
  8
1
370
    50
100
AcDbCircle
 10
134.918263
 20
47.832386
 30
0.0
 40
3.0
100
AcDbArc
 50
330.073565
 51
360.0
  0
LINE
  5
122
100
AcDbEntity
  8
1
370
    50
100
AcDbLine
 10
137.918263
 20
-79.9
 30
0.0
 11
136.718263
 21
-79.9
 31
0.0
  0
LINE
  5
123
100
AcDbEntity
  8
1
370
    50
100
AcDbLine
 10
137.518263
 20
-76.335723
 30
0.0
 11
137.518263
 21
-54.5
 31
0.0
  0
LINE
  5
124
100
AcDbEntity
  8
1
370
    50
100
AcDbLine
 10
137.518263
 20
-54.5
 30
0.0
 11
136.318263
 21
-54.5
 31
0.0
  0
LINE
  5
125
100
AcDbEntity
  8
1
370
    50
100
AcDbLine
 10
136.318263
 20
-76.335723
 30
0.0
 11
137.518263
 21
-76.335723
 31
0.0
  0
LINE
  5
126
100
AcDbEntity
  8
1
370
    50
100
AcDbLine
 10
136.718263
 20
-77.832386
 30
0.0
 11
136.718263
 21
-79.9
 31
0.0
  0
ARC
  5
127
100
AcDbEntity
  8
1
370
    50
100
AcDbCircle
 10
133.718263
 20
-77.832386
 30
0.0
 40
3.0
100
AcDbArc
 50
0.0
 51
29.926435
  0
ARC
  5
128
100
AcDbEntity
  8
1
370
    50
100
AcDbCircle
 10
134.918263
 20
-77.832386
 30
0.0
 40
3.0
100
AcDbArc
 50
0.0
 51
29.926435
  0
LINE
  5
129
100
AcDbEntity
  8
1
370
    50
100
AcDbLine
 10
157.618263
 20
-52.0
 30
0.0
 11
157.618263
 21
-51.0
 31
0.0
  0
LINE
  5
12A
100
AcDbEntity
  8
1
370
    50
100
AcDbLine
 10
157.618263
 20
21.0
 30
0.0
 11
157.618263
 21
22.0
 31
0.0
  0
LINE
  5
12B
100
AcDbEntity
  8
1
370
    50
100
AcDbLine
 10
168.618263
 20
-52.0
 30
0.0
 11
168.618263
 21
-51.0
 31
0.0
  0
LINE
  5
12C
100
AcDbEntity
  8
1
370
    50
100
AcDbLine
 10
158.118263
 20
-50.5
 30
0.0
 11
168.118263
 21
-50.5
 31
0.0
  0
LINE
  5
12D
100
AcDbEntity
  8
1
370
    50
100
AcDbLine
 10
158.118263
 20
20.5
 30
0.0
 11
167.144597
 21
20.5
 31
0.0
  0
LINE
  5
12E
100
AcDbEntity
  8
1
370
    50
100
AcDbLine
 10
137.918263
 20
22.0
 30
0.0
 11
157.618263
 21
22.0
 31
0.0
  0
LINE
  5
12F
100
AcDbEntity
  8
1
370
    50
100
AcDbLine
 10
204.953071
 20
22.0
 30
0.0
 11
205.118263
 21
22.0
 31
0.0
  0
LINE
  5
130
100
AcDbEntity
  8
1
370
    50
100
AcDbLine
 10
137.918263
 20
-52.0
 30
0.0
 11
157.618263
 21
-52.0
 31
0.0
  0
ARC
  5
131
100
AcDbEntity
  8
1
370
    50
100
AcDbCircle
 10
206.368263
 20
5.25
 30
0.0
 40
1.25
100
AcDbArc
 50
90.0
 51
270.0
  0
LINE
  5
132
100
AcDbEntity
  8
1
370
    50
100
AcDbLine
 10
206.368263
 20
6.5
 30
0.0
 11
206.618263
 21
6.5
 31
0.0
  0
LINE
  5
133
100
AcDbEntity
  8
1
370
    50
100
AcDbLine
 10
206.368263
 20
4.0
 30
0.0
 11
206.618263
 21
4.0
 31
0.0
  0
LINE
  5
134
100
AcDbEntity
  8
1
370
    50
100
AcDbLine
 10
206.618263
 20
-50.5
 30
0.0
 11
206.618263
 21
-46.428327
 31
0.0
  0
LINE
  5
135
100
AcDbEntity
  8
1
370
    50
100
AcDbLine
 10
206.618263
 20
-25.571673
 30
0.0
 11
206.618263
 21
4.0
 31
0.0
  0
LINE
  5
136
100
AcDbEntity
  8
1
370
    50
100
AcDbLine
 10
206.618263
 20
6.5
 30
0.0
 11
206.618263
 21
20.5
 31
0.0
  0
LINE
  5
137
100
AcDbEntity
  8
1
370
    50
100
AcDbLine
 10
203.818263
 20
-17.2
 30
0.0
 11
203.818263
 21
-6.8
 31
0.0
  0
LINE
  5
138
100
AcDbEntity
  8
1
370
    50
100
AcDbLine
 10
206.618263
 20
-17.5
 30
0.0
 11
204.118263
 21
-17.5
 31
0.0
  0
LINE
  5
139
100
AcDbEntity
  8
1
370
    50
100
AcDbLine
 10
206.618263
 20
-6.5
 30
0.0
 11
204.118263
 21
-6.5
 31
0.0
  0
ARC
  5
13A
100
AcDbEntity
  8
1
370
    50
100
AcDbCircle
 10
204.118263
 20
-6.8
 30
0.0
 40
0.3
100
AcDbArc
 50
90.0
 51
180.0
  0
ARC
  5
13B
100
AcDbEntity
  8
1
370
    50
100
AcDbCircle
 10
204.118263
 20
-17.2
 30
0.0
 40
0.3
100
AcDbArc
 50
180.0
 51
270.0
  0
LINE
  5
13C
100
AcDbEntity
  8
1
370
    50
100
AcDbLine
 10
205.418263
 20
-17.5
 30
0.0
 11
205.418263
 21
-6.5
 31
0.0
  0
ARC
  5
13D
100
AcDbEntity
  8
1
370
    50
100
AcDbCircle
 10
199.118263
 20
0.4
 30
0.0
 40
1.6
100
AcDbArc
 50
0.0
 51
180.0
  0
LINE
  5
13E
100
AcDbEntity
  8
1
370
    50
100
AcDbLine
 10
197.518263
 20
-16.024014
 30
0.0
 11
197.518263
 21
0.4
 31
0.0
  0
LINE
  5
13F
100
AcDbEntity
  8
1
370
    50
100
AcDbLine
 10
200.718263
 20
-18.228112
 30
0.0
 11
200.718263
 21
0.4
 31
0.0
  0
ARC
  5
140
100
AcDbEntity
  8
1
370
    50
100
AcDbCircle
 10
163.718263
 20
-45.45
 30
0.0
 40
1.6
100
AcDbArc
 50
90.0
 51
270.0
  0
LINE
  5
141
100
AcDbEntity
  8
1
370
    50
100
AcDbLine
 10
163.718263
 20
-43.85
 30
0.0
 11
164.499348
 21
-43.85
 31
0.0
  0
LINE
  5
142
100
AcDbEntity
  8
1
370
    50
100
AcDbLine
 10
163.718263
 20
-47.05
 30
0.0
 11
165.946563
 21
-47.05
 31
0.0
  0
LINE
  5
143
100
AcDbEntity
  8
1
370
    50
100
AcDbLine
 10
175.118263
 20
-4.5
 30
0.0
 11
174.318263
 21
-4.5
 31
0.0
  0
LINE
  5
144
100
AcDbEntity
  8
1
370
    50
100
AcDbLine
 10
174.318263
 20
-10.5
 30
0.0
 11
175.118263
 21
-10.5
 31
0.0
  0
LINE
  5
145
100
AcDbEntity
  8
1
370
    50
100
AcDbLine
 10
175.618263
 20
-10.0
 30
0.0
 11
175.618263
 21
-5.0
 31
0.0
  0
LINE
  5
146
100
AcDbEntity
  8
1
370
    50
100
AcDbLine
 10
173.818263
 20
-10.0
 30
0.0
 11
173.818263
 21
-5.0
 31
0.0
  0
LINE
  5
147
100
AcDbEntity
  8
1
370
    50
100
AcDbLine
 10
160.618263
 20
-40.4
 30
0.0
 11
151.618263
 21
-40.4
 31
0.0
  0
LINE
  5
148
100
AcDbEntity
  8
1
370
    50
100
AcDbLine
 10
151.118263
 20
-39.9
 30
0.0
 11
151.118263
 21
-39.3
 31
0.0
  0
LINE
  5
149
100
AcDbEntity
  8
1
370
    50
100
AcDbLine
 10
161.118263
 20
-39.9
 30
0.0
 11
161.118263
 21
-39.3
 31
0.0
  0
LINE
  5
14A
100
AcDbEntity
  8
1
370
    50
100
AcDbLine
 10
155.118263
 20
-38.3
 30
0.0
 11
155.118263
 21
-38.8
 31
0.0
  0
LINE
  5
14B
100
AcDbEntity
  8
1
370
    50
100
AcDbLine
 10
157.118263
 20
-38.3
 30
0.0
 11
157.118263
 21
-38.8
 31
0.0
  0
ARC
  5
14C
100
AcDbEntity
  8
1
370
    50
100
AcDbCircle
 10
156.118263
 20
-38.3
 30
0.0
 40
1.0
100
AcDbArc
 50
0.0
 51
180.0
  0
LINE
  5
14D
100
AcDbEntity
  8
1
370
    50
100
AcDbLine
 10
151.618263
 20
-38.8
 30
0.0
 11
155.118263
 21
-38.8
 31
0.0
  0
LINE
  5
14E
100
AcDbEntity
  8
1
370
    50
100
AcDbLine
 10
157.118263
 20
-38.8
 30
0.0
 11
160.618263
 21
-38.8
 31
0.0
  0
LINE
  5
14F
100
AcDbEntity
  8
1
370
    50
100
AcDbLine
 10
164.618263
 20
0.3
 30
0.0
 11
161.618263
 21
0.3
 31
0.0
  0
LINE
  5
150
100
AcDbEntity
  8
1
370
    50
100
AcDbLine
 10
164.618263
 20
-1.9
 30
0.0
 11
161.618263
 21
-1.9
 31
0.0
  0
LINE
  5
151
100
AcDbEntity
  8
1
370
    50
100
AcDbLine
 10
161.118263
 20
-1.4
 30
0.0
 11
161.118263
 21
-0.2
 31
0.0
  0
LINE
  5
152
100
AcDbEntity
  8
1
370
    50
100
AcDbLine
 10
165.118263
 20
-1.4
 30
0.0
 11
165.118263
 21
-0.2
 31
0.0
  0
LINE
  5
153
100
AcDbEntity
  8
1
370
    50
100
AcDbLine
 10
147.118263
 20
-1.2
 30
0.0
 11
147.118263
 21
-0.4
 31
0.0
  0
LINE
  5
154
100
AcDbEntity
  8
1
370
    50
100
AcDbLine
 10
153.118263
 20
-1.2
 30
0.0
 11
153.118263
 21
-0.4
 31
0.0
  0
LINE
  5
155
100
AcDbEntity
  8
1
370
    50
100
AcDbLine
 10
152.618263
 20
0.1
 30
0.0
 11
147.618263
 21
0.1
 31
0.0
  0
LINE
  5
156
100
AcDbEntity
  8
1
370
    50
100
AcDbLine
 10
152.618263
 20
-1.7
 30
0.0
 11
147.618263
 21
-1.7
 31
0.0
  0
ARC
  5
157
100
AcDbEntity
  8
1
370
    50
100
AcDbCircle
 10
161.618263
 20
-0.2
 30
0.0
 40
0.5
100
AcDbArc
 50
90.0
 51
180.0
  0
ARC
  5
158
100
AcDbEntity
  8
1
370
    50
100
AcDbCircle
 10
164.618263
 20
-0.2
 30
0.0
 40
0.5
100
AcDbArc
 50
0.0
 51
90.0
  0
ARC
  5
159
100
AcDbEntity
  8
1
370
    50
100
AcDbCircle
 10
161.618263
 20
-1.4
 30
0.0
 40
0.5
100
AcDbArc
 50
180.0
 51
270.0
  0
ARC
  5
15A
100
AcDbEntity
  8
1
370
    50
100
AcDbCircle
 10
164.618263
 20
-1.4
 30
0.0
 40
0.5
100
AcDbArc
 50
270.0
 51
360.0
  0
CIRCLE
  5
15B
100
AcDbEntity
  8
1
370
    50
100
AcDbCircle
 10
154.118263
 20
10.0
 30
0.0
 40
2.1
  0
LINE
  5
15C
100
AcDbEntity
  8
1
370
    50
100
AcDbLine
 10
136.718263
 20
1.6
 30
0.0
 11
139.518263
 21
1.6
 31
0.0
  0
LINE
  5
15D
100
AcDbEntity
  8
1
370
    50
100
AcDbLine
 10
136.718263
 20
-29.6
 30
0.0
 11
139.518263
 21
-29.6
 31
0.0
  0
LINE
  5
15E
100
AcDbEntity
  8
1
370
    50
100
AcDbLine
 10
140.518263
 20
-5.0
 30
0.0
 11
142.118263
 21
-5.0
 31
0.0
  0
LINE
  5
15F
100
AcDbEntity
  8
1
370
    50
100
AcDbLine
 10
140.518263
 20
-23.0
 30
0.0
 11
142.118263
 21
-23.0
 31
0.0
  0
LINE
  5
160
100
AcDbEntity
  8
1
370
    50
100
AcDbLine
 10
139.518263
 20
-29.6
 30
0.0
 11
139.518263
 21
-24.0
 31
0.0
  0
LINE
  5
161
100
AcDbEntity
  8
1
370
    50
100
AcDbLine
 10
139.518263
 20
-4.0
 30
0.0
 11
139.518263
 21
1.6
 31
0.0
  0
ARC
  5
162
100
AcDbEntity
  8
1
370
    50
100
AcDbCircle
 10
140.518263
 20
-4.0
 30
0.0
 40
1.0
100
AcDbArc
 50
180.0
 51
270.0
  0
ARC
  5
163
100
AcDbEntity
  8
1
370
    50
100
AcDbCircle
 10
140.518263
 20
-24.0
 30
0.0
 40
1.0
100
AcDbArc
 50
90.0
 51
180.0
  0
LINE
  5
164
100
AcDbEntity
  8
1
370
    50
100
AcDbLine
 10
145.018263
 20
-26.0
 30
0.0
 11
145.018263
 21
-7.0
 31
0.0
  0
ARC
  5
165
100
AcDbEntity
  8
1
370
    50
100
AcDbCircle
 10
147.618263
 20
-7.0
 30
0.0
 40
2.6
100
AcDbArc
 50
90.0
 51
180.0
  0
LINE
  5
166
100
AcDbEntity
  8
1
370
    50
100
AcDbLine
 10
151.702183
 20
-4.4
 30
0.0
 11
147.618263
 21
-4.4
 31
0.0
  0
ARC
  5
167
100
AcDbEntity
  8
1
370
    50
100
AcDbCircle
 10
151.702183
 20
-7.0
 30
0.0
 40
2.6
100
AcDbArc
 50
9.594068
 51
90.0
  0
ARC
  5
168
100
AcDbEntity
  8
1
370
    50
100
AcDbCircle
 10
157.618263
 20
-6.0
 30
0.0
 40
3.4
100
AcDbArc
 50
189.594068
 51
270.0
  0
LINE
  5
169
100
AcDbEntity
  8
1
370
    50
100
AcDbLine
 10
163.118263
 20
-9.4
 30
0.0
 11
157.618263
 21
-9.4
 31
0.0
  0
ARC
  5
16A
100
AcDbEntity
  8
1
370
    50
100
AcDbCircle
 10
163.118263
 20
-12.0
 30
0.0
 40
2.6
100
AcDbArc
 50
0.0
 51
90.0
  0
LINE
  5
16B
100
AcDbEntity
  8
1
370
    50
100
AcDbLine
 10
165.718263
 20
-16.0
 30
0.0
 11
165.718263
 21
-12.0
 31
0.0
  0
ARC
  5
16C
100
AcDbEntity
  8
1
370
    50
100
AcDbCircle
 10
163.118263
 20
-16.0
 30
0.0
 40
2.6
100
AcDbArc
 50
270.0
 51
360.0
  0
LINE
  5
16D
100
AcDbEntity
  8
1
370
    50
100
AcDbLine
 10
163.118263
 20
-18.6
 30
0.0
 11
157.618263
 21
-18.6
 31
0.0
  0
ARC
  5
16E
100
AcDbEntity
  8
1
370
    50
100
AcDbCircle
 10
157.618263
 20
-22.0
 30
0.0
 40
3.4
100
AcDbArc
 50
90.0
 51
180.0
  0
LINE
  5
16F
100
AcDbEntity
  8
1
370
    50
100
AcDbLine
 10
154.218263
 20
-26.0
 30
0.0
 11
154.218263
 21
-22.0
 31
0.0
  0
ARC
  5
170
100
AcDbEntity
  8
1
370
    50
100
AcDbCircle
 10
151.618263
 20
-26.0
 30
0.0
 40
2.6
100
AcDbArc
 50
270.0
 51
360.0
  0
LINE
  5
171
100
AcDbEntity
  8
1
370
    50
100
AcDbLine
 10
151.618263
 20
-28.6
 30
0.0
 11
147.618263
 21
-28.6
 31
0.0
  0
ARC
  5
172
100
AcDbEntity
  8
1
370
    50
100
AcDbCircle
 10
147.618263
 20
-26.0
 30
0.0
 40
2.6
100
AcDbArc
 50
180.0
 51
270.0
  0
LINE
  5
173
100
AcDbEntity
  8
1
370
    50
100
AcDbLine
 10
138.918263
 20
7.55
 30
0.0
 11
136.718263
 21
7.55
 31
0.0
  0
LINE
  5
174
100
AcDbEntity
  8
1
370
    50
100
AcDbLine
 10
138.918263
 20
14.95
 30
0.0
 11
136.718263
 21
14.95
 31
0.0
  0
LINE
  5
175
100
AcDbEntity
  8
1
370
    50
100
AcDbLine
 10
137.918263
 20
-44.95
 30
0.0
 11
137.918263
 21
-37.55
 31
0.0
  0
LINE
  5
176
100
AcDbEntity
  8
1
370
    50
100
AcDbLine
 10
137.918263
 20
7.55
 30
0.0
 11
137.918263
 21
14.95
 31
0.0
  0
LINE
  5
177
100
AcDbEntity
  8
1
370
    50
100
AcDbLine
 10
144.418263
 20
-43.25
 30
0.0
 11
144.418263
 21
-39.25
 31
0.0
  0
LINE
  5
178
100
AcDbEntity
  8
1
370
    50
100
AcDbLine
 10
139.918263
 20
13.75
 30
0.0
 11
143.918263
 21
13.75
 31
0.0
  0
LINE
  5
179
100
AcDbEntity
  8
1
370
    50
100
AcDbLine
 10
139.918263
 20
8.75
 30
0.0
 11
143.918263
 21
8.75
 31
0.0
  0
LINE
  5
17A
100
AcDbEntity
  8
1
370
    50
100
AcDbLine
 10
144.418263
 20
9.25
 30
0.0
 11
144.418263
 21
13.25
 31
0.0
  0
ARC
  5
17B
100
AcDbEntity
  8
1
370
    50
100
AcDbCircle
 10
138.918263
 20
13.95
 30
0.0
 40
1.0
100
AcDbArc
 50
0.0
 51
90.0
  0
ARC
  5
17C
100
AcDbEntity
  8
1
370
    50
100
AcDbCircle
 10
138.918263
 20
8.55
 30
0.0
 40
1.0
100
AcDbArc
 50
270.0
 51
0.0
  0
ARC
  5
17D
100
AcDbEntity
  8
1
370
    50
100
AcDbCircle
 10
143.918263
 20
13.25
 30
0.0
 40
0.5
100
AcDbArc
 50
360.0
 51
90.0
  0
ARC
  5
17E
100
AcDbEntity
  8
1
370
    50
100
AcDbCircle
 10
143.918263
 20
9.25
 30
0.0
 40
0.5
100
AcDbArc
 50
270.0
 51
360.0
  0
LINE
  5
17F
100
AcDbEntity
  8
1
370
    50
100
AcDbLine
 10
143.918263
 20
-38.75
 30
0.0
 11
139.918263
 21
-38.75
 31
0.0
  0
LINE
  5
180
100
AcDbEntity
  8
1
370
    50
100
AcDbLine
 10
139.918263
 20
-43.75
 30
0.0
 11
143.918263
 21
-43.75
 31
0.0
  0
ARC
  5
181
100
AcDbEntity
  8
1
370
    50
100
AcDbCircle
 10
138.918263
 20
-38.55
 30
0.0
 40
1.0
100
AcDbArc
 50
360.0
 51
90.0
  0
ARC
  5
182
100
AcDbEntity
  8
1
370
    50
100
AcDbCircle
 10
138.918263
 20
-43.95
 30
0.0
 40
1.0
100
AcDbArc
 50
270.0
 51
360.0
  0
ARC
  5
183
100
AcDbEntity
  8
1
370
    50
100
AcDbCircle
 10
143.918263
 20
-39.25
 30
0.0
 40
0.5
100
AcDbArc
 50
0.0
 51
90.0
  0
ARC
  5
184
100
AcDbEntity
  8
1
370
    50
100
AcDbCircle
 10
143.918263
 20
-43.25
 30
0.0
 40
0.5
100
AcDbArc
 50
270.0
 51
360.0
  0
LINE
  5
185
100
AcDbEntity
  8
1
370
    50
100
AcDbLine
 10
138.918263
 20
-37.55
 30
0.0
 11
136.718263
 21
-37.55
 31
0.0
  0
LINE
  5
186
100
AcDbEntity
  8
1
370
    50
100
AcDbLine
 10
138.918263
 20
-44.95
 30
0.0
 11
136.718263
 21
-44.95
 31
0.0
  0
LINE
  5
187
100
AcDbEntity
  8
1
370
    50
100
AcDbLine
 10
142.618263
 20
-22.5
 30
0.0
 11
142.618263
 21
-5.5
 31
0.0
  0
LINE
  5
188
100
AcDbEntity
  8
1
370
    18
  6
CENTER
100
AcDbLine
 10
120.983211
 20
-14.0
 30
0.0
 11
148.103714
 21
-14.0
 31
0.0
  0
ARC
  5
189
100
AcDbEntity
  8
1
370
    50
100
AcDbCircle
 10
205.118263
 20
20.5
 30
0.0
 40
1.5
100
AcDbArc
 50
0.0
 51
90.0
  0
ARC
  5
18A
100
AcDbEntity
  8
1
370
    50
100
AcDbCircle
 10
205.118263
 20
-50.5
 30
0.0
 40
1.5
100
AcDbArc
 50
270.0
 51
360.0
  0
LINE
  5
18B
100
AcDbEntity
  8
1
370
    50
100
AcDbLine
 10
137.918263
 20
22.0
 30
0.0
 11
137.918263
 21
22.5
 31
0.0
  0
LINE
  5
18C
100
AcDbEntity
  8
1
370
    50
100
AcDbLine
 10
137.918263
 20
46.721299
 30
0.0
 11
137.918263
 21
49.9
 31
0.0
  0
LINE
  5
18D
100
AcDbEntity
  8
1
370
    50
100
AcDbLine
 10
137.918263
 20
-79.9
 30
0.0
 11
137.918263
 21
-76.721299
 31
0.0
  0
LINE
  5
18E
100
AcDbEntity
  8
1
370
    50
100
AcDbLine
 10
137.918263
 20
-52.5
 30
0.0
 11
137.918263
 21
-52.0
 31
0.0
  0
LINE
  5
18F
100
AcDbEntity
  8
1
370
    50
100
AcDbLine
 10
139.918263
 20
-43.95
 30
0.0
 11
139.918263
 21
-43.5
 31
0.0
  0
LINE
  5
190
100
AcDbEntity
  8
1
370
    50
100
AcDbLine
 10
139.918263
 20
-39.0
 30
0.0
 11
139.918263
 21
-38.55
 31
0.0
  0
LINE
  5
191
100
AcDbEntity
  8
1
370
    50
100
AcDbLine
 10
139.918263
 20
8.55
 30
0.0
 11
139.918263
 21
9.0
 31
0.0
  0
LINE
  5
192
100
AcDbEntity
  8
1
370
    50
100
AcDbLine
 10
139.918263
 20
13.5
 30
0.0
 11
139.918263
 21
13.95
 31
0.0
  0
LINE
  5
193
100
AcDbEntity
  8
1
370
    50
100
AcDbLine
 10
136.718263
 20
-54.5
 30
0.0
 11
136.718263
 21
-25.241935
 31
0.0
  0
LINE
  5
194
100
AcDbEntity
  8
1
370
    50
100
AcDbLine
 10
136.718263
 20
-2.758065
 30
0.0
 11
136.718263
 21
24.5
 31
0.0
  0
ARC
  5
195
100
AcDbEntity
  8
1
370
    50
100
AcDbCircle
 10
147.618263
 20
-0.4
 30
0.0
 40
0.5
100
AcDbArc
 50
90.0
 51
180.0
  0
ARC
  5
196
100
AcDbEntity
  8
1
370
    50
100
AcDbCircle
 10
147.618263
 20
-1.2
 30
0.0
 40
0.5
100
AcDbArc
 50
180.0
 51
270.0
  0
ARC
  5
197
100
AcDbEntity
  8
1
370
    50
100
AcDbCircle
 10
152.618263
 20
-0.4
 30
0.0
 40
0.5
100
AcDbArc
 50
0.0
 51
90.0
  0
ARC
  5
198
100
AcDbEntity
  8
1
370
    50
100
AcDbCircle
 10
152.618263
 20
-1.2
 30
0.0
 40
0.5
100
AcDbArc
 50
270.0
 51
360.0
  0
ARC
  5
199
100
AcDbEntity
  8
1
370
    50
100
AcDbCircle
 10
174.318263
 20
-5.0
 30
0.0
 40
0.5
100
AcDbArc
 50
90.0
 51
180.0
  0
ARC
  5
19A
100
AcDbEntity
  8
1
370
    50
100
AcDbCircle
 10
175.118263
 20
-5.0
 30
0.0
 40
0.5
100
AcDbArc
 50
0.0
 51
90.0
  0
ARC
  5
19B
100
AcDbEntity
  8
1
370
    50
100
AcDbCircle
 10
174.318263
 20
-10.0
 30
0.0
 40
0.5
100
AcDbArc
 50
180.0
 51
270.0
  0
ARC
  5
19C
100
AcDbEntity
  8
1
370
    50
100
AcDbCircle
 10
175.118263
 20
-10.0
 30
0.0
 40
0.5
100
AcDbArc
 50
270.0
 51
360.0
  0
ARC
  5
19D
100
AcDbEntity
  8
1
370
    50
100
AcDbCircle
 10
151.618263
 20
-39.3
 30
0.0
 40
0.5
100
AcDbArc
 50
90.0
 51
180.0
  0
ARC
  5
19E
100
AcDbEntity
  8
1
370
    50
100
AcDbCircle
 10
151.618263
 20
-39.9
 30
0.0
 40
0.5
100
AcDbArc
 50
180.0
 51
270.0
  0
ARC
  5
19F
100
AcDbEntity
  8
1
370
    50
100
AcDbCircle
 10
160.618263
 20
-39.3
 30
0.0
 40
0.5
100
AcDbArc
 50
0.0
 51
90.0
  0
ARC
  5
1A0
100
AcDbEntity
  8
1
370
    50
100
AcDbCircle
 10
160.618263
 20
-39.9
 30
0.0
 40
0.5
100
AcDbArc
 50
270.0
 51
360.0
  0
ARC
  5
1A1
100
AcDbEntity
  8
1
370
    50
100
AcDbCircle
 10
142.118263
 20
-5.5
 30
0.0
 40
0.5
100
AcDbArc
 50
0.0
 51
90.0
  0
ARC
  5
1A2
100
AcDbEntity
  8
1
370
    50
100
AcDbCircle
 10
142.118263
 20
-22.5
 30
0.0
 40
0.5
100
AcDbArc
 50
270.0
 51
360.0
  0
ARC
  5
1A3
100
AcDbEntity
  8
1
370
    50
100
AcDbCircle
 10
158.118263
 20
-51.0
 30
0.0
 40
0.5
100
AcDbArc
 50
90.0
 51
180.0
  0
ARC
  5
1A4
100
AcDbEntity
  8
1
370
    50
100
AcDbCircle
 10
158.118263
 20
21.0
 30
0.0
 40
0.5
100
AcDbArc
 50
180.0
 51
270.0
  0
LINE
  5
1A5
100
AcDbEntity
  8
1
370
    50
100
AcDbLine
 10
135.118263
 20
50.0
 30
0.0
 11
136.318263
 21
50.0
 31
0.0
  0
LINE
  5
1A6
100
AcDbEntity
  8
1
370
    50
100
AcDbLine
 10
135.118263
 20
-80.0
 30
0.0
 11
136.318263
 21
-80.0
 31
0.0
  0
LINE
  5
1A7
100
AcDbEntity
  8
1
370
    50
100
AcDbLine
 10
136.318263
 20
-80.0
 30
0.0
 11
136.318263
 21
50.0
 31
0.0
  0
LINE
  5
1A8
100
AcDbEntity
  8
1
370
    18
  6
CENTER
100
AcDbLine
 10
129.328007
 20
42.0
 30
0.0
 11
158.422732
 21
42.0
 31
0.0
  0
LINE
  5
1A9
100
AcDbEntity
  8
1
370
    18
  6
CENTER
100
AcDbLine
 10
129.328007
 20
-72.0
 30
0.0
 11
158.422732
 21
-72.0
 31
0.0
  0
LINE
  5
1AA
100
AcDbEntity
  8
1
370
    50
100
AcDbLine
 10
136.318263
 20
46.65
 30
0.0
 11
136.426468
 21
46.541795
 31
0.0
  0
LINE
  5
1AB
100
AcDbEntity
  8
1
370
    50
100
AcDbLine
 10
136.318263
 20
-76.65
 30
0.0
 11
136.426468
 21
-76.541795
 31
0.0
  0
LINE
  5
1AC
100
AcDbEntity
  8
1
370
    50
100
AcDbLine
 10
135.118263
 20
-2.4
 30
0.0
 11
135.118263
 21
50.0
 31
0.0
  0
LINE
  5
1AD
100
AcDbEntity
  8
1
370
    50
100
AcDbLine
 10
135.118263
 20
-80.0
 30
0.0
 11
135.118263
 21
-25.6
 31
0.0
  0
LINE
  5
1AE
100
AcDbEntity
  8
1
370
    50
100
AcDbLine
 10
135.118263
 20
-24.0
 30
0.0
 11
135.118263
 21
-4.0
 31
0.0
  0
LINE
  5
1AF
100
AcDbEntity
  8
1
370
    25
100
AcDbLine
 10
126.118276
 20
-6.0
 30
0.0
 11
134.618263
 21
-6.0
 31
0.0
  0
LINE
  5
1B0
100
AcDbEntity
  8
1
370
    25
100
AcDbLine
 10
126.118276
 20
-22.0
 30
0.0
 11
134.618263
 21
-22.0
 31
0.0
  0
LINE
  5
1B1
100
AcDbEntity
  8
1
370
    25
100
AcDbLine
 10
126.118276
 20
-6.0
 30
0.0
 11
124.618276
 21
-5.71379
 31
0.0
  0
LINE
  5
1B2
100
AcDbEntity
  8
1
370
    25
100
AcDbLine
 10
126.118276
 20
-22.0
 30
0.0
 11
124.618276
 21
-22.28621
 31
0.0
  0
LINE
  5
1B3
100
AcDbEntity
  8
1
370
    50
100
AcDbLine
 10
124.618276
 20
-22.551551
 30
0.0
 11
124.618276
 21
-18.4
 31
0.0
  0
LINE
  5
1B4
100
AcDbEntity
  8
1
370
    25
100
AcDbLine
 10
126.118276
 20
-22.0
 30
0.0
 11
126.118276
 21
-18.4
 31
0.0
  0
LINE
  5
1B5
100
AcDbEntity
  8
1
370
    25
100
AcDbLine
 10
126.118276
 20
-9.6
 30
0.0
 11
126.118276
 21
-6.0
 31
0.0
  0
ARC
  5
1B6
100
AcDbEntity
  8
1
370
    50
100
AcDbCircle
 10
128.153078
 20
-17.504746
 30
0.0
 40
6.495254
100
AcDbArc
 50
262.877226
 51
270.0
  0
ARC
  5
1B7
100
AcDbEntity
  8
1
370
    50
100
AcDbCircle
 10
127.968745
 20
-18.979875
 30
0.0
 40
5.008652
100
AcDbArc
 50
254.144152
 51
262.877226
  0
ARC
  5
1B8
100
AcDbEntity
  8
1
370
    50
100
AcDbCircle
 10
127.866764
 20
-19.338932
 30
0.0
 40
4.635394
100
AcDbArc
 50
244.981479
 51
254.144152
  0
ARC
  5
1B9
100
AcDbEntity
  8
1
370
    50
100
AcDbCircle
 10
127.665149
 20
-19.770931
 30
0.0
 40
4.158664
100
AcDbArc
 50
234.704258
 51
244.981479
  0
ARC
  5
1BA
100
AcDbEntity
  8
1
370
    50
100
AcDbCircle
 10
127.857094
 20
-19.499795
 30
0.0
 40
4.490864
100
AcDbArc
 50
224.728879
 51
234.704258
  0
ARC
  5
1BB
100
AcDbEntity
  8
1
370
    50
100
AcDbCircle
 10
124.785744
 20
-22.542215
 30
0.0
 40
0.167727
100
AcDbArc
 50
183.190791
 51
224.728879
  0
LINE
  5
1BC
100
AcDbEntity
  8
1
370
    50
100
AcDbLine
 10
128.153078
 20
-4.0
 30
0.0
 11
134.618263
 21
-4.0
 31
0.0
  0
LINE
  5
1BD
100
AcDbEntity
  8
1
370
    50
100
AcDbLine
 10
124.618276
 20
-5.448449
 30
0.0
 11
124.618276
 21
-9.6
 31
0.0
  0
ARC
  5
1BE
100
AcDbEntity
  8
1
370
    50
100
AcDbCircle
 10
128.153078
 20
-10.495254
 30
0.0
 40
6.495254
100
AcDbArc
 50
90.0
 51
97.122774
  0
ARC
  5
1BF
100
AcDbEntity
  8
1
370
    50
100
AcDbCircle
 10
127.968745
 20
-9.020125
 30
0.0
 40
5.008652
100
AcDbArc
 50
97.122774
 51
105.855848
  0
ARC
  5
1C0
100
AcDbEntity
  8
1
370
    50
100
AcDbCircle
 10
127.866764
 20
-8.661068
 30
0.0
 40
4.635394
100
AcDbArc
 50
105.855848
 51
115.018521
  0
ARC
  5
1C1
100
AcDbEntity
  8
1
370
    50
100
AcDbCircle
 10
127.665149
 20
-8.229069
 30
0.0
 40
4.158664
100
AcDbArc
 50
115.018521
 51
125.295742
  0
ARC
  5
1C2
100
AcDbEntity
  8
1
370
    50
100
AcDbCircle
 10
127.857094
 20
-8.500205
 30
0.0
 40
4.490864
100
AcDbArc
 50
125.295742
 51
135.271121
  0
ARC
  5
1C3
100
AcDbEntity
  8
1
370
    50
100
AcDbCircle
 10
124.785744
 20
-5.457785
 30
0.0
 40
0.167727
100
AcDbArc
 50
135.271121
 51
176.809209
  0
LINE
  5
1C4
100
AcDbEntity
  8
1
370
    50
100
AcDbLine
 10
128.153078
 20
-24.0
 30
0.0
 11
134.618263
 21
-24.0
 31
0.0
  0
ARC
  5
1C5
100
AcDbEntity
  8
1
370
    25
100
AcDbCircle
 10
199.118263
 20
-0.0792
 30
0.0
 40
1.5
100
AcDbArc
 50
0.0
 51
180.0
  0
ARC
  5
1C6
100
AcDbEntity
  8
1
370
    25
100
AcDbCircle
 10
199.118263
 20
-10.0792
 30
0.0
 40
1.5
100
AcDbArc
 50
180.0
 51
360.0
  0
LINE
  5
1C7
100
AcDbEntity
  8
1
370
    25
100
AcDbLine
 10
197.618263
 20
-10.0792
 30
0.0
 11
197.618263
 21
-0.0792
 31
0.0
  0
LINE
  5
1C8
100
AcDbEntity
  8
1
370
    25
100
AcDbLine
 10
200.618263
 20
-10.0792
 30
0.0
 11
200.618263
 21
-0.0792
 31
0.0
  0
LINE
  5
1C9
100
AcDbEntity
  8
1
370
    50
100
AcDbLine
 10
134.618263
 20
-2.6
 30
0.0
 11
134.618263
 21
-25.4
 31
0.0
  0
LINE
  5
1CA
100
AcDbEntity
  8
1
370
    25
100
AcDbLine
 10
134.618263
 20
-4.1861
 30
0.0
 11
135.118263
 21
-4.1861
 31
0.0
  0
LINE
  5
1CB
100
AcDbEntity
  8
1
370
    25
100
AcDbLine
 10
134.618263
 20
-3.6435
 30
0.0
 11
135.118263
 21
-3.6435
 31
0.0
  0
LINE
  5
1CC
100
AcDbEntity
  8
1
370
    25
100
AcDbLine
 10
134.618263
 20
-24.3565
 30
0.0
 11
135.118263
 21
-24.3565
 31
0.0
  0
LINE
  5
1CD
100
AcDbEntity
  8
1
370
    25
100
AcDbLine
 10
134.618263
 20
-23.8139
 30
0.0
 11
135.118263
 21
-23.8139
 31
0.0
  0
LINE
  5
1CE
100
AcDbEntity
  8
1
370
    50
100
AcDbLine
 10
135.118263
 20
-25.6
 30
0.0
 11
135.118263
 21
-23.8139
 31
0.0
  0
LINE
  5
1CF
100
AcDbEntity
  8
1
370
    50
100
AcDbLine
 10
135.118263
 20
-4.1861
 30
0.0
 11
135.118263
 21
-2.4
 31
0.0
  0
LINE
  5
1D0
100
AcDbEntity
  8
1
370
    25
100
AcDbLine
 10
134.618263
 20
-5.3996
 30
0.0
 11
135.118263
 21
-5.3996
 31
0.0
  0
LINE
  5
1D1
100
AcDbEntity
  8
1
370
    25
100
AcDbLine
 10
134.618263
 20
-22.6004
 30
0.0
 11
135.118263
 21
-22.6004
 31
0.0
  0
LINE
  5
1D2
100
AcDbEntity
  8
1
370
    25
100
AcDbLine
 10
140.803663
 20
-10.200329
 30
0.0
 11
142.418263
 21
-10.200329
 31
0.0
  0
LINE
  5
1D3
100
AcDbEntity
  8
1
370
    25
100
AcDbLine
 10
140.803663
 20
-17.799671
 30
0.0
 11
142.418263
 21
-17.799671
 31
0.0
  0
LINE
  5
1D4
100
AcDbEntity
  8
1
370
    50
100
AcDbLine
 10
135.118263
 20
-25.6
 30
0.0
 11
134.818263
 21
-25.6
 31
0.0
  0
LINE
  5
1D5
100
AcDbEntity
  8
1
370
    50
100
AcDbLine
 10
135.118263
 20
-2.4
 30
0.0
 11
134.818263
 21
-2.4
 31
0.0
  0
ARC
  5
1D6
100
AcDbEntity
  8
1
370
    50
100
AcDbCircle
 10
134.818263
 20
-2.6
 30
0.0
 40
0.2
100
AcDbArc
 50
90.0
 51
180.0
  0
ARC
  5
1D7
100
AcDbEntity
  8
1
370
    50
100
AcDbCircle
 10
134.818263
 20
-25.4
 30
0.0
 40
0.2
100
AcDbArc
 50
180.0
 51
270.0
  0
LINE
  5
1D8
100
AcDbEntity
  8
1
370
    50
100
AcDbLine
 10
136.318263
 20
-2.751613
 30
0.0
 11
138.018263
 21
-2.779032
 31
0.0
  0
LINE
  5
1D9
100
AcDbEntity
  8
1
370
    50
100
AcDbLine
 10
139.218263
 20
-2.798387
 30
0.0
 11
139.518263
 21
-2.803226
 31
0.0
  0
LINE
  5
1DA
100
AcDbEntity
  8
1
370
    25
100
AcDbLine
 10
136.318263
 20
-5.5264
 30
0.0
 11
138.018263
 21
-5.5264
 31
0.0
  0
LINE
  5
1DB
100
AcDbEntity
  8
1
370
    25
100
AcDbLine
 10
139.218263
 20
-5.5264
 30
0.0
 11
142.418263
 21
-5.5264
 31
0.0
  0
LINE
  5
1DC
100
AcDbEntity
  8
1
370
    25
100
AcDbLine
 10
136.318263
 20
-7.273931
 30
0.0
 11
138.018263
 21
-7.273931
 31
0.0
  0
LINE
  5
1DD
100
AcDbEntity
  8
1
370
    25
100
AcDbLine
 10
139.218263
 20
-7.273931
 30
0.0
 11
142.418263
 21
-7.273931
 31
0.0
  0
LINE
  5
1DE
100
AcDbEntity
  8
1
370
    25
100
AcDbLine
 10
136.318263
 20
-20.726069
 30
0.0
 11
138.018263
 21
-20.726069
 31
0.0
  0
LINE
  5
1DF
100
AcDbEntity
  8
1
370
    25
100
AcDbLine
 10
139.218263
 20
-20.726069
 30
0.0
 11
142.418263
 21
-20.726069
 31
0.0
  0
LINE
  5
1E0
100
AcDbEntity
  8
1
370
    25
100
AcDbLine
 10
136.318263
 20
-22.4736
 30
0.0
 11
138.018263
 21
-22.4736
 31
0.0
  0
LINE
  5
1E1
100
AcDbEntity
  8
1
370
    25
100
AcDbLine
 10
139.218263
 20
-22.4736
 30
0.0
 11
142.418263
 21
-22.4736
 31
0.0
  0
LINE
  5
1E2
100
AcDbEntity
  8
1
370
    50
100
AcDbLine
 10
136.318263
 20
-25.248387
 30
0.0
 11
138.018263
 21
-25.220968
 31
0.0
  0
LINE
  5
1E3
100
AcDbEntity
  8
1
370
    50
100
AcDbLine
 10
139.218263
 20
-25.201613
 30
0.0
 11
139.518263
 21
-25.196774
 31
0.0
  0
ARC
  5
1E4
100
AcDbEntity
  8
1
370
    25
100
AcDbCircle
 10
143.954175
 20
-14.0
 30
0.0
 40
4.935912
100
AcDbArc
 50
129.663953
 51
163.633855
  0
ARC
  5
1E5
100
AcDbEntity
  8
1
370
    25
100
AcDbCircle
 10
143.954175
 20
-14.0
 30
0.0
 40
4.935912
100
AcDbArc
 50
196.366145
 51
230.336047
  0
LINE
  5
1E6
100
AcDbEntity
  8
1
370
    25
100
AcDbLine
 10
141.118263
 20
43.75
 30
0.0
 11
139.118263
 21
43.75
 31
0.0
  0
LINE
  5
1E7
100
AcDbEntity
  8
1
370
    25
100
AcDbLine
 10
139.118263
 20
40.25
 30
0.0
 11
142.19006
 21
40.25
 31
0.0
  0
LINE
  5
1E8
100
AcDbEntity
  8
1
370
    25
100
AcDbLine
 10
141.118263
 20
43.75
 30
0.0
 11
142.19006
 21
40.25
 31
0.0
  0
LINE
  5
1E9
100
AcDbEntity
  8
1
370
    25
100
AcDbLine
 10
141.252238
 20
43.25
 30
0.0
 11
151.520187
 21
43.25
 31
0.0
  0
LINE
  5
1EA
100
AcDbEntity
  8
1
370
    25
100
AcDbLine
 10
142.056085
 20
40.75
 30
0.0
 11
151.520187
 21
40.75
 31
0.0
  0
LINE
  5
1EB
100
AcDbEntity
  8
1
370
    25
100
AcDbLine
 10
157.118263
 20
42.0
 30
0.0
 11
151.520187
 21
40.75
 31
0.0
  0
LINE
  5
1EC
100
AcDbEntity
  8
1
370
    25
100
AcDbLine
 10
157.118263
 20
42.0
 30
0.0
 11
151.520187
 21
43.25
 31
0.0
  0
LINE
  5
1ED
100
AcDbEntity
  8
1
370
    25
100
AcDbLine
 10
141.118263
 20
43.75
 30
0.0
 11
142.19006
 21
40.25
 31
0.0
  0
LINE
  5
1EE
100
AcDbEntity
  8
1
370
    25
100
AcDbLine
 10
141.118263
 20
43.75
 30
0.0
 11
142.19006
 21
40.25
 31
0.0
  0
LINE
  5
1EF
100
AcDbEntity
  8
1
370
    25
100
AcDbLine
 10
141.118263
 20
43.75
 30
0.0
 11
142.19006
 21
40.25
 31
0.0
  0
LINE
  5
1F0
100
AcDbEntity
  8
1
370
    25
100
AcDbLine
 10
141.118263
 20
43.75
 30
0.0
 11
142.19006
 21
40.25
 31
0.0
  0
LINE
  5
1F1
100
AcDbEntity
  8
1
370
    25
100
AcDbLine
 10
141.118263
 20
43.75
 30
0.0
 11
142.19006
 21
40.25
 31
0.0
  0
LINE
  5
1F2
100
AcDbEntity
  8
1
370
    25
100
AcDbLine
 10
141.118263
 20
43.75
 30
0.0
 11
142.19006
 21
40.25
 31
0.0
  0
LINE
  5
1F3
100
AcDbEntity
  8
1
370
    25
100
AcDbLine
 10
145.118263
 20
43.75
 30
0.0
 11
146.19006
 21
40.25
 31
0.0
  0
LINE
  5
1F4
100
AcDbEntity
  8
1
370
    25
100
AcDbLine
 10
147.118263
 20
43.75
 30
0.0
 11
148.19006
 21
40.25
 31
0.0
  0
LINE
  5
1F5
100
AcDbEntity
  8
1
370
    25
100
AcDbLine
 10
149.118263
 20
43.75
 30
0.0
 11
150.19006
 21
40.25
 31
0.0
  0
LINE
  5
1F6
100
AcDbEntity
  8
1
370
    25
100
AcDbLine
 10
151.118263
 20
43.75
 30
0.0
 11
152.149597
 21
40.401012
 31
0.0
  0
LINE
  5
1F7
100
AcDbEntity
  8
1
370
    25
100
AcDbLine
 10
153.236783
 20
43.307678
 30
0.0
 11
154.015622
 21
40.901012
 31
0.0
  0
LINE
  5
1F8
100
AcDbEntity
  8
1
370
    25
100
AcDbLine
 10
155.391484
 20
42.730327
 30
0.0
 11
155.881647
 21
41.401012
 31
0.0
  0
LINE
  5
1F9
100
AcDbEntity
  8
1
370
    25
100
AcDbLine
 10
143.118309
 20
43.75
 30
0.0
 11
144.190106
 21
40.25
 31
0.0
  0
LINE
  5
1FA
100
AcDbEntity
  8
1
370
    25
100
AcDbLine
 10
141.118263
 20
-70.25
 30
0.0
 11
139.118263
 21
-70.25
 31
0.0
  0
LINE
  5
1FB
100
AcDbEntity
  8
1
370
    25
100
AcDbLine
 10
139.118263
 20
-73.75
 30
0.0
 11
142.19006
 21
-73.75
 31
0.0
  0
LINE
  5
1FC
100
AcDbEntity
  8
1
370
    25
100
AcDbLine
 10
141.118263
 20
-70.25
 30
0.0
 11
142.19006
 21
-73.75
 31
0.0
  0
LINE
  5
1FD
100
AcDbEntity
  8
1
370
    25
100
AcDbLine
 10
141.252238
 20
-70.75
 30
0.0
 11
151.520187
 21
-70.75
 31
0.0
  0
LINE
  5
1FE
100
AcDbEntity
  8
1
370
    25
100
AcDbLine
 10
142.056085
 20
-73.25
 30
0.0
 11
151.520187
 21
-73.25
 31
0.0
  0
LINE
  5
1FF
100
AcDbEntity
  8
1
370
    25
100
AcDbLine
 10
157.118263
 20
-72.0
 30
0.0
 11
151.520187
 21
-73.25
 31
0.0
  0
LINE
  5
200
100
AcDbEntity
  8
1
370
    25
100
AcDbLine
 10
157.118263
 20
-72.0
 30
0.0
 11
151.520187
 21
-70.75
 31
0.0
  0
LINE
  5
201
100
AcDbEntity
  8
1
370
    25
100
AcDbLine
 10
141.118263
 20
-70.25
 30
0.0
 11
142.19006
 21
-73.75
 31
0.0
  0
LINE
  5
202
100
AcDbEntity
  8
1
370
    25
100
AcDbLine
 10
141.118263
 20
-70.25
 30
0.0
 11
142.19006
 21
-73.75
 31
0.0
  0
LINE
  5
203
100
AcDbEntity
  8
1
370
    25
100
AcDbLine
 10
141.118263
 20
-70.25
 30
0.0
 11
142.19006
 21
-73.75
 31
0.0
  0
LINE
  5
204
100
AcDbEntity
  8
1
370
    25
100
AcDbLine
 10
141.118263
 20
-70.25
 30
0.0
 11
142.19006
 21
-73.75
 31
0.0
  0
LINE
  5
205
100
AcDbEntity
  8
1
370
    25
100
AcDbLine
 10
141.118263
 20
-70.25
 30
0.0
 11
142.19006
 21
-73.75
 31
0.0
  0
LINE
  5
206
100
AcDbEntity
  8
1
370
    25
100
AcDbLine
 10
141.118263
 20
-70.25
 30
0.0
 11
142.19006
 21
-73.75
 31
0.0
  0
LINE
  5
207
100
AcDbEntity
  8
1
370
    25
100
AcDbLine
 10
145.118263
 20
-70.25
 30
0.0
 11
146.19006
 21
-73.75
 31
0.0
  0
LINE
  5
208
100
AcDbEntity
  8
1
370
    25
100
AcDbLine
 10
147.118263
 20
-70.25
 30
0.0
 11
148.19006
 21
-73.75
 31
0.0
  0
LINE
  5
209
100
AcDbEntity
  8
1
370
    25
100
AcDbLine
 10
149.118263
 20
-70.25
 30
0.0
 11
150.19006
 21
-73.75
 31
0.0
  0
LINE
  5
20A
100
AcDbEntity
  8
1
370
    25
100
AcDbLine
 10
151.118263
 20
-70.25
 30
0.0
 11
152.149597
 21
-73.598988
 31
0.0
  0
LINE
  5
20B
100
AcDbEntity
  8
1
370
    25
100
AcDbLine
 10
153.236783
 20
-70.692322
 30
0.0
 11
154.015622
 21
-73.098988
 31
0.0
  0
LINE
  5
20C
100
AcDbEntity
  8
1
370
    25
100
AcDbLine
 10
155.391484
 20
-71.269673
 30
0.0
 11
155.881647
 21
-72.598988
 31
0.0
  0
LINE
  5
20D
100
AcDbEntity
  8
1
370
    25
100
AcDbLine
 10
143.118309
 20
-70.25
 30
0.0
 11
144.190106
 21
-73.75
 31
0.0
  0
LINE
  5
20E
100
AcDbEntity
  8
1
370
    50
100
AcDbLine
 10
168.618263
 20
-52.0
 30
0.0
 11
169.595552
 21
-52.0
 31
0.0
  0
LINE
  5
20F
100
AcDbEntity
  8
1
370
    50
100
AcDbLine
 10
202.640975
 20
-52.0
 30
0.0
 11
205.118263
 21
-52.0
 31
0.0
  0
ARC
  5
210
100
AcDbEntity
  8
1
370
    50
100
AcDbCircle
 10
168.118263
 20
-51.0
 30
0.0
 40
0.5
100
AcDbArc
 50
0.0
 51
9.602625
  0
ARC
  5
211
100
AcDbEntity
  8
1
370
    50
100
AcDbCircle
 10
168.118263
 20
-51.0
 30
0.0
 40
0.5
100
AcDbArc
 50
70.008517
 51
90.0
  0
LINE
  5
212
100
AcDbEntity
  8
1
370
    50
100
AcDbLine
 10
-67.0
 20
168.649401
 30
0.0
 11
-53.0
 21
168.649401
 31
0.0
  0
LINE
  5
213
100
AcDbEntity
  8
1
370
    18
  6
CENTER
100
AcDbLine
 10
-60.0
 20
83.014321
 30
0.0
 11
-60.0
 21
174.260804
 31
0.0
  0
LINE
  5
214
100
AcDbEntity
  8
1
370
    50
100
AcDbLine
 10
-47.600003
 20
99.549401
 30
0.0
 11
-47.600003
 21
100.749401
 31
0.0
  0
LINE
  5
215
100
AcDbEntity
  8
1
370
    50
100
AcDbLine
 10
-72.400003
 20
99.549401
 30
0.0
 11
-72.400003
 21
100.749401
 31
0.0
  0
LINE
  5
216
100
AcDbEntity
  8
1
370
    50
100
AcDbLine
 10
-70.200003
 20
101.149401
 30
0.0
 11
-49.800003
 21
101.149401
 31
0.0
  0
LINE
  5
217
100
AcDbEntity
  8
1
370
    50
100
AcDbLine
 10
-72.400003
 20
100.749401
 30
0.0
 11
-70.600003
 21
100.749401
 31
0.0
  0
LINE
  5
218
100
AcDbEntity
  8
1
370
    50
100
AcDbLine
 10
-49.400003
 20
100.749401
 30
0.0
 11
-47.600003
 21
100.749401
 31
0.0
  0
ARC
  5
219
100
AcDbEntity
  8
1
370
    50
100
AcDbCircle
 10
-70.100003
 20
99.949401
 30
0.0
 40
0.4
100
AcDbArc
 50
270.0
 51
360.0
  0
ARC
  5
21A
100
AcDbEntity
  8
1
370
    50
100
AcDbCircle
 10
-70.200003
 20
100.749401
 30
0.0
 40
0.4
100
AcDbArc
 50
90.0
 51
180.0
  0
ARC
  5
21B
100
AcDbEntity
  8
1
370
    50
100
AcDbCircle
 10
-49.900003
 20
99.949401
 30
0.0
 40
0.4
100
AcDbArc
 50
180.0
 51
270.0
  0
ARC
  5
21C
100
AcDbEntity
  8
1
370
    50
100
AcDbCircle
 10
-49.800003
 20
100.749401
 30
0.0
 40
0.4
100
AcDbArc
 50
0.0
 51
90.0
  0
LINE
  5
21D
100
AcDbEntity
  8
1
370
    50
100
AcDbLine
 10
-51.3
 20
120.649401
 30
0.0
 11
-51.3
 21
129.649401
 31
0.0
  0
LINE
  5
21E
100
AcDbEntity
  8
1
370
    50
100
AcDbLine
 10
-53.0
 20
130.149401
 30
0.0
 11
-51.8
 21
130.149401
 31
0.0
  0
LINE
  5
21F
100
AcDbEntity
  8
1
370
    50
100
AcDbLine
 10
-53.0
 20
120.149401
 30
0.0
 11
-51.8
 21
120.149401
 31
0.0
  0
LINE
  5
220
100
AcDbEntity
  8
1
370
    50
100
AcDbLine
 10
-51.3
 20
165.149401
 30
0.0
 11
-51.3
 21
166.749401
 31
0.0
  0
LINE
  5
221
100
AcDbEntity
  8
1
370
    50
100
AcDbLine
 10
-51.8
 20
167.249401
 30
0.0
 11
-51.3
 21
166.749401
 31
0.0
  0
LINE
  5
222
100
AcDbEntity
  8
1
370
    50
100
AcDbLine
 10
-66.8
 20
167.449401
 30
0.0
 11
-53.0
 21
167.449401
 31
0.0
  0
LINE
  5
223
100
AcDbEntity
  8
1
370
    50
100
AcDbLine
 10
-67.0
 20
166.249401
 30
0.0
 11
-67.0
 21
167.249401
 31
0.0
  0
LINE
  5
224
100
AcDbEntity
  8
1
370
    50
100
AcDbLine
 10
-68.2
 20
166.249401
 30
0.0
 11
-67.0
 21
166.249401
 31
0.0
  0
ARC
  5
225
100
AcDbEntity
  8
1
370
    50
100
AcDbCircle
 10
-67.0
 20
167.449401
 30
0.0
 40
1.2
100
AcDbArc
 50
90.0
 51
180.0
  0
ARC
  5
226
100
AcDbEntity
  8
1
370
    50
100
AcDbCircle
 10
-66.8
 20
167.249401
 30
0.0
 40
0.2
100
AcDbArc
 50
90.0
 51
180.0
  0
LINE
  5
227
100
AcDbEntity
  8
1
370
    50
100
AcDbLine
 10
-54.5
 20
103.649401
 30
0.0
 11
-54.5
 21
110.149401
 31
0.0
  0
LINE
  5
228
100
AcDbEntity
  8
1
370
    50
100
AcDbLine
 10
-65.5
 20
103.649401
 30
0.0
 11
-65.5
 21
110.149401
 31
0.0
  0
LINE
  5
229
100
AcDbEntity
  8
1
370
    50
100
AcDbLine
 10
-68.2
 20
103.149401
 30
0.0
 11
-66.0
 21
103.149401
 31
0.0
  0
LINE
  5
22A
100
AcDbEntity
  8
1
370
    50
100
AcDbLine
 10
-54.0
 20
103.149401
 30
0.0
 11
-53.0
 21
103.149401
 31
0.0
  0
ARC
  5
22B
100
AcDbEntity
  8
1
370
    50
100
AcDbCircle
 10
-58.5
 20
110.149401
 30
0.0
 40
4.0
100
AcDbArc
 50
0.0
 51
90.0
  0
ARC
  5
22C
100
AcDbEntity
  8
1
370
    50
100
AcDbCircle
 10
-61.5
 20
110.149401
 30
0.0
 40
4.0
100
AcDbArc
 50
90.0
 51
180.0
  0
ARC
  5
22D
100
AcDbEntity
  8
1
370
    50
100
AcDbCircle
 10
-54.0
 20
103.649401
 30
0.0
 40
0.5
100
AcDbArc
 50
180.0
 51
270.0
  0
ARC
  5
22E
100
AcDbEntity
  8
1
370
    50
100
AcDbCircle
 10
-66.0
 20
103.649401
 30
0.0
 40
0.5
100
AcDbArc
 50
270.0
 51
360.0
  0
LINE
  5
22F
100
AcDbEntity
  8
1
370
    50
100
AcDbLine
 10
-53.0
 20
167.249401
 30
0.0
 11
-53.0
 21
168.649401
 31
0.0
  0
ARC
  5
230
100
AcDbEntity
  8
1
370
    50
100
AcDbCircle
 10
-51.8
 20
120.649401
 30
0.0
 40
0.5
100
AcDbArc
 50
270.0
 51
360.0
  0
ARC
  5
231
100
AcDbEntity
  8
1
370
    50
100
AcDbCircle
 10
-51.8
 20
129.649401
 30
0.0
 40
0.5
100
AcDbArc
 50
0.0
 51
90.0
  0
LINE
  5
232
100
AcDbEntity
  8
1
370
    50
100
AcDbLine
 10
-69.700003
 20
99.949401
 30
0.0
 11
-69.4
 21
99.949401
 31
0.0
  0
LINE
  5
233
100
AcDbEntity
  8
1
370
    50
100
AcDbLine
 10
-50.6
 20
99.949401
 30
0.0
 11
-50.300003
 21
99.949401
 31
0.0
  0
LINE
  5
234
100
AcDbEntity
  8
1
370
    50
100
AcDbLine
 10
-61.5
 20
114.149401
 30
0.0
 11
-61.116455
 21
114.149401
 31
0.0
  0
LINE
  5
235
100
AcDbEntity
  8
1
370
    50
100
AcDbLine
 10
-58.883545
 20
114.149401
 30
0.0
 11
-58.5
 21
114.149401
 31
0.0
  0
LINE
  5
236
100
AcDbEntity
  8
1
370
    50
100
AcDbLine
 10
-47.6
 20
98.349401
 30
0.0
 11
-47.6
 21
99.549401
 31
0.0
  0
LINE
  5
237
100
AcDbEntity
  8
1
370
    50
100
AcDbLine
 10
-72.4
 20
98.349401
 30
0.0
 11
-72.4
 21
99.549401
 31
0.0
  0
LINE
  5
238
100
AcDbEntity
  8
1
370
    50
100
AcDbLine
 10
-68.5
 20
98.749401
 30
0.0
 11
-51.5
 21
98.749401
 31
0.0
  0
LINE
  5
239
100
AcDbEntity
  8
1
370
    50
100
AcDbLine
 10
-72.4
 20
99.549401
 30
0.0
 11
-69.8
 21
99.549401
 31
0.0
  0
LINE
  5
23A
100
AcDbEntity
  8
1
370
    50
100
AcDbLine
 10
-50.2
 20
99.549401
 30
0.0
 11
-47.6
 21
99.549401
 31
0.0
  0
LINE
  5
23B
100
AcDbEntity
  8
1
370
    50
100
AcDbLine
 10
-51.8
 20
101.149401
 30
0.0
 11
-51.8
 21
120.149401
 31
0.0
  0
LINE
  5
23C
100
AcDbEntity
  8
1
370
    50
100
AcDbLine
 10
-53.0
 20
101.149401
 30
0.0
 11
-53.0
 21
120.149401
 31
0.0
  0
ARC
  5
23D
100
AcDbEntity
  8
1
370
    50
100
AcDbCircle
 10
-53.0
 20
167.449401
 30
0.0
 40
1.2
100
AcDbArc
 50
0.0
 51
90.0
  0
ARC
  5
23E
100
AcDbEntity
  8
1
370
    50
100
AcDbCircle
 10
-68.9
 20
98.549401
 30
0.0
 40
0.2
100
AcDbArc
 50
270.0
 51
360.0
  0
ARC
  5
23F
100
AcDbEntity
  8
1
370
    50
100
AcDbCircle
 10
-69.8
 20
99.749401
 30
0.0
 40
0.2
100
AcDbArc
 50
270.0
 51
360.0
  0
ARC
  5
240
100
AcDbEntity
  8
1
370
    50
100
AcDbCircle
 10
-69.4
 20
99.749401
 30
0.0
 40
0.2
100
AcDbArc
 50
90.0
 51
180.0
  0
ARC
  5
241
100
AcDbEntity
  8
1
370
    50
100
AcDbCircle
 10
-50.2
 20
99.749401
 30
0.0
 40
0.2
100
AcDbArc
 50
180.0
 51
270.0
  0
ARC
  5
242
100
AcDbEntity
  8
1
370
    50
100
AcDbCircle
 10
-50.6
 20
99.749401
 30
0.0
 40
0.2
100
AcDbArc
 50
360.0
 51
90.0
  0
ARC
  5
243
100
AcDbEntity
  8
1
370
    50
100
AcDbCircle
 10
-51.1
 20
98.549401
 30
0.0
 40
0.2
100
AcDbArc
 50
180.0
 51
270.0
  0
ARC
  5
244
100
AcDbEntity
  8
1
370
    50
100
AcDbCircle
 10
-51.5
 20
98.549401
 30
0.0
 40
0.2
100
AcDbArc
 50
0.0
 51
90.0
  0
ARC
  5
245
100
AcDbEntity
  8
1
370
    50
100
AcDbCircle
 10
-68.5
 20
98.549401
 30
0.0
 40
0.2
100
AcDbArc
 50
90.0
 51
180.0
  0
LINE
  5
246
100
AcDbEntity
  8
1
370
    50
100
AcDbLine
 10
-69.4
 20
99.949401
 30
0.0
 11
-50.6
 21
99.949401
 31
0.0
  0
LINE
  5
247
100
AcDbEntity
  8
1
370
    50
100
AcDbLine
 10
-72.5
 20
97.149401
 30
0.0
 11
-47.5
 21
97.149401
 31
0.0
  0
LINE
  5
248
100
AcDbEntity
  8
1
370
    50
100
AcDbLine
 10
-72.5
 20
98.349401
 30
0.0
 11
-47.5
 21
98.349401
 31
0.0
  0
LINE
  5
249
100
AcDbEntity
  8
1
370
    50
100
AcDbLine
 10
-47.5
 20
97.149401
 30
0.0
 11
-47.5
 21
98.349401
 31
0.0
  0
LINE
  5
24A
100
AcDbEntity
  8
1
370
    50
100
AcDbLine
 10
-72.5
 20
97.149401
 30
0.0
 11
-72.5
 21
98.349401
 31
0.0
  0
LINE
  5
24B
100
AcDbEntity
  8
1
370
    50
100
AcDbLine
 10
-51.2
 20
113.899401
 30
0.0
 11
-51.2
 21
122.399401
 31
0.0
  0
LINE
  5
24C
100
AcDbEntity
  8
1
370
    50
100
AcDbLine
 10
-51.8
 20
113.399401
 30
0.0
 11
-51.7
 21
113.399401
 31
0.0
  0
ARC
  5
24D
100
AcDbEntity
  8
1
370
    50
100
AcDbCircle
 10
-51.7
 20
113.899401
 30
0.0
 40
0.5
100
AcDbArc
 50
270.0
 51
360.0
  0
ARC
  5
24E
100
AcDbEntity
  8
1
370
    50
100
AcDbCircle
 10
-51.7
 20
122.399401
 30
0.0
 40
0.5
100
AcDbArc
 50
360.0
 51
36.869898
  0
LINE
  5
24F
100
AcDbEntity
  8
1
370
    50
100
AcDbLine
 10
-68.2
 20
113.399401
 30
0.0
 11
-68.4
 21
113.399401
 31
0.0
  0
LINE
  5
250
100
AcDbEntity
  8
1
370
    50
100
AcDbLine
 10
-68.2
 20
122.899401
 30
0.0
 11
-68.4
 21
122.899401
 31
0.0
  0
LINE
  5
251
100
AcDbEntity
  8
1
370
    50
100
AcDbLine
 10
-68.9
 20
113.899401
 30
0.0
 11
-68.9
 21
122.399401
 31
0.0
  0
ARC
  5
252
100
AcDbEntity
  8
1
370
    50
100
AcDbCircle
 10
-68.4
 20
113.899401
 30
0.0
 40
0.5
100
AcDbArc
 50
180.0
 51
270.0
  0
ARC
  5
253
100
AcDbEntity
  8
1
370
    50
100
AcDbCircle
 10
-68.4
 20
122.399401
 30
0.0
 40
0.5
100
AcDbArc
 50
90.0
 51
180.0
  0
LINE
  5
254
100
AcDbEntity
  8
1
370
    50
100
AcDbLine
 10
-68.3
 20
127.899401
 30
0.0
 11
-68.2
 21
127.899401
 31
0.0
  0
LINE
  5
255
100
AcDbEntity
  8
1
370
    50
100
AcDbLine
 10
-68.3
 20
109.399401
 30
0.0
 11
-68.2
 21
109.399401
 31
0.0
  0
ARC
  5
256
100
AcDbEntity
  8
1
370
    50
100
AcDbCircle
 10
-68.3
 20
127.399401
 30
0.0
 40
0.5
100
AcDbArc
 50
90.0
 51
180.0
  0
ARC
  5
257
100
AcDbEntity
  8
1
370
    50
100
AcDbCircle
 10
-68.3
 20
109.899401
 30
0.0
 40
0.5
100
AcDbArc
 50
180.0
 51
270.0
  0
ARC
  5
258
100
AcDbEntity
  8
1
370
    50
100
AcDbCircle
 10
-68.3
 20
122.899401
 30
0.0
 40
0.5
100
AcDbArc
 50
180.0
 51
199.347367
  0
LINE
  5
259
100
AcDbEntity
  8
1
370
    50
100
AcDbLine
 10
-68.8
 20
109.899401
 30
0.0
 11
-68.8
 21
113.599401
 31
0.0
  0
LINE
  5
25A
100
AcDbEntity
  8
1
370
    50
100
AcDbLine
 10
-68.8
 20
122.899401
 30
0.0
 11
-68.8
 21
127.399401
 31
0.0
  0
LINE
  5
25B
100
AcDbEntity
  8
1
370
    50
100
AcDbLine
 10
-51.3
 20
113.599401
 30
0.0
 11
-51.3
 21
109.899401
 31
0.0
  0
ARC
  5
25C
100
AcDbEntity
  8
1
370
    50
100
AcDbCircle
 10
-51.8
 20
109.899401
 30
0.0
 40
0.5
100
AcDbArc
 50
270.0
 51
360.0
  0
LINE
  5
25D
100
AcDbEntity
  8
1
370
    50
100
AcDbLine
 10
-54.0
 20
88.149401
 30
0.0
 11
-54.0
 21
96.649401
 31
0.0
  0
LINE
  5
25E
100
AcDbEntity
  8
1
370
    50
100
AcDbLine
 10
-54.0
 20
88.149401
 30
0.0
 11
-54.302624
 21
87.019991
 31
0.0
  0
ARC
  5
25F
100
AcDbEntity
  8
1
370
    50
100
AcDbCircle
 10
-37.549981
 20
117.035583
 30
0.0
 40
35.0
100
AcDbArc
 50
216.724911
 51
240.027598
  0
ARC
  5
260
100
AcDbEntity
  8
1
370
    50
100
AcDbCircle
 10
-54.785587
 20
87.149401
 30
0.0
 40
0.5
100
AcDbArc
 50
240.027598
 51
345.0
  0
ARC
  5
261
100
AcDbEntity
  8
1
370
    50
100
AcDbCircle
 10
-64.0
 20
97.302451
 30
0.0
 40
2.0
100
AcDbArc
 50
199.057997
 51
216.724911
  0
LINE
  5
262
100
AcDbEntity
  8
1
370
    50
100
AcDbLine
 10
-51.2
 20
135.149401
 30
0.0
 11
-51.2
 21
137.720242
 31
0.0
  0
LINE
  5
263
100
AcDbEntity
  8
1
370
    50
100
AcDbLine
 10
-68.8
 20
138.149449
 30
0.0
 11
-68.2
 21
138.149449
 31
0.0
  0
LINE
  5
264
100
AcDbEntity
  8
1
370
    50
100
AcDbLine
 10
-67.25
 20
97.149401
 30
0.0
 11
-67.25
 21
96.849401
 31
0.0
  0
LINE
  5
265
100
AcDbEntity
  8
1
370
    50
100
AcDbLine
 10
-52.75
 20
97.149401
 30
0.0
 11
-52.75
 21
96.849401
 31
0.0
  0
LINE
  5
266
100
AcDbEntity
  8
1
370
    50
100
AcDbLine
 10
-67.05
 20
96.649401
 30
0.0
 11
-52.95
 21
96.649401
 31
0.0
  0
ARC
  5
267
100
AcDbEntity
  8
1
370
    50
100
AcDbCircle
 10
-52.95
 20
96.849401
 30
0.0
 40
0.2
100
AcDbArc
 50
270.0
 51
360.0
  0
ARC
  5
268
100
AcDbEntity
  8
1
370
    50
100
AcDbCircle
 10
-67.05
 20
96.849401
 30
0.0
 40
0.2
100
AcDbArc
 50
180.0
 51
270.0
  0
ARC
  5
269
100
AcDbEntity
  8
1
370
    50
100
AcDbCircle
 10
-68.6
 20
158.049401
 30
0.0
 40
0.4
100
AcDbArc
 50
180.0
 51
360.0
  0
ARC
  5
26A
100
AcDbEntity
  8
1
370
    50
100
AcDbCircle
 10
-68.6
 20
112.549401
 30
0.0
 40
0.4
100
AcDbArc
 50
180.0
 51
240.0
  0
ARC
  5
26B
100
AcDbEntity
  8
1
370
    50
100
AcDbCircle
 10
-68.6
 20
119.749401
 30
0.0
 40
0.4
100
AcDbArc
 50
138.590378
 51
180.0
  0
LINE
  5
26C
100
AcDbEntity
  8
1
370
    50
100
AcDbLine
 10
-69.0
 20
112.549401
 30
0.0
 11
-69.0
 21
119.749401
 31
0.0
  0
LINE
  5
26D
100
AcDbEntity
  8
1
370
    50
100
AcDbLine
 10
-50.6
 20
114.549401
 30
0.0
 11
-50.6
 21
117.749401
 31
0.0
  0
LINE
  5
26E
100
AcDbEntity
  8
1
370
    50
100
AcDbLine
 10
-50.6
 20
160.049401
 30
0.0
 11
-50.6
 21
161.149401
 31
0.0
  0
LINE
  5
26F
100
AcDbEntity
  8
1
370
    50
100
AcDbLine
 10
-51.2
 20
114.149401
 30
0.0
 11
-51.0
 21
114.149401
 31
0.0
  0
LINE
  5
270
100
AcDbEntity
  8
1
370
    50
100
AcDbLine
 10
-51.2
 20
118.149401
 30
0.0
 11
-51.0
 21
118.149401
 31
0.0
  0
LINE
  5
271
100
AcDbEntity
  8
1
370
    50
100
AcDbLine
 10
-51.8
 20
159.649401
 30
0.0
 11
-51.0
 21
159.649401
 31
0.0
  0
ARC
  5
272
100
AcDbEntity
  8
1
370
    50
100
AcDbCircle
 10
-51.0
 20
160.049401
 30
0.0
 40
0.4
100
AcDbArc
 50
270.0
 51
360.0
  0
ARC
  5
273
100
AcDbEntity
  8
1
370
    50
100
AcDbCircle
 10
-51.0
 20
114.549401
 30
0.0
 40
0.4
100
AcDbArc
 50
270.0
 51
360.0
  0
ARC
  5
274
100
AcDbEntity
  8
1
370
    50
100
AcDbCircle
 10
-51.0
 20
117.749401
 30
0.0
 40
0.4
100
AcDbArc
 50
0.0
 51
90.0
  0
LINE
  5
275
100
AcDbEntity
  8
1
370
    25
100
AcDbLine
 10
-61.75
 20
103.149401
 30
0.0
 11
-61.75
 21
101.149401
 31
0.0
  0
LINE
  5
276
100
AcDbEntity
  8
1
370
    25
100
AcDbLine
 10
-58.25
 20
101.149401
 30
0.0
 11
-58.25
 21
104.221197
 31
0.0
  0
LINE
  5
277
100
AcDbEntity
  8
1
370
    25
100
AcDbLine
 10
-61.75
 20
103.149401
 30
0.0
 11
-58.25
 21
104.221197
 31
0.0
  0
LINE
  5
278
100
AcDbEntity
  8
1
370
    25
100
AcDbLine
 10
-61.25
 20
103.283375
 30
0.0
 11
-61.25
 21
113.551325
 31
0.0
  0
LINE
  5
279
100
AcDbEntity
  8
1
370
    25
100
AcDbLine
 10
-58.75
 20
104.087223
 30
0.0
 11
-58.75
 21
113.551325
 31
0.0
  0
LINE
  5
27A
100
AcDbEntity
  8
1
370
    25
100
AcDbLine
 10
-60.0
 20
119.149401
 30
0.0
 11
-58.75
 21
113.551325
 31
0.0
  0
LINE
  5
27B
100
AcDbEntity
  8
1
370
    25
100
AcDbLine
 10
-60.0
 20
119.149401
 30
0.0
 11
-61.25
 21
113.551325
 31
0.0
  0
LINE
  5
27C
100
AcDbEntity
  8
1
370
    25
100
AcDbLine
 10
-61.75
 20
103.149401
 30
0.0
 11
-58.25
 21
104.221197
 31
0.0
  0
LINE
  5
27D
100
AcDbEntity
  8
1
370
    25
100
AcDbLine
 10
-61.75
 20
103.149401
 30
0.0
 11
-58.25
 21
104.221197
 31
0.0
  0
LINE
  5
27E
100
AcDbEntity
  8
1
370
    25
100
AcDbLine
 10
-61.75
 20
103.149401
 30
0.0
 11
-58.25
 21
104.221197
 31
0.0
  0
LINE
  5
27F
100
AcDbEntity
  8
1
370
    25
100
AcDbLine
 10
-61.75
 20
103.149401
 30
0.0
 11
-58.25
 21
104.221197
 31
0.0
  0
LINE
  5
280
100
AcDbEntity
  8
1
370
    25
100
AcDbLine
 10
-61.75
 20
103.149401
 30
0.0
 11
-58.25
 21
104.221197
 31
0.0
  0
LINE
  5
281
100
AcDbEntity
  8
1
370
    25
100
AcDbLine
 10
-61.75
 20
103.149401
 30
0.0
 11
-58.25
 21
104.221197
 31
0.0
  0
LINE
  5
282
100
AcDbEntity
  8
1
370
    25
100
AcDbLine
 10
-61.75
 20
107.149401
 30
0.0
 11
-58.25
 21
108.221197
 31
0.0
  0
LINE
  5
283
100
AcDbEntity
  8
1
370
    25
100
AcDbLine
 10
-61.75
 20
109.149401
 30
0.0
 11
-58.25
 21
110.221197
 31
0.0
  0
LINE
  5
284
100
AcDbEntity
  8
1
370
    25
100
AcDbLine
 10
-61.75
 20
111.149401
 30
0.0
 11
-58.25
 21
112.221197
 31
0.0
  0
LINE
  5
285
100
AcDbEntity
  8
1
370
    25
100
AcDbLine
 10
-61.75
 20
113.149401
 30
0.0
 11
-58.401012
 21
114.180734
 31
0.0
  0
LINE
  5
286
100
AcDbEntity
  8
1
370
    25
100
AcDbLine
 10
-61.307678
 20
115.267921
 30
0.0
 11
-58.901012
 21
116.046759
 31
0.0
  0
LINE
  5
287
100
AcDbEntity
  8
1
370
    25
100
AcDbLine
 10
-60.730327
 20
117.422621
 30
0.0
 11
-59.401012
 21
117.912785
 31
0.0
  0
LINE
  5
288
100
AcDbEntity
  8
1
370
    25
100
AcDbLine
 10
-61.75
 20
105.149446
 30
0.0
 11
-58.25
 21
106.221243
 31
0.0
  0
LINE
  5
289
100
AcDbEntity
  8
1
370
    50
100
AcDbLine
 10
-69.0
 20
158.049401
 30
0.0
 11
-69.0
 21
160.149401
 31
0.0
  0
LINE
  5
28A
100
AcDbEntity
  8
1
370
    50
100
AcDbLine
 10
-68.8
 20
136.149401
 30
0.0
 11
-68.8
 21
138.149449
 31
0.0
  0
LINE
  5
28B
100
AcDbEntity
  8
1
370
    50
100
AcDbLine
 10
-76.5
 20
151.649401
 30
0.0
 11
-69.2
 21
151.649401
 31
0.0
  0
LINE
  5
28C
100
AcDbEntity
  8
1
370
    50
100
AcDbLine
 10
-76.5
 20
144.649401
 30
0.0
 11
-69.2
 21
144.649401
 31
0.0
  0
LINE
  5
28D
100
AcDbEntity
  8
1
370
    18
  6
CENTER
100
AcDbLine
 10
-255.118263
 20
-36.0
 30
0.0
 11
-197.118263
 21
-36.0
 31
0.0
  0
LINE
  5
28E
100
AcDbEntity
  8
1
370
    18
  6
CENTER
100
AcDbLine
 10
-226.118263
 20
-65.0
 30
0.0
 11
-226.118263
 21
43.5
 31
0.0
  0
LINE
  5
28F
100
AcDbEntity
  8
1
370
    18
  6
CENTER
100
AcDbLine
 10
157.118263
 20
-36.0
 30
0.0
 11
215.118263
 21
-36.0
 31
0.0
  0
LINE
  5
290
100
AcDbEntity
  8
1
370
    18
  6
CENTER
100
AcDbLine
 10
186.118263
 20
-65.0
 30
0.0
 11
186.118263
 21
43.5
 31
0.0
  0
LINE
  5
291
100
AcDbEntity
  8
1
370
    18
  6
CENTER
100
AcDbLine
 10
-43.520523
 20
-14.0
 30
0.0
 11
-76.479477
 21
-14.0
 31
0.0
  0
LINE
  5
292
100
AcDbEntity
  8
1
370
    18
  6
CENTER
100
AcDbLine
 10
-100.325361
 20
14.0
 30
0.0
 11
-20.031536
 21
14.0
 31
0.0
  0
LINE
  5
293
100
AcDbEntity
  8
1
370
    50
100
AcDbLine
 10
-30.0
 20
126.649401
 30
0.0
 11
-30.0
 21
129.149399
 31
0.0
  0
LINE
  5
294
100
AcDbEntity
  8
1
370
    50
100
AcDbLine
 10
-30.0
 20
167.149399
 30
0.0
 11
-30.0
 21
169.649401
 31
0.0
  0
LINE
  5
295
100
AcDbEntity
  8
1
370
    50
100
AcDbLine
 10
-53.0
 20
158.562849
 30
0.0
 11
-53.0
 21
167.249401
 31
0.0
  0
LINE
  5
296
100
AcDbEntity
  8
1
370
    50
100
AcDbLine
 10
-51.8
 20
158.573321
 30
0.0
 11
-51.8
 21
167.449401
 31
0.0
  0
LINE
  5
297
100
AcDbEntity
  8
1
370
    50
100
AcDbLine
 10
-69.2
 20
140.499401
 30
0.0
 11
-69.2
 21
145.121114
 31
0.0
  0
LINE
  5
298
100
AcDbEntity
  8
1
370
    50
100
AcDbLine
 10
-69.2
 20
151.177685
 30
0.0
 11
-69.2
 21
155.799401
 31
0.0
  0
LINE
  5
299
100
AcDbEntity
  8
1
370
    50
100
AcDbLine
 10
-53.0
 20
130.149401
 30
0.0
 11
-53.0
 21
137.735951
 31
0.0
  0
LINE
  5
29A
100
AcDbEntity
  8
1
370
    50
100
AcDbLine
 10
-51.8
 20
130.149401
 30
0.0
 11
-51.8
 21
137.725478
 31
0.0
  0
LINE
  5
29B
100
AcDbEntity
  8
1
370
    50
100
AcDbLine
 10
-90.0
 20
126.649401
 30
0.0
 11
-90.0
 21
140.149399
 31
0.0
  0
LINE
  5
29C
100
AcDbEntity
  8
1
370
    50
100
AcDbLine
 10
-90.0
 20
156.149399
 30
0.0
 11
-90.0
 21
169.649401
 31
0.0
  0
LINE
  5
29D
100
AcDbEntity
  8
1
370
    50
100
AcDbLine
 10
-293.523292
 20
167.135451
 30
0.0
 11
-292.323292
 21
168.335451
 31
0.0
  0
LINE
  5
29E
100
AcDbEntity
  8
1
370
    50
100
AcDbLine
 10
-289.023292
 20
167.135451
 30
0.0
 11
-287.823292
 21
168.335451
 31
0.0
  0
LINE
  5
29F
100
AcDbEntity
  8
1
370
    50
100
AcDbLine
 10
-284.523292
 20
166.835451
 30
0.0
 11
-286.023292
 21
168.335451
 31
0.0
  0
LINE
  5
2A0
100
AcDbEntity
  8
1
370
    50
100
AcDbLine
 10
-290.023292
 20
167.135451
 30
0.0
 11
-291.223292
 21
168.335451
 31
0.0
  0
LINE
  5
2A1
100
AcDbEntity
  8
1
370
    18
  6
CENTER
100
AcDbLine
 10
-303.163944
 20
169.835451
 30
0.0
 11
-244.435117
 21
169.835451
 31
0.0
  0
LINE
  5
2A2
100
AcDbEntity
  8
1
370
    50
100
AcDbLine
 10
-267.887973
 20
162.835451
 30
0.0
 11
-267.887973
 21
176.835451
 31
0.0
  0
LINE
  5
2A3
100
AcDbEntity
  8
1
370
    50
100
AcDbLine
 10
-263.887973
 20
162.835451
 30
0.0
 11
-263.887973
 21
176.835451
 31
0.0
  0
LINE
  5
2A4
100
AcDbEntity
  8
1
370
    50
100
AcDbLine
 10
-267.887973
 20
176.835451
 30
0.0
 11
-263.887973
 21
176.835451
 31
0.0
  0
LINE
  5
2A5
100
AcDbEntity
  8
1
370
    50
100
AcDbLine
 10
-263.887973
 20
162.835451
 30
0.0
 11
-267.887973
 21
162.835451
 31
0.0
  0
LINE
  5
2A6
100
AcDbEntity
  8
1
370
    50
100
AcDbLine
 10
-248.887973
 20
163.766423
 30
0.0
 11
-248.887973
 21
175.904479
 31
0.0
  0
ARC
  5
2A7
100
AcDbEntity
  8
1
370
    50
100
AcDbCircle
 10
-261.137973
 20
145.085451
 30
0.0
 40
35.0
100
AcDbArc
 50
72.868027
 51
103.094776
  0
ARC
  5
2A8
100
AcDbEntity
  8
1
370
    50
100
AcDbCircle
 10
-251.637973
 20
175.904479
 30
0.0
 40
2.75
100
AcDbArc
 50
0.0
 51
72.868027
  0
ARC
  5
2A9
100
AcDbEntity
  8
1
370
    50
100
AcDbCircle
 10
-261.137973
 20
194.585451
 30
0.0
 40
35.0
100
AcDbArc
 50
256.905224
 51
287.131973
  0
ARC
  5
2AA
100
AcDbEntity
  8
1
370
    50
100
AcDbCircle
 10
-251.637973
 20
163.766423
 30
0.0
 40
2.75
100
AcDbArc
 50
287.131973
 51
360.0
  0
LINE
  5
2AB
100
AcDbEntity
  8
1
370
    50
100
AcDbLine
 10
-282.887973
 20
174.335451
 30
0.0
 11
-273.857081
 21
174.335451
 31
0.0
  0
LINE
  5
2AC
100
AcDbEntity
  8
1
370
    50
100
AcDbLine
 10
-282.887973
 20
165.335451
 30
0.0
 11
-273.857081
 21
165.335451
 31
0.0
  0
LINE
  5
2AD
100
AcDbEntity
  8
1
370
    50
100
AcDbLine
 10
-295.495079
 20
172.835451
 30
0.0
 11
-282.887973
 21
172.835451
 31
0.0
  0
LINE
  5
2AE
100
AcDbEntity
  8
1
370
    50
100
AcDbLine
 10
-284.523292
 20
166.835451
 30
0.0
 11
-277.387973
 21
166.835451
 31
0.0
  0
LINE
  5
2AF
100
AcDbEntity
  8
1
370
    50
100
AcDbLine
 10
-282.887973
 20
165.335451
 30
0.0
 11
-282.887973
 21
166.835451
 31
0.0
  0
LINE
  5
2B0
100
AcDbEntity
  8
1
370
    50
100
AcDbLine
 10
-282.887973
 20
172.835451
 30
0.0
 11
-282.887973
 21
174.335451
 31
0.0
  0
CIRCLE
  5
2B1
100
AcDbEntity
  8
1
370
    50
100
AcDbCircle
 10
-253.387973
 20
169.835451
 30
0.0
 40
2.0
  0
ARC
  5
2B2
100
AcDbEntity
  8
1
370
    50
100
AcDbCircle
 10
-261.137973
 20
145.085451
 30
0.0
 40
34.0
100
AcDbArc
 50
73.198162
 51
103.094776
  0
ARC
  5
2B3
100
AcDbEntity
  8
1
370
    50
100
AcDbCircle
 10
-261.137973
 20
194.585451
 30
0.0
 40
34.0
100
AcDbArc
 50
256.905224
 51
286.801838
  0
LINE
  5
2B4
100
AcDbEntity
  8
1
370
    50
100
AcDbLine
 10
-249.887973
 20
163.951524
 30
0.0
 11
-249.887973
 21
175.719378
 31
0.0
  0
LINE
  5
2B5
100
AcDbEntity
  8
1
370
    50
100
AcDbLine
 10
-270.387973
 20
163.417559
 30
0.0
 11
-270.387973
 21
176.253343
 31
0.0
  0
ARC
  5
2B6
100
AcDbEntity
  8
1
370
    50
100
AcDbCircle
 10
-268.387973
 20
176.253343
 30
0.0
 40
2.0
100
AcDbArc
 50
103.094776
 51
180.0
  0
ARC
  5
2B7
100
AcDbEntity
  8
1
370
    50
100
AcDbCircle
 10
-251.887973
 20
175.719378
 30
0.0
 40
2.0
100
AcDbArc
 50
0.0
 51
73.198162
  0
ARC
  5
2B8
100
AcDbEntity
  8
1
370
    50
100
AcDbCircle
 10
-251.887973
 20
163.951524
 30
0.0
 40
2.0
100
AcDbArc
 50
286.801838
 51
360.0
  0
ARC
  5
2B9
100
AcDbEntity
  8
1
370
    50
100
AcDbCircle
 10
-268.387973
 20
163.417559
 30
0.0
 40
2.0
100
AcDbArc
 50
180.0
 51
256.905224
  0
LINE
  5
2BA
100
AcDbEntity
  8
1
370
    50
100
AcDbLine
 10
-295.609293
 20
168.335451
 30
0.0
 11
-277.387973
 21
168.335451
 31
0.0
  0
LINE
  5
2BB
100
AcDbEntity
  8
1
370
    50
100
AcDbLine
 10
-277.387973
 20
170.635451
 30
0.0
 11
-277.387973
 21
166.835451
 31
0.0
  0
LINE
  5
2BC
100
AcDbEntity
  8
1
370
    50
100
AcDbLine
 10
-296.822884
 20
169.535451
 30
0.0
 11
-277.387973
 21
169.535451
 31
0.0
  0
LINE
  5
2BD
100
AcDbEntity
  8
1
370
    50
100
AcDbLine
 10
-277.387973
 20
170.635451
 30
0.0
 11
-297.385482
 21
170.635451
 31
0.0
  0
ARC
  5
2BE
100
AcDbEntity
  8
1
370
    50
100
AcDbCircle
 10
-268.387973
 20
163.417559
 30
0.0
 40
3.0
100
AcDbArc
 50
186.075438
 51
256.905224
  0
ARC
  5
2BF
100
AcDbEntity
  8
1
370
    50
100
AcDbCircle
 10
-273.857081
 20
162.835451
 30
0.0
 40
2.5
100
AcDbArc
 50
6.075438
 51
90.0
  0
ARC
  5
2C0
100
AcDbEntity
  8
1
370
    50
100
AcDbCircle
 10
-273.857081
 20
176.835451
 30
0.0
 40
2.5
100
AcDbArc
 50
270.0
 51
353.924562
  0
LINE
  5
2C1
100
AcDbEntity
  8
1
370
    18
  6
CENTER
100
AcDbLine
 10
-253.387973
 20
174.835451
 30
0.0
 11
-253.387973
 21
164.835451
 31
0.0
  0
ARC
  5
2C2
100
AcDbEntity
  8
1
370
    50
100
AcDbCircle
 10
-268.387973
 20
176.253343
 30
0.0
 40
3.0
100
AcDbArc
 50
103.094776
 51
173.924562
  0
LINE
  5
2C3
100
AcDbEntity
  8
1
370
    50
100
AcDbLine
 10
-296.948633
 20
171.796111
 30
0.0
 11
-296.202186
 21
172.542558
 31
0.0
  0
LINE
  5
2C4
100
AcDbEntity
  8
1
370
    50
100
AcDbLine
 10
-296.948633
 20
169.674791
 30
0.0
 11
-294.409293
 21
167.135451
 31
0.0
  0
ARC
  5
2C5
100
AcDbEntity
  8
1
370
    50
100
AcDbCircle
 10
-295.887973
 20
170.735451
 30
0.0
 40
1.5
100
AcDbArc
 50
135.0
 51
225.0
  0
ARC
  5
2C6
100
AcDbEntity
  8
1
370
    50
100
AcDbCircle
 10
-295.495079
 20
171.835451
 30
0.0
 40
1.0
100
AcDbArc
 50
90.0
 51
135.0
  0
LINE
  5
2C7
100
AcDbEntity
  8
1
370
    50
100
AcDbLine
 10
-294.409293
 20
167.135451
 30
0.0
 11
-293.523292
 21
167.135451
 31
0.0
  0
LINE
  5
2C8
100
AcDbEntity
  8
1
370
    50
100
AcDbLine
 10
-290.023292
 20
167.135451
 30
0.0
 11
-289.023292
 21
167.135451
 31
0.0
  0
LINE
  5
2C9
100
AcDbEntity
  8
1
370
    50
100
AcDbLine
 10
-297.387973
 20
133.061424
 30
0.0
 11
-248.887973
 21
133.061424
 31
0.0
  0
LINE
  5
2CA
100
AcDbEntity
  8
1
370
    50
100
AcDbLine
 10
-297.387973
 20
131.061424
 30
0.0
 11
-248.887973
 21
131.061424
 31
0.0
  0
LINE
  5
2CB
100
AcDbEntity
  8
1
370
    50
100
AcDbLine
 10
-248.887973
 20
133.061424
 30
0.0
 11
-248.887973
 21
131.061424
 31
0.0
  0
LINE
  5
2CC
100
AcDbEntity
  8
1
370
    50
100
AcDbLine
 10
-297.387973
 20
133.061424
 30
0.0
 11
-297.387973
 21
131.061424
 31
0.0
  0
LINE
  5
2CD
100
AcDbEntity
  8
1
370
    50
100
AcDbLine
 10
-282.887973
 20
133.061424
 30
0.0
 11
-282.887973
 21
131.061424
 31
0.0
  0
LINE
  5
2CE
100
AcDbEntity
  8
1
370
    50
100
AcDbLine
 10
-271.946366
 20
133.061424
 30
0.0
 11
-271.946366
 21
131.061424
 31
0.0
  0
LINE
  5
2CF
100
AcDbEntity
  8
1
370
    50
100
AcDbLine
 10
-297.387973
 20
133.061424
 30
0.0
 11
-248.887973
 21
133.061424
 31
0.0
  0
LINE
  5
2D0
100
AcDbEntity
  8
1
370
    18
  6
CENTER
100
AcDbLine
 10
164.118263
 20
19.5
 30
0.0
 11
208.118263
 21
19.5
 31
0.0
  0
LINE
  5
2D1
100
AcDbEntity
  8
1
370
    18
  6
CENTER
100
AcDbLine
 10
-248.118263
 20
19.5
 30
0.0
 11
-204.118263
 21
19.5
 31
0.0
  0
LINE
  5
2D2
100
AcDbEntity
  8
1
370
    18
  6
CENTER
100
AcDbLine
 10
-19.544967
 20
148.149401
 30
0.0
 11
-109.049133
 21
148.149401
 31
0.0
  0
LINE
  5
2D3
100
AcDbEntity
  8
1
370
    25
100
AcDbLine
 10
-54.15
 20
87.367343
 30
0.0
 11
-54.15
 21
87.589593
 31
0.0
  0
LINE
  5
2D4
100
AcDbEntity
  8
1
370
    25
100
AcDbLine
 10
-54.15
 20
87.367343
 30
0.0
 11
-54.273548
 21
86.906255
 31
0.0
  0
ARC
  5
2D5
100
AcDbEntity
  8
1
370
    25
100
AcDbCircle
 10
-37.243986
 20
116.898676
 30
0.0
 40
35.5
100
AcDbArc
 50
217.419357
 51
239.13382
  0
ARC
  5
2D6
100
AcDbEntity
  8
1
370
    25
100
AcDbCircle
 10
-55.046289
 20
87.11331
 30
0.0
 40
0.8
100
AcDbArc
 50
239.13382
 51
345.0
  0
ARC
  5
2D7
100
AcDbEntity
  8
1
370
    25
100
AcDbCircle
 10
-63.85
 20
96.542595
 30
0.0
 40
2.0
100
AcDbArc
 50
180.0
 51
217.419357
  0
LINE
  5
2D8
100
AcDbEntity
  8
1
370
    25
  6
DASHED
100
AcDbLine
 10
-40.0
 20
-34.0
 30
0.0
 11
-34.0
 21
-34.0
 31
0.0
  0
LINE
  5
2D9
100
AcDbEntity
  8
1
370
    25
  6
DASHED
100
AcDbLine
 10
-40.0
 20
-38.0
 30
0.0
 11
-34.0
 21
-38.0
 31
0.0
  0
LINE
  5
2DA
100
AcDbEntity
  8
1
370
    25
  6
DASHED
100
AcDbLine
 10
-34.0
 20
-31.85
 30
0.0
 11
-34.0
 21
-40.15
 31
0.0
  0
LINE
  5
2DB
100
AcDbEntity
  8
1
370
    25
  6
DASHED
100
AcDbLine
 10
-34.0
 20
-40.15
 30
0.0
 11
-32.0
 21
-39.975023
 31
0.0
  0
LINE
  5
2DC
100
AcDbEntity
  8
1
370
    25
  6
DASHED
100
AcDbLine
 10
-34.0
 20
-31.85
 30
0.0
 11
-32.0
 21
-32.024977
 31
0.0
  0
ARC
  5
2DD
100
AcDbEntity
  8
1
370
    25
  6
DASHED
100
AcDbCircle
 10
-47.550805
 20
-36.0
 30
0.0
 40
16.050805
100
AcDbArc
 50
345.661355
 51
14.338645
  0
LINE
  5
2DE
100
AcDbEntity
  8
1
370
    18
  6
CENTER
100
AcDbLine
 10
-141.968201
 20
-36.0
 30
0.0
 11
20.042358
 21
-36.0
 31
0.0
  0
LINE
  5
2DF
100
AcDbEntity
  8
1
370
    18
  6
CENTER
100
AcDbLine
 10
-100.0
 20
-31.424904
 30
0.0
 11
-100.0
 21
-40.823647
 31
0.0
  0
LINE
  5
2E0
100
AcDbEntity
  8
1
370
    25
100
AcDbLine
 10
-100.0
 20
-34.25
 30
0.0
 11
-99.6
 21
-34.25
 31
0.0
  0
ARC
  5
2E1
100
AcDbEntity
  8
1
370
    25
100
AcDbCircle
 10
-98.25
 20
-34.25
 30
0.0
 40
1.35
100
AcDbArc
 50
180.0
 51
270.0
  0
LINE
  5
2E2
100
AcDbEntity
  8
1
370
    25
100
AcDbLine
 10
-98.25
 20
-35.6
 30
0.0
 11
-98.25
 21
-36.0
 31
0.0
  0
LINE
  5
2E3
100
AcDbEntity
  8
1
370
    25
100
AcDbLine
 10
-100.0
 20
-37.75
 30
0.0
 11
-99.6
 21
-37.75
 31
0.0
  0
ARC
  5
2E4
100
AcDbEntity
  8
1
370
    25
100
AcDbCircle
 10
-98.25
 20
-37.75
 30
0.0
 40
1.35
100
AcDbArc
 50
90.0
 51
180.0
  0
LINE
  5
2E5
100
AcDbEntity
  8
1
370
    25
100
AcDbLine
 10
-98.25
 20
-36.4
 30
0.0
 11
-98.25
 21
-36.0
 31
0.0
  0
LINE
  5
2E6
100
AcDbEntity
  8
1
370
    25
100
AcDbLine
 10
-100.0
 20
-34.25
 30
0.0
 11
-100.4
 21
-34.25
 31
0.0
  0
ARC
  5
2E7
100
AcDbEntity
  8
1
370
    25
100
AcDbCircle
 10
-101.75
 20
-34.25
 30
0.0
 40
1.35
100
AcDbArc
 50
270.0
 51
360.0
  0
LINE
  5
2E8
100
AcDbEntity
  8
1
370
    25
100
AcDbLine
 10
-101.75
 20
-35.6
 30
0.0
 11
-101.75
 21
-36.0
 31
0.0
  0
LINE
  5
2E9
100
AcDbEntity
  8
1
370
    25
100
AcDbLine
 10
-100.0
 20
-37.75
 30
0.0
 11
-100.4
 21
-37.75
 31
0.0
  0
ARC
  5
2EA
100
AcDbEntity
  8
1
370
    25
100
AcDbCircle
 10
-101.75
 20
-37.75
 30
0.0
 40
1.35
100
AcDbArc
 50
0.0
 51
90.0
  0
LINE
  5
2EB
100
AcDbEntity
  8
1
370
    25
100
AcDbLine
 10
-101.75
 20
-36.4
 30
0.0
 11
-101.75
 21
-36.0
 31
0.0
  0
CIRCLE
  5
2EC
100
AcDbEntity
  8
1
370
    25
100
AcDbCircle
 10
-100.0
 20
-36.0
 30
0.0
 40
3.0
  0
LINE
  5
2ED
100
AcDbEntity
  8
1
370
    50
100
AcDbLine
 10
-68.2
 20
156.099401
 30
0.0
 11
-68.9
 21
156.099401
 31
0.0
  0
LINE
  5
2EE
100
AcDbEntity
  8
1
370
    50
100
AcDbLine
 10
-68.2
 20
140.199401
 30
0.0
 11
-68.9
 21
140.199401
 31
0.0
  0
ARC
  5
2EF
100
AcDbEntity
  8
1
370
    50
100
AcDbCircle
 10
-68.9
 20
155.799401
 30
0.0
 40
0.3
100
AcDbArc
 50
90.0
 51
180.0
  0
ARC
  5
2F0
100
AcDbEntity
  8
1
370
    50
100
AcDbCircle
 10
-68.9
 20
140.499401
 30
0.0
 40
0.3
100
AcDbArc
 50
180.0
 51
270.0
  0
LINE
  5
2F1
100
AcDbEntity
  8
1
370
    50
100
AcDbLine
 10
-68.2
 20
101.149401
 30
0.0
 11
-68.2
 21
145.129841
 31
0.0
  0
LINE
  5
2F2
100
AcDbEntity
  8
1
370
    50
100
AcDbLine
 10
-68.2
 20
151.168958
 30
0.0
 11
-68.2
 21
167.449401
 31
0.0
  0
LINE
  5
2F3
100
AcDbEntity
  8
1
370
    50
100
AcDbLine
 10
187.268263
 20
9.25
 30
0.0
 11
184.968263
 21
9.25
 31
0.0
  0
LINE
  5
2F4
100
AcDbEntity
  8
1
370
    50
100
AcDbLine
 10
187.268263
 20
18.75
 30
0.0
 11
184.968263
 21
18.75
 31
0.0
  0
LINE
  5
2F5
100
AcDbEntity
  8
1
370
    50
100
AcDbLine
 10
184.968263
 20
9.25
 30
0.0
 11
184.968263
 21
18.75
 31
0.0
  0
LINE
  5
2F6
100
AcDbEntity
  8
1
370
    50
100
AcDbLine
 10
187.268263
 20
9.25
 30
0.0
 11
187.268263
 21
18.75
 31
0.0
  0
LINE
  5
2F7
100
AcDbEntity
  8
1
370
    50
100
AcDbLine
 10
186.268263
 20
10.75
 30
0.0
 11
184.968263
 21
10.75
 31
0.0
  0
LINE
  5
2F8
100
AcDbEntity
  8
1
370
    50
100
AcDbLine
 10
187.268263
 20
12.25
 30
0.0
 11
186.268263
 21
12.25
 31
0.0
  0
LINE
  5
2F9
100
AcDbEntity
  8
1
370
    50
100
AcDbLine
 10
187.268263
 20
17.25
 30
0.0
 11
185.968263
 21
17.25
 31
0.0
  0
LINE
  5
2FA
100
AcDbEntity
  8
1
370
    50
100
AcDbLine
 10
185.968263
 20
15.75
 30
0.0
 11
184.968263
 21
15.75
 31
0.0
  0
LINE
  5
2FB
100
AcDbEntity
  8
1
370
    50
100
AcDbLine
 10
186.268263
 20
12.25
 30
0.0
 11
186.268263
 21
10.75
 31
0.0
  0
LINE
  5
2FC
100
AcDbEntity
  8
1
370
    50
100
AcDbLine
 10
185.968263
 20
15.75
 30
0.0
 11
185.968263
 21
17.25
 31
0.0
  0
LINE
  5
2FD
100
AcDbEntity
  8
1
370
    50
100
AcDbLine
 10
186.118263
 20
13.75
 30
0.0
 11
187.268263
 21
13.75
 31
0.0
  0
LINE
  5
2FE
100
AcDbEntity
  8
1
370
    50
100
AcDbLine
 10
186.118263
 20
14.25
 30
0.0
 11
187.268263
 21
14.25
 31
0.0
  0
ARC
  5
2FF
100
AcDbEntity
  8
1
370
    50
100
AcDbCircle
 10
186.118263
 20
14.25
 30
0.0
 40
4.0
100
AcDbArc
 50
286.708344
 51
73.291656
  0
ARC
  5
300
100
AcDbEntity
  8
1
370
    50
100
AcDbCircle
 10
186.118263
 20
14.25
 30
0.0
 40
4.0
100
AcDbArc
 50
106.708344
 51
253.291656
  0
LINE
  5
301
100
AcDbEntity
  8
1
370
    50
100
AcDbLine
 10
186.118263
 20
13.75
 30
0.0
 11
186.118263
 21
14.25
 31
0.0
  0
CIRCLE
  5
302
100
AcDbEntity
  8
1
370
    50
100
AcDbCircle
 10
186.118263
 20
14.0
 30
0.0
 40
7.9
  0
CIRCLE
  5
303
100
AcDbEntity
  8
1
370
    50
100
AcDbCircle
 10
186.118263
 20
19.5
 30
0.0
 40
19.0
  0
CIRCLE
  5
304
100
AcDbEntity
  8
1
370
    50
100
AcDbCircle
 10
186.118263
 20
14.0
 30
0.0
 40
8.15
  0
LINE
  5
305
100
AcDbEntity
  8
1
370
    25
  6
CENTER
100
AcDbLine
 10
176.160629
 20
14.0
 30
0.0
 11
195.93248
 21
14.0
 31
0.0
  0
LINE
  5
306
100
AcDbEntity
  8
1
370
    50
100
AcDbLine
 10
-228.368263
 20
4.5
 30
0.0
 11
-223.868263
 21
4.5
 31
0.0
  0
LINE
  5
307
100
AcDbEntity
  8
1
370
    50
100
AcDbLine
 10
-228.368263
 20
30.0
 30
0.0
 11
-223.868263
 21
30.0
 31
0.0
  0
LINE
  5
308
100
AcDbEntity
  8
1
370
    50
100
AcDbLine
 10
-223.118263
 20
29.25
 30
0.0
 11
-223.118263
 21
5.25
 31
0.0
  0
LINE
  5
309
100
AcDbEntity
  8
1
370
    50
100
AcDbLine
 10
-229.118263
 20
5.25
 30
0.0
 11
-229.118263
 21
29.25
 31
0.0
  0
ARC
  5
30A
100
AcDbEntity
  8
1
370
    50
100
AcDbCircle
 10
-228.368263
 20
5.25
 30
0.0
 40
0.75
100
AcDbArc
 50
180.0
 51
270.0
  0
ARC
  5
30B
100
AcDbEntity
  8
1
370
    50
100
AcDbCircle
 10
-223.868263
 20
5.25
 30
0.0
 40
0.75
100
AcDbArc
 50
270.0
 51
360.0
  0
ARC
  5
30C
100
AcDbEntity
  8
1
370
    50
100
AcDbCircle
 10
-228.368263
 20
29.25
 30
0.0
 40
0.75
100
AcDbArc
 50
90.0
 51
180.0
  0
ARC
  5
30D
100
AcDbEntity
  8
1
370
    50
100
AcDbCircle
 10
-223.868263
 20
29.25
 30
0.0
 40
0.75
100
AcDbArc
 50
0.0
 51
90.0
  0
ARC
  5
30E
100
AcDbEntity
  8
1
370
    50
100
AcDbCircle
 10
-226.118263
 20
14.0
 30
0.0
 40
8.0
100
AcDbArc
 50
132.626502
 51
237.144197
  0
ARC
  5
30F
100
AcDbEntity
  8
1
370
    50
100
AcDbCircle
 10
-226.118263
 20
14.0
 30
0.0
 40
8.0
100
AcDbArc
 50
302.855803
 51
47.373498
  0
ARC
  5
310
100
AcDbEntity
  8
1
370
    25
100
AcDbCircle
 10
-183.756499
 20
14.0
 30
0.0
 40
46.211765
100
AcDbArc
 50
180.0
 51
188.405942
  0
ARC
  5
311
100
AcDbEntity
  8
1
370
    25
100
AcDbCircle
 10
-268.480028
 20
14.0
 30
0.0
 40
46.211765
100
AcDbArc
 50
351.940137
 51
0.0
  0
ARC
  5
312
100
AcDbEntity
  8
1
370
    50
100
AcDbCircle
 10
-91.991793
 20
14.0
 30
0.0
 40
137.976471
100
AcDbArc
 50
173.619531
 51
175.897197
  0
ARC
  5
313
100
AcDbEntity
  8
1
370
    25
100
AcDbCircle
 10
-91.991793
 20
14.0
 30
0.0
 40
137.976471
100
AcDbArc
 50
177.006081
 51
180.0
  0
ARC
  5
314
100
AcDbEntity
  8
1
370
    25
100
AcDbCircle
 10
-360.244734
 20
14.0
 30
0.0
 40
137.976471
100
AcDbArc
 50
0.0
 51
3.013158
  0
ARC
  5
315
100
AcDbEntity
  8
1
370
    50
100
AcDbCircle
 10
-360.244734
 20
14.0
 30
0.0
 40
137.976471
100
AcDbArc
 50
4.102803
 51
6.380469
  0
ARC
  5
316
100
AcDbEntity
  8
1
370
    50
100
AcDbCircle
 10
-232.086056
 20
4.759575
 30
0.0
 40
3.0
100
AcDbArc
 50
7.514663
 51
57.144197
  0
ARC
  5
317
100
AcDbEntity
  8
1
370
    50
100
AcDbCircle
 10
-220.15047
 20
4.759575
 30
0.0
 40
3.0
100
AcDbArc
 50
122.855803
 51
172.485337
  0
ARC
  5
318
100
AcDbEntity
  8
1
370
    50
100
AcDbCircle
 10
-216.637234
 20
24.300975
 30
0.0
 40
6.0
100
AcDbArc
 50
184.102803
 51
227.373498
  0
ARC
  5
319
100
AcDbEntity
  8
1
370
    50
100
AcDbCircle
 10
-235.599292
 20
24.300975
 30
0.0
 40
6.0
100
AcDbArc
 50
312.626502
 51
355.897197
  0
CIRCLE
  5
31A
100
AcDbEntity
  8
1
370
    50
100
AcDbCircle
 10
-226.118263
 20
19.5
 30
0.0
 40
19.0
  0
LINE
  5
31B
100
AcDbEntity
  8
1
370
    25
  6
CENTER
100
AcDbLine
 10
-240.118263
 20
14.0
 30
0.0
 11
-212.118263
 21
14.0
 31
0.0
  0
LINE
  5
31C
100
AcDbEntity
  8
1
370
    50
100
AcDbLine
 10
-72.5
 20
26.442916
 30
0.0
 11
-80.0
 21
26.377465
 31
0.0
  0
LINE
  5
31D
100
AcDbEntity
  8
1
370
    50
100
AcDbLine
 10
-72.5
 20
32.557084
 30
0.0
 11
-80.0
 21
32.622535
 31
0.0
  0
LINE
  5
31E
100
AcDbEntity
  8
1
370
    25
  6
CENTER
100
AcDbLine
 10
-52.793026
 20
29.5
 30
0.0
 11
-88.216149
 21
29.5
 31
0.0
  0
LINE
  5
31F
100
AcDbEntity
  8
1
370
    25
  6
CENTER
100
AcDbLine
 10
-90.939787
 20
19.5
 30
0.0
 11
-79.291128
 21
19.5
 31
0.0
  0
LINE
  5
320
100
AcDbEntity
  8
1
370
    50
100
AcDbLine
 10
-89.0
 20
8.85
 30
0.0
 11
-89.5
 21
8.35
 31
0.0
  0
LINE
  5
321
100
AcDbEntity
  8
1
370
    50
100
AcDbLine
 10
-89.0
 20
19.15
 30
0.0
 11
-89.5
 21
19.65
 31
0.0
  0
ARC
  5
322
100
AcDbEntity
  8
1
370
    50
100
AcDbCircle
 10
-89.0
 20
7.5
 30
0.0
 40
0.5
100
AcDbArc
 50
180.0
 51
270.0
  0
ARC
  5
323
100
AcDbEntity
  8
1
370
    50
100
AcDbCircle
 10
-89.0
 20
20.5
 30
0.0
 40
0.5
100
AcDbArc
 50
90.0
 51
180.0
  0
LINE
  5
324
100
AcDbEntity
  8
1
370
    50
100
AcDbLine
 10
-80.0
 20
38.5
 30
0.0
 11
-80.0
 21
0.5
 31
0.0
  0
ARC
  5
325
100
AcDbEntity
  8
1
370
    50
100
AcDbCircle
 10
-93.5
 20
26.5
 30
0.0
 40
3.5
100
AcDbArc
 50
360.0
 51
90.0
  0
ARC
  5
326
100
AcDbEntity
  8
1
370
    50
100
AcDbCircle
 10
-92.0
 20
6.5
 30
0.0
 40
2.0
100
AcDbArc
 50
270.0
 51
360.0
  0
ARC
  5
327
100
AcDbEntity
  8
1
370
    50
100
AcDbCircle
 10
-77.5
 20
19.0
 30
0.0
 40
30.0
100
AcDbArc
 50
172.646527
 51
194.657697
  0
ARC
  5
328
100
AcDbEntity
  8
1
370
    50
100
AcDbCircle
 10
-93.5
 20
-70.0
 30
0.0
 40
100.0
100
AcDbArc
 50
90.0
 51
93.626416
  0
ARC
  5
329
100
AcDbEntity
  8
1
370
    50
100
AcDbCircle
 10
-99.319059
 20
21.815786
 30
0.0
 40
8.0
100
AcDbArc
 50
93.626416
 51
172.646527
  0
ARC
  5
32A
100
AcDbEntity
  8
1
370
    50
100
AcDbCircle
 10
-92.0
 20
104.5
 30
0.0
 40
100.0
100
AcDbArc
 50
266.335261
 51
270.0
  0
ARC
  5
32B
100
AcDbEntity
  8
1
370
    50
100
AcDbCircle
 10
-97.816552
 20
13.686082
 30
0.0
 40
9.0
100
AcDbArc
 50
194.657697
 51
266.335261
  0
LINE
  5
32C
100
AcDbEntity
  8
1
370
    50
100
AcDbLine
 10
-89.5
 20
6.5
 30
0.0
 11
-89.5
 21
21.5
 31
0.0
  0
LINE
  5
32D
100
AcDbEntity
  8
1
370
    50
100
AcDbLine
 10
-76.5
 20
10.15
 30
0.0
 11
-76.5
 21
17.85
 31
0.0
  0
LINE
  5
32E
100
AcDbEntity
  8
1
370
    50
100
AcDbLine
 10
-90.0
 20
6.5
 30
0.0
 11
-90.0
 21
7.584682
 31
0.0
  0
LINE
  5
32F
100
AcDbEntity
  8
1
370
    50
100
AcDbLine
 10
-90.0
 20
19.741581
 30
0.0
 11
-90.0
 21
26.5
 31
0.0
  0
LINE
  5
330
100
AcDbEntity
  8
1
370
    25
100
AcDbLine
 10
-93.999729
 20
20.971667
 30
0.0
 11
-90.595669
 21
20.971667
 31
0.0
  0
ELLIPSE
  5
331
100
AcDbEntity
  8
1
370
    25
100
AcDbEllipse
 10
-95.795202
 20
14.0
 30
0.0
 11
0.0
 21
7.0730000000000004
 31
0.0
210
0.0
220
0.0
230
1.0
 40
0.42347
 41
3.3752620000000002
 42
5.970637
  0
LINE
  5
332
100
AcDbEntity
  8
1
370
    25
100
AcDbLine
 10
-90.642944
 20
6.825707
 30
0.0
 11
-94.377949
 21
6.825707
 31
0.0
  0
ARC
  5
333
100
AcDbEntity
  8
1
370
    50
100
AcDbCircle
 10
-90.0
 20
21.5
 30
0.0
 40
0.5
100
AcDbArc
 50
0.0
 51
90.0
  0
ARC
  5
334
100
AcDbEntity
  8
1
370
    50
100
AcDbCircle
 10
-90.0
 20
6.5
 30
0.0
 40
0.5
100
AcDbArc
 50
270.0
 51
360.0
  0
LINE
  5
335
100
AcDbEntity
  8
1
370
    50
100
AcDbLine
 10
-77.972243
 20
18.7
 30
0.0
 11
-80.0
 21
18.7
 31
0.0
  0
LINE
  5
336
100
AcDbEntity
  8
1
370
    50
100
AcDbLine
 10
-77.972243
 20
9.3
 30
0.0
 11
-80.0
 21
9.3
 31
0.0
  0
LINE
  5
337
100
AcDbEntity
  8
1
370
    50
100
AcDbLine
 10
-76.5
 20
17.85
 30
0.0
 11
-77.972243
 21
18.7
 31
0.0
  0
LINE
  5
338
100
AcDbEntity
  8
1
370
    50
100
AcDbLine
 10
-76.5
 20
10.15
 30
0.0
 11
-77.972243
 21
9.3
 31
0.0
  0
LINE
  5
339
100
AcDbEntity
  8
1
370
    50
100
AcDbLine
 10
-78.232051
 20
9.3
 30
0.0
 11
-78.232051
 21
18.7
 31
0.0
  0
LINE
  5
33A
100
AcDbEntity
  8
1
370
    50
100
AcDbLine
 10
-89.0
 20
37.5
 30
0.0
 11
-89.0
 21
1.5
 31
0.0
  0
LINE
  5
33B
100
AcDbEntity
  8
1
370
    50
100
AcDbLine
 10
-88.0
 20
38.5
 30
0.0
 11
-80.0
 21
38.5
 31
0.0
  0
LINE
  5
33C
100
AcDbEntity
  8
1
370
    50
100
AcDbLine
 10
-88.0
 20
0.5
 30
0.0
 11
-80.0
 21
0.5
 31
0.0
  0
LINE
  5
33D
100
AcDbEntity
  8
1
370
    50
100
AcDbLine
 10
-40.0
 20
0.5
 30
0.0
 11
-40.0
 21
38.5
 31
0.0
  0
LINE
  5
33E
100
AcDbEntity
  8
1
370
    50
100
AcDbLine
 10
-47.5
 20
32.661447
 30
0.0
 11
-40.0
 21
32.726899
 31
0.0
  0
LINE
  5
33F
100
AcDbEntity
  8
1
370
    25
  6
DASHED
100
AcDbLine
 10
-37.0
 20
33.649998
 30
0.0
 11
-35.3
 21
33.501267
 31
0.0
  0
ARC
  5
340
100
AcDbEntity
  8
1
370
    25
  6
DASHED
100
AcDbCircle
 10
-44.906347
 20
29.499998
 30
0.0
 40
10.406347
100
AcDbArc
 50
337.387128
 51
22.612872
  0
LINE
  5
341
100
AcDbEntity
  8
1
370
    25
  6
DASHED
100
AcDbLine
 10
-35.3
 20
33.501267
 30
0.0
 11
-35.3
 21
25.498728
 31
0.0
  0
LINE
  5
342
100
AcDbEntity
  8
1
370
    25
  6
DASHED
100
AcDbLine
 10
-37.0
 20
25.349998
 30
0.0
 11
-35.3
 21
25.498728
 31
0.0
  0
LINE
  5
343
100
AcDbEntity
  8
1
370
    25
  6
DASHED
100
AcDbLine
 10
-37.0
 20
31.499998
 30
0.0
 11
-47.5
 21
31.499998
 31
0.0
  0
LINE
  5
344
100
AcDbEntity
  8
1
370
    25
  6
DASHED
100
AcDbLine
 10
-37.0
 20
27.499998
 30
0.0
 11
-47.5
 21
27.499998
 31
0.0
  0
LINE
  5
345
100
AcDbEntity
  8
1
370
    25
  6
DASHED
100
AcDbLine
 10
-37.0
 20
31.272498
 30
0.0
 11
-47.5
 21
31.272498
 31
0.0
  0
LINE
  5
346
100
AcDbEntity
  8
1
370
    25
  6
DASHED
100
AcDbLine
 10
-37.0
 20
27.727498
 30
0.0
 11
-47.5
 21
27.727498
 31
0.0
  0
LINE
  5
347
100
AcDbEntity
  8
1
370
    25
  6
CENTER
100
AcDbLine
 10
-33.6
 20
29.499998
 30
0.0
 11
-63.7
 21
29.499998
 31
0.0
  0
LINE
  5
348
100
AcDbEntity
  8
1
370
    25
  6
DASHED
100
AcDbLine
 10
-37.0
 20
25.349998
 30
0.0
 11
-37.0
 21
33.649998
 31
0.0
  0
LINE
  5
349
100
AcDbEntity
  8
1
370
    50
100
AcDbLine
 10
-76.5
 20
16.828427
 30
0.0
 11
-72.5
 21
16.828427
 31
0.0
  0
LINE
  5
34A
100
AcDbEntity
  8
1
370
    50
100
AcDbLine
 10
-47.5
 20
16.828427
 30
0.0
 11
-44.5
 21
16.828427
 31
0.0
  0
LINE
  5
34B
100
AcDbEntity
  8
1
370
    50
100
AcDbLine
 10
-76.5
 20
15.414214
 30
0.0
 11
-72.5
 21
15.414214
 31
0.0
  0
LINE
  5
34C
100
AcDbEntity
  8
1
370
    50
100
AcDbLine
 10
-47.5
 20
15.414214
 30
0.0
 11
-44.5
 21
15.414214
 31
0.0
  0
LINE
  5
34D
100
AcDbEntity
  8
1
370
    50
100
AcDbLine
 10
-76.5
 20
11.171573
 30
0.0
 11
-72.5
 21
11.171573
 31
0.0
  0
LINE
  5
34E
100
AcDbEntity
  8
1
370
    50
100
AcDbLine
 10
-47.5
 20
11.171573
 30
0.0
 11
-44.5
 21
11.171573
 31
0.0
  0
ARC
  5
34F
100
AcDbEntity
  8
1
370
    50
100
AcDbCircle
 10
-86.35
 20
14.0
 30
0.0
 40
64.25
100
AcDbArc
 50
352.937198
 51
7.062802
  0
LINE
  5
350
100
AcDbEntity
  8
1
370
    50
100
AcDbLine
 10
-22.587531
 20
6.1
 30
0.0
 11
-23.3
 21
6.1
 31
0.0
  0
LINE
  5
351
100
AcDbEntity
  8
1
370
    50
100
AcDbLine
 10
-22.587531
 20
21.9
 30
0.0
 11
-23.3
 21
21.9
 31
0.0
  0
LINE
  5
352
100
AcDbEntity
  8
1
370
    25
100
AcDbLine
 10
-22.587531
 20
6.1
 30
0.0
 11
-22.587531
 21
21.9
 31
0.0
  0
LINE
  5
353
100
AcDbEntity
  8
1
370
    50
100
AcDbLine
 10
-23.3
 20
37.5
 30
0.0
 11
-23.3
 21
1.5
 31
0.0
  0
LINE
  5
354
100
AcDbEntity
  8
1
370
    25
  6
CENTER
100
AcDbLine
 10
-19.265743
 20
19.5
 30
0.0
 11
-44.129528
 21
19.5
 31
0.0
  0
LINE
  5
355
100
AcDbEntity
  8
1
370
    50
100
AcDbLine
 10
-24.3
 20
38.5
 30
0.0
 11
-40.0
 21
38.5
 31
0.0
  0
LINE
  5
356
100
AcDbEntity
  8
1
370
    50
100
AcDbLine
 10
-24.3
 20
0.5
 30
0.0
 11
-40.0
 21
0.5
 31
0.0
  0
LINE
  5
357
100
AcDbEntity
  8
1
370
    50
100
AcDbLine
 10
-47.5
 20
22.2
 30
0.0
 11
-40.0
 21
22.2
 31
0.0
  0
LINE
  5
358
100
AcDbEntity
  8
1
370
    50
100
AcDbLine
 10
-40.0
 20
5.192857
 30
0.0
 11
-43.534899
 21
5.316298
 31
0.0
  0
LINE
  5
359
100
AcDbEntity
  8
1
370
    25
100
AcDbLine
 10
-43.5
 20
16.095742
 30
0.0
 11
-42.545159
 21
16.029336
 31
0.0
  0
LINE
  5
35A
100
AcDbEntity
  8
1
370
    25
100
AcDbLine
 10
-42.545159
 20
16.029336
 30
0.0
 11
-41.500839
 21
15.963433
 31
0.0
  0
LINE
  5
35B
100
AcDbEntity
  8
1
370
    25
100
AcDbLine
 10
-41.500839
 20
15.963433
 30
0.0
 11
-40.363023
 21
15.897982
 31
0.0
  0
LINE
  5
35C
100
AcDbEntity
  8
1
370
    25
100
AcDbLine
 10
-40.363023
 20
15.897982
 30
0.0
 11
-40.0
 21
15.878876
 31
0.0
  0
LINE
  5
35D
100
AcDbEntity
  8
1
370
    25
100
AcDbLine
 10
-43.534899
 20
16.096756
 30
0.0
 11
-43.5233
 21
16.096761
 31
0.0
  0
LINE
  5
35E
100
AcDbEntity
  8
1
370
    25
100
AcDbLine
 10
-43.5233
 20
16.096761
 30
0.0
 11
-43.511673
 21
16.096424
 31
0.0
  0
LINE
  5
35F
100
AcDbEntity
  8
1
370
    25
100
AcDbLine
 10
-43.511673
 20
16.096424
 30
0.0
 11
-43.5
 21
16.095742
 31
0.0
  0
LINE
  5
360
100
AcDbEntity
  8
1
370
    25
100
AcDbLine
 10
-43.534899
 20
16.096756
 30
0.0
 11
-43.753746
 21
16.082817
 31
0.0
  0
LINE
  5
361
100
AcDbEntity
  8
1
370
    25
100
AcDbLine
 10
-43.753746
 20
16.082817
 30
0.0
 11
-43.959447
 21
16.048683
 31
0.0
  0
LINE
  5
362
100
AcDbEntity
  8
1
370
    25
100
AcDbLine
 10
-43.959447
 20
16.048683
 30
0.0
 11
-44.142233
 21
15.996627
 31
0.0
  0
LINE
  5
363
100
AcDbEntity
  8
1
370
    25
100
AcDbLine
 10
-44.142233
 20
15.996627
 30
0.0
 11
-44.293599
 21
15.929856
 31
0.0
  0
LINE
  5
364
100
AcDbEntity
  8
1
370
    25
100
AcDbLine
 10
-44.293599
 20
15.929856
 30
0.0
 11
-44.40667
 21
15.852213
 31
0.0
  0
LINE
  5
365
100
AcDbEntity
  8
1
370
    25
100
AcDbLine
 10
-44.40667
 20
15.852213
 30
0.0
 11
-44.476448
 21
15.767885
 31
0.0
  0
LINE
  5
366
100
AcDbEntity
  8
1
370
    25
100
AcDbLine
 10
-44.476448
 20
15.767885
 30
0.0
 11
-44.5
 21
15.681138
 31
0.0
  0
LINE
  5
367
100
AcDbEntity
  8
1
370
    25
100
AcDbLine
 10
-43.5
 20
17.807553
 30
0.0
 11
-43.5
 21
16.095742
 31
0.0
  0
LINE
  5
368
100
AcDbEntity
  8
1
370
    25
100
AcDbLine
 10
-43.534899
 20
5.316298
 30
0.0
 11
-43.534899
 21
16.096756
 31
0.0
  0
LINE
  5
369
100
AcDbEntity
  8
1
370
    25
100
AcDbLine
 10
-43.534899
 20
17.805807
 30
0.0
 11
-43.534899
 21
22.2
 31
0.0
  0
LINE
  5
36A
100
AcDbEntity
  8
1
370
    50
100
AcDbLine
 10
-44.5
 20
6.315689
 30
0.0
 11
-44.5
 21
21.684226
 31
0.0
  0
LINE
  5
36B
100
AcDbEntity
  8
1
370
    25
100
AcDbLine
 10
-43.534899
 20
17.805807
 30
0.0
 11
-43.5233
 21
17.80607
 31
0.0
  0
LINE
  5
36C
100
AcDbEntity
  8
1
370
    25
100
AcDbLine
 10
-43.5233
 20
17.80607
 30
0.0
 11
-43.511673
 21
17.806651
 31
0.0
  0
LINE
  5
36D
100
AcDbEntity
  8
1
370
    25
100
AcDbLine
 10
-43.511673
 20
17.806651
 30
0.0
 11
-43.5
 21
17.807553
 31
0.0
  0
LINE
  5
36E
100
AcDbEntity
  8
1
370
    25
100
AcDbLine
 10
-43.534899
 20
17.805807
 30
0.0
 11
-43.753746
 21
17.797456
 31
0.0
  0
LINE
  5
36F
100
AcDbEntity
  8
1
370
    25
100
AcDbLine
 10
-43.753746
 20
17.797456
 30
0.0
 11
-43.959447
 21
17.77672
 31
0.0
  0
LINE
  5
370
100
AcDbEntity
  8
1
370
    25
100
AcDbLine
 10
-43.959447
 20
17.77672
 30
0.0
 11
-44.142233
 21
17.744323
 31
0.0
  0
LINE
  5
371
100
AcDbEntity
  8
1
370
    25
100
AcDbLine
 10
-44.142233
 20
17.744323
 30
0.0
 11
-44.293599
 21
17.701398
 31
0.0
  0
LINE
  5
372
100
AcDbEntity
  8
1
370
    25
100
AcDbLine
 10
-44.293599
 20
17.701398
 30
0.0
 11
-44.40667
 21
17.649545
 31
0.0
  0
LINE
  5
373
100
AcDbEntity
  8
1
370
    25
100
AcDbLine
 10
-44.40667
 20
17.649545
 30
0.0
 11
-44.476448
 21
17.590854
 31
0.0
  0
LINE
  5
374
100
AcDbEntity
  8
1
370
    25
100
AcDbLine
 10
-44.476448
 20
17.590854
 30
0.0
 11
-44.5
 21
17.527874
 31
0.0
  0
LINE
  5
375
100
AcDbEntity
  8
1
370
    25
100
AcDbLine
 10
-40.0
 20
18.086694
 30
0.0
 11
-41.689667
 21
17.960574
 31
0.0
  0
LINE
  5
376
100
AcDbEntity
  8
1
370
    25
100
AcDbLine
 10
-41.689667
 20
17.960574
 30
0.0
 11
-43.5
 21
17.807553
 31
0.0
  0
ARC
  5
377
100
AcDbEntity
  8
1
370
    50
100
AcDbCircle
 10
-43.5
 20
6.315689
 30
0.0
 40
1.0
100
AcDbArc
 50
180.0
 51
268.0
  0
ARC
  5
378
100
AcDbEntity
  8
1
370
    50
100
AcDbCircle
 10
-43.5
 20
21.684311
 30
0.0
 40
1.0
100
AcDbArc
 50
148.956495
 51
180.0
  0
ARC
  5
379
100
AcDbEntity
  8
1
370
    50
100
AcDbCircle
 10
-24.3
 20
1.5
 30
0.0
 40
1.0
100
AcDbArc
 50
270.0
 51
360.0
  0
ARC
  5
37A
100
AcDbEntity
  8
1
370
    50
100
AcDbCircle
 10
-24.3
 20
37.5
 30
0.0
 40
1.0
100
AcDbArc
 50
0.0
 51
90.0
  0
ARC
  5
37B
100
AcDbEntity
  8
1
370
    50
100
AcDbCircle
 10
-88.0
 20
37.5
 30
0.0
 40
1.0
100
AcDbArc
 50
90.0
 51
180.0
  0
ARC
  5
37C
100
AcDbEntity
  8
1
370
    50
100
AcDbCircle
 10
-88.0
 20
1.5
 30
0.0
 40
1.0
100
AcDbArc
 50
180.0
 51
270.0
  0
LINE
  5
37D
100
AcDbEntity
  8
1
370
    50
100
AcDbLine
 10
-66.0
 20
151.149759
 30
0.0
 11
-80.0
 21
151.271935
 31
0.0
  0
ARC
  5
37E
100
AcDbEntity
  8
1
370
    50
100
AcDbCircle
 10
-89.0
 20
141.64939
 30
0.0
 40
0.5
100
AcDbArc
 50
180.0
 51
270.0
  0
ARC
  5
37F
100
AcDbEntity
  8
1
370
    50
100
AcDbCircle
 10
-89.0
 20
154.64939
 30
0.0
 40
0.5
100
AcDbArc
 50
90.0
 51
180.0
  0
LINE
  5
380
100
AcDbEntity
  8
1
370
    50
100
AcDbLine
 10
-90.0
 20
156.149399
 30
0.0
 11
-92.377501
 21
156.149399
 31
0.0
  0
LINE
  5
381
100
AcDbEntity
  8
1
370
    50
100
AcDbLine
 10
-90.0
 20
140.149399
 30
0.0
 11
-92.377501
 21
140.149399
 31
0.0
  0
LINE
  5
382
100
AcDbEntity
  8
1
370
    50
100
AcDbLine
 10
-89.5
 20
140.649399
 30
0.0
 11
-89.5
 21
155.649399
 31
0.0
  0
LINE
  5
383
100
AcDbEntity
  8
1
370
    50
100
AcDbLine
 10
-107.5
 20
150.817414
 30
0.0
 11
-107.5
 21
145.481385
 31
0.0
  0
LINE
  5
384
100
AcDbEntity
  8
1
370
    25
100
AcDbLine
 10
-91.7795
 20
151.149399
 30
0.0
 11
-102.904301
 21
151.149399
 31
0.0
  0
LINE
  5
385
100
AcDbEntity
  8
1
370
    25
100
AcDbLine
 10
-102.904301
 20
145.149399
 30
0.0
 11
-91.7795
 21
145.149399
 31
0.0
  0
LINE
  5
386
100
AcDbEntity
  8
1
370
    25
100
AcDbLine
 10
-90.0
 20
152.928899
 30
0.0
 11
-90.0
 21
143.369899
 31
0.0
  0
ARC
  5
387
100
AcDbEntity
  8
1
370
    50
100
AcDbCircle
 10
-97.5
 20
51.999399
 30
0.0
 40
100.0
100
AcDbArc
 50
90.0
 51
95.34767
  0
ARC
  5
388
100
AcDbEntity
  8
1
370
    50
100
AcDbCircle
 10
-97.5
 20
244.299399
 30
0.0
 40
100.0
100
AcDbArc
 50
264.65233
 51
270.0
  0
ARC
  5
389
100
AcDbEntity
  8
1
370
    50
100
AcDbCircle
 10
-106.75
 20
150.817414
 30
0.0
 40
0.75
100
AcDbArc
 50
95.34767
 51
180.0
  0
ARC
  5
38A
100
AcDbEntity
  8
1
370
    50
100
AcDbCircle
 10
-106.75
 20
145.481385
 30
0.0
 40
0.75
100
AcDbArc
 50
180.0
 51
264.65233
  0
ARC
  5
38B
100
AcDbEntity
  8
1
370
    50
100
AcDbCircle
 10
-97.5
 20
156.735845
 30
0.0
 40
4.736446
100
AcDbArc
 50
270.0
 51
348.02542
  0
ARC
  5
38C
100
AcDbEntity
  8
1
370
    50
100
AcDbCircle
 10
-97.5
 20
139.562954
 30
0.0
 40
4.736446
100
AcDbArc
 50
11.97458
 51
90.0
  0
ARC
  5
38D
100
AcDbEntity
  8
1
370
    25
100
AcDbCircle
 10
-91.7795
 20
152.928899
 30
0.0
 40
1.7795
100
AcDbArc
 50
270.0
 51
360.0
  0
ARC
  5
38E
100
AcDbEntity
  8
1
370
    25
100
AcDbCircle
 10
-91.7795
 20
143.369899
 30
0.0
 40
1.7795
100
AcDbArc
 50
0.0
 51
90.0
  0
ARC
  5
38F
100
AcDbEntity
  8
1
370
    50
100
AcDbCircle
 10
-92.377501
 20
155.649399
 30
0.0
 40
0.5
100
AcDbArc
 50
90.0
 51
168.02542
  0
ARC
  5
390
100
AcDbEntity
  8
1
370
    50
100
AcDbCircle
 10
-90.0
 20
155.649399
 30
0.0
 40
0.5
100
AcDbArc
 50
0.0
 51
90.0
  0
ARC
  5
391
100
AcDbEntity
  8
1
370
    50
100
AcDbCircle
 10
-90.0
 20
140.649399
 30
0.0
 40
0.5
100
AcDbArc
 50
270.0
 51
360.0
  0
ARC
  5
392
100
AcDbEntity
  8
1
370
    50
100
AcDbCircle
 10
-92.377501
 20
140.649399
 30
0.0
 40
0.5
100
AcDbArc
 50
191.97458
 51
270.0
  0
LINE
  5
393
100
AcDbEntity
  8
1
370
    50
100
AcDbLine
 10
-77.972243
 20
152.849399
 30
0.0
 11
-80.0
 21
152.849399
 31
0.0
  0
LINE
  5
394
100
AcDbEntity
  8
1
370
    50
100
AcDbLine
 10
-77.972243
 20
143.449399
 30
0.0
 11
-80.0
 21
143.449399
 31
0.0
  0
LINE
  5
395
100
AcDbEntity
  8
1
370
    50
100
AcDbLine
 10
-76.5
 20
151.999399
 30
0.0
 11
-77.972243
 21
152.849399
 31
0.0
  0
LINE
  5
396
100
AcDbEntity
  8
1
370
    50
100
AcDbLine
 10
-76.5
 20
144.299399
 30
0.0
 11
-77.972243
 21
143.449399
 31
0.0
  0
LINE
  5
397
100
AcDbEntity
  8
1
370
    50
100
AcDbLine
 10
-76.5
 20
144.299399
 30
0.0
 11
-76.5
 21
145.057408
 31
0.0
  0
LINE
  5
398
100
AcDbEntity
  8
1
370
    50
100
AcDbLine
 10
-76.5
 20
151.241391
 30
0.0
 11
-76.5
 21
151.999399
 31
0.0
  0
LINE
  5
399
100
AcDbEntity
  8
1
370
    50
100
AcDbLine
 10
-78.232051
 20
143.449399
 30
0.0
 11
-78.232051
 21
145.042293
 31
0.0
  0
LINE
  5
39A
100
AcDbEntity
  8
1
370
    50
100
AcDbLine
 10
-78.232051
 20
151.256506
 30
0.0
 11
-78.232051
 21
152.849399
 31
0.0
  0
LINE
  5
39B
100
AcDbEntity
  8
1
370
    50
100
AcDbLine
 10
-89.0
 20
166.149399
 30
0.0
 11
-89.0
 21
130.149399
 31
0.0
  0
LINE
  5
39C
100
AcDbEntity
  8
1
370
    50
100
AcDbLine
 10
-88.0
 20
167.149399
 30
0.0
 11
-80.0
 21
167.149399
 31
0.0
  0
LINE
  5
39D
100
AcDbEntity
  8
1
370
    50
100
AcDbLine
 10
-88.0
 20
129.149399
 30
0.0
 11
-80.0
 21
129.149399
 31
0.0
  0
LINE
  5
39E
100
AcDbEntity
  8
1
370
    50
100
AcDbLine
 10
-66.0
 20
137.8494
 30
0.0
 11
-40.0
 21
137.622501
 31
0.0
  0
LINE
  5
39F
100
AcDbEntity
  8
1
370
    25
100
AcDbLine
 10
-66.0
 20
138.278272
 30
0.0
 11
-40.0
 21
138.080861
 31
0.0
  0
LINE
  5
3A0
100
AcDbEntity
  8
1
370
    25
100
AcDbLine
 10
-66.0
 20
144.6494
 30
0.0
 11
-40.0
 21
144.609948
 31
0.0
  0
LINE
  5
3A1
100
AcDbEntity
  8
1
370
    25
100
AcDbLine
 10
-66.0
 20
151.6494
 30
0.0
 11
-40.0
 21
151.688852
 31
0.0
  0
LINE
  5
3A2
100
AcDbEntity
  8
1
370
    25
100
AcDbLine
 10
-66.0
 20
158.020528
 30
0.0
 11
-40.0
 21
158.217938
 31
0.0
  0
LINE
  5
3A3
100
AcDbEntity
  8
1
370
    50
100
AcDbLine
 10
-40.0
 20
158.676298
 30
0.0
 11
-66.0
 21
158.4494
 31
0.0
  0
LINE
  5
3A4
100
AcDbEntity
  8
1
370
    50
100
AcDbLine
 10
-66.0
 20
158.449254
 30
0.0
 11
-66.0
 21
149.921899
 31
0.0
  0
LINE
  5
3A5
100
AcDbEntity
  8
1
370
    50
100
AcDbLine
 10
-66.0
 20
137.849546
 30
0.0
 11
-66.0
 21
146.376899
 31
0.0
  0
LINE
  5
3A6
100
AcDbEntity
  8
1
370
    50
100
AcDbLine
 10
-40.0
 20
149.921899
 30
0.0
 11
-66.0
 21
149.921899
 31
0.0
  0
LINE
  5
3A7
100
AcDbEntity
  8
1
370
    50
100
AcDbLine
 10
-40.0
 20
146.376899
 30
0.0
 11
-66.0
 21
146.376899
 31
0.0
  0
LINE
  5
3A8
100
AcDbEntity
  8
1
370
    50
100
AcDbLine
 10
-66.0
 20
145.14904
 30
0.0
 11
-80.0
 21
145.026864
 31
0.0
  0
LINE
  5
3A9
100
AcDbEntity
  8
1
370
    50
100
AcDbLine
 10
-54.499981
 20
149.921899
 30
0.0
 11
-54.499981
 21
146.376899
 31
0.0
  0
ARC
  5
3AA
100
AcDbEntity
  8
1
370
    50
100
AcDbCircle
 10
-86.15
 20
148.149399
 30
0.0
 40
64.25
100
AcDbArc
 50
352.937198
 51
7.062802
  0
LINE
  5
3AB
100
AcDbEntity
  8
1
370
    50
100
AcDbLine
 10
-22.387531
 20
140.249399
 30
0.0
 11
-23.3
 21
140.249399
 31
0.0
  0
LINE
  5
3AC
100
AcDbEntity
  8
1
370
    50
100
AcDbLine
 10
-22.387531
 20
156.049399
 30
0.0
 11
-23.3
 21
156.049399
 31
0.0
  0
LINE
  5
3AD
100
AcDbEntity
  8
1
370
    25
100
AcDbLine
 10
-22.387531
 20
140.249399
 30
0.0
 11
-22.387531
 21
156.049399
 31
0.0
  0
LINE
  5
3AE
100
AcDbEntity
  8
1
370
    50
100
AcDbLine
 10
-24.3
 20
167.149399
 30
0.0
 11
-40.0
 21
167.149399
 31
0.0
  0
LINE
  5
3AF
100
AcDbEntity
  8
1
370
    50
100
AcDbLine
 10
-23.3
 20
148.149399
 30
0.0
 11
-23.3
 21
166.149399
 31
0.0
  0
LINE
  5
3B0
100
AcDbEntity
  8
1
370
    50
100
AcDbLine
 10
-23.3
 20
148.149399
 30
0.0
 11
-23.3
 21
130.149399
 31
0.0
  0
LINE
  5
3B1
100
AcDbEntity
  8
1
370
    50
100
AcDbLine
 10
-24.3
 20
129.149399
 30
0.0
 11
-40.0
 21
129.149399
 31
0.0
  0
ARC
  5
3B2
100
AcDbEntity
  8
1
370
    50
100
AcDbCircle
 10
-88.0
 20
166.149399
 30
0.0
 40
1.0
100
AcDbArc
 50
90.0
 51
180.0
  0
ARC
  5
3B3
100
AcDbEntity
  8
1
370
    50
100
AcDbCircle
 10
-88.0
 20
130.149399
 30
0.0
 40
1.0
100
AcDbArc
 50
180.0
 51
270.0
  0
ARC
  5
3B4
100
AcDbEntity
  8
1
370
    50
100
AcDbCircle
 10
-24.3
 20
166.149399
 30
0.0
 40
1.0
100
AcDbArc
 50
0.0
 51
90.0
  0
ARC
  5
3B5
100
AcDbEntity
  8
1
370
    50
100
AcDbCircle
 10
-24.3
 20
130.149399
 30
0.0
 40
1.0
100
AcDbArc
 50
270.0
 51
360.0
  0
LINE
  5
3B6
100
AcDbEntity
  8
1
370
    50
100
AcDbLine
 10
124.282201
 20
-18.8
 30
0.0
 11
124.282201
 21
-9.2
 31
0.0
  0
LINE
  5
3B7
100
AcDbEntity
  8
1
370
    50
100
AcDbLine
 10
124.282201
 20
-18.4
 30
0.0
 11
134.618263
 21
-18.4
 31
0.0
  0
LINE
  5
3B8
100
AcDbEntity
  8
1
370
    50
100
AcDbLine
 10
124.282201
 20
-9.6
 30
0.0
 11
134.618263
 21
-9.6
 31
0.0
  0
LINE
  5
3B9
100
AcDbEntity
  8
1
370
    50
100
AcDbLine
 10
124.282201
 20
-9.2
 30
0.0
 11
124.618276
 21
-9.2
 31
0.0
  0
LINE
  5
3BA
100
AcDbEntity
  8
1
370
    50
100
AcDbLine
 10
124.282201
 20
-18.8
 30
0.0
 11
124.618276
 21
-18.8
 31
0.0
  0
LINE
  5
3BB
100
AcDbEntity
  8
1
370
    50
100
AcDbLine
 10
-55.85
 20
-9.599981
 30
0.0
 11
-60.0
 21
-9.599981
 31
0.0
  0
LINE
  5
3BC
100
AcDbEntity
  8
1
370
    50
100
AcDbLine
 10
-55.85
 20
-18.400019
 30
0.0
 11
-60.0
 21
-18.400019
 31
0.0
  0
LINE
  5
3BD
100
AcDbEntity
  8
1
370
    50
100
AcDbLine
 10
-53.999978
 20
-9.63528
 30
0.0
 11
-55.604192
 21
-9.257818
 31
0.0
  0
LINE
  5
3BE
100
AcDbEntity
  8
1
370
    50
100
AcDbLine
 10
-55.85
 20
-9.452502
 30
0.0
 11
-55.85
 21
-9.599981
 31
0.0
  0
ARC
  5
3BF
100
AcDbEntity
  8
1
370
    50
100
AcDbCircle
 10
-55.65
 20
-9.452502
 30
0.0
 40
0.2
100
AcDbArc
 50
76.75948
 51
180.0
  0
LINE
  5
3C0
100
AcDbEntity
  8
1
370
    50
100
AcDbLine
 10
-53.999978
 20
-18.36472
 30
0.0
 11
-55.604192
 21
-18.742182
 31
0.0
  0
LINE
  5
3C1
100
AcDbEntity
  8
1
370
    50
100
AcDbLine
 10
-55.85
 20
-18.547498
 30
0.0
 11
-55.85
 21
-18.400019
 31
0.0
  0
ARC
  5
3C2
100
AcDbEntity
  8
1
370
    50
100
AcDbCircle
 10
-55.65
 20
-18.547498
 30
0.0
 40
0.2
100
AcDbArc
 50
180.0
 51
283.24052
  0
LINE
  5
3C3
100
AcDbEntity
  8
1
370
    50
100
AcDbLine
 10
-64.15
 20
-9.599981
 30
0.0
 11
-60.0
 21
-9.599981
 31
0.0
  0
LINE
  5
3C4
100
AcDbEntity
  8
1
370
    50
100
AcDbLine
 10
-64.15
 20
-18.400019
 30
0.0
 11
-60.0
 21
-18.400019
 31
0.0
  0
LINE
  5
3C5
100
AcDbEntity
  8
1
370
    50
100
AcDbLine
 10
-65.999978
 20
-9.63527
 30
0.0
 11
-64.395808
 21
-9.257818
 31
0.0
  0
LINE
  5
3C6
100
AcDbEntity
  8
1
370
    50
100
AcDbLine
 10
-64.15
 20
-9.452502
 30
0.0
 11
-64.15
 21
-9.599981
 31
0.0
  0
ARC
  5
3C7
100
AcDbEntity
  8
1
370
    50
100
AcDbCircle
 10
-64.35
 20
-9.452502
 30
0.0
 40
0.2
100
AcDbArc
 50
0.0
 51
103.24052
  0
LINE
  5
3C8
100
AcDbEntity
  8
1
370
    50
100
AcDbLine
 10
-65.999978
 20
-18.36473
 30
0.0
 11
-64.395808
 21
-18.742182
 31
0.0
  0
LINE
  5
3C9
100
AcDbEntity
  8
1
370
    50
100
AcDbLine
 10
-64.15
 20
-18.547498
 30
0.0
 11
-64.15
 21
-18.400019
 31
0.0
  0
ARC
  5
3CA
100
AcDbEntity
  8
1
370
    50
100
AcDbCircle
 10
-64.35
 20
-18.547498
 30
0.0
 40
0.2
100
AcDbArc
 50
256.75948
 51
360.0
  0
LINE
  5
3CB
100
AcDbEntity
  8
1
370
    50
100
AcDbLine
 10
236.559039
 20
190.656181
 30
0.0
 11
236.559039
 21
184.156181
 31
0.0
  0
ARC
  5
3CC
100
AcDbEntity
  8
1
370
    50
100
AcDbCircle
 10
245.859039
 20
198.206181
 30
0.0
 40
3.0
100
AcDbArc
 50
115.841933
 51
180.0
  0
LINE
  5
3CD
100
AcDbEntity
  8
1
370
    50
100
AcDbLine
 10
242.859039
 20
190.956181
 30
0.0
 11
236.859039
 21
190.956181
 31
0.0
  0
LINE
  5
3CE
100
AcDbEntity
  8
1
370
    50
100
AcDbLine
 10
242.859039
 20
198.206181
 30
0.0
 11
242.859039
 21
176.606181
 31
0.0
  0
ARC
  5
3CF
100
AcDbEntity
  8
1
370
    50
100
AcDbCircle
 10
236.859039
 20
190.656181
 30
0.0
 40
0.3
100
AcDbArc
 50
90.0
 51
180.0
  0
LINE
  5
3D0
100
AcDbEntity
  8
1
370
    50
100
AcDbLine
 10
240.559039
 20
190.956181
 30
0.0
 11
240.559039
 21
195.406181
 31
0.0
  0
LINE
  5
3D1
100
AcDbEntity
  8
1
370
    50
100
AcDbLine
 10
241.559039
 20
190.956181
 30
0.0
 11
241.559039
 21
195.406181
 31
0.0
  0
LINE
  5
3D2
100
AcDbEntity
  8
1
370
    50
100
AcDbLine
 10
239.559039
 20
190.956181
 30
0.0
 11
239.559039
 21
197.406181
 31
0.0
  0
ARC
  5
3D3
100
AcDbEntity
  8
1
370
    50
100
AcDbCircle
 10
245.859039
 20
176.606181
 30
0.0
 40
3.0
100
AcDbArc
 50
180.0
 51
244.158067
  0
LINE
  5
3D4
100
AcDbEntity
  8
1
370
    50
100
AcDbLine
 10
242.859039
 20
183.856181
 30
0.0
 11
236.859039
 21
183.856181
 31
0.0
  0
ARC
  5
3D5
100
AcDbEntity
  8
1
370
    50
100
AcDbCircle
 10
236.859039
 20
184.156181
 30
0.0
 40
0.3
100
AcDbArc
 50
180.0
 51
270.0
  0
LINE
  5
3D6
100
AcDbEntity
  8
1
370
    50
100
AcDbLine
 10
240.559039
 20
183.856181
 30
0.0
 11
240.559039
 21
179.406181
 31
0.0
  0
LINE
  5
3D7
100
AcDbEntity
  8
1
370
    50
100
AcDbLine
 10
241.559039
 20
183.856181
 30
0.0
 11
241.559039
 21
179.406181
 31
0.0
  0
LINE
  5
3D8
100
AcDbEntity
  8
1
370
    50
100
AcDbLine
 10
239.559039
 20
183.856181
 30
0.0
 11
239.559039
 21
177.406181
 31
0.0
  0
LINE
  5
3D9
100
AcDbEntity
  8
1
370
    50
100
AcDbLine
 10
259.159039
 20
109.983154
 30
0.0
 11
258.978506
 21
104.813355
 31
0.0
  0
ARC
  5
3DA
100
AcDbEntity
  8
1
370
    50
100
AcDbCircle
 10
256.979724
 20
104.883154
 30
0.0
 40
2.0
100
AcDbArc
 50
270.0
 51
358.0
  0
LINE
  5
3DB
100
AcDbEntity
  8
1
370
    50
100
AcDbLine
 10
241.059039
 20
109.983154
 30
0.0
 11
241.239573
 21
104.813355
 31
0.0
  0
ARC
  5
3DC
100
AcDbEntity
  8
1
370
    50
100
AcDbCircle
 10
243.238354
 20
104.883154
 30
0.0
 40
2.0
100
AcDbArc
 50
182.0
 51
270.0
  0
LINE
  5
3DD
100
AcDbEntity
  8
1
370
    50
100
AcDbLine
 10
243.238354
 20
102.883154
 30
0.0
 11
248.609039
 21
102.883154
 31
0.0
  0
LINE
  5
3DE
100
AcDbEntity
  8
1
370
    50
100
AcDbLine
 10
251.109039
 20
102.883154
 30
0.0
 11
256.979724
 21
102.883154
 31
0.0
  0
LINE
  5
3DF
100
AcDbEntity
  8
1
370
    50
100
AcDbLine
 10
313.957732
 20
184.064914
 30
0.0
 11
313.957732
 21
190.747445
 31
0.0
  0
LINE
  5
3E0
100
AcDbEntity
  8
1
370
    50
100
AcDbLine
 10
324.157732
 20
174.485495
 30
0.0
 11
324.157732
 21
200.326865
 31
0.0
  0
LINE
  5
3E1
100
AcDbEntity
  8
1
370
    50
100
AcDbLine
 10
314.157732
 20
183.864907
 30
0.0
 11
314.155987
 21
183.864922
 31
0.0
  0
ARC
  5
3E2
100
AcDbEntity
  8
1
370
    50
100
AcDbCircle
 10
314.157732
 20
184.064914
 30
0.0
 40
0.2
100
AcDbArc
 50
180.0
 51
269.5
  0
LINE
  5
3E3
100
AcDbEntity
  8
1
370
    50
100
AcDbLine
 10
317.057732
 20
172.30618
 30
0.0
 11
322.227531
 21
172.486713
 31
0.0
  0
ARC
  5
3E4
100
AcDbEntity
  8
1
370
    50
100
AcDbCircle
 10
322.157732
 20
174.485495
 30
0.0
 40
2.0
100
AcDbArc
 50
272.0
 51
0.0
  0
LINE
  5
3E5
100
AcDbEntity
  8
1
370
    50
100
AcDbLine
 10
315.657047
 20
154.606059
 30
0.0
 11
316.644556
 21
154.780184
 31
0.0
  0
ARC
  5
3E6
100
AcDbEntity
  8
1
370
    50
100
AcDbCircle
 10
316.557732
 20
155.272587
 30
0.0
 40
0.5
100
AcDbArc
 50
280.0
 51
360.0
  0
LINE
  5
3E7
100
AcDbEntity
  8
1
370
    50
100
AcDbLine
 10
315.657047
 20
154.606059
 30
0.0
 11
315.157732
 21
154.632227
 31
0.0
  0
LINE
  5
3E8
100
AcDbEntity
  8
1
370
    50
100
AcDbLine
 10
317.057732
 20
155.272587
 30
0.0
 11
317.057732
 21
219.539772
 31
0.0
  0
LINE
  5
3E9
100
AcDbEntity
  8
1
370
    50
100
AcDbLine
 10
317.507732
 20
157.464253
 30
0.0
 11
317.507732
 21
167.348105
 31
0.0
  0
LINE
  5
3EA
100
AcDbEntity
  8
1
370
    50
100
AcDbLine
 10
317.507732
 20
157.464253
 30
0.0
 11
317.057732
 21
157.440669
 31
0.0
  0
LINE
  5
3EB
100
AcDbEntity
  8
1
370
    50
100
AcDbLine
 10
317.507732
 20
167.348105
 30
0.0
 11
317.057732
 21
167.371689
 31
0.0
  0
LINE
  5
3EC
100
AcDbEntity
  8
1
370
    50
100
AcDbLine
 10
315.157732
 20
154.632227
 30
0.0
 11
315.157732
 21
220.180133
 31
0.0
  0
LINE
  5
3ED
100
AcDbEntity
  8
1
370
    50
100
AcDbLine
 10
236.767774
 20
113.083154
 30
0.0
 11
241.867728
 21
113.083154
 31
0.0
  0
ARC
  5
3EE
100
AcDbEntity
  8
1
370
    50
100
AcDbCircle
 10
241.867728
 20
112.083154
 30
0.0
 40
1.0
100
AcDbArc
 50
53.130102
 51
90.0
  0
LINE
  5
3EF
100
AcDbEntity
  8
1
370
    50
100
AcDbLine
 10
236.567781
 20
112.884899
 30
0.0
 11
236.567766
 21
112.883154
 31
0.0
  0
ARC
  5
3F0
100
AcDbEntity
  8
1
370
    50
100
AcDbCircle
 10
236.767774
 20
112.883154
 30
0.0
 40
0.2
100
AcDbArc
 50
90.0
 51
179.5
  0
LINE
  5
3F1
100
AcDbEntity
  8
1
370
    50
100
AcDbLine
 10
260.359039
 20
111.383154
 30
0.0
 11
260.185036
 21
110.396329
 31
0.0
  0
LINE
  5
3F2
100
AcDbEntity
  8
1
370
    50
100
AcDbLine
 10
259.692632
 20
109.983154
 30
0.0
 11
231.725447
 21
109.983154
 31
0.0
  0
LINE
  5
3F3
100
AcDbEntity
  8
1
370
    50
100
AcDbLine
 10
231.059039
 20
111.383154
 30
0.0
 11
231.559039
 21
111.883154
 31
0.0
  0
LINE
  5
3F4
100
AcDbEntity
  8
1
370
    50
100
AcDbLine
 10
231.059039
 20
111.383154
 30
0.0
 11
231.233043
 21
110.396329
 31
0.0
  0
ARC
  5
3F5
100
AcDbEntity
  8
1
370
    50
100
AcDbCircle
 10
231.725447
 20
110.483154
 30
0.0
 40
0.5
100
AcDbArc
 50
190.0
 51
270.0
  0
ARC
  5
3F6
100
AcDbEntity
  8
1
370
    50
100
AcDbCircle
 10
259.692632
 20
110.483154
 30
0.0
 40
0.5
100
AcDbArc
 50
270.0
 51
350.0
  0
LINE
  5
3F7
100
AcDbEntity
  8
1
370
    50
100
AcDbLine
 10
260.359039
 20
111.383154
 30
0.0
 11
260.332835
 21
111.883154
 31
0.0
  0
LINE
  5
3F8
100
AcDbEntity
  8
1
370
    25
100
AcDbLine
 10
257.904805
 20
109.606394
 30
0.0
 11
257.92455
 21
109.983154
 31
0.0
  0
LINE
  5
3F9
100
AcDbEntity
  8
1
370
    25
100
AcDbLine
 10
242.812528
 20
109.620627
 30
0.0
 11
242.793529
 21
109.983154
 31
0.0
  0
LINE
  5
3FA
100
AcDbEntity
  8
1
370
    50
100
AcDbLine
 10
246.609039
 20
109.983154
 30
0.0
 11
246.638684
 21
109.947579
 31
0.0
  0
LINE
  5
3FB
100
AcDbEntity
  8
1
370
    50
100
AcDbLine
 10
247.609039
 20
109.983154
 30
0.0
 11
247.638684
 21
109.947579
 31
0.0
  0
LINE
  5
3FC
100
AcDbEntity
  8
1
370
    50
100
AcDbLine
 10
245.609039
 20
109.983154
 30
0.0
 11
245.638686
 21
109.947577
 31
0.0
  0
LINE
  5
3FD
100
AcDbEntity
  8
1
370
    25
100
AcDbLine
 10
246.859037
 20
109.533155
 30
0.0
 11
246.638684
 21
109.947579
 31
0.0
  0
LINE
  5
3FE
100
AcDbEntity
  8
1
370
    25
100
AcDbLine
 10
246.859037
 20
109.533155
 30
0.0
 11
247.140228
 21
109.983154
 31
0.0
  0
LINE
  5
3FF
100
AcDbEntity
  8
1
370
    25
100
AcDbLine
 10
245.859038
 20
109.533155
 30
0.0
 11
245.638686
 21
109.947577
 31
0.0
  0
LINE
  5
400
100
AcDbEntity
  8
1
370
    25
100
AcDbLine
 10
245.859038
 20
109.533155
 30
0.0
 11
246.140228
 21
109.983154
 31
0.0
  0
LINE
  5
401
100
AcDbEntity
  8
1
370
    25
100
AcDbLine
 10
247.859037
 20
109.533155
 30
0.0
 11
247.638684
 21
109.947579
 31
0.0
  0
LINE
  5
402
100
AcDbEntity
  8
1
370
    25
100
AcDbLine
 10
247.859037
 20
109.533155
 30
0.0
 11
248.109039
 21
109.933242
 31
0.0
  0
LINE
  5
403
100
AcDbEntity
  8
1
370
    50
100
AcDbLine
 10
243.609039
 20
109.983154
 30
0.0
 11
243.638684
 21
109.947579
 31
0.0
  0
LINE
  5
404
100
AcDbEntity
  8
1
370
    50
100
AcDbLine
 10
244.609039
 20
109.983154
 30
0.0
 11
244.638684
 21
109.947579
 31
0.0
  0
LINE
  5
405
100
AcDbEntity
  8
1
370
    25
100
AcDbLine
 10
243.859037
 20
109.533155
 30
0.0
 11
243.638684
 21
109.947579
 31
0.0
  0
LINE
  5
406
100
AcDbEntity
  8
1
370
    25
100
AcDbLine
 10
243.859037
 20
109.533155
 30
0.0
 11
244.140228
 21
109.983154
 31
0.0
  0
LINE
  5
407
100
AcDbEntity
  8
1
370
    25
100
AcDbLine
 10
242.859038
 20
109.533155
 30
0.0
 11
242.812528
 21
109.620627
 31
0.0
  0
LINE
  5
408
100
AcDbEntity
  8
1
370
    25
100
AcDbLine
 10
242.859038
 20
109.533155
 30
0.0
 11
243.140228
 21
109.983154
 31
0.0
  0
LINE
  5
409
100
AcDbEntity
  8
1
370
    25
100
AcDbLine
 10
244.859037
 20
109.533155
 30
0.0
 11
244.638684
 21
109.947579
 31
0.0
  0
LINE
  5
40A
100
AcDbEntity
  8
1
370
    25
100
AcDbLine
 10
244.859037
 20
109.533155
 30
0.0
 11
245.140228
 21
109.983154
 31
0.0
  0
LINE
  5
40B
100
AcDbEntity
  8
1
370
    50
100
AcDbLine
 10
255.609039
 20
109.983154
 30
0.0
 11
255.638684
 21
109.947579
 31
0.0
  0
LINE
  5
40C
100
AcDbEntity
  8
1
370
    50
100
AcDbLine
 10
256.609039
 20
109.983154
 30
0.0
 11
256.638684
 21
109.947579
 31
0.0
  0
LINE
  5
40D
100
AcDbEntity
  8
1
370
    25
100
AcDbLine
 10
255.859037
 20
109.533155
 30
0.0
 11
255.638684
 21
109.947579
 31
0.0
  0
LINE
  5
40E
100
AcDbEntity
  8
1
370
    25
100
AcDbLine
 10
255.859037
 20
109.533155
 30
0.0
 11
256.140228
 21
109.983154
 31
0.0
  0
LINE
  5
40F
100
AcDbEntity
  8
1
370
    25
100
AcDbLine
 10
256.859037
 20
109.533155
 30
0.0
 11
256.638684
 21
109.947579
 31
0.0
  0
LINE
  5
410
100
AcDbEntity
  8
1
370
    25
100
AcDbLine
 10
256.859037
 20
109.533155
 30
0.0
 11
257.140228
 21
109.983154
 31
0.0
  0
LINE
  5
411
100
AcDbEntity
  8
1
370
    50
100
AcDbLine
 10
257.609039
 20
109.983154
 30
0.0
 11
257.638686
 21
109.947577
 31
0.0
  0
LINE
  5
412
100
AcDbEntity
  8
1
370
    25
100
AcDbLine
 10
257.859038
 20
109.533155
 30
0.0
 11
257.638686
 21
109.947577
 31
0.0
  0
LINE
  5
413
100
AcDbEntity
  8
1
370
    25
100
AcDbLine
 10
257.859039
 20
109.533155
 30
0.0
 11
257.904805
 21
109.606394
 31
0.0
  0
LINE
  5
414
100
AcDbEntity
  8
1
370
    50
100
AcDbLine
 10
254.609039
 20
109.983154
 30
0.0
 11
254.638684
 21
109.947579
 31
0.0
  0
LINE
  5
415
100
AcDbEntity
  8
1
370
    25
100
AcDbLine
 10
254.859037
 20
109.533155
 30
0.0
 11
254.638684
 21
109.947579
 31
0.0
  0
LINE
  5
416
100
AcDbEntity
  8
1
370
    25
100
AcDbLine
 10
254.859037
 20
109.533155
 30
0.0
 11
255.140228
 21
109.983154
 31
0.0
  0
LINE
  5
417
100
AcDbEntity
  8
1
370
    50
100
AcDbLine
 10
253.609039
 20
109.983154
 30
0.0
 11
253.638684
 21
109.947579
 31
0.0
  0
LINE
  5
418
100
AcDbEntity
  8
1
370
    25
100
AcDbLine
 10
253.859037
 20
109.533155
 30
0.0
 11
253.638684
 21
109.947579
 31
0.0
  0
LINE
  5
419
100
AcDbEntity
  8
1
370
    25
100
AcDbLine
 10
253.859037
 20
109.533155
 30
0.0
 11
254.140228
 21
109.983154
 31
0.0
  0
LINE
  5
41A
100
AcDbEntity
  8
1
370
    50
100
AcDbLine
 10
252.609039
 20
109.983154
 30
0.0
 11
252.638684
 21
109.947579
 31
0.0
  0
LINE
  5
41B
100
AcDbEntity
  8
1
370
    25
100
AcDbLine
 10
252.859037
 20
109.533155
 30
0.0
 11
252.638684
 21
109.947579
 31
0.0
  0
LINE
  5
41C
100
AcDbEntity
  8
1
370
    25
100
AcDbLine
 10
252.859037
 20
109.533155
 30
0.0
 11
253.140228
 21
109.983154
 31
0.0
  0
LINE
  5
41D
100
AcDbEntity
  8
1
370
    50
100
AcDbLine
 10
251.609039
 20
109.983153
 30
0.0
 11
251.638684
 21
109.947579
 31
0.0
  0
LINE
  5
41E
100
AcDbEntity
  8
1
370
    25
100
AcDbLine
 10
251.859037
 20
109.533155
 30
0.0
 11
251.638684
 21
109.947579
 31
0.0
  0
LINE
  5
41F
100
AcDbEntity
  8
1
370
    25
100
AcDbLine
 10
251.859037
 20
109.533155
 30
0.0
 11
252.140228
 21
109.983154
 31
0.0
  0
LINE
  5
420
100
AcDbEntity
  8
1
370
    50
100
AcDbLine
 10
314.157732
 20
190.947453
 30
0.0
 11
314.155987
 21
190.947438
 31
0.0
  0
ARC
  5
421
100
AcDbEntity
  8
1
370
    50
100
AcDbCircle
 10
314.157732
 20
190.747445
 30
0.0
 40
0.2
100
AcDbArc
 50
90.5
 51
180.0
  0
LINE
  5
422
100
AcDbEntity
  8
1
370
    50
100
AcDbLine
 10
317.057732
 20
202.50618
 30
0.0
 11
322.227531
 21
202.325646
 31
0.0
  0
ARC
  5
423
100
AcDbEntity
  8
1
370
    50
100
AcDbCircle
 10
322.157732
 20
200.326865
 30
0.0
 40
2.0
100
AcDbArc
 50
360.0
 51
88.0
  0
LINE
  5
424
100
AcDbEntity
  8
1
370
    50
100
AcDbLine
 10
315.657047
 20
220.206301
 30
0.0
 11
316.644556
 21
220.032176
 31
0.0
  0
ARC
  5
425
100
AcDbEntity
  8
1
370
    50
100
AcDbCircle
 10
316.557732
 20
219.539772
 30
0.0
 40
0.5
100
AcDbArc
 50
0.0
 51
80.0
  0
LINE
  5
426
100
AcDbEntity
  8
1
370
    50
100
AcDbLine
 10
315.657047
 20
220.206301
 30
0.0
 11
315.157732
 21
220.180133
 31
0.0
  0
LINE
  5
427
100
AcDbEntity
  8
1
370
    50
100
AcDbLine
 10
317.507732
 20
217.348107
 30
0.0
 11
317.507732
 21
207.464254
 31
0.0
  0
LINE
  5
428
100
AcDbEntity
  8
1
370
    50
100
AcDbLine
 10
317.507732
 20
217.348107
 30
0.0
 11
317.057732
 21
217.37169
 31
0.0
  0
LINE
  5
429
100
AcDbEntity
  8
1
370
    50
100
AcDbLine
 10
317.507732
 20
207.464254
 30
0.0
 11
317.057732
 21
207.440671
 31
0.0
  0
LINE
  5
42A
100
AcDbEntity
  8
1
370
    50
100
AcDbLine
 10
248.609039
 20
109.983154
 30
0.0
 11
248.638684
 21
109.947579
 31
0.0
  0
LINE
  5
42B
100
AcDbEntity
  8
1
370
    25
100
AcDbLine
 10
248.859037
 20
109.533155
 30
0.0
 11
248.638684
 21
109.947579
 31
0.0
  0
LINE
  5
42C
100
AcDbEntity
  8
1
370
    25
100
AcDbLine
 10
248.859037
 20
109.533155
 30
0.0
 11
249.109039
 21
109.933242
 31
0.0
  0
LINE
  5
42D
100
AcDbEntity
  8
1
370
    50
100
AcDbLine
 10
249.609039
 20
109.983154
 30
0.0
 11
249.638684
 21
109.947579
 31
0.0
  0
LINE
  5
42E
100
AcDbEntity
  8
1
370
    25
100
AcDbLine
 10
249.859037
 20
109.533155
 30
0.0
 11
249.638684
 21
109.947579
 31
0.0
  0
LINE
  5
42F
100
AcDbEntity
  8
1
370
    25
100
AcDbLine
 10
249.859037
 20
109.533155
 30
0.0
 11
250.109039
 21
109.933242
 31
0.0
  0
LINE
  5
430
100
AcDbEntity
  8
1
370
    50
100
AcDbLine
 10
250.609039
 20
109.983154
 30
0.0
 11
250.638684
 21
109.947579
 31
0.0
  0
LINE
  5
431
100
AcDbEntity
  8
1
370
    25
100
AcDbLine
 10
250.859037
 20
109.533155
 30
0.0
 11
250.638684
 21
109.947579
 31
0.0
  0
LINE
  5
432
100
AcDbEntity
  8
1
370
    25
100
AcDbLine
 10
250.859037
 20
109.533155
 30
0.0
 11
251.109039
 21
109.933242
 31
0.0
  0
LINE
  5
433
100
AcDbEntity
  8
1
370
    50
100
AcDbLine
 10
262.359039
 20
220.406181
 30
0.0
 11
229.859039
 21
220.406181
 31
0.0
  0
LINE
  5
434
100
AcDbEntity
  8
1
370
    50
100
AcDbLine
 10
262.359039
 20
220.406181
 30
0.0
 11
262.359039
 21
154.406181
 31
0.0
  0
LINE
  5
435
100
AcDbEntity
  8
1
370
    50
100
AcDbLine
 10
224.859039
 20
215.406181
 30
0.0
 11
224.859039
 21
159.406181
 31
0.0
  0
ARC
  5
436
100
AcDbEntity
  8
1
370
    50
100
AcDbCircle
 10
229.859039
 20
215.406181
 30
0.0
 40
5.0
100
AcDbArc
 50
90.0
 51
180.0
  0
LINE
  5
437
100
AcDbEntity
  8
1
370
    50
100
AcDbLine
 10
257.359039
 20
198.906181
 30
0.0
 11
257.359039
 21
175.906181
 31
0.0
  0
LINE
  5
438
100
AcDbEntity
  8
1
370
    50
100
AcDbLine
 10
255.359039
 20
200.906181
 30
0.0
 11
241.559039
 21
200.906181
 31
0.0
  0
ARC
  5
439
100
AcDbEntity
  8
1
370
    50
100
AcDbCircle
 10
255.359039
 20
198.906181
 30
0.0
 40
2.0
100
AcDbArc
 50
0.0
 51
90.0
  0
LINE
  5
43A
100
AcDbEntity
  8
1
370
    50
100
AcDbLine
 10
239.259039
 20
191.006181
 30
0.0
 11
233.859039
 21
191.006181
 31
0.0
  0
ARC
  5
43B
100
AcDbEntity
  8
1
370
    50
100
AcDbCircle
 10
241.559039
 20
198.906181
 30
0.0
 40
2.0
100
AcDbArc
 50
90.0
 51
180.0
  0
LINE
  5
43C
100
AcDbEntity
  8
1
370
    50
100
AcDbLine
 10
239.559039
 20
197.406181
 30
0.0
 11
239.559039
 21
198.906181
 31
0.0
  0
ARC
  5
43D
100
AcDbEntity
  8
1
370
    50
100
AcDbCircle
 10
239.259039
 20
191.306181
 30
0.0
 40
0.3
100
AcDbArc
 50
270.0
 51
360.0
  0
LINE
  5
43E
100
AcDbEntity
  8
1
370
    50
100
AcDbLine
 10
233.559039
 20
190.706181
 30
0.0
 11
233.559039
 21
184.106181
 31
0.0
  0
ARC
  5
43F
100
AcDbEntity
  8
1
370
    50
100
AcDbCircle
 10
233.859039
 20
190.706181
 30
0.0
 40
0.3
100
AcDbArc
 50
90.0
 51
180.0
  0
LINE
  5
440
100
AcDbEntity
  8
1
370
    50
100
AcDbLine
 10
262.359039
 20
154.406181
 30
0.0
 11
229.859039
 21
154.406181
 31
0.0
  0
ARC
  5
441
100
AcDbEntity
  8
1
370
    50
100
AcDbCircle
 10
229.859039
 20
159.406181
 30
0.0
 40
5.0
100
AcDbArc
 50
180.0
 51
270.0
  0
LINE
  5
442
100
AcDbEntity
  8
1
370
    50
100
AcDbLine
 10
255.359039
 20
173.906181
 30
0.0
 11
241.559039
 21
173.906181
 31
0.0
  0
ARC
  5
443
100
AcDbEntity
  8
1
370
    50
100
AcDbCircle
 10
255.359039
 20
175.906181
 30
0.0
 40
2.0
100
AcDbArc
 50
270.0
 51
360.0
  0
LINE
  5
444
100
AcDbEntity
  8
1
370
    50
100
AcDbLine
 10
239.259039
 20
183.806181
 30
0.0
 11
233.859039
 21
183.806181
 31
0.0
  0
ARC
  5
445
100
AcDbEntity
  8
1
370
    50
100
AcDbCircle
 10
241.559039
 20
175.906181
 30
0.0
 40
2.0
100
AcDbArc
 50
180.0
 51
270.0
  0
LINE
  5
446
100
AcDbEntity
  8
1
370
    50
100
AcDbLine
 10
239.559039
 20
177.406181
 30
0.0
 11
239.559039
 21
175.906181
 31
0.0
  0
ARC
  5
447
100
AcDbEntity
  8
1
370
    50
100
AcDbCircle
 10
239.259039
 20
183.506181
 30
0.0
 40
0.3
100
AcDbArc
 50
0.0
 51
90.0
  0
ARC
  5
448
100
AcDbEntity
  8
1
370
    50
100
AcDbCircle
 10
233.859039
 20
184.106181
 30
0.0
 40
0.3
100
AcDbArc
 50
180.0
 51
270.0
  0
LINE
  5
449
100
AcDbEntity
  8
1
370
    50
100
AcDbLine
 10
314.157732
 20
154.40618
 30
0.0
 11
315.157732
 21
154.40618
 31
0.0
  0
ARC
  5
44A
100
AcDbEntity
  8
1
370
    50
100
AcDbCircle
 10
309.907732
 20
159.40618
 30
0.0
 40
7.25
100
AcDbArc
 50
316.397181
 51
318.707567
  0
LINE
  5
44B
100
AcDbEntity
  8
1
370
    50
100
AcDbLine
 10
315.157732
 20
154.40618
 30
0.0
 11
315.157732
 21
154.632227
 31
0.0
  0
LINE
  5
44C
100
AcDbEntity
  8
1
370
    50
100
AcDbLine
 10
314.157732
 20
154.40618
 30
0.0
 11
314.157732
 21
220.40618
 31
0.0
  0
LINE
  5
44D
100
AcDbEntity
  8
1
370
    25
  6
CENTER
100
AcDbLine
 10
249.859039
 20
225.353597
 30
0.0
 11
249.859039
 21
152.072301
 31
0.0
  0
LINE
  5
44E
100
AcDbEntity
  8
1
370
    50
100
AcDbLine
 10
227.731832
 20
112.883154
 30
0.0
 11
262.359039
 21
112.883154
 31
0.0
  0
LINE
  5
44F
100
AcDbEntity
  8
1
370
    50
100
AcDbLine
 10
262.359039
 20
111.883154
 30
0.0
 11
262.359039
 21
112.883154
 31
0.0
  0
LINE
  5
450
100
AcDbEntity
  8
1
370
    50
100
AcDbLine
 10
224.917618
 20
110.607418
 30
0.0
 11
226.812593
 21
112.502392
 31
0.0
  0
LINE
  5
451
100
AcDbEntity
  8
1
370
    50
100
AcDbLine
 10
225.695435
 20
109.971022
 30
0.0
 11
227.519699
 21
111.795286
 31
0.0
  0
LINE
  5
452
100
AcDbEntity
  8
1
370
    50
100
AcDbLine
 10
225.271171
 20
109.971022
 30
0.0
 11
224.917618
 21
110.324575
 31
0.0
  0
ARC
  5
453
100
AcDbEntity
  8
1
370
    50
100
AcDbCircle
 10
225.483303
 20
110.183154
 30
0.0
 40
0.3
100
AcDbArc
 50
225.0
 51
315.0
  0
ARC
  5
454
100
AcDbEntity
  8
1
370
    50
100
AcDbCircle
 10
225.059039
 20
110.465996
 30
0.0
 40
0.2
100
AcDbArc
 50
135.0
 51
225.0
  0
ARC
  5
455
100
AcDbEntity
  8
1
370
    50
100
AcDbCircle
 10
227.731832
 20
111.583154
 30
0.0
 40
1.3
100
AcDbArc
 50
90.0
 51
135.0
  0
ARC
  5
456
100
AcDbEntity
  8
1
370
    50
100
AcDbCircle
 10
227.731832
 20
111.583154
 30
0.0
 40
0.3
100
AcDbArc
 50
90.0
 51
135.0
  0
LINE
  5
457
100
AcDbEntity
  8
1
370
    50
100
AcDbLine
 10
262.359039
 20
111.883154
 30
0.0
 11
227.731832
 21
111.883154
 31
0.0
  0
LINE
  5
458
100
AcDbEntity
  8
1
370
    50
100
AcDbLine
 10
317.157732
 20
167.366448
 30
0.0
 11
317.157732
 21
172.309672
 31
0.0
  0
LINE
  5
459
100
AcDbEntity
  8
1
370
    50
100
AcDbLine
 10
314.157732
 20
220.40618
 30
0.0
 11
315.157732
 21
220.40618
 31
0.0
  0
ARC
  5
45A
100
AcDbEntity
  8
1
370
    50
100
AcDbCircle
 10
309.907732
 20
215.40618
 30
0.0
 40
7.25
100
AcDbArc
 50
41.292433
 51
43.602819
  0
LINE
  5
45B
100
AcDbEntity
  8
1
370
    50
100
AcDbLine
 10
315.157732
 20
220.40618
 30
0.0
 11
315.157732
 21
220.180133
 31
0.0
  0
LINE
  5
45C
100
AcDbEntity
  8
1
370
    50
100
AcDbLine
 10
317.157732
 20
207.445912
 30
0.0
 11
317.157732
 21
202.502688
 31
0.0
  0
CIRCLE
  5
45D
100
AcDbEntity
  8
1
370
    50
100
AcDbCircle
 10
249.859039
 20
212.406181
 30
0.0
 40
3.5
  0
ARC
  5
45E
100
AcDbEntity
  8
1
370
    25
100
AcDbCircle
 10
252.009039
 20
214.556181
 30
0.0
 40
1.658571
100
AcDbArc
 50
180.0
 51
270.0
  0
ARC
  5
45F
100
AcDbEntity
  8
1
370
    25
100
AcDbCircle
 10
247.709039
 20
214.556181
 30
0.0
 40
1.658571
100
AcDbArc
 50
270.0
 51
360.0
  0
ARC
  5
460
100
AcDbEntity
  8
1
370
    25
100
AcDbCircle
 10
247.709039
 20
210.256181
 30
0.0
 40
1.658571
100
AcDbArc
 50
0.0
 51
90.0
  0
ARC
  5
461
100
AcDbEntity
  8
1
370
    25
100
AcDbCircle
 10
252.009039
 20
210.256181
 30
0.0
 40
1.658571
100
AcDbArc
 50
90.0
 51
180.0
  0
LINE
  5
462
100
AcDbEntity
  8
1
370
    25
100
AcDbLine
 10
249.859039
 20
210.256181
 30
0.0
 11
250.350468
 21
210.256181
 31
0.0
  0
LINE
  5
463
100
AcDbEntity
  8
1
370
    25
100
AcDbLine
 10
249.859039
 20
210.256181
 30
0.0
 11
249.367611
 21
210.256181
 31
0.0
  0
LINE
  5
464
100
AcDbEntity
  8
1
370
    25
100
AcDbLine
 10
247.709039
 20
211.914753
 30
0.0
 11
247.709039
 21
212.406181
 31
0.0
  0
LINE
  5
465
100
AcDbEntity
  8
1
370
    25
100
AcDbLine
 10
247.709039
 20
212.89761
 30
0.0
 11
247.709039
 21
212.406181
 31
0.0
  0
LINE
  5
466
100
AcDbEntity
  8
1
370
    25
100
AcDbLine
 10
249.859039
 20
214.556181
 30
0.0
 11
249.367611
 21
214.556181
 31
0.0
  0
LINE
  5
467
100
AcDbEntity
  8
1
370
    25
100
AcDbLine
 10
249.859039
 20
214.556181
 30
0.0
 11
250.350468
 21
214.556181
 31
0.0
  0
LINE
  5
468
100
AcDbEntity
  8
1
370
    25
100
AcDbLine
 10
252.009039
 20
212.89761
 30
0.0
 11
252.009039
 21
212.406181
 31
0.0
  0
LINE
  5
469
100
AcDbEntity
  8
1
370
    25
100
AcDbLine
 10
252.009039
 20
211.914753
 30
0.0
 11
252.009039
 21
212.406181
 31
0.0
  0
CIRCLE
  5
46A
100
AcDbEntity
  8
1
370
    50
100
AcDbCircle
 10
249.859039
 20
162.406181
 30
0.0
 40
3.5
  0
ARC
  5
46B
100
AcDbEntity
  8
1
370
    25
100
AcDbCircle
 10
252.009039
 20
164.556181
 30
0.0
 40
1.658571
100
AcDbArc
 50
180.0
 51
270.0
  0
ARC
  5
46C
100
AcDbEntity
  8
1
370
    25
100
AcDbCircle
 10
247.709039
 20
164.556181
 30
0.0
 40
1.658571
100
AcDbArc
 50
270.0
 51
360.0
  0
ARC
  5
46D
100
AcDbEntity
  8
1
370
    25
100
AcDbCircle
 10
247.709039
 20
160.256181
 30
0.0
 40
1.658571
100
AcDbArc
 50
0.0
 51
90.0
  0
ARC
  5
46E
100
AcDbEntity
  8
1
370
    25
100
AcDbCircle
 10
252.009039
 20
160.256181
 30
0.0
 40
1.658571
100
AcDbArc
 50
90.0
 51
180.0
  0
LINE
  5
46F
100
AcDbEntity
  8
1
370
    25
100
AcDbLine
 10
249.859039
 20
160.256181
 30
0.0
 11
250.350468
 21
160.256181
 31
0.0
  0
LINE
  5
470
100
AcDbEntity
  8
1
370
    25
100
AcDbLine
 10
249.859039
 20
160.256181
 30
0.0
 11
249.367611
 21
160.256181
 31
0.0
  0
LINE
  5
471
100
AcDbEntity
  8
1
370
    25
100
AcDbLine
 10
247.709039
 20
161.914753
 30
0.0
 11
247.709039
 21
162.406181
 31
0.0
  0
LINE
  5
472
100
AcDbEntity
  8
1
370
    25
100
AcDbLine
 10
247.709039
 20
162.89761
 30
0.0
 11
247.709039
 21
162.406181
 31
0.0
  0
LINE
  5
473
100
AcDbEntity
  8
1
370
    25
100
AcDbLine
 10
249.859039
 20
164.556181
 30
0.0
 11
249.367611
 21
164.556181
 31
0.0
  0
LINE
  5
474
100
AcDbEntity
  8
1
370
    25
100
AcDbLine
 10
249.859039
 20
164.556181
 30
0.0
 11
250.350468
 21
164.556181
 31
0.0
  0
LINE
  5
475
100
AcDbEntity
  8
1
370
    25
100
AcDbLine
 10
252.009039
 20
162.89761
 30
0.0
 11
252.009039
 21
162.406181
 31
0.0
  0
LINE
  5
476
100
AcDbEntity
  8
1
370
    25
100
AcDbLine
 10
252.009039
 20
161.914753
 30
0.0
 11
252.009039
 21
162.406181
 31
0.0
  0
LINE
  5
477
100
AcDbEntity
  8
1
370
    25
  6
CENTER
100
AcDbLine
 10
242.834192
 20
162.406181
 30
0.0
 11
256.883886
 21
162.406181
 31
0.0
  0
LINE
  5
478
100
AcDbEntity
  8
1
370
    25
  6
CENTER
100
AcDbLine
 10
256.883886
 20
212.406181
 30
0.0
 11
242.834192
 21
212.406181
 31
0.0
  0
LINE
  5
479
100
AcDbEntity
  8
1
370
    50
100
AcDbLine
 10
321.926643
 20
210.656178
 30
0.0
 11
317.657732
 21
210.656178
 31
0.0
  0
LINE
  5
47A
100
AcDbEntity
  8
1
370
    50
100
AcDbLine
 10
320.988821
 20
214.156178
 30
0.0
 11
317.657732
 21
214.156178
 31
0.0
  0
LINE
  5
47B
100
AcDbEntity
  8
1
370
    50
100
AcDbLine
 10
336.157732
 20
212.406178
 30
0.0
 11
331.492669
 21
213.656178
 31
0.0
  0
LINE
  5
47C
100
AcDbEntity
  8
1
370
    50
100
AcDbLine
 10
336.157732
 20
212.406178
 30
0.0
 11
331.492669
 21
211.156178
 31
0.0
  0
LINE
  5
47D
100
AcDbEntity
  8
1
370
    50
100
AcDbLine
 10
331.492669
 20
211.156178
 30
0.0
 11
321.792669
 21
211.156178
 31
0.0
  0
LINE
  5
47E
100
AcDbEntity
  8
1
370
    50
100
AcDbLine
 10
331.492669
 20
213.656178
 30
0.0
 11
321.122796
 21
213.656178
 31
0.0
  0
LINE
  5
47F
100
AcDbEntity
  8
1
370
    50
100
AcDbLine
 10
321.926643
 20
210.656178
 30
0.0
 11
320.988821
 21
214.156178
 31
0.0
  0
LINE
  5
480
100
AcDbEntity
  8
1
370
    25
100
AcDbLine
 10
323.326643
 20
210.656178
 30
0.0
 11
322.388821
 21
214.156178
 31
0.0
  0
LINE
  5
481
100
AcDbEntity
  8
1
370
    25
100
AcDbLine
 10
324.726643
 20
210.656178
 30
0.0
 11
323.788821
 21
214.156178
 31
0.0
  0
LINE
  5
482
100
AcDbEntity
  8
1
370
    25
100
AcDbLine
 10
326.126643
 20
210.656178
 30
0.0
 11
325.188821
 21
214.156178
 31
0.0
  0
LINE
  5
483
100
AcDbEntity
  8
1
370
    25
100
AcDbLine
 10
327.526643
 20
210.656178
 30
0.0
 11
326.588821
 21
214.156178
 31
0.0
  0
LINE
  5
484
100
AcDbEntity
  8
1
370
    25
100
AcDbLine
 10
328.926643
 20
210.656178
 30
0.0
 11
327.988821
 21
214.156178
 31
0.0
  0
LINE
  5
485
100
AcDbEntity
  8
1
370
    25
100
AcDbLine
 10
330.326643
 20
210.656178
 30
0.0
 11
329.388821
 21
214.156178
 31
0.0
  0
LINE
  5
486
100
AcDbEntity
  8
1
370
    25
100
AcDbLine
 10
331.715379
 20
210.698215
 30
0.0
 11
330.788821
 21
214.156178
 31
0.0
  0
LINE
  5
487
100
AcDbEntity
  8
1
370
    25
100
AcDbLine
 10
333.021597
 20
211.048215
 30
0.0
 11
332.237577
 21
213.974218
 31
0.0
  0
LINE
  5
488
100
AcDbEntity
  8
1
370
    25
100
AcDbLine
 10
334.327815
 20
211.398215
 30
0.0
 11
333.745867
 21
213.570073
 31
0.0
  0
LINE
  5
489
100
AcDbEntity
  8
1
370
    50
100
AcDbLine
 10
321.926643
 20
160.656182
 30
0.0
 11
317.657732
 21
160.656182
 31
0.0
  0
LINE
  5
48A
100
AcDbEntity
  8
1
370
    50
100
AcDbLine
 10
320.988821
 20
164.156182
 30
0.0
 11
317.657732
 21
164.156182
 31
0.0
  0
LINE
  5
48B
100
AcDbEntity
  8
1
370
    50
100
AcDbLine
 10
336.157732
 20
162.406182
 30
0.0
 11
331.492669
 21
163.656182
 31
0.0
  0
LINE
  5
48C
100
AcDbEntity
  8
1
370
    50
100
AcDbLine
 10
336.157732
 20
162.406182
 30
0.0
 11
331.492669
 21
161.156182
 31
0.0
  0
LINE
  5
48D
100
AcDbEntity
  8
1
370
    50
100
AcDbLine
 10
331.492669
 20
161.156182
 30
0.0
 11
321.792669
 21
161.156182
 31
0.0
  0
LINE
  5
48E
100
AcDbEntity
  8
1
370
    50
100
AcDbLine
 10
331.492669
 20
163.656182
 30
0.0
 11
321.122796
 21
163.656182
 31
0.0
  0
LINE
  5
48F
100
AcDbEntity
  8
1
370
    50
100
AcDbLine
 10
321.926643
 20
160.656182
 30
0.0
 11
320.988821
 21
164.156182
 31
0.0
  0
LINE
  5
490
100
AcDbEntity
  8
1
370
    25
100
AcDbLine
 10
323.326643
 20
160.656182
 30
0.0
 11
322.388821
 21
164.156182
 31
0.0
  0
LINE
  5
491
100
AcDbEntity
  8
1
370
    25
100
AcDbLine
 10
324.726643
 20
160.656182
 30
0.0
 11
323.788821
 21
164.156182
 31
0.0
  0
LINE
  5
492
100
AcDbEntity
  8
1
370
    25
100
AcDbLine
 10
326.126643
 20
160.656182
 30
0.0
 11
325.188821
 21
164.156182
 31
0.0
  0
LINE
  5
493
100
AcDbEntity
  8
1
370
    25
100
AcDbLine
 10
327.526643
 20
160.656182
 30
0.0
 11
326.588821
 21
164.156182
 31
0.0
  0
LINE
  5
494
100
AcDbEntity
  8
1
370
    25
100
AcDbLine
 10
328.926643
 20
160.656182
 30
0.0
 11
327.988821
 21
164.156182
 31
0.0
  0
LINE
  5
495
100
AcDbEntity
  8
1
370
    25
100
AcDbLine
 10
330.326643
 20
160.656182
 30
0.0
 11
329.388821
 21
164.156182
 31
0.0
  0
LINE
  5
496
100
AcDbEntity
  8
1
370
    25
100
AcDbLine
 10
331.715379
 20
160.698219
 30
0.0
 11
330.788821
 21
164.156182
 31
0.0
  0
LINE
  5
497
100
AcDbEntity
  8
1
370
    25
100
AcDbLine
 10
333.021597
 20
161.048219
 30
0.0
 11
332.237577
 21
163.974222
 31
0.0
  0
LINE
  5
498
100
AcDbEntity
  8
1
370
    25
100
AcDbLine
 10
334.327815
 20
161.398219
 30
0.0
 11
333.745867
 21
163.570077
 31
0.0
  0
LINE
  5
499
100
AcDbEntity
  8
1
370
    50
100
AcDbLine
 10
248.109039
 20
105.114242
 30
0.0
 11
248.109039
 21
109.383154
 31
0.0
  0
LINE
  5
49A
100
AcDbEntity
  8
1
370
    50
100
AcDbLine
 10
251.609039
 20
106.052065
 30
0.0
 11
251.609039
 21
109.383154
 31
0.0
  0
LINE
  5
49B
100
AcDbEntity
  8
1
370
    50
100
AcDbLine
 10
249.859039
 20
90.883154
 30
0.0
 11
251.109039
 21
95.548217
 31
0.0
  0
LINE
  5
49C
100
AcDbEntity
  8
1
370
    50
100
AcDbLine
 10
249.859039
 20
90.883154
 30
0.0
 11
248.609039
 21
95.548217
 31
0.0
  0
LINE
  5
49D
100
AcDbEntity
  8
1
370
    50
100
AcDbLine
 10
248.609039
 20
95.548217
 30
0.0
 11
248.609039
 21
105.248217
 31
0.0
  0
LINE
  5
49E
100
AcDbEntity
  8
1
370
    50
100
AcDbLine
 10
251.109039
 20
95.548217
 30
0.0
 11
251.109039
 21
105.91809
 31
0.0
  0
LINE
  5
49F
100
AcDbEntity
  8
1
370
    50
100
AcDbLine
 10
248.109039
 20
105.114242
 30
0.0
 11
251.609039
 21
106.052065
 31
0.0
  0
LINE
  5
4A0
100
AcDbEntity
  8
1
370
    25
100
AcDbLine
 10
248.109039
 20
103.714242
 30
0.0
 11
251.609039
 21
104.652065
 31
0.0
  0
LINE
  5
4A1
100
AcDbEntity
  8
1
370
    25
100
AcDbLine
 10
248.109039
 20
102.314242
 30
0.0
 11
251.609039
 21
103.252065
 31
0.0
  0
LINE
  5
4A2
100
AcDbEntity
  8
1
370
    25
100
AcDbLine
 10
248.109039
 20
100.914242
 30
0.0
 11
251.609039
 21
101.852065
 31
0.0
  0
LINE
  5
4A3
100
AcDbEntity
  8
1
370
    25
100
AcDbLine
 10
248.109039
 20
99.514242
 30
0.0
 11
251.609039
 21
100.452065
 31
0.0
  0
LINE
  5
4A4
100
AcDbEntity
  8
1
370
    25
100
AcDbLine
 10
248.109039
 20
98.114242
 30
0.0
 11
251.609039
 21
99.052065
 31
0.0
  0
LINE
  5
4A5
100
AcDbEntity
  8
1
370
    25
100
AcDbLine
 10
248.109039
 20
96.714242
 30
0.0
 11
251.609039
 21
97.652065
 31
0.0
  0
LINE
  5
4A6
100
AcDbEntity
  8
1
370
    25
100
AcDbLine
 10
248.151076
 20
95.325506
 30
0.0
 11
251.609039
 21
96.252065
 31
0.0
  0
LINE
  5
4A7
100
AcDbEntity
  8
1
370
    25
100
AcDbLine
 10
248.501076
 20
94.019288
 30
0.0
 11
251.42708
 21
94.803309
 31
0.0
  0
LINE
  5
4A8
100
AcDbEntity
  8
1
370
    25
100
AcDbLine
 10
248.851076
 20
92.713071
 30
0.0
 11
251.022935
 21
93.295018
 31
0.0
  0
LINE
  5
4A9
100
AcDbEntity
  8
1
370
    25
  6
CENTER
100
AcDbLine
 10
221.461975
 20
187.406187
 30
0.0
 11
264.853851
 21
187.406187
 31
0.0
  0
LINE
  5
4AA
100
AcDbEntity
  8
1
370
    25
  6
CENTER
100
AcDbLine
 10
310.693451
 20
187.406188
 30
0.0
 11
328.050171
 21
187.406188
 31
0.0
  0
LINE
  5
4AB
100
AcDbEntity
  8
1
370
    25
  6
CENTER
100
AcDbLine
 10
249.859039
 20
114.152182
 30
0.0
 11
249.859039
 21
89.847128
 31
0.0
  0
LINE
  5
4AC
100
AcDbEntity
  8
1
370
    25
  6
CENTER
100
AcDbLine
 10
312.013774
 20
212.406176
 30
0.0
 11
337.35498
 21
212.406176
 31
0.0
  0
LINE
  5
4AD
100
AcDbEntity
  8
1
370
    25
  6
CENTER
100
AcDbLine
 10
312.013774
 20
162.406199
 30
0.0
 11
337.35498
 21
162.406199
 31
0.0
  0
LINE
  5
4AE
100
AcDbEntity
  8
1
370
    25
100
AcDbLine
 10
-64.061
 20
5.75
 30
0.0
 11
-61.811
 21
5.75
 31
0.0
  0
ARC
  5
4AF
100
AcDbEntity
  8
1
370
    25
100
AcDbCircle
 10
-56.698709
 20
6.9
 30
0.0
 40
1.85
100
AcDbArc
 50
53.516263
 51
90.0
  0
LINE
  5
4B0
100
AcDbEntity
  8
1
370
    25
100
AcDbLine
 10
-56.698709
 20
8.75
 30
0.0
 11
-57.082476
 21
8.75
 31
0.0
  0
ARC
  5
4B1
100
AcDbEntity
  8
1
370
    25
100
AcDbCircle
 10
-57.082476
 20
8.033768
 30
0.0
 40
0.716232
100
AcDbArc
 50
90.0
 51
261.246106
  0
ARC
  5
4B2
100
AcDbEntity
  8
1
370
    25
100
AcDbCircle
 10
-56.314941
 20
6.466232
 30
0.0
 40
0.716232
100
AcDbArc
 50
270.0
 51
81.246106
  0
LINE
  5
4B3
100
AcDbEntity
  8
1
370
    25
100
AcDbLine
 10
-57.19148
 20
7.325879
 30
0.0
 11
-56.205937
 21
7.174121
 31
0.0
  0
LINE
  5
4B4
100
AcDbEntity
  8
1
370
    25
100
AcDbLine
 10
-56.698709
 20
5.75
 30
0.0
 11
-56.314941
 21
5.75
 31
0.0
  0
ARC
  5
4B5
100
AcDbEntity
  8
1
370
    25
100
AcDbCircle
 10
-56.698709
 20
7.6
 30
0.0
 40
1.85
100
AcDbArc
 50
233.516263
 51
270.0
  0
LINE
  5
4B6
100
AcDbEntity
  8
1
370
    25
100
AcDbLine
 10
-64.061
 20
8.75
 30
0.0
 11
-64.061
 21
5.75
 31
0.0
  0
LINE
  5
4B7
100
AcDbEntity
  8
1
370
    25
100
AcDbLine
 10
-60.0
 20
5.75
 30
0.0
 11
-58.9
 21
8.75
 31
0.0
  0
LINE
  5
4B8
100
AcDbEntity
  8
1
370
    25
100
AcDbLine
 10
-60.0
 20
5.75
 30
0.0
 11
-61.1
 21
8.75
 31
0.0
  0
LINE
  5
4B9
100
AcDbEntity
  8
1
370
    25
100
AcDbLine
 10
-65.65
 20
20.7
 30
0.0
 11
-64.7
 21
20.7
 31
0.0
  0
LINE
  5
4BA
100
AcDbEntity
  8
1
370
    25
100
AcDbLine
 10
-61.562291
 20
19.25
 30
0.0
 11
-61.562291
 21
22.25
 31
0.0
  0
LINE
  5
4BB
100
AcDbEntity
  8
1
370
    25
100
AcDbLine
 10
-58.151291
 20
19.25
 30
0.0
 11
-58.151291
 21
22.25
 31
0.0
  0
LINE
  5
4BC
100
AcDbEntity
  8
1
370
    25
100
AcDbLine
 10
-58.151291
 20
20.8
 30
0.0
 11
-57.001291
 21
20.8
 31
0.0
  0
LINE
  5
4BD
100
AcDbEntity
  8
1
370
    25
100
AcDbLine
 10
-54.95
 20
22.25
 30
0.0
 11
-54.95
 21
19.25
 31
0.0
  0
LINE
  5
4BE
100
AcDbEntity
  8
1
370
    25
100
AcDbLine
 10
-52.85
 20
22.25
 30
0.0
 11
-52.85
 21
19.25
 31
0.0
  0
LINE
  5
4BF
100
AcDbEntity
  8
1
370
    25
100
AcDbLine
 10
-63.223291
 20
22.25
 30
0.0
 11
-63.223291
 21
19.25
 31
0.0
  0
ARC
  5
4C0
100
AcDbEntity
  8
1
370
    25
100
AcDbCircle
 10
-66.0
 20
20.75
 30
0.0
 40
1.5
100
AcDbArc
 50
90.0
 51
270.0
  0
ARC
  5
4C1
100
AcDbEntity
  8
1
370
    25
100
AcDbCircle
 10
-66.0
 20
22.25
 30
0.0
 40
3.0
100
AcDbArc
 50
270.0
 51
295.679289
  0
LINE
  5
4C2
100
AcDbEntity
  8
1
370
    25
100
AcDbLine
 10
-64.7
 20
19.546299
 30
0.0
 11
-64.7
 21
20.7
 31
0.0
  0
LINE
  5
4C3
100
AcDbEntity
  8
1
370
    25
100
AcDbLine
 10
-60.996218
 20
20.958887
 30
0.0
 11
-59.562291
 21
19.25
 31
0.0
  0
LINE
  5
4C4
100
AcDbEntity
  8
1
370
    25
100
AcDbLine
 10
-59.562291
 20
22.25
 30
0.0
 11
-61.562291
 21
20.449192
 31
0.0
  0
LINE
  5
4C5
100
AcDbEntity
  8
1
370
    25
100
AcDbLine
 10
-58.151291
 20
22.25
 30
0.0
 11
-56.151291
 21
22.25
 31
0.0
  0
LINE
  5
4C6
100
AcDbEntity
  8
1
370
    25
100
AcDbLine
 10
-66.0
 20
22.25
 30
0.0
 11
-64.8
 21
22.25
 31
0.0
  0
LINE
  5
4C7
100
AcDbEntity
  8
1
370
    25
100
AcDbLine
 10
-58.151291
 20
19.25
 30
0.0
 11
-56.151291
 21
19.25
 31
0.0
  0
LINE
  5
4C8
100
AcDbEntity
  8
1
370
    25
100
AcDbLine
 10
-54.95
 20
22.25
 30
0.0
 11
-52.85
 21
19.25
 31
0.0
  0
LINE
  5
4C9
100
AcDbEntity
  8
1
370
    50
100
AcDbLine
 10
166.343937
 20
-44.672892
 30
0.0
 11
299.0374
 21
-43.514893
 31
0.0
  0
LINE
  5
4CA
100
AcDbEntity
  8
1
370
    50
100
AcDbLine
 10
166.195586
 20
-27.673539
 30
0.0
 11
298.889049
 21
-26.515541
 31
0.0
  0
ARC
  5
4CB
100
AcDbEntity
  8
1
370
    50
100
AcDbCircle
 10
215.117159
 20
-35.74693
 30
0.0
 40
50.0
100
AcDbArc
 50
171.199284
 51
189.800716
  0
ARC
  5
4CC
100
AcDbEntity
  8
1
370
    50
100
AcDbCircle
 10
166.339573
 20
-44.172911
 30
0.0
 40
0.5
100
AcDbArc
 50
189.800716
 51
270.5
  0
ARC
  5
4CD
100
AcDbEntity
  8
1
370
    50
100
AcDbCircle
 10
166.199949
 20
-28.17352
 30
0.0
 40
0.5
100
AcDbArc
 50
90.5
 51
171.199284
  0
LINE
  5
4CE
100
AcDbEntity
  8
1
370
    50
100
AcDbLine
 10
165.916282
 20
-44.135111
 30
0.0
 11
165.775654
 21
-28.020726
 31
0.0
  0
ARC
  5
4CF
100
AcDbEntity
  8
1
370
    50
100
AcDbCircle
 10
250.115826
 20
-35.441502
 30
0.0
 40
50.0
100
AcDbArc
 50
351.199284
 51
9.800716
  0
LINE
  5
4D0
100
AcDbEntity
  8
1
370
    50
100
AcDbLine
 10
299.460329
 20
-43.511202
 30
0.0
 11
299.311978
 21
-26.51185
 31
0.0
  0
ARC
  5
4D1
100
AcDbEntity
  8
1
370
    50
100
AcDbCircle
 10
299.033037
 20
-43.014912
 30
0.0
 40
0.5
100
AcDbArc
 50
270.5
 51
351.199284
  0
ARC
  5
4D2
100
AcDbEntity
  8
1
370
    50
100
AcDbCircle
 10
298.893412
 20
-27.015522
 30
0.0
 40
0.5
100
AcDbArc
 50
9.800716
 51
90.5
  0
ARC
  5
4D3
100
AcDbEntity
  8
1
370
    50
100
AcDbCircle
 10
186.118263
 20
-36.0
 30
0.0
 40
11.5
100
AcDbArc
 50
228.157395
 51
312.842605
  0
ARC
  5
4D4
100
AcDbEntity
  8
1
370
    50
100
AcDbCircle
 10
186.118263
 20
-36.0
 30
0.0
 40
11.5
100
AcDbArc
 50
48.157395
 51
132.842605
  0
LINE
  5
4D5
100
AcDbEntity
  8
1
370
    50
100
AcDbLine
 10
-206.343937
 20
-44.672892
 30
0.0
 11
-339.0374
 21
-43.514893
 31
0.0
  0
LINE
  5
4D6
100
AcDbEntity
  8
1
370
    50
100
AcDbLine
 10
-206.195586
 20
-27.673539
 30
0.0
 11
-338.889049
 21
-26.515541
 31
0.0
  0
ARC
  5
4D7
100
AcDbEntity
  8
1
370
    50
100
AcDbCircle
 10
-255.117159
 20
-35.74693
 30
0.0
 40
50.0
100
AcDbArc
 50
350.199284
 51
8.800716
  0
ARC
  5
4D8
100
AcDbEntity
  8
1
370
    50
100
AcDbCircle
 10
-206.339573
 20
-44.172911
 30
0.0
 40
0.5
100
AcDbArc
 50
269.5
 51
350.199284
  0
ARC
  5
4D9
100
AcDbEntity
  8
1
370
    50
100
AcDbCircle
 10
-206.199949
 20
-28.17352
 30
0.0
 40
0.5
100
AcDbArc
 50
8.800716
 51
89.5
  0
LINE
  5
4DA
100
AcDbEntity
  8
1
370
    50
100
AcDbLine
 10
-205.916282
 20
-44.135111
 30
0.0
 11
-205.775654
 21
-28.020726
 31
0.0
  0
ARC
  5
4DB
100
AcDbEntity
  8
1
370
    50
100
AcDbCircle
 10
-290.115826
 20
-35.441502
 30
0.0
 40
50.0
100
AcDbArc
 50
170.199284
 51
188.800716
  0
LINE
  5
4DC
100
AcDbEntity
  8
1
370
    50
100
AcDbLine
 10
-339.460329
 20
-43.511202
 30
0.0
 11
-339.311978
 21
-26.51185
 31
0.0
  0
ARC
  5
4DD
100
AcDbEntity
  8
1
370
    50
100
AcDbCircle
 10
-339.033037
 20
-43.014912
 30
0.0
 40
0.5
100
AcDbArc
 50
188.800716
 51
269.5
  0
ARC
  5
4DE
100
AcDbEntity
  8
1
370
    50
100
AcDbCircle
 10
-338.893412
 20
-27.015522
 30
0.0
 40
0.5
100
AcDbArc
 50
89.5
 51
170.199284
  0
ARC
  5
4DF
100
AcDbEntity
  8
1
370
    50
100
AcDbCircle
 10
-226.118263
 20
-36.0
 30
0.0
 40
11.5
100
AcDbArc
 50
227.157395
 51
311.842605
  0
ARC
  5
4E0
100
AcDbEntity
  8
1
370
    50
100
AcDbCircle
 10
-226.118263
 20
-36.0
 30
0.0
 40
11.5
100
AcDbArc
 50
47.157395
 51
131.842605
  0
LINE
  5
4E1
100
AcDbEntity
  8
1
370
    50
100
AcDbLine
 10
10.0
 20
-44.5
 30
0.0
 11
-24.2
 21
-44.5
 31
0.0
  0
LINE
  5
4E2
100
AcDbEntity
  8
1
370
    50
100
AcDbLine
 10
10.0
 20
-27.5
 30
0.0
 11
-24.2
 21
-27.5
 31
0.0
  0
CIRCLE
  5
4E3
100
AcDbEntity
  8
1
370
    50
100
AcDbCircle
 10
10.0
 20
-36.0
 30
0.0
 40
8.5
  0
LINE
  5
4E4
100
AcDbEntity
  8
1
370
    50
100
AcDbLine
 10
-29.5
 20
-47.0
 30
0.0
 11
-29.5
 21
-25.0
 31
0.0
  0
LINE
  5
4E5
100
AcDbEntity
  8
1
370
    50
100
AcDbLine
 10
-24.8
 20
-47.5
 30
0.0
 11
-29.0
 21
-47.5
 31
0.0
  0
LINE
  5
4E6
100
AcDbEntity
  8
1
370
    50
100
AcDbLine
 10
-24.8
 20
-24.5
 30
0.0
 11
-29.0
 21
-24.5
 31
0.0
  0
ARC
  5
4E7
100
AcDbEntity
  8
1
370
    50
100
AcDbCircle
 10
-29.0
 20
-47.0
 30
0.0
 40
0.5
100
AcDbArc
 50
180.0
 51
270.0
  0
ARC
  5
4E8
100
AcDbEntity
  8
1
370
    50
100
AcDbCircle
 10
-29.0
 20
-25.0
 30
0.0
 40
0.5
100
AcDbArc
 50
90.0
 51
180.0
  0
LINE
  5
4E9
100
AcDbEntity
  8
1
370
    50
100
AcDbLine
 10
-24.5
 20
-24.8
 30
0.0
 11
-24.5
 21
-27.2
 31
0.0
  0
LINE
  5
4EA
100
AcDbEntity
  8
1
370
    50
100
AcDbLine
 10
-24.5
 20
-44.8
 30
0.0
 11
-24.5
 21
-47.2
 31
0.0
  0
ARC
  5
4EB
100
AcDbEntity
  8
1
370
    50
100
AcDbCircle
 10
-24.2
 20
-44.8
 30
0.0
 40
0.3
100
AcDbArc
 50
90.0
 51
180.0
  0
ARC
  5
4EC
100
AcDbEntity
  8
1
370
    50
100
AcDbCircle
 10
-24.8
 20
-47.2
 30
0.0
 40
0.3
100
AcDbArc
 50
270.0
 51
360.0
  0
ARC
  5
4ED
100
AcDbEntity
  8
1
370
    50
100
AcDbCircle
 10
-24.8
 20
-24.8
 30
0.0
 40
0.3
100
AcDbArc
 50
0.0
 51
90.0
  0
ARC
  5
4EE
100
AcDbEntity
  8
1
370
    50
100
AcDbCircle
 10
-24.2
 20
-27.2
 30
0.0
 40
0.3
100
AcDbArc
 50
180.0
 51
270.0
  0
LINE
  5
4EF
100
AcDbEntity
  8
1
370
    50
100
AcDbLine
 10
-130.0
 20
-44.5
 30
0.0
 11
-95.8
 21
-44.5
 31
0.0
  0
LINE
  5
4F0
100
AcDbEntity
  8
1
370
    50
100
AcDbLine
 10
-130.0
 20
-27.5
 30
0.0
 11
-95.8
 21
-27.5
 31
0.0
  0
CIRCLE
  5
4F1
100
AcDbEntity
  8
1
370
    50
100
AcDbCircle
 10
-130.0
 20
-36.0
 30
0.0
 40
8.5
  0
LINE
  5
4F2
100
AcDbEntity
  8
1
370
    50
100
AcDbLine
 10
-90.5
 20
-47.0
 30
0.0
 11
-90.5
 21
-25.0
 31
0.0
  0
LINE
  5
4F3
100
AcDbEntity
  8
1
370
    50
100
AcDbLine
 10
-95.2
 20
-47.5
 30
0.0
 11
-91.0
 21
-47.5
 31
0.0
  0
LINE
  5
4F4
100
AcDbEntity
  8
1
370
    50
100
AcDbLine
 10
-95.2
 20
-24.5
 30
0.0
 11
-91.0
 21
-24.5
 31
0.0
  0
ARC
  5
4F5
100
AcDbEntity
  8
1
370
    50
100
AcDbCircle
 10
-91.0
 20
-47.0
 30
0.0
 40
0.5
100
AcDbArc
 50
270.0
 51
360.0
  0
ARC
  5
4F6
100
AcDbEntity
  8
1
370
    50
100
AcDbCircle
 10
-91.0
 20
-25.0
 30
0.0
 40
0.5
100
AcDbArc
 50
0.0
 51
90.0
  0
LINE
  5
4F7
100
AcDbEntity
  8
1
370
    50
100
AcDbLine
 10
-95.5
 20
-24.8
 30
0.0
 11
-95.5
 21
-27.2
 31
0.0
  0
LINE
  5
4F8
100
AcDbEntity
  8
1
370
    50
100
AcDbLine
 10
-95.5
 20
-44.8
 30
0.0
 11
-95.5
 21
-47.2
 31
0.0
  0
ARC
  5
4F9
100
AcDbEntity
  8
1
370
    50
100
AcDbCircle
 10
-95.8
 20
-44.8
 30
0.0
 40
0.3
100
AcDbArc
 50
360.0
 51
90.0
  0
ARC
  5
4FA
100
AcDbEntity
  8
1
370
    50
100
AcDbCircle
 10
-95.2
 20
-47.2
 30
0.0
 40
0.3
100
AcDbArc
 50
180.0
 51
270.0
  0
ARC
  5
4FB
100
AcDbEntity
  8
1
370
    50
100
AcDbCircle
 10
-95.2
 20
-24.8
 30
0.0
 40
0.3
100
AcDbArc
 50
90.0
 51
180.0
  0
ARC
  5
4FC
100
AcDbEntity
  8
1
370
    50
100
AcDbCircle
 10
-95.8
 20
-27.2
 30
0.0
 40
0.3
100
AcDbArc
 50
270.0
 51
0.0
  0
LINE
  5
4FD
100
AcDbEntity
  8
1
370
    50
100
AcDbLine
 10
18.5
 20
128.300143
 30
0.0
 11
18.5
 21
260.998659
 31
0.0
  0
ARC
  5
4FE
100
AcDbEntity
  8
1
370
    50
100
AcDbCircle
 10
10.0
 20
177.149401
 30
0.0
 40
50.0
100
AcDbArc
 50
260.699284
 51
279.300716
  0
ARC
  5
4FF
100
AcDbEntity
  8
1
370
    50
100
AcDbCircle
 10
2.0
 20
128.300143
 30
0.0
 40
0.5
100
AcDbArc
 50
180.0
 51
260.699284
  0
ARC
  5
500
100
AcDbEntity
  8
1
370
    50
100
AcDbCircle
 10
18.0
 20
128.300143
 30
0.0
 40
0.5
100
AcDbArc
 50
279.300716
 51
360.0
  0
LINE
  5
501
100
AcDbEntity
  8
1
370
    18
100
AcDbLine
 10
1.919192
 20
127.877198
 30
0.0
 11
18.15649
 21
127.877198
 31
0.0
  0
ARC
  5
502
100
AcDbEntity
  8
1
370
    50
100
AcDbCircle
 10
10.0
 20
212.149401
 30
0.0
 40
50.0
100
AcDbArc
 50
80.699284
 51
99.300716
  0
LINE
  5
503
100
AcDbEntity
  8
1
370
    18
100
AcDbLine
 10
1.919192
 20
261.421604
 30
0.0
 11
18.080808
 21
261.421604
 31
0.0
  0
ARC
  5
504
100
AcDbEntity
  8
1
370
    50
100
AcDbCircle
 10
2.0
 20
260.998659
 30
0.0
 40
0.5
100
AcDbArc
 50
99.300716
 51
180.0
  0
ARC
  5
505
100
AcDbEntity
  8
1
370
    50
100
AcDbCircle
 10
18.0
 20
260.998659
 30
0.0
 40
0.5
100
AcDbArc
 50
0.0
 51
80.699284
  0
LINE
  5
506
100
AcDbEntity
  8
1
370
    50
100
AcDbLine
 10
1.0
 20
136.649401
 30
0.0
 11
-23.3
 21
136.649401
 31
0.0
  0
LINE
  5
507
100
AcDbEntity
  8
1
370
    50
100
AcDbLine
 10
1.0
 20
159.649401
 30
0.0
 11
-23.3
 21
159.649401
 31
0.0
  0
LINE
  5
508
100
AcDbEntity
  8
1
370
    18
100
AcDbLine
 10
10.0
 20
155.895367
 30
0.0
 11
-22.368635
 21
155.895367
 31
0.0
  0
LINE
  5
509
100
AcDbEntity
  8
1
370
    18
100
AcDbLine
 10
10.0
 20
140.403434
 30
0.0
 11
-22.368635
 21
140.403434
 31
0.0
  0
LINE
  5
50A
100
AcDbEntity
  8
1
370
    50
100
AcDbLine
 10
1.5
 20
128.300143
 30
0.0
 11
1.5
 21
136.149401
 31
0.0
  0
LINE
  5
50B
100
AcDbEntity
  8
1
370
    50
100
AcDbLine
 10
1.5
 20
160.149401
 30
0.0
 11
1.5
 21
260.998659
 31
0.0
  0
ARC
  5
50C
100
AcDbEntity
  8
1
370
    18
100
AcDbCircle
 10
10.0
 20
167.395367
 30
0.0
 40
11.5
100
AcDbArc
 50
222.342605
 51
270.0
  0
ARC
  5
50D
100
AcDbEntity
  8
1
370
    18
100
AcDbCircle
 10
10.0
 20
128.903434
 30
0.0
 40
11.5
100
AcDbArc
 50
90.0
 51
137.657395
  0
ARC
  5
50E
100
AcDbEntity
  8
1
370
    50
100
AcDbCircle
 10
1.0
 20
160.149401
 30
0.0
 40
0.5
100
AcDbArc
 50
270.0
 51
0.0
  0
ARC
  5
50F
100
AcDbEntity
  8
1
370
    50
100
AcDbCircle
 10
1.0
 20
136.149401
 30
0.0
 40
0.5
100
AcDbArc
 50
360.0
 51
90.0
  0
LINE
  5
510
100
AcDbEntity
  8
1
370
    50
100
AcDbLine
 10
-138.5
 20
128.300143
 30
0.0
 11
-138.5
 21
260.998659
 31
0.0
  0
ARC
  5
511
100
AcDbEntity
  8
1
370
    50
100
AcDbCircle
 10
-130.0
 20
177.149401
 30
0.0
 40
50.0
100
AcDbArc
 50
260.699284
 51
279.300716
  0
ARC
  5
512
100
AcDbEntity
  8
1
370
    50
100
AcDbCircle
 10
-122.0
 20
128.300143
 30
0.0
 40
0.5
100
AcDbArc
 50
279.300716
 51
360.0
  0
ARC
  5
513
100
AcDbEntity
  8
1
370
    50
100
AcDbCircle
 10
-138.0
 20
128.300143
 30
0.0
 40
0.5
100
AcDbArc
 50
180.0
 51
260.699284
  0
LINE
  5
514
100
AcDbEntity
  8
1
370
    18
100
AcDbLine
 10
-121.919192
 20
127.877198
 30
0.0
 11
-138.15649
 21
127.877198
 31
0.0
  0
ARC
  5
515
100
AcDbEntity
  8
1
370
    50
100
AcDbCircle
 10
-130.0
 20
212.149401
 30
0.0
 40
50.0
100
AcDbArc
 50
80.699284
 51
99.300716
  0
LINE
  5
516
100
AcDbEntity
  8
1
370
    18
100
AcDbLine
 10
-121.919192
 20
261.421604
 30
0.0
 11
-138.080808
 21
261.421604
 31
0.0
  0
ARC
  5
517
100
AcDbEntity
  8
1
370
    50
100
AcDbCircle
 10
-122.0
 20
260.998659
 30
0.0
 40
0.5
100
AcDbArc
 50
0.0
 51
80.699284
  0
ARC
  5
518
100
AcDbEntity
  8
1
370
    50
100
AcDbCircle
 10
-138.0
 20
260.998659
 30
0.0
 40
0.5
100
AcDbArc
 50
99.300716
 51
180.0
  0
LINE
  5
519
100
AcDbEntity
  8
1
370
    50
100
AcDbLine
 10
-121.0
 20
136.649401
 30
0.0
 11
-91.0
 21
136.649401
 31
0.0
  0
LINE
  5
51A
100
AcDbEntity
  8
1
370
    50
100
AcDbLine
 10
-121.0
 20
159.649401
 30
0.0
 11
-91.0
 21
159.649401
 31
0.0
  0
LINE
  5
51B
100
AcDbEntity
  8
1
370
    18
100
AcDbLine
 10
-130.0
 20
155.895367
 30
0.0
 11
-95.5
 21
155.895367
 31
0.0
  0
LINE
  5
51C
100
AcDbEntity
  8
1
370
    18
100
AcDbLine
 10
-130.0
 20
140.403434
 30
0.0
 11
-95.5
 21
140.403434
 31
0.0
  0
LINE
  5
51D
100
AcDbEntity
  8
1
370
    50
100
AcDbLine
 10
-121.5
 20
128.300143
 30
0.0
 11
-121.5
 21
136.149401
 31
0.0
  0
LINE
  5
51E
100
AcDbEntity
  8
1
370
    50
100
AcDbLine
 10
-121.5
 20
160.149401
 30
0.0
 11
-121.5
 21
260.998659
 31
0.0
  0
ARC
  5
51F
100
AcDbEntity
  8
1
370
    18
100
AcDbCircle
 10
-130.0
 20
167.395367
 30
0.0
 40
11.5
100
AcDbArc
 50
270.0
 51
317.657395
  0
ARC
  5
520
100
AcDbEntity
  8
1
370
    18
100
AcDbCircle
 10
-130.0
 20
128.903434
 30
0.0
 40
11.5
100
AcDbArc
 50
42.342605
 51
90.0
  0
ARC
  5
521
100
AcDbEntity
  8
1
370
    50
100
AcDbCircle
 10
-121.0
 20
160.149401
 30
0.0
 40
0.5
100
AcDbArc
 50
180.0
 51
270.0
  0
ARC
  5
522
100
AcDbEntity
  8
1
370
    50
100
AcDbCircle
 10
-121.0
 20
136.149401
 30
0.0
 40
0.5
100
AcDbArc
 50
90.0
 51
180.0
  0
ARC
  5
523
100
AcDbEntity
  8
1
370
    50
100
AcDbCircle
 10
-91.0
 20
159.149401
 30
0.0
 40
0.5
100
AcDbArc
 50
0.0
 51
90.0
  0
ARC
  5
524
100
AcDbEntity
  8
1
370
    50
100
AcDbCircle
 10
-91.0
 20
137.149401
 30
0.0
 40
0.5
100
AcDbArc
 50
270.0
 51
360.0
  0
LINE
  5
525
100
AcDbEntity
  8
1
370
    18
100
AcDbLine
 10
-95.5
 20
140.403434
 30
0.0
 11
-95.5
 21
143.856429
 31
0.0
  0
LINE
  5
526
100
AcDbEntity
  8
1
370
    18
100
AcDbLine
 10
-95.5
 20
152.442373
 30
0.0
 11
-95.5
 21
155.895367
 31
0.0
  0
LINE
  5
527
100
AcDbEntity
  8
1
370
    50
100
AcDbLine
 10
-90.5
 20
137.149401
 30
0.0
 11
-90.5
 21
140.149401
 31
0.0
  0
LINE
  5
528
100
AcDbEntity
  8
1
370
    50
100
AcDbLine
 10
-90.5
 20
156.149401
 30
0.0
 11
-90.5
 21
159.149401
 31
0.0
  0
TEXT
  5
529
100
AcDbEntity
  8
2
370
    25
100
AcDbText
 10
-266.950033
 20
174.897651
 30
0.0
 40
2.5
  1
１１１１
 50
270.0
 72
     5
 11
-266.950033
 21
165.397651
 31
0.0
100
AcDbText
  0
LWPOLYLINE
  5
52A
100
AcDbEntity
  8
2
370
    25
100
AcDbPolyline
 90
        2
 70
     0
 10
193.055649
 20
-7.64878
 10
235.122897
 20
-0.006369
  0
LINE
  5
52E
100
AcDbEntity
  8
2
370
    25
100
AcDbLine
 10
192.487597
 20
-7.751979
 30
0.0
 11
192.666342
 21
-8.735874
 31
0.0
  0
LINE
  5
52F
100
AcDbEntity
  8
2
370
    25
100
AcDbLine
 10
192.666342
 20
-8.735874
 30
0.0
 11
194.191753
 21
-7.442382
 31
0.0
  0
LINE
  5
530
100
AcDbEntity
  8
2
370
    25
100
AcDbLine
 10
194.191753
 20
-7.442382
 30
0.0
 11
192.308851
 21
-6.768083
 31
0.0
  0
LINE
  5
531
100
AcDbEntity
  8
2
370
    25
100
AcDbLine
 10
192.308851
 20
-6.768083
 30
0.0
 11
192.487597
 21
-7.751979
 31
0.0
  0
CIRCLE
  5
532
100
AcDbEntity
  8
2
370
    25
100
AcDbCircle
 10
240.043655
 20
0.887591
 30
0.0
 40
5.0
  0
DIMENSION
  5
533
100
AcDbEntity
  8
2
370
    25
100
AcDbDimension
  2
*D0
 10
94.618276
 20
-24.0
 30
0.0
 11
86.118276
 21
-16.5
 31
0.0
 70
     1
 71
     0
 72
     0
 41
0.0
 42
0.0
  3
Standard
100
AcDbAlignedDimension
 13
128.153078
 23
-4.0
 33
0.0
 14
128.153078
 24
-24.0
 34
0.0
 50
90.0
  0
DIMENSION
  5
534
100
AcDbEntity
  8
2
370
    25
100
AcDbDimension
  2
*D1
 10
104.618276
 20
-14.0
 30
0.0
 11
98.618276
 21
-47.0
 31
0.0
 71
     0
 72
     0
 41
0.0
 42
0.0
  3
Standard
100
AcDbAlignedDimension
 13
104.618276
 23
-80.0
 33
0.0
 14
120.983211
 24
-14.0
 34
0.0
 50
90.0
100
AcDbRotatedDimension
  0
DIMENSION
  5
535
100
AcDbEntity
  8
2
370
    25
100
AcDbDimension
  2
*D2
 10
74.618276
 20
50.0
 30
0.0
 11
66.118276
 21
-17.5
 31
0.0
 71
     0
 72
     0
 41
0.0
 42
0.0
  3
Standard
100
AcDbAlignedDimension
 13
135.118263
 23
-80.0
 33
0.0
 14
135.118263
 24
50.0
 34
0.0
 50
90.0
100
AcDbRotatedDimension
  0
DIMENSION
  5
536
100
AcDbEntity
  8
2
370
    25
100
AcDbDimension
  2
*D3
 10
84.618276
 20
42.0
 30
0.0
 11
76.118276
 21
-17.5
 31
0.0
 71
     0
 72
     0
 41
0.0
 42
0.0
  3
Standard
100
AcDbAlignedDimension
 13
129.328007
 23
-72.0
 33
0.0
 14
84.618276
 24
42.0
 34
0.0
 50
90.0
100
AcDbRotatedDimension
  0
DIMENSION
  5
537
100
AcDbEntity
  8
2
370
    25
100
AcDbDimension
  2
*D4
 10
84.618276
 20
50.0
 30
0.0
 11
81.118276
 21
63.0
 31
0.0
 71
     0
 72
     0
 41
0.0
 42
0.0
  3
Standard
100
AcDbAlignedDimension
 13
129.328007
 23
42.0
 33
0.0
 14
84.618276
 24
50.0
 34
0.0
 50
90.0
100
AcDbRotatedDimension
  0
DIMENSION
  5
538
100
AcDbEntity
  8
2
370
    25
100
AcDbDimension
  2
*D5
 10
84.618276
 20
-72.0
 30
0.0
 11
81.118276
 21
-88.0
 31
0.0
 71
     0
 72
     0
 41
0.0
 42
0.0
  3
Standard
100
AcDbAlignedDimension
 13
84.618276
 23
-80.0
 33
0.0
 14
84.618276
 24
-72.0
 34
0.0
 50
90.0
100
AcDbRotatedDimension
  0
DIMENSION
  5
539
100
AcDbEntity
  8
2
370
    25
100
AcDbDimension
  2
*D6
 10
325.0
 20
-36.0
 30
0.0
 11
319.0
 21
-44.0
 31
0.0
 71
     0
 72
     0
 41
0.0
 42
0.0
  3
Standard
100
AcDbAlignedDimension
 13
325.0
 23
-52.0
 33
0.0
 14
325.0
 24
-36.0
 34
0.0
 50
90.0
100
AcDbRotatedDimension
  0
DIMENSION
  5
53A
100
AcDbEntity
  8
2
370
    25
100
AcDbDimension
  2
*D7
 10
325.0
 20
22.0
 30
0.0
 11
319.0
 21
-7.0
 31
0.0
 71
     0
 72
     0
 41
0.0
 42
0.0
  3
Standard
100
AcDbAlignedDimension
 13
215.118263
 23
-36.0
 33
0.0
 14
325.0
 24
22.0
 34
0.0
 50
90.0
100
AcDbRotatedDimension
  0
DIMENSION
  5
53B
100
AcDbEntity
  8
2
370
    25
100
AcDbDimension
  2
*D8
 10
335.0
 20
-52.0
 30
0.0
 11
329.0
 21
-65.95
 31
0.0
 71
     0
 72
     0
 41
0.0
 42
0.0
  3
Standard
100
AcDbAlignedDimension
 13
139.118263
 23
-79.9
 33
0.0
 14
205.118263
 24
-52.0
 34
0.0
 50
90.0
100
AcDbRotatedDimension
  0
DIMENSION
  5
53C
100
AcDbEntity
  8
2
370
    25
100
AcDbDimension
  2
*D9
 10
335.0
 20
22.0
 30
0.0
 11
329.0
 21
-15.0
 31
0.0
 71
     0
 72
     0
 41
0.0
 42
0.0
  3
Standard
100
AcDbAlignedDimension
 13
335.0
 23
-52.0
 33
0.0
 14
205.118263
 24
22.0
 34
0.0
 50
90.0
100
AcDbRotatedDimension
  0
DIMENSION
  5
53D
100
AcDbEntity
  8
2
370
    25
100
AcDbDimension
  2
*D10
 10
135.118263
 20
16.0
 30
0.0
 11
106.618276
 21
19.5
 31
0.0
 71
     0
 72
     0
 41
0.0
 42
0.0
  3
Standard
100
AcDbAlignedDimension
 13
124.618276
 23
-5.448449
 33
0.0
 14
135.118263
 24
16.0
 34
0.0
100
AcDbRotatedDimension
  0
DIMENSION
  5
53E
100
AcDbEntity
  8
2
370
    25
100
AcDbDimension
  2
*D11
 10
-30.0
 20
-74.0
 30
0.0
 11
-17.0
 21
-70.5
 31
0.0
 71
     0
 72
     0
 41
0.0
 42
0.0
  3
Standard
100
AcDbAlignedDimension
 13
-40.0
 23
-74.0
 33
0.0
 14
-30.0
 24
-57.5
 34
0.0
100
AcDbRotatedDimension
  0
DIMENSION
  5
53F
100
AcDbEntity
  8
2
370
    25
100
AcDbDimension
  2
*D12
 10
-90.0
 20
-74.0
 30
0.0
 11
-103.0
 21
-70.5
 31
0.0
 70
     1
 71
     0
 72
     0
 41
0.0
 42
0.0
 51
270.0
  3
Standard
100
AcDbAlignedDimension
 13
-80.0
 23
-74.0
 33
0.0
 14
-90.0
 24
-57.5
 34
0.0
 50
180.0
  0
DIMENSION
  5
540
100
AcDbEntity
  8
2
370
    25
100
AcDbDimension
  2
*D13
 10
-80.0
 20
50.0
 30
0.0
 11
-100.75
 21
53.5
 31
0.0
 71
     0
 72
     0
 41
0.0
 42
0.0
  3
Standard
100
AcDbAlignedDimension
 13
-89.0
 23
37.5
 33
0.0
 14
-80.0
 24
50.0
 34
0.0
100
AcDbRotatedDimension
  0
DIMENSION
  5
541
100
AcDbEntity
  8
2
370
    25
100
AcDbDimension
  2
*D14
 10
-231.872635
 20
180.085451
 30
0.0
 11
-237.872635
 21
164.835451
 31
0.0
 71
     0
 72
     0
 41
0.0
 42
0.0
  3
Standard
100
AcDbAlignedDimension
 13
-261.137973
 23
159.585451
 33
0.0
 14
-261.137973
 24
180.085451
 34
0.0
 50
90.0
100
AcDbRotatedDimension
  0
DIMENSION
  5
542
100
AcDbEntity
  8
2
370
    25
100
AcDbDimension
  2
*D15
 10
-248.887973
 20
189.633026
 30
0.0
 11
-265.129548
 21
193.133026
 31
0.0
 71
     0
 72
     0
 41
0.0
 42
0.0
  3
Standard
100
AcDbAlignedDimension
 13
-271.371123
 23
176.570856
 33
0.0
 14
-248.887973
 24
189.633026
 34
0.0
100
AcDbRotatedDimension
  0
DIMENSION
  5
543
100
AcDbEntity
  8
2
370
    25
100
AcDbDimension
  2
*D16
 10
-248.887973
 20
198.469299
 30
0.0
 11
-278.137973
 21
201.969299
 31
0.0
 71
     0
 72
     0
 41
0.0
 42
0.0
  3
Standard
100
AcDbAlignedDimension
 13
-297.387973
 23
170.735451
 33
0.0
 14
-248.887973
 24
175.904479
 34
0.0
100
AcDbRotatedDimension
  0
DIMENSION
  5
544
100
AcDbEntity
  8
2
370
    25
100
AcDbDimension
  2
*D17
 10
-231.872635
 20
133.061424
 30
0.0
 11
-234.122635
 21
123.061424
 31
0.0
 71
     0
 72
     0
 41
0.0
 42
0.0
  3
Standard
100
AcDbAlignedDimension
 13
-248.887973
 23
131.061424
 33
0.0
 14
-248.887973
 24
133.061424
 34
0.0
 50
90.0
100
AcDbRotatedDimension
  0
DIMENSION
  5
545
100
AcDbEntity
  8
2
370
    25
100
AcDbDimension
  2
*D18
 10
205.118263
 20
50.570023
 30
0.0
 11
186.118263
 21
54.070023
 31
0.0
 71
     0
 72
     0
 41
0.0
 42
0.0
  3
Standard
100
AcDbAlignedDimension
 13
167.118263
 23
19.5
 33
0.0
 14
205.118263
 24
19.5
 34
0.0
100
AcDbRotatedDimension
  0
DIMENSION
  5
546
100
AcDbEntity
  8
2
370
    25
100
AcDbDimension
  2
*D19
 10
315.0
 20
19.5
 30
0.0
 11
304.0
 21
-13.25
 31
0.0
 71
     0
 72
     0
 41
0.0
 42
0.0
  3
Standard
100
AcDbAlignedDimension
 13
315.0
 23
-36.0
 33
0.0
 14
208.118263
 24
19.5
 34
0.0
 50
90.0
100
AcDbRotatedDimension
  0
DIMENSION
  5
547
100
AcDbEntity
  8
2
370
    25
100
AcDbDimension
  2
*D20
 10
305.0
 20
19.5
 30
0.0
 11
296.5
 21
32.5
 31
0.0
 71
     0
 72
     0
 41
0.0
 42
0.0
  3
Standard
100
AcDbAlignedDimension
 13
195.618263
 23
14.0
 33
0.0
 14
305.0
 24
19.5
 34
0.0
 50
90.0
100
AcDbRotatedDimension
  0
DIMENSION
  5
548
100
AcDbEntity
  8
2
370
    25
100
AcDbDimension
  2
*D21
 10
-188.126114
 20
-13.0
 30
0.0
 11
-196.775879
 21
-28.885689
 31
0.0
 71
     0
 72
     0
 41
0.0
 42
0.0
  3
Standard
100
AcDbAlignedDimension
 13
-226.118263
 23
-59.0
 33
0.0
 14
-226.118263
 24
-13.0
 34
0.0
 50
90.0
100
AcDbRotatedDimension
  0
DIMENSION
  5
549
100
AcDbEntity
  8
2
370
    25
100
AcDbDimension
  2
*D22
 10
-258.077789
 20
19.5
 30
0.0
 11
-266.577789
 21
32.5
 31
0.0
 71
     0
 72
     0
 41
0.0
 42
0.0
  3
Standard
100
AcDbAlignedDimension
 13
-235.618263
 23
14.0
 33
0.0
 14
-248.118263
 24
19.5
 34
0.0
 50
90.0
100
AcDbRotatedDimension
  0
CIRCLE
  5
54A
100
AcDbEntity
  8
2
370
    25
100
AcDbCircle
 10
-226.852478
 20
216.72896
 30
0.0
 40
5.0
  0
LWPOLYLINE
  5
54B
100
AcDbEntity
  8
2
370
    25
100
AcDbPolyline
 90
        2
 70
     0
 10
-253.710815
 20
176.494919
 10
-229.628529
 20
212.57041
  0
LINE
  5
54F
100
AcDbEntity
  8
2
370
    25
100
AcDbLine
 10
-254.031366
 20
176.014731
 30
0.0
 11
-253.199656
 21
175.459521
 31
0.0
  0
LINE
  5
550
100
AcDbEntity
  8
2
370
    25
100
AcDbLine
 10
-253.199656
 20
175.459521
 30
0.0
 11
-253.069714
 21
177.455295
 31
0.0
  0
LINE
  5
551
100
AcDbEntity
  8
2
370
    25
100
AcDbLine
 10
-253.069714
 20
177.455295
 30
0.0
 11
-254.863076
 21
176.569941
 31
0.0
  0
LINE
  5
552
100
AcDbEntity
  8
2
370
    25
100
AcDbLine
 10
-254.863076
 20
176.569941
 30
0.0
 11
-254.031366
 21
176.014731
 31
0.0
  0
DIMENSION
  5
553
100
AcDbEntity
  8
2
370
    25
100
AcDbDimension
  2
*D23
 10
-18.703018
 20
163.149401
 30
0.0
 11
-24.703018
 21
176.149401
 31
0.0
 71
     0
 72
     0
 41
0.0
 42
0.0
  3
Standard
100
AcDbAlignedDimension
 13
-40.0
 23
133.149401
 33
0.0
 14
-40.0
 24
163.149401
 34
0.0
 50
90.0
100
AcDbRotatedDimension
  0
DIMENSION
  5
554
100
AcDbEntity
  8
2
370
    25
100
AcDbDimension
  2
*D24
 10
-74.451134
 20
160.149401
 30
0.0
 11
-80.451134
 21
179.149401
 31
0.0
 70
     1
 71
     0
 72
     0
 41
0.0
 42
0.0
 51
270.0
  3
Standard
100
AcDbAlignedDimension
 13
-74.451134
 23
166.149401
 33
0.0
 14
-74.451134
 24
160.149401
 34
0.0
 50
270.0
  0
DIMENSION
  5
555
100
AcDbEntity
  8
2
370
    25
100
AcDbDimension
  2
*D25
 10
-51.8
 20
188.649401
 30
0.0
 11
-60.0
 21
192.149401
 31
0.0
 71
     0
 72
     0
 41
0.0
 42
0.0
  3
Standard
100
AcDbAlignedDimension
 13
-68.2
 23
167.449401
 33
0.0
 14
-51.8
 24
167.449401
 34
0.0
100
AcDbRotatedDimension
  0
LWPOLYLINE
  5
556
100
AcDbEntity
  8
2
370
    25
100
AcDbPolyline
 90
        2
 70
     0
 10
135.708191
 20
31.790421
 10
98.453959
 20
88.276547
  0
LINE
  5
55A
100
AcDbEntity
  8
2
370
    25
100
AcDbLine
 10
136.026062
 20
31.308454
 30
0.0
 11
136.860852
 21
31.859022
 31
0.0
  0
LINE
  5
55B
100
AcDbEntity
  8
2
370
    25
100
AcDbLine
 10
136.860852
 20
31.859022
 30
0.0
 11
135.072449
 21
32.754353
 31
0.0
  0
LINE
  5
55C
100
AcDbEntity
  8
2
370
    25
100
AcDbLine
 10
135.072449
 20
32.754353
 30
0.0
 11
135.191271
 21
30.757886
 31
0.0
  0
LINE
  5
55D
100
AcDbEntity
  8
2
370
    25
100
AcDbLine
 10
135.191271
 20
30.757886
 30
0.0
 11
136.026062
 21
31.308454
 31
0.0
  0
LWPOLYLINE
  5
55E
100
AcDbEntity
  8
2
370
    25
100
AcDbPolyline
 90
        2
 70
     0
 10
147.654162
 20
42.0
 10
159.905328
 20
87.59423
  0
LINE
  5
562
100
AcDbEntity
  8
2
370
    25
100
AcDbLine
 10
147.504342
 20
41.442427
 30
0.0
 11
148.470086
 21
41.182932
 31
0.0
  0
LINE
  5
563
100
AcDbEntity
  8
2
370
    25
100
AcDbLine
 10
148.470086
 20
41.182932
 30
0.0
 11
147.953801
 21
43.115146
 31
0.0
  0
LINE
  5
564
100
AcDbEntity
  8
2
370
    25
100
AcDbLine
 10
147.953801
 20
43.115146
 30
0.0
 11
146.538598
 21
41.701923
 31
0.0
  0
LINE
  5
565
100
AcDbEntity
  8
2
370
    25
100
AcDbLine
 10
146.538598
 20
41.701923
 30
0.0
 11
147.504342
 21
41.442427
 31
0.0
  0
CIRCLE
  5
566
100
AcDbEntity
  8
2
370
    25
100
AcDbCircle
 10
95.710449
 20
92.43635
 30
0.0
 40
5.0
  0
CIRCLE
  5
567
100
AcDbEntity
  8
2
370
    25
100
AcDbCircle
 10
161.206406
 20
92.43635
 30
0.0
 40
5.0
  0
DIMENSION
  5
568
100
AcDbEntity
  8
2
370
    25
100
AcDbDimension
  2
*D26
 10
139.118263
 20
74.207794
 30
0.0
 11
124.618263
 21
77.707794
 31
0.0
 71
     0
 72
     0
 41
0.0
 42
0.0
  3
Standard
100
AcDbAlignedDimension
 13
135.118263
 23
50.0
 33
0.0
 14
139.118263
 24
49.9
 34
0.0
100
AcDbRotatedDimension
  0
TEXT
  5
569
100
AcDbEntity
  8
2
370
    25
100
AcDbText
 10
157.206406
 20
89.93635
 30
0.0
 40
5.0
  1
1
 72
     5
 11
161.206406
 21
89.93635
 31
0.0
100
AcDbText
  0
TEXT
  5
56A
100
AcDbEntity
  8
2
370
    25
100
AcDbText
 10
-229.352478
 20
214.22896
 30
0.0
 40
5.0
  1
６
 72
     5
 11
-225.352478
 21
214.22896
 31
0.0
100
AcDbText
  0
DIMENSION
  5
56B
100
AcDbEntity
  8
2
370
    25
100
AcDbDimension
  2
*D27
 10
115.27916
 20
-14.0
 30
0.0
 11
109.27916
 21
-49.0
 31
0.0
 71
     0
 72
     0
 41
0.0
 42
0.0
  3
Standard
100
AcDbAlignedDimension
 13
157.118263
 23
-36.0
 33
0.0
 14
120.983211
 24
-14.0
 34
0.0
 50
90.0
100
AcDbRotatedDimension
  0
LWPOLYLINE
  5
56C
100
AcDbEntity
  8
2
370
    25
100
AcDbPolyline
 90
        2
 70
     0
 10
-32.814976
 20
-33.63105
 10
-0.326709
 20
-8.920411
  0
LINE
  5
570
100
AcDbEntity
  8
2
370
    25
100
AcDbLine
 10
-33.274507
 20
-33.98057
 30
0.0
 11
-32.66912
 21
-34.776502
 31
0.0
  0
LINE
  5
571
100
AcDbEntity
  8
2
370
    25
100
AcDbLine
 10
-32.66912
 20
-34.776502
 30
0.0
 11
-31.895913
 21
-32.93201
 31
0.0
  0
LINE
  5
572
100
AcDbEntity
  8
2
370
    25
100
AcDbLine
 10
-31.895913
 20
-32.93201
 30
0.0
 11
-33.879894
 21
-33.184639
 31
0.0
  0
LINE
  5
573
100
AcDbEntity
  8
2
370
    25
100
AcDbLine
 10
-33.879894
 20
-33.184639
 30
0.0
 11
-33.274507
 21
-33.98057
 31
0.0
  0
CIRCLE
  5
574
100
AcDbEntity
  8
2
370
    25
100
AcDbCircle
 10
3.653214
 20
-5.893274
 30
0.0
 40
5.0
  0
TEXT
  5
575
100
AcDbEntity
  8
2
370
    25
100
AcDbText
 10
1.153214
 20
-8.393274
 30
0.0
 40
5.0
  1
４
 72
     5
 11
5.153214
 21
-8.393274
 31
0.0
100
AcDbText
  0
DIMENSION
  5
576
100
AcDbEntity
  8
2
370
    25
100
AcDbDimension
  2
*D28
 10
-188.126114
 20
0.5
 30
0.0
 11
-196.775879
 21
21.407314
 31
0.0
 70
     1
 71
     0
 72
     0
 41
0.0
 42
0.0
  3
Standard
100
AcDbAlignedDimension
 13
-226.118263
 23
38.5
 33
0.0
 14
-226.118263
 24
0.5
 34
0.0
 50
90.0
  0
DIMENSION
  5
577
100
AcDbEntity
  8
2
370
    25
100
AcDbDimension
  2
*D29
 10
207.418263
 20
-105.292931
 30
0.0
 11
171.268263
 21
-101.792931
 31
0.0
 71
     0
 72
     0
 41
0.0
 42
0.0
  3
Standard
100
AcDbAlignedDimension
 13
135.118263
 23
-80.0
 33
0.0
 14
207.418263
 24
-45.129654
 34
0.0
100
AcDbRotatedDimension
  0
LWPOLYLINE
  5
578
100
AcDbEntity
  8
2
370
    25
100
AcDbPolyline
 90
        2
 70
     0
 10
-101.452782
 20
-37.597979
 10
-119.1514
 20
-61.337067
  0
LINE
  5
57C
100
AcDbEntity
  8
2
370
    25
100
AcDbLine
 10
-101.107692
 20
-37.135111
 30
0.0
 11
-101.909402
 21
-36.537398
 31
0.0
  0
LINE
  5
57D
100
AcDbEntity
  8
2
370
    25
100
AcDbLine
 10
-101.909402
 20
-36.537398
 30
0.0
 11
-102.142961
 21
-38.523714
 31
0.0
  0
LINE
  5
57E
100
AcDbEntity
  8
2
370
    25
100
AcDbLine
 10
-102.142961
 20
-38.523714
 30
0.0
 11
-100.305982
 21
-37.732824
 31
0.0
  0
LINE
  5
57F
100
AcDbEntity
  8
2
370
    25
100
AcDbLine
 10
-100.305982
 20
-37.732824
 30
0.0
 11
-101.107692
 21
-37.135111
 31
0.0
  0
CIRCLE
  5
580
100
AcDbEntity
  8
2
370
    25
100
AcDbCircle
 10
-122.150645
 20
-65.359943
 30
0.0
 40
5.0
  0
TEXT
  5
581
100
AcDbEntity
  8
2
370
    25
100
AcDbText
 10
-124.650645
 20
-67.859943
 30
0.0
 40
5.0
  1
3
 72
     5
 11
-120.650645
 21
-67.859943
 31
0.0
100
AcDbText
  0
DIMENSION
  5
582
100
AcDbEntity
  8
2
370
    25
100
AcDbDimension
  2
*D30
 10
-50.8
 20
197.492554
 30
0.0
 11
-60.0
 21
200.992554
 31
0.0
 71
     0
 72
     0
 41
0.0
 42
0.0
  3
Standard
100
AcDbAlignedDimension
 13
-69.2
 23
155.799401
 33
0.0
 14
-50.8
 24
155.799401
 34
0.0
100
AcDbRotatedDimension
  0
CIRCLE
  5
583
100
AcDbEntity
  8
2
370
    25
100
AcDbCircle
 10
4.990532
 20
34.106726
 30
0.0
 40
5.0
  0
CIRCLE
  5
584
100
AcDbEntity
  8
2
370
    25
100
AcDbCircle
 10
4.990532
 20
50.106726
 30
0.0
 40
5.0
  0
LWPOLYLINE
  5
585
100
AcDbEntity
  8
2
370
    25
100
AcDbPolyline
 90
        2
 70
     0
 10
-29.110699
 20
22.971375
 10
0.088913
 20
32.50616
  0
LINE
  5
589
100
AcDbEntity
  8
2
370
    25
100
AcDbLine
 10
-29.65953
 20
22.79216
 30
0.0
 11
-29.349122
 21
21.841557
 31
0.0
  0
LINE
  5
58A
100
AcDbEntity
  8
2
370
    25
100
AcDbLine
 10
-29.349122
 20
21.841557
 30
0.0
 11
-28.013036
 21
23.329803
 31
0.0
  0
LINE
  5
58B
100
AcDbEntity
  8
2
370
    25
100
AcDbLine
 10
-28.013036
 20
23.329803
 30
0.0
 11
-29.969938
 21
23.742764
 31
0.0
  0
LINE
  5
58C
100
AcDbEntity
  8
2
370
    25
100
AcDbLine
 10
-29.969938
 20
23.742764
 30
0.0
 11
-29.65953
 21
22.79216
 31
0.0
  0
LWPOLYLINE
  5
58D
100
AcDbEntity
  8
2
370
    25
100
AcDbPolyline
 90
        2
 70
     0
 10
-36.0989
 20
31.087471
 10
0.560507
 20
47.624923
  0
LINE
  5
591
100
AcDbEntity
  8
2
370
    25
100
AcDbLine
 10
-36.625179
 20
30.850061
 30
0.0
 11
-36.213973
 21
29.938519
 31
0.0
  0
LINE
  5
592
100
AcDbEntity
  8
2
370
    25
100
AcDbLine
 10
-36.213973
 20
29.938519
 30
0.0
 11
-35.046342
 21
31.562291
 31
0.0
  0
LINE
  5
593
100
AcDbEntity
  8
2
370
    25
100
AcDbLine
 10
-35.046342
 20
31.562291
 30
0.0
 11
-37.036385
 21
31.761603
 31
0.0
  0
LINE
  5
594
100
AcDbEntity
  8
2
370
    25
100
AcDbLine
 10
-37.036385
 20
31.761603
 30
0.0
 11
-36.625179
 21
30.850061
 31
0.0
  0
TEXT
  5
595
100
AcDbEntity
  8
2
370
    25
100
AcDbText
 10
2.490532
 20
31.606726
 30
0.0
 40
5.0
  1
５
 72
     5
 11
6.490532
 21
31.606726
 31
0.0
100
AcDbText
  0
DIMENSION
  5
596
100
AcDbEntity
  8
2
370
    25
100
AcDbDimension
  2
*D31
 10
-177.591537
 20
14.0
 30
0.0
 11
-183.591537
 21
-11.0
 31
0.0
 71
     0
 72
     0
 41
0.0
 42
0.0
  3
Standard
100
AcDbAlignedDimension
 13
-197.118263
 23
-36.0
 33
0.0
 14
-212.118263
 24
14.0
 34
0.0
 50
90.0
100
AcDbRotatedDimension
  0
DIMENSION
  5
597
100
AcDbEntity
  8
2
370
    25
100
AcDbDimension
  2
*D32
 10
-118.454544
 20
30.0
 30
0.0
 11
-129.454544
 21
12.25
 31
0.0
 71
     0
 72
     0
 41
0.0
 42
0.0
  3
Standard
100
AcDbAlignedDimension
 13
-93.5
 23
4.5
 33
0.0
 14
-93.5
 24
30.0
 34
0.0
 50
90.0
100
AcDbRotatedDimension
  0
DIMENSION
  5
598
100
AcDbEntity
  8
2
370
    25
100
AcDbDimension
  2
*D33
 10
-80.0
 20
60.0
 30
0.0
 11
-93.75
 21
63.5
 31
0.0
 71
     0
 72
     0
 41
0.0
 42
0.0
  3
Standard
100
AcDbAlignedDimension
 13
-107.5
 23
19.0
 33
0.0
 14
-80.0
 24
38.5
 34
0.0
100
AcDbRotatedDimension
  0
DIMENSION
  5
599
100
AcDbEntity
  8
2
370
    25
100
AcDbDimension
  2
*D34
 10
-23.3
 20
50.0
 30
0.0
 11
-31.65
 21
53.5
 31
0.0
 71
     0
 72
     0
 41
0.0
 42
0.0
  3
Standard
100
AcDbAlignedDimension
 13
-40.0
 23
38.5
 33
0.0
 14
-23.3
 24
37.5
 34
0.0
100
AcDbRotatedDimension
  0
DIMENSION
  5
59A
100
AcDbEntity
  8
2
370
    25
100
AcDbDimension
  2
*D35
 10
-22.1
 20
60.0
 30
0.0
 11
-4.1
 21
63.5
 31
0.0
 71
     0
 72
     0
 41
0.0
 42
0.0
  3
Standard
100
AcDbAlignedDimension
 13
-40.0
 23
38.5
 33
0.0
 14
-22.1
 24
14.0
 34
0.0
100
AcDbRotatedDimension
  0
TEXT
  5
59B
100
AcDbEntity
  8
2
370
    25
100
AcDbText
 10
335.843614
 20
255.075667
 30
0.0
 40
5.0
  1
1
 72
     5
 11
339.843614
 21
255.075667
 31
0.0
100
AcDbText
  0
DIMENSION
  5
59C
100
AcDbEntity
  8
2
370
    25
100
AcDbDimension
  2
*D36
 10
278.359039
 20
200.906181
 30
0.0
 11
272.359039
 21
187.406181
 31
0.0
 71
     0
 72
     0
 41
0.0
 42
0.0
  3
Standard
100
AcDbAlignedDimension
 13
255.359039
 23
173.906181
 33
0.0
 14
255.359039
 24
200.906181
 34
0.0
 50
90.0
100
AcDbRotatedDimension
  0
DIMENSION
  5
59D
100
AcDbEntity
  8
2
370
    25
100
AcDbDimension
  2
*D37
 10
286.359039
 20
212.406181
 30
0.0
 11
280.359039
 21
187.406181
 31
0.0
 71
     0
 72
     0
 41
0.0
 42
0.0
  3
Standard
100
AcDbAlignedDimension
 13
256.883886
 23
162.406181
 33
0.0
 14
256.883886
 24
212.406181
 34
0.0
 50
90.0
100
AcDbRotatedDimension
  0
DIMENSION
  5
59E
100
AcDbEntity
  8
2
370
    25
100
AcDbDimension
  2
*D38
 10
294.359039
 20
220.406181
 30
0.0
 11
288.359039
 21
187.406181
 31
0.0
 71
     0
 72
     0
 41
0.0
 42
0.0
  3
Standard
100
AcDbAlignedDimension
 13
262.359039
 23
154.406181
 33
0.0
 14
262.359039
 24
220.406181
 34
0.0
 50
90.0
100
AcDbRotatedDimension
  0
DIMENSION
  5
59F
100
AcDbEntity
  8
2
370
    25
100
AcDbDimension
  2
*D39
 10
345.330943
 20
202.50618
 30
0.0
 11
334.330943
 21
182.40618
 31
0.0
 71
     0
 72
     0
 41
0.0
 42
0.0
  3
Standard
100
AcDbAlignedDimension
 13
317.057732
 23
172.30618
 33
0.0
 14
317.057732
 24
202.50618
 34
0.0
 50
90.0
100
AcDbRotatedDimension
  0
DIMENSION
  5
5A0
100
AcDbEntity
  8
2
370
    25
100
AcDbDimension
  2
*D40
 10
353.330943
 20
220.206301
 30
0.0
 11
342.330943
 21
182.40618
 31
0.0
 71
     0
 72
     0
 41
0.0
 42
0.0
  3
Standard
100
AcDbAlignedDimension
 13
315.657047
 23
154.606059
 33
0.0
 14
315.657047
 24
220.206301
 34
0.0
 50
90.0
100
AcDbRotatedDimension
  0
LWPOLYLINE
  5
5A1
100
AcDbEntity
  8
2
370
    25
100
AcDbPolyline
 90
        2
 70
     0
 10
228.770316
 20
214.26731
 10
209.732652
 20
253.08646
  0
LINE
  5
5A5
100
AcDbEntity
  8
2
370
    25
100
AcDbLine
 10
229.024534
 20
213.748941
 30
0.0
 11
229.922375
 21
214.18926
 31
0.0
  0
LINE
  5
5A6
100
AcDbEntity
  8
2
370
    25
100
AcDbLine
 10
229.922375
 20
214.18926
 30
0.0
 11
228.261879
 21
215.304048
 31
0.0
  0
LINE
  5
5A7
100
AcDbEntity
  8
2
370
    25
100
AcDbLine
 10
228.261879
 20
215.304048
 30
0.0
 11
228.126692
 21
213.308622
 31
0.0
  0
LINE
  5
5A8
100
AcDbEntity
  8
2
370
    25
100
AcDbLine
 10
228.126692
 20
213.308622
 30
0.0
 11
229.024534
 21
213.748941
 31
0.0
  0
LWPOLYLINE
  5
5A9
100
AcDbEntity
  8
2
370
    25
100
AcDbPolyline
 90
        2
 70
     0
 10
321.594412
 20
196.986701
 10
324.749226
 20
252.583697
  0
LINE
  5
5AD
100
AcDbEntity
  8
2
370
    25
100
AcDbLine
 10
321.561704
 20
196.410278
 30
0.0
 11
322.560098
 21
196.353624
 31
0.0
  0
LINE
  5
5AE
100
AcDbEntity
  8
2
370
    25
100
AcDbLine
 10
322.560098
 20
196.353624
 30
0.0
 11
321.65983
 21
198.139547
 31
0.0
  0
LINE
  5
5AF
100
AcDbEntity
  8
2
370
    25
100
AcDbLine
 10
321.65983
 20
198.139547
 30
0.0
 11
320.56331
 21
196.466931
 31
0.0
  0
LINE
  5
5B0
100
AcDbEntity
  8
2
370
    25
100
AcDbLine
 10
320.56331
 20
196.466931
 30
0.0
 11
321.561704
 21
196.410278
 31
0.0
  0
LWPOLYLINE
  5
5B1
100
AcDbEntity
  8
2
370
    25
100
AcDbPolyline
 90
        2
 70
     0
 10
331.02202
 20
213.905699
 10
338.853582
 20
252.674663
  0
LINE
  5
5B5
100
AcDbEntity
  8
2
370
    25
100
AcDbLine
 10
330.907701
 20
213.339779
 30
0.0
 11
331.887901
 21
213.141773
 31
0.0
  0
LINE
  5
5B6
100
AcDbEntity
  8
2
370
    25
100
AcDbLine
 10
331.887901
 20
213.141773
 30
0.0
 11
331.250658
 21
215.037537
 31
0.0
  0
LINE
  5
5B7
100
AcDbEntity
  8
2
370
    25
100
AcDbLine
 10
331.250658
 20
215.037537
 30
0.0
 11
329.9275
 21
213.537786
 31
0.0
  0
LINE
  5
5B8
100
AcDbEntity
  8
2
370
    25
100
AcDbLine
 10
329.9275
 20
213.537786
 30
0.0
 11
330.907701
 21
213.339779
 31
0.0
  0
CIRCLE
  5
5B9
100
AcDbEntity
  8
2
370
    25
100
AcDbCircle
 10
207.531058
 20
257.575667
 30
0.0
 40
5.0
  0
DIMENSION
  5
5BA
100
AcDbEntity
  8
2
370
    25
100
AcDbDimension
  2
*D41
 10
249.859039
 20
248.406181
 30
0.0
 11
260.359039
 21
251.906181
 31
0.0
 71
     0
 72
     0
 41
0.0
 42
0.0
  3
Standard
100
AcDbAlignedDimension
 13
242.859039
 23
198.206181
 33
0.0
 14
249.859039
 24
225.353597
 34
0.0
100
AcDbRotatedDimension
  0
DIMENSION
  5
5BB
100
AcDbEntity
  8
2
370
    25
100
AcDbDimension
  2
*D42
 10
249.859039
 20
138.406181
 30
0.0
 11
237.359039
 21
141.906181
 31
0.0
 71
     0
 72
     0
 41
0.0
 42
0.0
  3
Standard
100
AcDbAlignedDimension
 13
224.859039
 23
138.406181
 33
0.0
 14
249.859039
 24
152.072301
 34
0.0
100
AcDbRotatedDimension
  0
DIMENSION
  5
5BC
100
AcDbEntity
  8
2
370
    25
100
AcDbDimension
  2
*D43
 10
262.359039
 20
138.406181
 30
0.0
 11
280.359039
 21
141.906181
 31
0.0
 71
     0
 72
     0
 41
0.0
 42
0.0
  3
Standard
100
AcDbAlignedDimension
 13
249.859039
 23
138.406181
 33
0.0
 14
262.359039
 24
138.406181
 34
0.0
100
AcDbRotatedDimension
  0
DIMENSION
  5
5BD
100
AcDbEntity
  8
2
370
    25
100
AcDbDimension
  2
*D44
 10
262.359039
 20
128.406181
 30
0.0
 11
243.609039
 21
131.906181
 31
0.0
 71
     0
 72
     0
 41
0.0
 42
0.0
  3
Standard
100
AcDbAlignedDimension
 13
224.859039
 23
159.406181
 33
0.0
 14
262.359039
 24
154.406181
 34
0.0
100
AcDbRotatedDimension
  0
DIMENSION
  5
5BE
100
AcDbEntity
  8
2
370
    25
100
AcDbDimension
  2
*D45
 10
275.624752
 20
112.883154
 30
0.0
 11
272.124752
 21
121.883154
 31
0.0
 71
     0
 72
     0
 41
0.0
 42
0.0
  3
Standard
100
AcDbAlignedDimension
 13
262.359039
 23
111.883154
 33
0.0
 14
275.624752
 24
112.883154
 34
0.0
 50
90.0
100
AcDbRotatedDimension
  0
DIMENSION
  5
5BF
100
AcDbEntity
  8
2
370
    25
100
AcDbDimension
  2
*D46
 10
275.624752
 20
111.883154
 30
0.0
 11
266.939999
 21
92.435422
 31
0.0
 71
     0
 72
     0
 41
0.0
 42
0.0
  3
Standard
100
AcDbAlignedDimension
 13
259.692632
 23
109.983154
 33
0.0
 14
275.624752
 24
111.883154
 34
0.0
 50
90.0
100
AcDbRotatedDimension
  0
DIMENSION
  5
5C0
100
AcDbEntity
  8
2
370
    25
100
AcDbDimension
  2
*D47
 10
284.959713
 20
112.883154
 30
0.0
 11
278.959713
 21
107.883154
 31
0.0
 71
     0
 72
     0
 41
0.0
 42
0.0
  3
Standard
100
AcDbAlignedDimension
 13
256.979724
 23
102.883154
 33
0.0
 14
262.359039
 24
112.883154
 34
0.0
 50
90.0
100
AcDbRotatedDimension
  0
DIMENSION
  5
5C1
100
AcDbEntity
  8
2
370
    25
100
AcDbDimension
  2
*D48
 10
259.159039
 20
81.275968
 30
0.0
 11
250.109039
 21
84.775968
 31
0.0
 71
     0
 72
     0
 41
0.0
 42
0.0
  3
Standard
100
AcDbAlignedDimension
 13
241.059039
 23
109.983154
 33
0.0
 14
259.159039
 24
109.983154
 34
0.0
100
AcDbRotatedDimension
  0
TEXT
  5
5C2
100
AcDbEntity
  8
2
370
    25
100
AcDbText
 10
252.859039
 20
241.406181
 30
0.0
 40
5.0
  1
－
 72
     5
 11
256.859039
 21
241.406181
 31
0.0
100
AcDbText
  0
DIMENSION
  5
5C3
100
AcDbEntity
  8
2
370
    25
100
AcDbDimension
  2
*D49
 10
244.859039
 20
240.406181
 30
0.0
 11
260.359039
 21
243.906181
 31
0.0
 71
     0
 72
     0
 41
0.0
 42
0.0
  3
Standard
100
AcDbAlignedDimension
 13
242.859039
 23
240.406181
 33
0.0
 14
244.859039
 24
198.206181
 34
0.0
100
AcDbRotatedDimension
  0
TEXT
  5
5C4
100
AcDbEntity
  8
2
370
    25
100
AcDbText
 10
221.859039
 20
241.406181
 30
0.0
 40
5.0
  1
＋
 72
     5
 11
225.859039
 21
241.406181
 31
0.0
100
AcDbText
  0
DIMENSION
  5
5C5
100
AcDbEntity
  8
2
370
    25
100
AcDbDimension
  2
*D50
 10
242.859039
 20
240.406181
 30
0.0
 11
229.359039
 21
243.906181
 31
0.0
 71
     0
 72
     0
 41
0.0
 42
0.0
  3
Standard
100
AcDbAlignedDimension
 13
239.859039
 23
198.206181
 33
0.0
 14
242.859039
 24
240.406181
 34
0.0
100
AcDbRotatedDimension
  0
TEXT
  5
5C6
100
AcDbEntity
  8
2
370
    25
100
AcDbText
 10
220.538276
 20
259.166876
 30
0.0
 40
5.0
  1
（調整範囲５ｍｍ）
 72
     5
 11
264.538276
 21
259.166876
 31
0.0
100
AcDbText
  0
CIRCLE
  5
5C7
100
AcDbEntity
  8
2
370
    25
100
AcDbCircle
 10
325.032492
 20
257.575667
 30
0.0
 40
5.0
  0
CIRCLE
  5
5C8
100
AcDbEntity
  8
2
370
    25
100
AcDbCircle
 10
339.843614
 20
257.575667
 30
0.0
 40
5.0
  0
TEXT
  5
5C9
100
AcDbEntity
  8
2
370
    25
100
AcDbText
 10
321.032492
 20
255.075667
 30
0.0
 40
5.0
  1
1
 72
     5
 11
325.032492
 21
255.075667
 31
0.0
100
AcDbText
  0
TEXT
  5
5CA
100
AcDbEntity
  8
2
370
    25
100
AcDbText
 10
203.531058
 20
255.075667
 30
0.0
 40
5.0
  1
1
 72
     5
 11
207.531058
 21
255.075667
 31
0.0
100
AcDbText
  0
DIMENSION
  5
5CB
100
AcDbEntity
  8
2
370
    25
100
AcDbDimension
  2
*D51
 10
300.118263
 20
-71.124163
 30
0.0
 11
232.618263
 21
-70.124163
 31
0.0
 70
     1
 71
     0
 72
     0
 41
0.0
 42
0.0
  3
Standard
100
AcDbAlignedDimension
 13
165.118263
 23
-36.0
 33
0.0
 14
300.118263
 24
-36.0
 34
0.0
  0
DIMENSION
  5
5CC
100
AcDbEntity
  8
2
370
    25
100
AcDbDimension
  2
*D52
 10
-53.999978
 20
-34.330566
 30
0.0
 11
-59.999978
 21
-30.830566
 31
0.0
 71
     0
 72
     0
 41
0.0
 42
0.0
  3
Standard
100
AcDbAlignedDimension
 13
-65.999978
 23
-21.483319
 33
0.0
 14
-53.999978
 24
-21.483319
 34
0.0
100
AcDbRotatedDimension
  0
LWPOLYLINE
  5
5CD
100
AcDbEntity
  8
2
370
    25
100
AcDbPolyline
 90
        2
 70
     0
 10
-5.79895
 20
-31.284428
 10
19.86625
 20
-9.158073
  0
LINE
  5
5D1
100
AcDbEntity
  8
2
370
    25
100
AcDbLine
 10
-6.236231
 20
-31.661414
 30
0.0
 11
-5.583271
 21
-32.418807
 31
0.0
  0
LINE
  5
5D2
100
AcDbEntity
  8
2
370
    25
100
AcDbLine
 10
-5.583271
 20
-32.418807
 30
0.0
 11
-4.924388
 21
-30.530455
 31
0.0
  0
LINE
  5
5D3
100
AcDbEntity
  8
2
370
    25
100
AcDbLine
 10
-4.924388
 20
-30.530455
 30
0.0
 11
-6.889191
 21
-30.904021
 31
0.0
  0
LINE
  5
5D4
100
AcDbEntity
  8
2
370
    25
100
AcDbLine
 10
-6.889191
 20
-30.904021
 30
0.0
 11
-6.236231
 21
-31.661414
 31
0.0
  0
TEXT
  5
5D5
100
AcDbEntity
  8
2
370
    18
100
AcDbText
 10
21.153214
 20
-8.393274
 30
0.0
 40
5.0
  1
1
 72
     5
 11
25.153214
 21
-8.393274
 31
0.0
100
AcDbText
  0
CIRCLE
  5
5D6
100
AcDbEntity
  8
2
370
    18
100
AcDbCircle
 10
23.653214
 20
-5.893274
 30
0.0
 40
5.0
  0
DIMENSION
  5
5D7
100
AcDbEntity
  8
2
370
    25
100
AcDbDimension
  2
*D53
 10
-47.5
 20
-100.0
 30
0.0
 11
-60.0
 21
-96.5
 31
0.0
 71
     0
 72
     0
 41
0.0
 42
0.0
  3
Standard
100
AcDbAlignedDimension
 13
-72.5
 23
-74.0
 33
0.0
 14
-47.5
 24
-74.0
 34
0.0
100
AcDbRotatedDimension
  0
DIMENSION
  5
5D8
100
AcDbEntity
  8
2
370
    25
100
AcDbDimension
  2
*D54
 10
18.5
 20
-100.0
 30
0.0
 11
-10.75
 21
-96.5
 31
0.0
 71
     0
 72
     0
 41
0.0
 42
0.0
  3
Standard
100
AcDbAlignedDimension
 13
-40.0
 23
-59.0
 33
0.0
 14
18.5
 24
-36.0
 34
0.0
100
AcDbRotatedDimension
  0
DIMENSION
  5
5D9
100
AcDbEntity
  8
2
370
    25
100
AcDbDimension
  2
*D55
 10
-80.0
 20
-100.0
 30
0.0
 11
-109.25
 21
-96.5
 31
0.0
 71
     0
 72
     0
 41
0.0
 42
0.0
  3
Standard
100
AcDbAlignedDimension
 13
-138.5
 23
-36.0
 33
0.0
 14
-80.0
 24
-59.0
 34
0.0
100
AcDbRotatedDimension
  0
TEXT
  5
5DA
100
AcDbEntity
  8
2
370
    18
100
AcDbText
 10
4.953214
 20
-74.669744
 30
0.0
 40
5.0
  1
2
 72
     5
 11
8.953214
 21
-74.669744
 31
0.0
100
AcDbText
  0
CIRCLE
  5
5DB
100
AcDbEntity
  8
2
370
    18
100
AcDbCircle
 10
7.453214
 20
-72.169744
 30
0.0
 40
5.0
  0
LWPOLYLINE
  5
5DC
100
AcDbEntity
  8
2
370
    18
100
AcDbPolyline
 90
        2
 70
     0
 10
-33.53418
 20
-49.172386
 10
3.063238
 20
-69.776664
  0
LINE
  5
5E0
100
AcDbEntity
  8
2
370
    25
100
AcDbLine
 10
-34.037277
 20
-48.889143
 30
0.0
 11
-34.527868
 21
-49.760533
 31
0.0
  0
LINE
  5
5E1
100
AcDbEntity
  8
2
370
    25
100
AcDbLine
 10
-34.527868
 20
-49.760533
 30
0.0
 11
-32.527985
 21
-49.738872
 31
0.0
  0
LINE
  5
5E2
100
AcDbEntity
  8
2
370
    25
100
AcDbLine
 10
-32.527985
 20
-49.738872
 30
0.0
 11
-33.546686
 21
-48.017753
 31
0.0
  0
LINE
  5
5E3
100
AcDbEntity
  8
2
370
    25
100
AcDbLine
 10
-33.546686
 20
-48.017753
 30
0.0
 11
-34.037277
 21
-48.889143
 31
0.0
  0
TEXT
  5
5E4
100
AcDbEntity
  8
2
370
    25
100
AcDbText
 10
140.618263
 20
-94.0
 30
0.0
 40
5.0
  1
バックセット
 72
     5
 11
169.618263
 21
-94.0
 31
0.0
100
AcDbText
  0
DIMENSION
  5
5E5
100
AcDbEntity
  8
2
370
    25
100
AcDbDimension
  2
*D56
 10
186.118263
 20
-95.0
 30
0.0
 11
175.618263
 21
-91.5
 31
0.0
 71
     0
 72
     0
 41
0.0
 42
0.0
  3
Standard
100
AcDbAlignedDimension
 13
135.118263
 23
-80.0
 33
0.0
 14
186.118263
 24
-65.0
 34
0.0
100
AcDbRotatedDimension
  0
TEXT
  5
5E6
100
AcDbEntity
  8
2
370
    25
100
AcDbText
 10
-77.5
 20
61.0
 30
0.0
 40
5.0
  1
扉厚２８～４０
 72
     5
 11
-43.5
 21
61.0
 31
0.0
100
AcDbText
  0
DIMENSION
  5
5E7
100
AcDbEntity
  8
2
370
    25
100
AcDbDimension
  2
*D57
 10
-40.0
 20
60.0
 30
0.0
 11
-60.0
 21
62.0
 31
0.0
 71
     0
 72
     0
 41
0.0
 42
0.0
  3
Standard
100
AcDbAlignedDimension
 13
-80.0
 23
38.5
 33
0.0
 14
-40.0
 24
38.5
 34
0.0
100
AcDbRotatedDimension
  0
LWPOLYLINE
  5
5E8
100
AcDbEntity
  8
2
370
    25
100
AcDbPolyline
 90
        2
 70
     0
 10
-98.706787
 20
23.631099
 10
-139.829297
 20
46.062367
  0
LINE
  5
5EC
100
AcDbEntity
  8
2
370
    25
100
AcDbLine
 10
-98.199938
 20
23.354626
 30
0.0
 11
-97.721073
 21
24.232514
 31
0.0
  0
LINE
  5
5ED
100
AcDbEntity
  8
2
370
    25
100
AcDbLine
 10
-97.721073
 20
24.232514
 30
0.0
 11
-99.720485
 21
24.184045
 31
0.0
  0
LINE
  5
5EE
100
AcDbEntity
  8
2
370
    25
100
AcDbLine
 10
-99.720485
 20
24.184045
 30
0.0
 11
-98.678803
 21
22.476738
 31
0.0
  0
LINE
  5
5EF
100
AcDbEntity
  8
2
370
    25
100
AcDbLine
 10
-98.678803
 20
22.476738
 30
0.0
 11
-98.199938
 21
23.354626
 31
0.0
  0
CIRCLE
  5
5F0
100
AcDbEntity
  8
2
370
    25
100
AcDbCircle
 10
-144.182068
 20
48.436691
 30
0.0
 40
5.0
  0
TEXT
  5
5F1
100
AcDbEntity
  8
2
370
    25
100
AcDbText
 10
-146.682068
 20
45.936691
 30
0.0
 40
5.0
  1
７
 72
     5
 11
-142.682068
 21
45.936691
 31
0.0
100
AcDbText
  0
TEXT
  5
5F2
100
AcDbEntity
  8
2
370
    25
100
AcDbText
 10
2.490532
 20
47.606726
 30
0.0
 40
5.0
  1
８
 72
     5
 11
6.490532
 21
47.606726
 31
0.0
100
AcDbText
  0
TEXT
  5
5F3
100
AcDbEntity
  8
2
370
    25
100
AcDbText
 10
237.543655
 20
-1.612409
 30
0.0
 40
5.0
  1
９
 72
     5
 11
241.543655
 21
-1.612409
 31
0.0
100
AcDbText
  0
TEXT
  5
5F4
100
AcDbEntity
  8
2
370
    25
100
AcDbText
 10
91.710449
 20
89.93635
 30
0.0
 40
5.0
  1
1
 72
     5
 11
95.710449
 21
89.93635
 31
0.0
100
AcDbText
  0
TEXT
  5
5F5
100
AcDbEntity
  8
2
370
    25
100
AcDbText
 10
95.210449
 20
89.93635
 30
0.0
 40
5.0
  1
０
 72
     5
 11
99.210449
 21
89.93635
 31
0.0
100
AcDbText
  0
TEXT
  5
5F6
100
AcDbEntity
  8
2
370
    25
100
AcDbText
 10
160.706406
 20
89.93635
 30
0.0
 40
5.0
  1
１
 72
     5
 11
164.706406
 21
89.93635
 31
0.0
100
AcDbText
  0
TEXT
  5
5F7
100
AcDbEntity
  8
2
370
    25
100
AcDbText
 10
207.031058
 20
255.075667
 30
0.0
 40
5.0
  1
２
 72
     5
 11
211.031058
 21
255.075667
 31
0.0
100
AcDbText
  0
TEXT
  5
5F8
100
AcDbEntity
  8
2
370
    25
100
AcDbText
 10
324.532492
 20
255.075667
 30
0.0
 40
5.0
  1
３
 72
     5
 11
328.532492
 21
255.075667
 31
0.0
100
AcDbText
  0
TEXT
  5
5F9
100
AcDbEntity
  8
2
370
    25
100
AcDbText
 10
339.343614
 20
255.075667
 30
0.0
 40
5.0
  1
４
 72
     5
 11
343.343614
 21
255.075667
 31
0.0
100
AcDbText
  0
LINE
  5
5FA
100
AcDbEntity
  8
3
370
   100
100
AcDbLine
 10
-380.0
 20
276.0
 30
0.0
 11
-380.0
 21
-276.0
 31
0.0
  0
LINE
  5
5FB
100
AcDbEntity
  8
3
370
   100
100
AcDbLine
 10
400.0
 20
276.0
 30
0.0
 11
400.0
 21
-276.0
 31
0.0
  0
LINE
  5
5FC
100
AcDbEntity
  8
3
370
   100
100
AcDbLine
 10
-380.0
 20
276.0
 30
0.0
 11
400.0
 21
276.0
 31
0.0
  0
LINE
  5
5FD
100
AcDbEntity
  8
3
370
   100
100
AcDbLine
 10
-380.0
 20
-276.0
 30
0.0
 11
400.0
 21
-276.0
 31
0.0
  0
LINE
  5
5FE
100
AcDbEntity
  8
3
370
    50
100
AcDbLine
 10
-380.0
 20
-216.0
 30
0.0
 11
400.0
 21
-216.0
 31
0.0
  0
LINE
  5
5FF
100
AcDbEntity
  8
3
370
    25
100
AcDbLine
 10
20.0
 20
-225.999897
 30
0.0
 11
216.001054
 21
-225.999729
 31
0.0
  0
LINE
  5
600
100
AcDbEntity
  8
3
370
   100
100
AcDbLine
 10
-380.6
 20
276.6
 30
0.0
 11
400.6
 21
276.6
 31
0.0
  0
LINE
  5
601
100
AcDbEntity
  8
3
370
   100
100
AcDbLine
 10
400.6
 20
276.6
 30
0.0
 11
400.6
 21
-276.6
 31
0.0
  0
LINE
  5
602
100
AcDbEntity
  8
3
370
   100
100
AcDbLine
 10
400.6
 20
-276.6
 30
0.0
 11
-380.6
 21
-276.6
 31
0.0
  0
LINE
  5
603
100
AcDbEntity
  8
3
370
   100
100
AcDbLine
 10
-380.6
 20
-276.6
 30
0.0
 11
-380.6
 21
276.6
 31
0.0
  0
LINE
  5
604
100
AcDbEntity
  8
3
370
    25
100
AcDbLine
 10
216.001054
 20
-225.999729
 30
0.0
 11
216.001054
 21
-216.0
 31
0.0
  0
LINE
  5
605
100
AcDbEntity
  8
3
370
    25
100
AcDbLine
 10
180.0
 20
-259.999729
 30
0.0
 11
216.001054
 21
-259.999729
 31
0.0
  0
LINE
  5
606
100
AcDbEntity
  8
3
370
    25
100
AcDbLine
 10
216.001054
 20
-259.999729
 30
0.0
 11
216.001054
 21
-250.0
 31
0.0
  0
LINE
  5
607
100
AcDbEntity
  8
3
370
    50
100
AcDbLine
 10
-40.0
 20
-202.0
 30
0.0
 11
400.0
 21
-202.0
 31
0.0
  0
LINE
  5
608
100
AcDbEntity
  8
3
370
    50
100
AcDbLine
 10
180.0
 20
-132.0
 30
0.0
 11
180.0
 21
-216.0
 31
0.0
  0
LINE
  5
609
100
AcDbEntity
  8
3
370
    50
100
AcDbLine
 10
380.0
 20
-132.0
 30
0.0
 11
380.0
 21
-216.0
 31
0.0
  0
LINE
  5
60A
100
AcDbEntity
  8
3
370
    50
100
AcDbLine
 10
20.0
 20
-216.0
 30
0.0
 11
20.0
 21
-276.0
 31
0.0
  0
TEXT
  5
60B
100
AcDbEntity
  8
3
370
   100
100
AcDbText
 10
44.0
 20
-271.0
 30
0.0
 40
16.0
  1
（株）川口技研
 72
     5
 11
152.8
 21
-271.0
 31
0.0
100
AcDbText
  0
TEXT
  5
60C
100
AcDbEntity
  8
3
370
    25
100
AcDbText
 10
183.600527
 20
-224.59988
 30
0.0
 40
7.2
  1
図面名称
 72
     5
 11
210.960527
 21
-224.59988
 31
0.0
100
AcDbText
  0
TEXT
  5
60D
100
AcDbEntity
  8
3
370
    25
100
AcDbText
 10
183.600527
 20
-258.599849
 30
0.0
 40
7.2
  1
図面番号
 72
     5
 11
210.960527
 21
-258.599849
 31
0.0
100
AcDbText
  0
TEXT
  5
60E
100
AcDbEntity
  8
3
370
    25
100
AcDbText
 10
32.266667
 20
-224.599983
 30
0.0
 40
7.2
  1
図　　法
 72
     5
 11
59.626667
 21
-224.599983
 31
0.0
100
AcDbText
  0
TEXT
  5
60F
100
AcDbEntity
  8
3
370
    25
100
AcDbText
 10
85.6
 20
-224.599949
 30
0.0
 40
7.2
  1
単　　位
 72
     5
 11
112.96
 21
-224.599949
 31
0.0
100
AcDbText
  0
TEXT
  5
610
100
AcDbEntity
  8
3
370
    25
100
AcDbText
 10
138.933333
 20
-224.599914
 30
0.0
 40
7.2
  1
尺　　度
 72
     5
 11
166.293333
 21
-224.599914
 31
0.0
100
AcDbText
  0
TEXT
  5
611
100
AcDbEntity
  8
3
370
    25
100
AcDbText
 10
182.8
 20
-212.6
 30
0.0
 40
7.2
  1
品番
 72
     5
 11
195.76
 21
-212.6
 31
0.0
100
AcDbText
  0
TEXT
  5
612
100
AcDbEntity
  8
3
370
    25
100
AcDbText
 10
234.8
 20
-212.6
 30
0.0
 40
7.2
  1
品　　　　　名
 72
     5
 11
283.76
 21
-212.6
 31
0.0
100
AcDbText
  0
TEXT
  5
613
100
AcDbEntity
  8
3
370
    25
100
AcDbText
 10
382.8
 20
-212.6
 30
0.0
 40
7.2
  1
員数
 72
     5
 11
395.76
 21
-212.6
 31
0.0
100
AcDbText
  0
TEXT
  5
614
100
AcDbEntity
  8
3
370
    25
100
AcDbText
 10
92.0
 20
-241.999914
 30
0.0
 40
8.0
  1
ｍｍ
 72
     5
 11
106.4
 21
-241.999914
 31
0.0
100
AcDbText
  0
LINE
  5
615
100
AcDbEntity
  8
3
370
    50
100
AcDbLine
 10
-40.0
 20
-188.0
 30
0.0
 11
400.0
 21
-188.0
 31
0.0
  0
LINE
  5
616
100
AcDbEntity
  8
3
370
    50
100
AcDbLine
 10
-40.0
 20
-174.0
 30
0.0
 11
400.0
 21
-174.0
 31
0.0
  0
LINE
  5
617
100
AcDbEntity
  8
3
370
    50
100
AcDbLine
 10
-40.0
 20
-160.0
 30
0.0
 11
400.0
 21
-160.0
 31
0.0
  0
LINE
  5
618
100
AcDbEntity
  8
3
370
    50
100
AcDbLine
 10
-40.0
 20
-146.0
 30
0.0
 11
400.0
 21
-146.0
 31
0.0
  0
LINE
  5
619
100
AcDbEntity
  8
3
370
    50
100
AcDbLine
 10
180.0
 20
-132.0
 30
0.0
 11
400.0
 21
-132.0
 31
0.0
  0
TEXT
  5
61A
100
AcDbEntity
  8
3
370
    25
100
AcDbText
 10
186.0
 20
-199.0
 30
0.0
 40
8.0
  1
１
 72
     5
 11
192.4
 21
-199.0
 31
0.0
100
AcDbText
  0
TEXT
  5
61B
100
AcDbEntity
  8
3
370
    25
100
AcDbText
 10
186.0
 20
-185.0
 30
0.0
 40
8.0
  1
２
 72
     5
 11
192.4
 21
-185.0
 31
0.0
100
AcDbText
  0
TEXT
  5
61C
100
AcDbEntity
  8
3
370
    25
100
AcDbText
 10
186.0
 20
-171.0
 30
0.0
 40
8.0
  1
３
 72
     5
 11
192.4
 21
-171.0
 31
0.0
100
AcDbText
  0
TEXT
  5
61D
100
AcDbEntity
  8
3
370
    25
100
AcDbText
 10
186.0
 20
-157.0
 30
0.0
 40
8.0
  1
４
 72
     5
 11
192.4
 21
-157.0
 31
0.0
100
AcDbText
  0
TEXT
  5
61E
100
AcDbEntity
  8
3
370
    25
100
AcDbText
 10
186.0
 20
-143.0
 30
0.0
 40
8.0
  1
５
 72
     5
 11
192.4
 21
-143.0
 31
0.0
100
AcDbText
  0
TEXT
  5
61F
100
AcDbEntity
  8
3
370
    25
100
AcDbText
 10
166.0
 20
-171.0
 30
0.0
 40
8.0
  1
１
 72
     5
 11
172.4
 21
-171.0
 31
0.0
100
AcDbText
  0
TEXT
  5
620
100
AcDbEntity
  8
3
370
    25
100
AcDbText
 10
166.0
 20
-185.0
 30
0.0
 40
8.0
  1
１
 72
     5
 11
172.4
 21
-185.0
 31
0.0
100
AcDbText
  0
LINE
  5
621
100
AcDbEntity
  8
3
370
    50
100
AcDbLine
 10
180.0
 20
-132.0
 30
0.0
 11
180.0
 21
-216.0
 31
0.0
  0
LINE
  5
622
100
AcDbEntity
  8
3
370
    50
100
AcDbLine
 10
160.0
 20
-132.0
 30
0.0
 11
160.0
 21
-216.0
 31
0.0
  0
LINE
  5
623
100
AcDbEntity
  8
3
370
    50
100
AcDbLine
 10
100.0
 20
-216.0
 30
0.0
 11
100.0
 21
-132.0
 31
0.0
  0
LINE
  5
624
100
AcDbEntity
  8
3
370
    50
100
AcDbLine
 10
-20.0
 20
-216.0
 30
0.0
 11
-20.0
 21
-132.0
 31
0.0
  0
LINE
  5
625
100
AcDbEntity
  8
3
370
    50
100
AcDbLine
 10
-40.0
 20
-132.0
 30
0.0
 11
-40.0
 21
-216.0
 31
0.0
  0
TEXT
  5
626
100
AcDbEntity
  8
3
370
    25
100
AcDbText
 10
166.0
 20
-157.0
 30
0.0
 40
8.0
  1
１
 72
     5
 11
172.4
 21
-157.0
 31
0.0
100
AcDbText
  0
TEXT
  5
627
100
AcDbEntity
  8
3
370
    25
100
AcDbText
 10
386.0
 20
-199.0
 30
0.0
 40
8.0
  1
１
 72
     5
 11
392.4
 21
-199.0
 31
0.0
100
AcDbText
  0
TEXT
  5
628
100
AcDbEntity
  8
3
370
    25
100
AcDbText
 10
386.0
 20
-171.0
 30
0.0
 40
8.0
  1
１
 72
     5
 11
392.4
 21
-171.0
 31
0.0
100
AcDbText
  0
TEXT
  5
629
100
AcDbEntity
  8
3
370
    25
100
AcDbText
 10
-34.0
 20
-199.0
 30
0.0
 40
8.0
  1
６
 72
     5
 11
-27.6
 21
-199.0
 31
0.0
100
AcDbText
  0
TEXT
  5
62A
100
AcDbEntity
  8
3
370
    25
100
AcDbText
 10
386.0
 20
-157.0
 30
0.0
 40
8.0
  1
２
 72
     5
 11
392.4
 21
-157.0
 31
0.0
100
AcDbText
  0
TEXT
  5
62B
100
AcDbEntity
  8
3
370
    25
100
AcDbText
 10
141.333333
 20
-241.999914
 30
0.0
 40
8.0
  1
１／２
 72
     5
 11
163.733333
 21
-241.999914
 31
0.0
100
AcDbText
  0
TEXT
  5
62C
100
AcDbEntity
  8
3
370
    25
100
AcDbText
 10
34.666667
 20
-241.999914
 30
0.0
 40
8.0
  1
３角法
 72
     5
 11
57.066667
 21
-241.999914
 31
0.0
100
AcDbText
  0
TEXT
  5
62D
100
AcDbEntity
  8
3
370
    25
100
AcDbText
 10
-34.0
 20
-185.0
 30
0.0
 40
8.0
  1
７
 72
     5
 11
-27.6
 21
-185.0
 31
0.0
100
AcDbText
  0
TEXT
  5
62E
100
AcDbEntity
  8
3
370
    25
100
AcDbText
 10
-34.0
 20
-171.0
 30
0.0
 40
8.0
  1
８
 72
     5
 11
-27.6
 21
-171.0
 31
0.0
100
AcDbText
  0
TEXT
  5
62F
100
AcDbEntity
  8
3
370
    25
100
AcDbText
 10
-34.0
 20
-157.0
 30
0.0
 40
8.0
  1
９
 72
     5
 11
-27.6
 21
-157.0
 31
0.0
100
AcDbText
  0
TEXT
  5
630
100
AcDbEntity
  8
3
370
    25
100
AcDbText
 10
-38.0
 20
-143.0
 30
0.0
 40
8.0
  1
１０
 72
     5
 11
-23.6
 21
-143.0
 31
0.0
100
AcDbText
  0
LINE
  5
631
100
AcDbEntity
  8
3
370
    50
100
AcDbLine
 10
180.0
 20
-276.0
 30
0.0
 11
180.0
 21
-216.0
 31
0.0
  0
LINE
  5
632
100
AcDbEntity
  8
3
370
    50
100
AcDbLine
 10
320.0
 20
-216.0
 30
0.0
 11
320.0
 21
-132.0
 31
0.0
  0
LINE
  5
633
100
AcDbEntity
  8
3
370
    50
100
AcDbLine
 10
200.0
 20
-216.0
 30
0.0
 11
200.0
 21
-132.0
 31
0.0
  0
LINE
  5
634
100
AcDbEntity
  8
3
370
    50
100
AcDbLine
 10
20.0
 20
-250.0
 30
0.0
 11
180.0
 21
-250.0
 31
0.0
  0
LINE
  5
635
100
AcDbEntity
  8
3
370
    50
100
AcDbLine
 10
180.0
 20
-250.0
 30
0.0
 11
400.0
 21
-250.0
 31
0.0
  0
TEXT
  5
636
100
AcDbEntity
  8
3
370
    25
100
AcDbText
 10
-37.2
 20
-212.6
 30
0.0
 40
7.2
  1
品番
 72
     5
 11
-24.24
 21
-212.6
 31
0.0
100
AcDbText
  0
TEXT
  5
637
100
AcDbEntity
  8
3
370
    25
100
AcDbText
 10
14.8
 20
-212.6
 30
0.0
 40
7.2
  1
品　　　　　名
 72
     5
 11
63.76
 21
-212.6
 31
0.0
100
AcDbText
  0
TEXT
  5
638
100
AcDbEntity
  8
3
370
    25
100
AcDbText
 10
162.8
 20
-212.6
 30
0.0
 40
7.2
  1
員数
 72
     5
 11
175.76
 21
-212.6
 31
0.0
100
AcDbText
  0
LINE
  5
639
100
AcDbEntity
  8
3
370
    50
100
AcDbLine
 10
73.333333
 20
-250.0
 30
0.0
 11
73.333333
 21
-216.0
 31
0.0
  0
LINE
  5
63A
100
AcDbEntity
  8
3
370
    50
100
AcDbLine
 10
126.666667
 20
-250.0
 30
0.0
 11
126.666667
 21
-216.0
 31
0.0
  0
TEXT
  5
63B
100
AcDbEntity
  8
3
370
    25
100
AcDbText
 10
339.2
 20
-212.6
 30
0.0
 40
7.2
  1
寸　法
 72
     5
 11
359.36
 21
-212.6
 31
0.0
100
AcDbText
  0
TEXT
  5
63C
100
AcDbEntity
  8
3
370
    25
100
AcDbText
 10
119.2
 20
-212.6
 30
0.0
 40
7.2
  1
寸　法
 72
     5
 11
139.36
 21
-212.6
 31
0.0
100
AcDbText
  0
TEXT
  5
63D
100
AcDbEntity
  8
3
370
    25
100
AcDbText
 10
205.301895
 20
-170.974701
 30
0.0
 40
6.4
  1
ハンドル止メネジ
 72
     5
 11
255.221896
 21
-170.974701
 31
0.0
100
AcDbText
  0
TEXT
  5
63E
100
AcDbEntity
  8
3
370
    25
100
AcDbText
 10
205.301895
 20
-156.974701
 30
0.0
 40
6.4
  1
丸座取付ネジ
 72
     5
 11
242.421896
 21
-156.974701
 31
0.0
100
AcDbText
  0
TEXT
  5
63F
100
AcDbEntity
  8
3
370
    25
100
AcDbText
 10
-114.698105
 20
-198.974701
 30
0.0
 40
6.4
  1
サラ木ネジ３．５×２２
 41
0.7
 72
     5
 11
-66.314104
 21
-198.974701
 31
0.0
100
AcDbText
  0
TEXT
  5
640
100
AcDbEntity
  8
3
370
    25
100
AcDbText
 10
325.301895
 20
-156.974701
 30
0.0
 40
6.4
  1
バインド　Ｍ４×２５
 41
0.8
 72
     5
 11
375.477896
 21
-156.974701
 31
0.0
100
AcDbText
  0
LINE
  5
641
100
AcDbEntity
  8
3
370
    50
100
AcDbLine
 10
-40.0
 20
-132.0
 30
0.0
 11
400.0
 21
-132.0
 31
0.0
  0
TEXT
  5
642
100
AcDbEntity
  8
3
370
    25
100
AcDbText
 10
205.301895
 20
-198.974701
 30
0.0
 40
6.4
  1
レバ－ハンドル　Ｎｏ．６５Ａ
 72
     5
 11
293.621896
 21
-198.974701
 31
0.0
100
AcDbText
  0
TEXT
  5
643
100
AcDbEntity
  8
3
370
    25
100
AcDbText
 10
325.301895
 20
-170.974701
 30
0.0
 40
6.4
  1
Ｓ．Ｓ．Ｍ６×１０
 41
0.8
 72
     5
 11
370.357896
 21
-170.974701
 31
0.0
100
AcDbText
  0
LINE
  5
644
100
AcDbEntity
  8
3
370
    50
100
AcDbLine
 10
-260.0
 20
-202.0
 30
0.0
 11
180.0
 21
-202.0
 31
0.0
  0
LINE
  5
645
100
AcDbEntity
  8
3
370
    50
100
AcDbLine
 10
-260.0
 20
-188.0
 30
0.0
 11
180.0
 21
-188.0
 31
0.0
  0
LINE
  5
646
100
AcDbEntity
  8
3
370
    50
100
AcDbLine
 10
-260.0
 20
-174.0
 30
0.0
 11
180.0
 21
-174.0
 31
0.0
  0
TEXT
  5
647
100
AcDbEntity
  8
3
370
    25
100
AcDbText
 10
-54.0
 20
-171.0
 30
0.0
 40
8.0
  1
１
 72
     5
 11
-47.6
 21
-171.0
 31
0.0
100
AcDbText
  0
TEXT
  5
648
100
AcDbEntity
  8
3
370
    25
100
AcDbText
 10
-54.0
 20
-185.0
 30
0.0
 40
8.0
  1
１
 72
     5
 11
-47.6
 21
-185.0
 31
0.0
100
AcDbText
  0
TEXT
  5
649
100
AcDbEntity
  8
3
370
    25
100
AcDbText
 10
-257.2
 20
-212.6
 30
0.0
 40
7.2
  1
品番
 72
     5
 11
-244.24
 21
-212.6
 31
0.0
100
AcDbText
  0
TEXT
  5
64A
100
AcDbEntity
  8
3
370
    25
100
AcDbText
 10
-205.2
 20
-212.6
 30
0.0
 40
7.2
  1
品　　　　　名
 72
     5
 11
-156.24
 21
-212.6
 31
0.0
100
AcDbText
  0
TEXT
  5
64B
100
AcDbEntity
  8
3
370
    25
100
AcDbText
 10
-57.2
 20
-212.6
 30
0.0
 40
7.2
  1
員数
 72
     5
 11
-44.24
 21
-212.6
 31
0.0
100
AcDbText
  0
TEXT
  5
64C
100
AcDbEntity
  8
3
370
    25
100
AcDbText
 10
-100.8
 20
-212.6
 30
0.0
 40
7.2
  1
寸　法
 72
     5
 11
-80.64
 21
-212.6
 31
0.0
100
AcDbText
  0
TEXT
  5
64D
100
AcDbEntity
  8
3
370
    25
100
AcDbText
 10
-114.698105
 20
-156.974701
 30
0.0
 40
6.4
  1
サラ木ネジ３．５×２２
 41
0.7
 72
     5
 11
-66.314104
 21
-156.974701
 31
0.0
100
AcDbText
  0
LINE
  5
64E
100
AcDbEntity
  8
3
370
    50
100
AcDbLine
 10
-260.0
 20
-146.0
 30
0.0
 11
-260.0
 21
-216.0
 31
0.0
  0
LINE
  5
64F
100
AcDbEntity
  8
3
370
    50
100
AcDbLine
 10
-240.0
 20
-216.0
 30
0.0
 11
-240.0
 21
-146.0
 31
0.0
  0
LINE
  5
650
100
AcDbEntity
  8
3
370
    50
100
AcDbLine
 10
-120.0
 20
-216.0
 30
0.0
 11
-120.0
 21
-146.0
 31
0.0
  0
LINE
  5
651
100
AcDbEntity
  8
3
370
    50
100
AcDbLine
 10
-60.0
 20
-146.0
 30
0.0
 11
-60.0
 21
-216.0
 31
0.0
  0
LINE
  5
652
100
AcDbEntity
  8
3
370
    50
100
AcDbLine
 10
-260.0
 20
-160.0
 30
0.0
 11
180.0
 21
-160.0
 31
0.0
  0
TEXT
  5
653
100
AcDbEntity
  8
3
370
    25
100
AcDbText
 10
-258.0
 20
-199.0
 30
0.0
 40
8.0
  1
１１
 72
     5
 11
-243.6
 21
-199.0
 31
0.0
100
AcDbText
  0
TEXT
  5
654
100
AcDbEntity
  8
3
370
    25
100
AcDbText
 10
-258.0
 20
-185.0
 30
0.0
 40
8.0
  1
１２
 72
     5
 11
-243.6
 21
-185.0
 31
0.0
100
AcDbText
  0
TEXT
  5
655
100
AcDbEntity
  8
3
370
    25
100
AcDbText
 10
-258.0
 20
-171.0
 30
0.0
 40
8.0
  1
１３
 72
     5
 11
-243.6
 21
-171.0
 31
0.0
100
AcDbText
  0
TEXT
  5
656
100
AcDbEntity
  8
3
370
    25
100
AcDbText
 10
-14.698105
 20
-184.974701
 30
0.0
 40
6.4
  1
サムタ－ン
 72
     5
 11
16.021896
 21
-184.974701
 31
0.0
100
AcDbText
  0
TEXT
  5
657
100
AcDbEntity
  8
3
370
    25
100
AcDbText
 10
-14.698105
 20
-170.974701
 30
0.0
 40
6.4
  1
ＮＤ座取付ネジ
 72
     5
 11
28.821896
 21
-170.974701
 31
0.0
100
AcDbText
  0
TEXT
  5
658
100
AcDbEntity
  8
3
370
    25
100
AcDbText
 10
-14.698105
 20
-156.974701
 30
0.0
 40
6.4
  1
ＬＶＳ－３－５１　ケ－スロック
 72
     5
 11
80.021897
 21
-156.974701
 31
0.0
100
AcDbText
  0
TEXT
  5
659
100
AcDbEntity
  8
3
370
    25
100
AcDbText
 10
-14.698105
 20
-142.974701
 30
0.0
 40
6.4
  1
フロントプレ－ト
 72
     5
 11
35.221896
 21
-142.974701
 31
0.0
100
AcDbText
  0
TEXT
  5
65A
100
AcDbEntity
  8
3
370
    25
100
AcDbText
 10
-234.698105
 20
-198.974701
 30
0.0
 40
6.4
  1
錠取付木ネジ
 72
     5
 11
-197.578104
 21
-198.974701
 31
0.0
100
AcDbText
  0
TEXT
  5
65B
100
AcDbEntity
  8
3
370
    25
100
AcDbText
 10
-234.698105
 20
-156.974701
 30
0.0
 40
6.4
  1
ストライク取付木ネジ
 72
     5
 11
-171.978104
 21
-156.974701
 31
0.0
100
AcDbText
  0
TEXT
  5
65C
100
AcDbEntity
  8
3
370
    25
100
AcDbText
 10
105.301895
 20
-170.974701
 30
0.0
 40
6.4
  1
バインド　Ｍ４×２５
 41
0.8
 72
     5
 11
155.477896
 21
-170.974701
 31
0.0
100
AcDbText
  0
TEXT
  5
65D
100
AcDbEntity
  8
3
370
    25
100
AcDbText
 10
386.0
 20
-185.0
 30
0.0
 40
8.0
  1
１
 72
     5
 11
392.4
 21
-185.0
 31
0.0
100
AcDbText
  0
TEXT
  5
65E
100
AcDbEntity
  8
3
370
    25
100
AcDbText
 10
386.0
 20
-143.0
 30
0.0
 40
8.0
  1
１
 72
     5
 11
392.4
 21
-143.0
 31
0.0
100
AcDbText
  0
TEXT
  5
65F
100
AcDbEntity
  8
3
370
    25
100
AcDbText
 10
166.0
 20
-143.0
 30
0.0
 40
8.0
  1
１
 72
     5
 11
172.4
 21
-143.0
 31
0.0
100
AcDbText
  0
TEXT
  5
660
100
AcDbEntity
  8
3
370
    25
100
AcDbText
 10
-54.0
 20
-199.0
 30
0.0
 40
8.0
  1
２
 72
     5
 11
-47.6
 21
-199.0
 31
0.0
100
AcDbText
  0
TEXT
  5
661
100
AcDbEntity
  8
3
370
    25
100
AcDbText
 10
-54.0
 20
-157.0
 30
0.0
 40
8.0
  1
２
 72
     5
 11
-47.6
 21
-157.0
 31
0.0
100
AcDbText
  0
TEXT
  5
662
100
AcDbEntity
  8
3
370
    25
100
AcDbText
 10
-234.698105
 20
-184.974701
 30
0.0
 40
6.4
  1
調整ストライク　Ｓ-２５
 72
     5
 11
-162.378104
 21
-184.974701
 31
0.0
100
AcDbText
  0
LINE
  5
663
100
AcDbEntity
  8
3
370
    50
100
AcDbLine
 10
-260.0
 20
-146.0
 30
0.0
 11
180.0
 21
-146.0
 31
0.0
  0
TEXT
  5
664
100
AcDbEntity
  8
3
370
    25
100
AcDbText
 10
-258.0
 20
-157.0
 30
0.0
 40
8.0
  1
１４
 72
     5
 11
-243.6
 21
-157.0
 31
0.0
100
AcDbText
  0
TEXT
  5
665
100
AcDbEntity
  8
3
370
    25
100
AcDbText
 10
-14.698105
 20
-198.974701
 30
0.0
 40
6.4
  1
キ－
 72
     5
 11
-3.178105
 21
-198.974701
 31
0.0
100
AcDbText
  0
TEXT
  5
666
100
AcDbEntity
  8
3
370
    25
100
AcDbText
 10
166.0
 20
-199.0
 30
0.0
 40
8.0
  1
３
 72
     5
 11
172.4
 21
-199.0
 31
0.0
100
AcDbText
  0
TEXT
  5
667
100
AcDbEntity
  8
3
370
   100
100
AcDbText
 10
248.842911
 20
-269.090942
 30
0.0
 40
12.0
  1
ＤＺ－１９８４－００
 72
     5
 11
366.442911
 21
-269.090942
 31
0.0
100
AcDbText
  0
TEXT
  5
668
100
AcDbEntity
  8
3
370
    50
100
AcDbText
 10
236.79686
 20
-237.638
 30
0.0
 40
9.0
  1
ＬＶＳ－６５Ａ－５ＮＤ　外観図
 41
0.9
 72
     5
 11
356.67686
 21
-237.638
 31
0.0
100
AcDbText
  0
TEXT
  5
669
100
AcDbEntity
  8
3
370
    25
100
AcDbText
 10
205.301895
 20
-142.974701
 30
0.0
 40
6.4
  1
ＮＤ座　シリンダー座
 72
     5
 11
268.021896
 21
-142.974701
 31
0.0
100
AcDbText
  0
TEXT
  5
66A
100
AcDbEntity
  8
3
370
    25
100
AcDbText
 10
-234.698105
 20
-170.974701
 30
0.0
 40
6.4
  1
受箱
 72
     5
 11
-223.178105
 21
-170.974701
 31
0.0
100
AcDbText
  0
TEXT
  5
66B
100
AcDbEntity
  8
3
370
    25
100
AcDbText
 10
205.301895
 20
-184.974701
 30
0.0
 40
6.4
  1
丸座
 72
     5
 11
216.821895
 21
-184.974701
 31
0.0
100
AcDbText
  0
ENDSEC
  0
SECTION
  2
OBJECTS
  0
DICTIONARY
  5
896
100
AcDbDictionary
280
     0
281
     1
  3
ACAD_GROUP
350
897
  3
ACAD_MLINESTYLE
350
898
  0
DICTIONARY
  5
897
102
{ACAD_REACTORS
330
896
102
}
100
AcDbDictionary
280
     0
281
     1
  0
DICTIONARY
  5
898
102
{ACAD_REACTORS
330
896
102
}
100
AcDbDictionary
280
     0
281
     1
  3
Standard
350
899
  0
MLINESTYLE
  5
899
102
{ACAD_REACTORS
330
898
102
}
100
AcDbMlineStyle
  2
Standard
 70
     0
  3

 62
     0
 51
90.0
 52
90.0
 71
     2
 49
0.5
 62
   256
  6
ByLayer
 49
-0.5
 62
   256
  6
ByLayer
  0
ENDSEC
  0
EOF
