  0
SECTION
  2
HEADER
  9
$ACADVER
  1
AC1015
  9
$ACADMAINTVER
 70
     6
  9
$DWGCODEPAGE
  3
ANSI_932
  9
$INSBASE
 10
0.0
 20
0.0
 30
0.0
  9
$EXTMIN
 10
-420.0
 20
-297.0
 30
1.000000E+20
  9
$EXTMAX
 10
420.0
 20
297.0
 30
-1.000000E+20
  9
$LIMMIN
 10
-420.0
 20
-297.0
  9
$LIMMAX
 10
420.0
 20
297.0
  9
$ORTHOMODE
 70
     0
  9
$REGENMODE
 70
     1
  9
$FILLMODE
 70
     1
  9
$QTEXTMODE
 70
     0
  9
$MIRRTEXT
 70
     1
  9
$LTSCALE
 40
1.0
  9
$ATTMODE
 70
     1
  9
$TEXTSIZE
 40
0.2
  9
$TRACEWID
 40
0.05
  9
$TEXTSTYLE
  7
STANDARD
  9
$CLAYER
  8
0
  9
$CELTYPE
  6
CONTINUOUS
  9
$CECOLOR
 62
   256
  9
$CELTSCALE
 40
1.0
  9
$DISPSILH
 70
     0
  9
$DIMSCALE
 40
2.0
  9
$DIMASZ
 40
2.0
  9
$DIMEXO
 40
0.5
  9
$DIMDLI
 40
0.38
  9
$DIMRND
 40
0.0
  9
$DIMDLE
 40
0.0
  9
$DIMEXE
 40
2.0
  9
$DIMTP
 40
0.0
  9
$DIMTM
 40
0.0
  9
$DIMTXT
 40
2.5
  9
$DIMCEN
 40
0.09
  9
$DIMTSZ
 40
0.0
  9
$DIMTOL
 70
     0
  9
$DIMLIM
 70
     0
  9
$DIMTIH
 70
     0
  9
$DIMTOH
 70
     0
  9
$DIMSE1
 70
     0
  9
$DIMSE2
 70
     0
  9
$DIMTAD
 70
     1
  9
$DIMZIN
 70
     0
  9
$DIMBLK
  1

  9
$DIMASO
 70
     1
  9
$DIMSHO
 70
     1
  9
$DIMPOST
  1

  9
$DIMAPOST
  1

  9
$DIMALT
 70
     0
  9
$DIMALTD
 70
     2
  9
$DIMALTF
 40
25.4
  9
$DIMLFAC
 40
1.0
  9
$DIMTOFL
 70
     0
  9
$DIMTVP
 40
0.0
  9
$DIMTIX
 70
     0
  9
$DIMSOXD
 70
     0
  9
$DIMSAH
 70
     0
  9
$DIMBLK1
  1

  9
$DIMBLK2
  1

  9
$DIMSTYLE
  2
Standard
  9
$DIMCLRD
 70
     0
  9
$DIMCLRE
 70
     0
  9
$DIMCLRT
 70
     0
  9
$DIMTFAC
 40
1.0
  9
$DIMGAP
 40
0.5
  9
$DIMJUST
 70
     0
  9
$DIMSD1
 70
     0
  9
$DIMSD2
 70
     0
  9
$DIMTOLJ
 70
     1
  9
$DIMTZIN
 70
     0
  9
$DIMALTZ
 70
     0
  9
$DIMALTTZ
 70
     0
  9
$DIMUPT
 70
     0
  9
$DIMDEC
 70
     2
  9
$DIMTDEC
 70
     4
  9
$DIMALTU
 70
     2
  9
$DIMALTTD
 70
     2
  9
$DIMTXSTY
  7
STANDARD
  9
$DIMAUNIT
 70
     0
  9
$DIMADEC
 70
     2
  9
$DIMALTRND
 40
0.0
  9
$DIMAZIN
 70
     0
  9
$DIMDSEP
 70
     0
  9
$DIMATFIT
 70
     3
  9
$DIMFRAC
 70
     0
  9
$DIMLDRBLK
  1

  9
$DIMLUNIT
 70
     2
  9
$DIMLWD
 70
     0
  9
$DIMLWE
 70
     0
  9
$DIMTMOVE
 70
     0
  9
$LUNITS
 70
     2
  9
$LUPREC
 70
     4
  9
$SKETCHINC
 40
0.1
  9
$FILLETRAD
 40
0.0
  9
$AUNITS
 70
     0
  9
$AUPREC
 70
     0
  9
$MENU
  1
acad
  9
$ELEVATION
 40
0.0
  9
$PELEVATION
 40
0.0
  9
$THICKNESS
 40
0.0
  9
$LIMCHECK
 70
     0
  9
$CHAMFERA
 40
0.0
  9
$CHAMFERB
 40
0.0
  9
$CHAMFERC
 40
0.0
  9
$CHAMFERD
 40
0.0
  9
$SKPOLY
 70
     0
  9
$TDCREATE
 40
2457354.000000000
  9
$TDUCREATE
 40
0.000000000
  9
$TDUPDATE
 40
0.000000000
  9
$TDUUPDATE
 40
2447892.625000000
  9
$TDINDWG
 40
0.0000000000
  9
$TDUSRTIMER
 40
0.0000000000
  9
$USRTIMER
 70
     1
  9
$ANGBASE
 50
0.0
  9
$ANGDIR
 70
     0
  9
$PDMODE
 70
     0
  9
$PDSIZE
 40
0.0
  9
$PLINEWID
 40
0.0
  9
$SPLFRAME
 70
     0
  9
$SPLINETYPE
 70
     6
  9
$SPLINESEGS
 70
     8
  9
$HANDSEED
  5
8F4
  9
$SURFTAB1
 70
     6
  9
$SURFTAB2
 70
     6
  9
$SURFTYPE
 70
     6
  9
$SURFU
 70
     6
  9
$SURFV
 70
     6
  9
$UCSBASE
  2

  9
$UCSNAME
  2

  9
$UCSORG
 10
0.0
 20
0.0
 30
0.0
  9
$UCSXDIR
 10
1.0
 20
0.0
 30
0.0
  9
$UCSYDIR
 10
0.0
 20
1.0
 30
0.0
  9
$UCSORTHOREF
  2

  9
$UCSORTHOVIEW
 70
     0
  9
$UCSORGTOP
 10
0.0
 20
0.0
 30
0.0
  9
$UCSORGBOTTOM
 10
0.0
 20
0.0
 30
0.0
  9
$UCSORGLEFT
 10
0.0
 20
0.0
 30
0.0
  9
$UCSORGRIGHT
 10
0.0
 20
0.0
 30
0.0
  9
$UCSORGFRONT
 10
0.0
 20
0.0
 30
0.0
  9
$UCSORGBACK
 10
0.0
 20
0.0
 30
0.0
  9
$PUCSBASE
  2

  9
$PUCSNAME
  2

  9
$PUCSORG
 10
0.0
 20
0.0
 30
0.0
  9
$PUCSXDIR
 10
1.0
 20
0.0
 30
0.0
  9
$PUCSYDIR
 10
0.0
 20
1.0
 30
0.0
  9
$PUCSORTHOREF
  2

  9
$PUCSORTHOVIEW
 70
     0
  9
$PUCSORGTOP
 10
0.0
 20
0.0
 30
0.0
  9
$PUCSORGBOTTOM
 10
0.0
 20
0.0
 30
0.0
  9
$PUCSORGLEFT
 10
0.0
 20
0.0
 30
0.0
  9
$PUCSORGRIGHT
 10
0.0
 20
0.0
 30
0.0
  9
$PUCSORGFRONT
 10
0.0
 20
0.0
 30
0.0
  9
$PUCSORGBACK
 10
0.0
 20
0.0
 30
0.0
  9
$USERI1
 70
     0
  9
$USERI2
 70
     0
  9
$USERI3
 70
     0
  9
$USERI4
 70
     0
  9
$USERI5
 70
     0
  9
$USERR1
 40
0.0
  9
$USERR2
 40
0.0
  9
$USERR3
 40
0.0
  9
$USERR4
 40
0.0
  9
$USERR5
 40
0.0
  9
$WORLDVIEW
 70
     1
  9
$SHADEDGE
 70
     3
  9
$SHADEDIF
 70
    70
  9
$TILEMODE
 70
     1
  9
$MAXACTVP
 70
    16
  9
$PINSBASE
 10
0.0
 20
0.0
 30
0.0
  9
$PLIMCHECK
 70
     0
  9
$PEXTMIN
 10
1.000000E+20
 20
1.000000E+20
 30
1.000000E+20
  9
$PEXTMAX
 10
-1.000000E+20
 20
-1.000000E+20
 30
-1.000000E+20
  9
$PLIMMIN
 10
0.0
 20
0.0
  9
$PLIMMAX
 10
12.0
 20
9.0
  9
$UNITMODE
 70
     0
  9
$VISRETAIN
 70
     0
  9
$PLINEGEN
 70
     1
  9
$PSLTSCALE
 70
     0
  9
$TREEDEPTH
 70
  3020
  9
$CMLSTYLE
  2
Standard
  9
$CMLJUST
 70
     0
  9
$CMLSCALE
 40
1.0
  9
$PROXYGRAPHICS
 70
     0
  9
$MEASUREMENT
 70
     0
  9
$CELWEIGHT
370
     0
  9
$ENDCAPS
280
     0
  9
$JOINSTYLE
280
     0
  9
$LWDISPLAY
290
     0
  9
$INSUNITS
 70
     0
  9
$HYPERLINKBASE
  1

  9
$STYLESHEET
  1

  9
$XEDIT
290
     1
  9
$CEPSNTYPE
380
     0
  9
$PSTYLEMODE
290
     1
  9
$FINGERPRINTGUID
  2

  9
$VERSIONGUID
  2

  9
$EXTNAMES
290
     1
  9
$PSVPSCALE
 40
0.0
  0
ENDSEC
  0
SECTION
  2
CLASSES
  0
CLASS
  1
LWPOLYLINE
  2
AcDbPolyline
  3
AutoCAD 2000
 90
        0
280
     0
281
     1
  0
CLASS
  1
IMAGE
  2
AcDbRasterImage
  3
ISM
 90
      127
280
     0
281
     1
  0
CLASS
  1
OLE2FRAME
  2
AcDbOle2Frame
  3
AutoCAD 2000
 90
        0
280
     0
281
     1
  0
CLASS
  1
HATCH
  2
AcDbHatch
  3
AutoCAD 2000
 90
        0
280
     0
281
     1
  0
CLASS
  1
DICTIONARYVAR
  2
AcDbDictionaryVar
  3
AutoCAD 2000
 90
        0
280
     0
281
     0
  0
CLASS
  1
RASTERVARIABLES
  2
AcDbRasterVariables
  3
ISM
 90
        0
280
     0
281
     0
  0
CLASS
  1
IMAGEDEF
  2
AcDbRasterImageDef
  3
ISM
 90
        0
280
     0
281
     0
  0
CLASS
  1
IMAGEDEF_REACTOR
  2
AcDbRasterImageDefReactor
  3
ISM
 90
        1
280
     0
281
     0
  0
CLASS
  1
IDBUFFER
  2
AcDbIdBuffer
  3
AutoCAD 2000
 90
        0
280
     0
281
     0
  0
CLASS
  1
SPATIAL_FILTER
  2
AcDbSpatialFilter
  3
AutoCAD 2000
 90
        0
280
     0
281
     0
  0
CLASS
  1
XRECORD
  2
AcDbXrecord
  3
AutoCAD 2000
 90
        0
280
     0
281
     0
  0
CLASS
  1
SORTENTSTABLE
  2
AcDbSortentsTable
  3
AutoCAD 2000
 90
        0
280
     0
281
     0
  0
CLASS
  1
LAYER_INDEX
  2
AcDbLayerIndex
  3
AutoCAD 2000
 90
        0
280
     0
281
     0
  0
CLASS
  1
SPATIAL_INDEX
  2
AcDbSpatialIndex
  3
AutoCAD 2000
 90
        0
280
     0
281
     0
  0
CLASS
  1
OBJECT_PTR
  2
CAseDLPNTableRecord
  3
"ASE-LPNTableRecord"
 90
        1
280
     0
281
     0
  0
CLASS
  1
LAYOUT
  2
AcDbLayout
  3
AutoCAD 2000
 90
        0
280
     0
281
     0
  0
CLASS
  1
PLOTSETTINGS
  2
AcDbPlotSettings
  3
AutoCAD 2000
 90
        0
280
     0
281
     0
  0
CLASS
  1
ACDBDICTIONARYWDFLT
  2
AcDbDictionaryWithDefault
  3
AutoCAD 2000
 90
        0
280
     0
281
     0
  0
CLASS
  1
ACDBPLACEHOLDER
  2
AcDbPlaceHolder
  3
AutoCAD 2000
 90
        0
280
     0
281
     0
  0
CLASS
  1
VBA_PROJECT
  2
AcDbVbaProject
  3
acadvba
 90
        0
280
     0
281
     0
  0
CLASS
  1
WIPEOUT
  2
AcDbWipeout
  3
WipeOut|AutoCAD Express Tool|expresstools@autodesk.com
 90
      127
280
     0
281
     1
  0
CLASS
  1
WIPEOUTVARIABLES
  2
AcDbWipeoutVariables
  3
WipeOut|AutoCAD Express Tool|expresstools@autodesk.com
 90
        0
280
     0
281
     0
  0
CLASS
  1
RTEXT
  2
RText
  3
RText|AutoCAD Express Tool|expresstools@autodesk.com
 90
        0
280
     0
281
     1
  0
CLASS
  1
ARCALIGNEDTEXT
  2
AcDbArcAlignedText
  3
ATEXT|AutoCAD Express Tool|expresstools@autodesk.com
 90
        0
280
     0
281
     1
  0
ENDSEC
  0
SECTION
  2
TABLES
  0
TABLE
  2
VPORT
  5
6
100
AcDbSymbolTable
 70
     1
  0
VPORT
  5
1A
100
AcDbSymbolTableRecord
100
AcDbViewportTableRecord
  2
*ACTIVE
 70
     0
 10
0.0
 20
0.0
 11
1.0
 21
1.0
 12
0.0
 22
0.0
 13
0.0
 23
0.0
 14
1.0
 24
1.0
 15
0.0
 25
0.0
 16
0.0
 26
0.0
 36
1.0
 17
0.0
 27
0.0
 37
0.0
 40
594.0
 41
1.414141
 42
50.0
 43
0.0
 44
0.0
 50
0.0
 51
0.0
 71
     0
 72
   500
 73
     1
 74
     1
 75
     0
 76
     0
 77
     0
 78
     0
281
     0
 65
     0
110
0.0
120
0.0
130
0.0
111
1.0
121
0.0
131
0.0
112
0.0
122
1.0
132
0.0
345
0
346
0
 79
     0
146
0.0
  0
ENDTAB
  0
TABLE
  2
LTYPE
  5
3
100
AcDbSymbolTable
 70
     9
  0
LTYPE
  5
C
100
AcDbSymbolTableRecord
100
AcDbLinetypeTableRecord
  2
ByBlock
 70
    64
  3

 72
    65
 73
     0
 40
0.0
  0
LTYPE
  5
D
100
AcDbSymbolTableRecord
100
AcDbLinetypeTableRecord
  2
ByLayer
 70
    64
  3

 72
    65
 73
     0
 40
0.0
  0
LTYPE
  5
E
100
AcDbSymbolTableRecord
100
AcDbLinetypeTableRecord
  2
CONTINUOUS
 70
     0
  3
Solid line
 72
    65
 73
     0
 40
0.0
  0
LTYPE
  5
F
100
AcDbSymbolTableRecord
100
AcDbLinetypeTableRecord
  2
DASHED
 70
     0
  3
__ __ __ __ __ __ __ __ __ __ __ __ __ __ __
 72
    65
 73
     2
 40
2.0
 49
1.2
 74
     0
 49
-0.8
 74
     0
  0
LTYPE
  5
10
100
AcDbSymbolTableRecord
100
AcDbLinetypeTableRecord
  2
CENTER
 70
     0
  3
____ _ ____ _ ____ _ ____ _ ____ _ ____ _ ____
 72
    65
 73
     4
 40
12.0
 49
9.0
 74
     0
 49
-1.0
 74
     0
 49
1.0
 74
     0
 49
-1.0
 74
     0
  0
LTYPE
  5
11
100
AcDbSymbolTableRecord
100
AcDbLinetypeTableRecord
  2
HIDDEN
 70
     0
  3
_ _ _ _ _ _ _ _ _ _ _ _ _ _ _ _ _ _ _ _ _ _ _
 72
    65
 73
     2
 40
3.2
 49
1.3
 74
     0
 49
-1.9
 74
     0
  0
LTYPE
  5
12
100
AcDbSymbolTableRecord
100
AcDbLinetypeTableRecord
  2
PHANTOM
 70
     0
  3
_____ _ _ _____ _ _ _____ _ _ _____ _ _ _____
 72
    65
 73
     6
 40
12.5
 49
9.0
 74
     0
 49
-1.0
 74
     0
 49
0.5
 74
     0
 49
-0.5
 74
     0
 49
0.5
 74
     0
 49
-1.0
 74
     0
  0
LTYPE
  5
13
100
AcDbSymbolTableRecord
100
AcDbLinetypeTableRecord
  2
DOT
 70
     0
  3
...............................................
 72
    65
 73
     2
 40
1.0
 49
0.5
 74
     0
 49
-0.5
 74
     0
  0
LTYPE
  5
14
100
AcDbSymbolTableRecord
100
AcDbLinetypeTableRecord
  2
DASHDOT
 70
     0
  3
__ . __ . __ . __ . __ . __ . __ . __ . __ . __
 72
    65
 73
     4
 40
8.0
 49
5.0
 74
     0
 49
-1.0
 74
     0
 49
1.0
 74
     0
 49
-1.0
 74
     0
  0
ENDTAB
  0
TABLE
  2
LAYER
  5
1
100
AcDbSymbolTable
 70
     5
  0
LAYER
  5
15
100
AcDbSymbolTableRecord
100
AcDbLayerTableRecord
  2
0
 70
     0
 62
     8
  6
CONTINUOUS
290
     1
370
    -3
390
0
  0
LAYER
  5
16
100
AcDbSymbolTableRecord
100
AcDbLayerTableRecord
  2
1
 70
     0
 62
     2
  6
CONTINUOUS
290
     1
370
    -3
390
0
  0
LAYER
  5
17
100
AcDbSymbolTableRecord
100
AcDbLayerTableRecord
  2
2
 70
     0
 62
     3
  6
CONTINUOUS
290
     1
370
    -3
390
0
  0
LAYER
  5
18
100
AcDbSymbolTableRecord
100
AcDbLayerTableRecord
  2
3
 70
     0
 62
     4
  6
CONTINUOUS
290
     1
370
    -3
390
0
  0
LAYER
  5
19
100
AcDbSymbolTableRecord
100
AcDbLayerTableRecord
  2
4
 70
     0
 62
     1
  6
CONTINUOUS
290
     1
370
    -3
390
0
  0
ENDTAB
  0
TABLE
  2
STYLE
  5
2
100
AcDbSymbolTable
 70
     1
  0
STYLE
  5
1C
100
AcDbSymbolTableRecord
100
AcDbTextStyleTableRecord
  2
STANDARD
 70
    64
 40
0.0
 41
1.0
 50
0.0
 71
     0
 42
1.0
  3
txt
  4
BIGFONT
  0
ENDTAB
  0
TABLE
  2
VIEW
  5
4
100
AcDbSymbolTable
 70
     0
  0
ENDTAB
  0
TABLE
  2
UCS
  5
5
100
AcDbSymbolTable
 70
     0
  0
ENDTAB
  0
TABLE
  2
APPID
  5
7
100
AcDbSymbolTable
 70
     1
  0
APPID
  5
1B
100
AcDbSymbolTableRecord
100
AcDbRegAppTableRecord
  2
ACAD
 70
     0
  0
ENDTAB
  0
TABLE
  2
DIMSTYLE
  5
8
100
AcDbSymbolTable
 70
     1
100
AcDbDimStyleTable
 71
     0
  0
DIMSTYLE
105
58
100
AcDbSymbolTableRecord
100
AcDbDimStyleTableRecord
  2
Standard
 70
     0
  3

  4

 40
2.0
 41
2.0
 42
0.5
 43
0.38
 44
2.0
 45
0.0
 46
0.0
 47
0.0
 48
0.0
 71
     0
 72
     0
 73
     0
 74
     0
 75
     0
 76
     0
 77
     1
 78
     0
 79
     0
140
2.5
141
0.09
142
0.0
143
25.4
144
1.0
145
0.0
146
1.0
147
0.5
148
0.0
170
     0
171
     2
172
     0
173
     0
174
     0
175
     0
176
     0
177
     0
178
     0
179
     0
271
     2
272
     4
273
     2
274
     2
275
     0
276
     0
277
     2
278
    46
279
     0
280
     0
281
     0
282
     0
283
     1
284
     0
285
     0
286
     0
288
     0
289
     3
340
1C
341
0
342
0
343
0
344
0
371
    -2
372
    -2
  0
ENDTAB
  0
TABLE
  2
BLOCK_RECORD
  5
53
100
AcDbSymbolTable
 70
    52
  0
BLOCK_RECORD
  5
51
100
AcDbSymbolTableRecord
100
AcDbBlockTableRecord
  2
*Model_Space
340
0
  0
BLOCK_RECORD
  5
52
100
AcDbSymbolTableRecord
100
AcDbBlockTableRecord
  2
*Paper_Space
340
0
  0
BLOCK_RECORD
  5
1D
100
AcDbSymbolTableRecord
100
AcDbBlockTableRecord
  2
*D0
340
0
  0
BLOCK_RECORD
  5
1E
100
AcDbSymbolTableRecord
100
AcDbBlockTableRecord
  2
*D1
340
0
  0
BLOCK_RECORD
  5
1F
100
AcDbSymbolTableRecord
100
AcDbBlockTableRecord
  2
*D2
340
0
  0
BLOCK_RECORD
  5
20
100
AcDbSymbolTableRecord
100
AcDbBlockTableRecord
  2
*D3
340
0
  0
BLOCK_RECORD
  5
21
100
AcDbSymbolTableRecord
100
AcDbBlockTableRecord
  2
*D4
340
0
  0
BLOCK_RECORD
  5
22
100
AcDbSymbolTableRecord
100
AcDbBlockTableRecord
  2
*D5
340
0
  0
BLOCK_RECORD
  5
23
100
AcDbSymbolTableRecord
100
AcDbBlockTableRecord
  2
*D6
340
0
  0
BLOCK_RECORD
  5
24
100
AcDbSymbolTableRecord
100
AcDbBlockTableRecord
  2
*D7
340
0
  0
BLOCK_RECORD
  5
25
100
AcDbSymbolTableRecord
100
AcDbBlockTableRecord
  2
*D8
340
0
  0
BLOCK_RECORD
  5
26
100
AcDbSymbolTableRecord
100
AcDbBlockTableRecord
  2
*D9
340
0
  0
BLOCK_RECORD
  5
27
100
AcDbSymbolTableRecord
100
AcDbBlockTableRecord
  2
*D10
340
0
  0
BLOCK_RECORD
  5
28
100
AcDbSymbolTableRecord
100
AcDbBlockTableRecord
  2
*D11
340
0
  0
BLOCK_RECORD
  5
29
100
AcDbSymbolTableRecord
100
AcDbBlockTableRecord
  2
*D12
340
0
  0
BLOCK_RECORD
  5
2A
100
AcDbSymbolTableRecord
100
AcDbBlockTableRecord
  2
*D13
340
0
  0
BLOCK_RECORD
  5
2B
100
AcDbSymbolTableRecord
100
AcDbBlockTableRecord
  2
*D14
340
0
  0
BLOCK_RECORD
  5
2C
100
AcDbSymbolTableRecord
100
AcDbBlockTableRecord
  2
*D15
340
0
  0
BLOCK_RECORD
  5
2D
100
AcDbSymbolTableRecord
100
AcDbBlockTableRecord
  2
*D16
340
0
  0
BLOCK_RECORD
  5
2E
100
AcDbSymbolTableRecord
100
AcDbBlockTableRecord
  2
*D17
340
0
  0
BLOCK_RECORD
  5
2F
100
AcDbSymbolTableRecord
100
AcDbBlockTableRecord
  2
*D18
340
0
  0
BLOCK_RECORD
  5
30
100
AcDbSymbolTableRecord
100
AcDbBlockTableRecord
  2
*D19
340
0
  0
BLOCK_RECORD
  5
31
100
AcDbSymbolTableRecord
100
AcDbBlockTableRecord
  2
*D20
340
0
  0
BLOCK_RECORD
  5
32
100
AcDbSymbolTableRecord
100
AcDbBlockTableRecord
  2
*D21
340
0
  0
BLOCK_RECORD
  5
33
100
AcDbSymbolTableRecord
100
AcDbBlockTableRecord
  2
*D22
340
0
  0
BLOCK_RECORD
  5
34
100
AcDbSymbolTableRecord
100
AcDbBlockTableRecord
  2
*D23
340
0
  0
BLOCK_RECORD
  5
35
100
AcDbSymbolTableRecord
100
AcDbBlockTableRecord
  2
*D24
340
0
  0
BLOCK_RECORD
  5
36
100
AcDbSymbolTableRecord
100
AcDbBlockTableRecord
  2
*D25
340
0
  0
BLOCK_RECORD
  5
37
100
AcDbSymbolTableRecord
100
AcDbBlockTableRecord
  2
*D26
340
0
  0
BLOCK_RECORD
  5
38
100
AcDbSymbolTableRecord
100
AcDbBlockTableRecord
  2
*D27
340
0
  0
BLOCK_RECORD
  5
39
100
AcDbSymbolTableRecord
100
AcDbBlockTableRecord
  2
*D28
340
0
  0
BLOCK_RECORD
  5
3A
100
AcDbSymbolTableRecord
100
AcDbBlockTableRecord
  2
*D29
340
0
  0
BLOCK_RECORD
  5
3B
100
AcDbSymbolTableRecord
100
AcDbBlockTableRecord
  2
*D30
340
0
  0
BLOCK_RECORD
  5
3C
100
AcDbSymbolTableRecord
100
AcDbBlockTableRecord
  2
*D31
340
0
  0
BLOCK_RECORD
  5
3D
100
AcDbSymbolTableRecord
100
AcDbBlockTableRecord
  2
*D32
340
0
  0
BLOCK_RECORD
  5
3E
100
AcDbSymbolTableRecord
100
AcDbBlockTableRecord
  2
*D33
340
0
  0
BLOCK_RECORD
  5
3F
100
AcDbSymbolTableRecord
100
AcDbBlockTableRecord
  2
*D34
340
0
  0
BLOCK_RECORD
  5
40
100
AcDbSymbolTableRecord
100
AcDbBlockTableRecord
  2
*D35
340
0
  0
BLOCK_RECORD
  5
41
100
AcDbSymbolTableRecord
100
AcDbBlockTableRecord
  2
*D36
340
0
  0
BLOCK_RECORD
  5
42
100
AcDbSymbolTableRecord
100
AcDbBlockTableRecord
  2
*D37
340
0
  0
BLOCK_RECORD
  5
43
100
AcDbSymbolTableRecord
100
AcDbBlockTableRecord
  2
*D38
340
0
  0
BLOCK_RECORD
  5
44
100
AcDbSymbolTableRecord
100
AcDbBlockTableRecord
  2
*D39
340
0
  0
BLOCK_RECORD
  5
45
100
AcDbSymbolTableRecord
100
AcDbBlockTableRecord
  2
*D40
340
0
  0
BLOCK_RECORD
  5
46
100
AcDbSymbolTableRecord
100
AcDbBlockTableRecord
  2
*D41
340
0
  0
BLOCK_RECORD
  5
47
100
AcDbSymbolTableRecord
100
AcDbBlockTableRecord
  2
*D42
340
0
  0
BLOCK_RECORD
  5
48
100
AcDbSymbolTableRecord
100
AcDbBlockTableRecord
  2
*D43
340
0
  0
BLOCK_RECORD
  5
49
100
AcDbSymbolTableRecord
100
AcDbBlockTableRecord
  2
*D44
340
0
  0
BLOCK_RECORD
  5
4A
100
AcDbSymbolTableRecord
100
AcDbBlockTableRecord
  2
*D45
340
0
  0
BLOCK_RECORD
  5
4B
100
AcDbSymbolTableRecord
100
AcDbBlockTableRecord
  2
*D46
340
0
  0
BLOCK_RECORD
  5
4C
100
AcDbSymbolTableRecord
100
AcDbBlockTableRecord
  2
*D47
340
0
  0
BLOCK_RECORD
  5
4D
100
AcDbSymbolTableRecord
100
AcDbBlockTableRecord
  2
*D48
340
0
  0
BLOCK_RECORD
  5
4E
100
AcDbSymbolTableRecord
100
AcDbBlockTableRecord
  2
*D49
340
0
  0
BLOCK_RECORD
  5
4F
100
AcDbSymbolTableRecord
100
AcDbBlockTableRecord
  2
*D50
340
0
  0
BLOCK_RECORD
  5
50
100
AcDbSymbolTableRecord
100
AcDbBlockTableRecord
  2
*D51
340
0
  0
ENDTAB
  0
ENDSEC
  0
SECTION
  2
BLOCKS
  0
BLOCK
  5
54
100
AcDbEntity
  8
0
390
0
100
AcDbBlockBegin
  2
*Model_Space
 70
     0
 10
0.0
 20
0.0
 30
0.0
  3
*Model_Space
  1

  0
ENDBLK
  5
55
100
AcDbEntity
  8
0
390
0
100
AcDbBlockEnd
  0
BLOCK
  5
56
100
AcDbEntity
 67
     1
  8
0
390
0
100
AcDbBlockBegin
  2
*Paper_Space
 70
     0
 10
0.0
 20
0.0
 30
0.0
  3
*Paper_Space
  1

  0
ENDBLK
  5
57
100
AcDbEntity
 67
     1
  8
0
390
0
100
AcDbBlockEnd
  0
BLOCK
  5
700
100
AcDbEntity
  8
2
100
AcDbBlockBegin
  2
*D0
 70
     1
 10
0.0
 20
0.0
 30
0.0
  3
*D0
  1

  0
TEXT
  5
701
100
AcDbEntity
  8
2
370
    25
100
AcDbText
 10
277.359039
 20
172.406181
 30
0.0
 40
5.0
  1
27
 50
90.0
 41
2.0
 72
     5
 11
277.359039
 21
180.406181
 31
0.0
100
AcDbText
  0
LINE
  5
702
100
AcDbEntity
  8
2
370
    25
100
AcDbLine
 10
256.359039
 20
163.906181
 30
0.0
 11
280.359039
 21
163.906181
 31
0.0
  0
LINE
  5
703
100
AcDbEntity
  8
2
370
    25
100
AcDbLine
 10
278.359039
 20
163.906181
 30
0.0
 11
279.394315
 21
167.769885
 31
0.0
  0
LINE
  5
704
100
AcDbEntity
  8
2
370
    25
100
AcDbLine
 10
278.359039
 20
163.906181
 30
0.0
 11
277.323763
 21
167.769885
 31
0.0
  0
LINE
  5
705
100
AcDbEntity
  8
2
370
    25
100
AcDbLine
 10
278.359039
 20
163.906181
 30
0.0
 11
278.359039
 21
190.906181
 31
0.0
  0
LINE
  5
706
100
AcDbEntity
  8
2
370
    25
100
AcDbLine
 10
278.359039
 20
190.906181
 30
0.0
 11
277.323763
 21
187.042478
 31
0.0
  0
LINE
  5
707
100
AcDbEntity
  8
2
370
    25
100
AcDbLine
 10
278.359039
 20
190.906181
 30
0.0
 11
279.394315
 21
187.042478
 31
0.0
  0
LINE
  5
708
100
AcDbEntity
  8
2
370
    25
100
AcDbLine
 10
256.359039
 20
190.906181
 30
0.0
 11
280.359039
 21
190.906181
 31
0.0
  0
ENDBLK
  5
709
100
AcDbEntity
  8
2
100
AcDbBlockEnd
  0
BLOCK
  5
70A
100
AcDbEntity
  8
2
100
AcDbBlockBegin
  2
*D1
 70
     1
 10
0.0
 20
0.0
 30
0.0
  3
*D1
  1

  0
TEXT
  5
70B
100
AcDbEntity
  8
2
370
    25
100
AcDbText
 10
285.359039
 20
172.406181
 30
0.0
 40
5.0
  1
50
 50
90.0
 41
2.0
 72
     5
 11
285.359039
 21
180.406181
 31
0.0
100
AcDbText
  0
LINE
  5
70C
100
AcDbEntity
  8
2
370
    25
100
AcDbLine
 10
257.883886
 20
152.406181
 30
0.0
 11
288.359039
 21
152.406181
 31
0.0
  0
LINE
  5
70D
100
AcDbEntity
  8
2
370
    25
100
AcDbLine
 10
286.359039
 20
152.406181
 30
0.0
 11
287.394315
 21
156.269885
 31
0.0
  0
LINE
  5
70E
100
AcDbEntity
  8
2
370
    25
100
AcDbLine
 10
286.359039
 20
152.406181
 30
0.0
 11
285.323763
 21
156.269885
 31
0.0
  0
LINE
  5
70F
100
AcDbEntity
  8
2
370
    25
100
AcDbLine
 10
286.359039
 20
152.406181
 30
0.0
 11
286.359039
 21
202.406181
 31
0.0
  0
LINE
  5
710
100
AcDbEntity
  8
2
370
    25
100
AcDbLine
 10
286.359039
 20
202.406181
 30
0.0
 11
285.323763
 21
198.542478
 31
0.0
  0
LINE
  5
711
100
AcDbEntity
  8
2
370
    25
100
AcDbLine
 10
286.359039
 20
202.406181
 30
0.0
 11
287.394315
 21
198.542478
 31
0.0
  0
LINE
  5
712
100
AcDbEntity
  8
2
370
    25
100
AcDbLine
 10
257.883886
 20
202.406181
 30
0.0
 11
288.359039
 21
202.406181
 31
0.0
  0
ENDBLK
  5
713
100
AcDbEntity
  8
2
100
AcDbBlockEnd
  0
BLOCK
  5
714
100
AcDbEntity
  8
2
100
AcDbBlockBegin
  2
*D2
 70
     1
 10
0.0
 20
0.0
 30
0.0
  3
*D2
  1

  0
TEXT
  5
715
100
AcDbEntity
  8
2
370
    25
100
AcDbText
 10
293.359039
 20
172.406181
 30
0.0
 40
5.0
  1
66
 50
90.0
 41
2.0
 72
     5
 11
293.359039
 21
180.406181
 31
0.0
100
AcDbText
  0
LINE
  5
716
100
AcDbEntity
  8
2
370
    25
100
AcDbLine
 10
263.359039
 20
144.406181
 30
0.0
 11
296.359039
 21
144.406181
 31
0.0
  0
LINE
  5
717
100
AcDbEntity
  8
2
370
    25
100
AcDbLine
 10
294.359039
 20
144.406181
 30
0.0
 11
295.394315
 21
148.269885
 31
0.0
  0
LINE
  5
718
100
AcDbEntity
  8
2
370
    25
100
AcDbLine
 10
294.359039
 20
144.406181
 30
0.0
 11
293.323763
 21
148.269885
 31
0.0
  0
LINE
  5
719
100
AcDbEntity
  8
2
370
    25
100
AcDbLine
 10
294.359039
 20
144.406181
 30
0.0
 11
294.359039
 21
210.406181
 31
0.0
  0
LINE
  5
71A
100
AcDbEntity
  8
2
370
    25
100
AcDbLine
 10
294.359039
 20
210.406181
 30
0.0
 11
293.323763
 21
206.542478
 31
0.0
  0
LINE
  5
71B
100
AcDbEntity
  8
2
370
    25
100
AcDbLine
 10
294.359039
 20
210.406181
 30
0.0
 11
295.394315
 21
206.542478
 31
0.0
  0
LINE
  5
71C
100
AcDbEntity
  8
2
370
    25
100
AcDbLine
 10
263.359039
 20
210.406181
 30
0.0
 11
296.359039
 21
210.406181
 31
0.0
  0
ENDBLK
  5
71D
100
AcDbEntity
  8
2
100
AcDbBlockEnd
  0
BLOCK
  5
71E
100
AcDbEntity
  8
2
100
AcDbBlockBegin
  2
*D3
 70
     1
 10
0.0
 20
0.0
 30
0.0
  3
*D3
  1

  0
TEXT
  5
71F
100
AcDbEntity
  8
2
370
    25
100
AcDbText
 10
344.330943
 20
167.40618
 30
0.0
 40
5.0
  1
30.2
 50
90.0
 41
2.0
 72
     5
 11
344.330943
 21
185.40618
 31
0.0
100
AcDbText
  0
LINE
  5
720
100
AcDbEntity
  8
2
370
    25
100
AcDbLine
 10
318.057732
 20
162.30618
 30
0.0
 11
347.330943
 21
162.30618
 31
0.0
  0
LINE
  5
721
100
AcDbEntity
  8
2
370
    25
100
AcDbLine
 10
345.330943
 20
162.30618
 30
0.0
 11
346.366219
 21
166.169883
 31
0.0
  0
LINE
  5
722
100
AcDbEntity
  8
2
370
    25
100
AcDbLine
 10
345.330943
 20
162.30618
 30
0.0
 11
344.295667
 21
166.169883
 31
0.0
  0
LINE
  5
723
100
AcDbEntity
  8
2
370
    25
100
AcDbLine
 10
345.330943
 20
162.30618
 30
0.0
 11
345.330943
 21
192.50618
 31
0.0
  0
LINE
  5
724
100
AcDbEntity
  8
2
370
    25
100
AcDbLine
 10
345.330943
 20
192.50618
 30
0.0
 11
344.295667
 21
188.642477
 31
0.0
  0
LINE
  5
725
100
AcDbEntity
  8
2
370
    25
100
AcDbLine
 10
345.330943
 20
192.50618
 30
0.0
 11
346.366219
 21
188.642477
 31
0.0
  0
LINE
  5
726
100
AcDbEntity
  8
2
370
    25
100
AcDbLine
 10
318.057732
 20
192.50618
 30
0.0
 11
347.330943
 21
192.50618
 31
0.0
  0
ENDBLK
  5
727
100
AcDbEntity
  8
2
100
AcDbBlockEnd
  0
BLOCK
  5
728
100
AcDbEntity
  8
2
100
AcDbBlockBegin
  2
*D4
 70
     1
 10
0.0
 20
0.0
 30
0.0
  3
*D4
  1

  0
TEXT
  5
729
100
AcDbEntity
  8
2
370
    25
100
AcDbText
 10
352.330943
 20
167.40618
 30
0.0
 40
5.0
  1
65.6
 50
90.0
 41
2.0
 72
     5
 11
352.330943
 21
185.40618
 31
0.0
100
AcDbText
  0
LINE
  5
72A
100
AcDbEntity
  8
2
370
    25
100
AcDbLine
 10
316.657047
 20
144.606059
 30
0.0
 11
355.330943
 21
144.606059
 31
0.0
  0
LINE
  5
72B
100
AcDbEntity
  8
2
370
    25
100
AcDbLine
 10
353.330943
 20
144.606059
 30
0.0
 11
354.366219
 21
148.469762
 31
0.0
  0
LINE
  5
72C
100
AcDbEntity
  8
2
370
    25
100
AcDbLine
 10
353.330943
 20
144.606059
 30
0.0
 11
352.295667
 21
148.469762
 31
0.0
  0
LINE
  5
72D
100
AcDbEntity
  8
2
370
    25
100
AcDbLine
 10
353.330943
 20
144.606059
 30
0.0
 11
353.330943
 21
210.206301
 31
0.0
  0
LINE
  5
72E
100
AcDbEntity
  8
2
370
    25
100
AcDbLine
 10
353.330943
 20
210.206301
 30
0.0
 11
352.295667
 21
206.342597
 31
0.0
  0
LINE
  5
72F
100
AcDbEntity
  8
2
370
    25
100
AcDbLine
 10
353.330943
 20
210.206301
 30
0.0
 11
354.366219
 21
206.342597
 31
0.0
  0
LINE
  5
730
100
AcDbEntity
  8
2
370
    25
100
AcDbLine
 10
316.657047
 20
210.206301
 30
0.0
 11
355.330943
 21
210.206301
 31
0.0
  0
ENDBLK
  5
731
100
AcDbEntity
  8
2
100
AcDbBlockEnd
  0
BLOCK
  5
732
100
AcDbEntity
  8
2
100
AcDbBlockBegin
  2
*D5
 70
     1
 10
0.0
 20
0.0
 30
0.0
  3
*D5
  1

  0
TEXT
  5
733
100
AcDbEntity
  8
2
370
    25
100
AcDbText
 10
257.859039
 20
239.406181
 30
0.0
 40
5.0
  1
7
 41
2.0
 72
     5
 11
260.859039
 21
239.406181
 31
0.0
100
AcDbText
  0
LINE
  5
734
100
AcDbEntity
  8
2
370
    25
100
AcDbLine
 10
242.859039
 20
189.206181
 30
0.0
 11
242.859039
 21
240.406181
 31
0.0
  0
LINE
  5
735
100
AcDbEntity
  8
2
370
    25
100
AcDbLine
 10
242.859039
 20
238.406181
 30
0.0
 11
238.995336
 21
239.441457
 31
0.0
  0
LINE
  5
736
100
AcDbEntity
  8
2
370
    25
100
AcDbLine
 10
242.859039
 20
238.406181
 30
0.0
 11
238.995336
 21
237.370905
 31
0.0
  0
LINE
  5
737
100
AcDbEntity
  8
2
370
    25
100
AcDbLine
 10
232.859039
 20
238.406181
 30
0.0
 11
264.859039
 21
238.406181
 31
0.0
  0
LINE
  5
738
100
AcDbEntity
  8
2
370
    25
100
AcDbLine
 10
249.859039
 20
238.406181
 30
0.0
 11
253.722743
 21
237.370905
 31
0.0
  0
LINE
  5
739
100
AcDbEntity
  8
2
370
    25
100
AcDbLine
 10
249.859039
 20
238.406181
 30
0.0
 11
253.722743
 21
239.441457
 31
0.0
  0
LINE
  5
73A
100
AcDbEntity
  8
2
370
    25
100
AcDbLine
 10
249.859039
 20
216.353597
 30
0.0
 11
249.859039
 21
240.406181
 31
0.0
  0
ENDBLK
  5
73B
100
AcDbEntity
  8
2
100
AcDbBlockEnd
  0
BLOCK
  5
73C
100
AcDbEntity
  8
2
100
AcDbBlockBegin
  2
*D6
 70
     1
 10
0.0
 20
0.0
 30
0.0
  3
*D6
  1

  0
LINE
  5
73D
100
AcDbEntity
  8
2
370
    25
100
AcDbLine
 10
224.859039
 20
128.406181
 30
0.0
 11
228.722743
 21
127.370905
 31
0.0
  0
LINE
  5
73E
100
AcDbEntity
  8
2
370
    25
100
AcDbLine
 10
224.859039
 20
128.406181
 30
0.0
 11
228.722743
 21
129.441457
 31
0.0
  0
LINE
  5
73F
100
AcDbEntity
  8
2
370
    25
100
AcDbLine
 10
224.859039
 20
128.406181
 30
0.0
 11
249.859039
 21
128.406181
 31
0.0
  0
LINE
  5
740
100
AcDbEntity
  8
2
370
    25
100
AcDbLine
 10
249.859039
 20
128.406181
 30
0.0
 11
245.995336
 21
129.441457
 31
0.0
  0
LINE
  5
741
100
AcDbEntity
  8
2
370
    25
100
AcDbLine
 10
249.859039
 20
128.406181
 30
0.0
 11
245.995336
 21
127.370905
 31
0.0
  0
LINE
  5
742
100
AcDbEntity
  8
2
370
    25
100
AcDbLine
 10
249.859039
 20
141.072301
 30
0.0
 11
249.859039
 21
126.406181
 31
0.0
  0
ENDBLK
  5
743
100
AcDbEntity
  8
2
100
AcDbBlockEnd
  0
BLOCK
  5
744
100
AcDbEntity
  8
2
100
AcDbBlockBegin
  2
*D7
 70
     1
 10
0.0
 20
0.0
 30
0.0
  3
*D7
  1

  0
TEXT
  5
745
100
AcDbEntity
  8
2
370
    25
100
AcDbText
 10
270.359039
 20
129.406181
 30
0.0
 40
5.0
  1
12.5
 41
2.0
 72
     5
 11
288.359039
 21
129.406181
 31
0.0
100
AcDbText
  0
LINE
  5
746
100
AcDbEntity
  8
2
370
    25
100
AcDbLine
 10
249.859039
 20
128.406181
 30
0.0
 11
245.995336
 21
129.441457
 31
0.0
  0
LINE
  5
747
100
AcDbEntity
  8
2
370
    25
100
AcDbLine
 10
249.859039
 20
128.406181
 30
0.0
 11
245.995336
 21
127.370905
 31
0.0
  0
LINE
  5
748
100
AcDbEntity
  8
2
370
    25
100
AcDbLine
 10
239.859039
 20
128.406181
 30
0.0
 11
292.359039
 21
128.406181
 31
0.0
  0
LINE
  5
749
100
AcDbEntity
  8
2
370
    25
100
AcDbLine
 10
262.359039
 20
128.406181
 30
0.0
 11
266.222743
 21
127.370905
 31
0.0
  0
LINE
  5
74A
100
AcDbEntity
  8
2
370
    25
100
AcDbLine
 10
262.359039
 20
128.406181
 30
0.0
 11
266.222743
 21
129.441457
 31
0.0
  0
ENDBLK
  5
74B
100
AcDbEntity
  8
2
100
AcDbBlockEnd
  0
BLOCK
  5
74C
100
AcDbEntity
  8
2
100
AcDbBlockBegin
  2
*D8
 70
     1
 10
0.0
 20
0.0
 30
0.0
  3
*D8
  1

  0
LINE
  5
74D
100
AcDbEntity
  8
2
370
    25
100
AcDbLine
 10
224.859039
 20
148.406181
 30
0.0
 11
224.859039
 21
116.406181
 31
0.0
  0
LINE
  5
74E
100
AcDbEntity
  8
2
370
    25
100
AcDbLine
 10
224.859039
 20
118.406181
 30
0.0
 11
228.722743
 21
117.370905
 31
0.0
  0
LINE
  5
74F
100
AcDbEntity
  8
2
370
    25
100
AcDbLine
 10
224.859039
 20
118.406181
 30
0.0
 11
228.722743
 21
119.441457
 31
0.0
  0
LINE
  5
750
100
AcDbEntity
  8
2
370
    25
100
AcDbLine
 10
224.859039
 20
118.406181
 30
0.0
 11
262.359039
 21
118.406181
 31
0.0
  0
LINE
  5
751
100
AcDbEntity
  8
2
370
    25
100
AcDbLine
 10
262.359039
 20
118.406181
 30
0.0
 11
258.495336
 21
119.441457
 31
0.0
  0
LINE
  5
752
100
AcDbEntity
  8
2
370
    25
100
AcDbLine
 10
262.359039
 20
118.406181
 30
0.0
 11
258.495336
 21
117.370905
 31
0.0
  0
LINE
  5
753
100
AcDbEntity
  8
2
370
    25
100
AcDbLine
 10
262.359039
 20
143.406181
 30
0.0
 11
262.359039
 21
116.406181
 31
0.0
  0
ENDBLK
  5
754
100
AcDbEntity
  8
2
100
AcDbBlockEnd
  0
BLOCK
  5
755
100
AcDbEntity
  8
2
100
AcDbBlockBegin
  2
*D9
 70
     1
 10
0.0
 20
0.0
 30
0.0
  3
*D9
  1

  0
TEXT
  5
756
100
AcDbEntity
  8
2
370
    25
100
AcDbText
 10
274.624752
 20
106.883154
 30
0.0
 40
5.0
  1
1
 50
90.0
 41
2.0
 72
     5
 11
274.624752
 21
109.883154
 31
0.0
100
AcDbText
  0
LINE
  5
757
100
AcDbEntity
  8
2
370
    25
100
AcDbLine
 10
263.359039
 20
101.883154
 30
0.0
 11
277.624752
 21
101.883154
 31
0.0
  0
LINE
  5
758
100
AcDbEntity
  8
2
370
    25
100
AcDbLine
 10
275.624752
 20
101.883154
 30
0.0
 11
275.624752
 21
113.883154
 31
0.0
  0
LINE
  5
759
100
AcDbEntity
  8
2
370
    25
100
AcDbLine
 10
275.624752
 20
102.883154
 30
0.0
 11
276.660028
 21
106.746857
 31
0.0
  0
LINE
  5
75A
100
AcDbEntity
  8
2
370
    25
100
AcDbLine
 10
275.624752
 20
102.883154
 30
0.0
 11
274.589476
 21
106.746857
 31
0.0
  0
CIRCLE
  5
75B
100
AcDbEntity
  8
2
370
    25
100
AcDbCircle
 10
275.624752
 20
101.883154
 30
0.0
 40
1.0
  0
CIRCLE
  5
75C
100
AcDbEntity
  8
2
370
    25
100
AcDbCircle
 10
275.624752
 20
101.883154
 30
0.0
 40
0.6
  0
ENDBLK
  5
75D
100
AcDbEntity
  8
2
100
AcDbBlockEnd
  0
BLOCK
  5
75E
100
AcDbEntity
  8
2
100
AcDbBlockBegin
  2
*D10
 70
     1
 10
0.0
 20
0.0
 30
0.0
  3
*D10
  1

  0
TEXT
  5
75F
100
AcDbEntity
  8
2
370
    25
100
AcDbText
 10
274.439999
 20
77.435422
 30
0.0
 40
5.0
  1
1.9
 50
90.0
 41
2.0
 72
     5
 11
274.439999
 21
90.435422
 31
0.0
100
AcDbText
  0
LINE
  5
760
100
AcDbEntity
  8
2
370
    25
100
AcDbLine
 10
260.692632
 20
99.983154
 30
0.0
 11
277.624752
 21
99.983154
 31
0.0
  0
LINE
  5
761
100
AcDbEntity
  8
2
370
    25
100
AcDbLine
 10
275.624752
 20
99.983154
 30
0.0
 11
274.589476
 21
96.11945
 31
0.0
  0
LINE
  5
762
100
AcDbEntity
  8
2
370
    25
100
AcDbLine
 10
275.624752
 20
99.983154
 30
0.0
 11
276.660028
 21
96.11945
 31
0.0
  0
LINE
  5
763
100
AcDbEntity
  8
2
370
    25
100
AcDbLine
 10
275.624752
 20
78.983154
 30
0.0
 11
275.624752
 21
101.883154
 31
0.0
  0
CIRCLE
  5
764
100
AcDbEntity
  8
2
370
    25
100
AcDbCircle
 10
275.624752
 20
101.883154
 30
0.0
 40
1.0
  0
CIRCLE
  5
765
100
AcDbEntity
  8
2
370
    25
100
AcDbCircle
 10
275.624752
 20
101.883154
 30
0.0
 40
0.6
  0
ENDBLK
  5
766
100
AcDbEntity
  8
2
100
AcDbBlockEnd
  0
BLOCK
  5
767
100
AcDbEntity
  8
2
100
AcDbBlockBegin
  2
*D11
 70
     1
 10
0.0
 20
0.0
 30
0.0
  3
*D11
  1

  0
TEXT
  5
768
100
AcDbEntity
  8
2
370
    25
100
AcDbText
 10
283.959713
 20
92.883154
 30
0.0
 40
5.0
  1
10
 50
90.0
 41
2.0
 72
     5
 11
283.959713
 21
100.883154
 31
0.0
100
AcDbText
  0
LINE
  5
769
100
AcDbEntity
  8
2
370
    25
100
AcDbLine
 10
257.979724
 20
92.883154
 30
0.0
 11
286.959713
 21
92.883154
 31
0.0
  0
LINE
  5
76A
100
AcDbEntity
  8
2
370
    25
100
AcDbLine
 10
284.959713
 20
92.883154
 30
0.0
 11
285.994989
 21
96.746857
 31
0.0
  0
LINE
  5
76B
100
AcDbEntity
  8
2
370
    25
100
AcDbLine
 10
284.959713
 20
92.883154
 30
0.0
 11
283.924437
 21
96.746857
 31
0.0
  0
LINE
  5
76C
100
AcDbEntity
  8
2
370
    25
100
AcDbLine
 10
284.959713
 20
92.883154
 30
0.0
 11
284.959713
 21
102.883154
 31
0.0
  0
LINE
  5
76D
100
AcDbEntity
  8
2
370
    25
100
AcDbLine
 10
284.959713
 20
102.883154
 30
0.0
 11
283.924437
 21
99.01945
 31
0.0
  0
LINE
  5
76E
100
AcDbEntity
  8
2
370
    25
100
AcDbLine
 10
284.959713
 20
102.883154
 30
0.0
 11
285.994989
 21
99.01945
 31
0.0
  0
LINE
  5
76F
100
AcDbEntity
  8
2
370
    25
100
AcDbLine
 10
263.359039
 20
102.883154
 30
0.0
 11
286.959713
 21
102.883154
 31
0.0
  0
ENDBLK
  5
770
100
AcDbEntity
  8
2
100
AcDbBlockEnd
  0
BLOCK
  5
771
100
AcDbEntity
  8
2
100
AcDbBlockBegin
  2
*D12
 70
     1
 10
0.0
 20
0.0
 30
0.0
  3
*D12
  1

  0
TEXT
  5
772
100
AcDbEntity
  8
2
370
    25
100
AcDbText
 10
240.109039
 20
72.275968
 30
0.0
 40
5.0
  1
18.1
 41
2.0
 72
     5
 11
258.109039
 21
72.275968
 31
0.0
100
AcDbText
  0
LINE
  5
773
100
AcDbEntity
  8
2
370
    25
100
AcDbLine
 10
241.059039
 20
98.983154
 30
0.0
 11
241.059039
 21
69.275968
 31
0.0
  0
LINE
  5
774
100
AcDbEntity
  8
2
370
    25
100
AcDbLine
 10
241.059039
 20
71.275968
 30
0.0
 11
244.922743
 21
70.240692
 31
0.0
  0
LINE
  5
775
100
AcDbEntity
  8
2
370
    25
100
AcDbLine
 10
241.059039
 20
71.275968
 30
0.0
 11
244.922743
 21
72.311244
 31
0.0
  0
LINE
  5
776
100
AcDbEntity
  8
2
370
    25
100
AcDbLine
 10
241.059039
 20
71.275968
 30
0.0
 11
259.159039
 21
71.275968
 31
0.0
  0
LINE
  5
777
100
AcDbEntity
  8
2
370
    25
100
AcDbLine
 10
259.159039
 20
71.275968
 30
0.0
 11
255.295336
 21
72.311244
 31
0.0
  0
LINE
  5
778
100
AcDbEntity
  8
2
370
    25
100
AcDbLine
 10
259.159039
 20
71.275968
 30
0.0
 11
255.295336
 21
70.240692
 31
0.0
  0
LINE
  5
779
100
AcDbEntity
  8
2
370
    25
100
AcDbLine
 10
259.159039
 20
98.983154
 30
0.0
 11
259.159039
 21
69.275968
 31
0.0
  0
ENDBLK
  5
77A
100
AcDbEntity
  8
2
100
AcDbBlockEnd
  0
BLOCK
  5
77B
100
AcDbEntity
  8
2
100
AcDbBlockBegin
  2
*D13
 70
     1
 10
0.0
 20
0.0
 30
0.0
  3
*D13
  1

  0
TEXT
  5
77C
100
AcDbEntity
  8
2
370
    25
100
AcDbText
 10
257.859039
 20
231.406181
 30
0.0
 40
5.0
  1
2
 41
2.0
 72
     5
 11
260.859039
 21
231.406181
 31
0.0
100
AcDbText
  0
LINE
  5
77D
100
AcDbEntity
  8
2
370
    25
100
AcDbLine
 10
242.859039
 20
230.406181
 30
0.0
 11
264.859039
 21
230.406181
 31
0.0
  0
LINE
  5
77E
100
AcDbEntity
  8
2
370
    25
100
AcDbLine
 10
244.859039
 20
230.406181
 30
0.0
 11
248.722743
 21
229.370905
 31
0.0
  0
LINE
  5
77F
100
AcDbEntity
  8
2
370
    25
100
AcDbLine
 10
244.859039
 20
230.406181
 30
0.0
 11
248.722743
 21
231.441457
 31
0.0
  0
LINE
  5
780
100
AcDbEntity
  8
2
370
    25
100
AcDbLine
 10
244.859039
 20
189.206181
 30
0.0
 11
244.859039
 21
232.406181
 31
0.0
  0
CIRCLE
  5
781
100
AcDbEntity
  8
2
370
    25
100
AcDbCircle
 10
242.859039
 20
230.406181
 30
0.0
 40
1.0
  0
CIRCLE
  5
782
100
AcDbEntity
  8
2
370
    25
100
AcDbCircle
 10
242.859039
 20
230.406181
 30
0.0
 40
0.6
  0
ENDBLK
  5
783
100
AcDbEntity
  8
2
100
AcDbBlockEnd
  0
BLOCK
  5
784
100
AcDbEntity
  8
2
100
AcDbBlockBegin
  2
*D14
 70
     1
 10
0.0
 20
0.0
 30
0.0
  3
*D14
  1

  0
TEXT
  5
785
100
AcDbEntity
  8
2
370
    25
100
AcDbText
 10
232.359039
 20
129.406181
 30
0.0
 40
5.0
  1
25
 41
2.0
 72
     5
 11
240.359039
 21
129.406181
 31
0.0
100
AcDbText
  0
LINE
  5
786
100
AcDbEntity
  8
2
370
    25
100
AcDbLine
 10
239.859039
 20
189.206181
 30
0.0
 11
239.859039
 21
232.406181
 31
0.0
  0
LINE
  5
787
100
AcDbEntity
  8
2
370
    25
100
AcDbLine
 10
239.859039
 20
230.406181
 30
0.0
 11
235.995336
 21
231.441457
 31
0.0
  0
LINE
  5
788
100
AcDbEntity
  8
2
370
    25
100
AcDbLine
 10
239.859039
 20
230.406181
 30
0.0
 11
235.995336
 21
229.370905
 31
0.0
  0
LINE
  5
789
100
AcDbEntity
  8
2
370
    25
100
AcDbLine
 10
219.859039
 20
230.406181
 30
0.0
 11
242.859039
 21
230.406181
 31
0.0
  0
CIRCLE
  5
78A
100
AcDbEntity
  8
2
370
    25
100
AcDbCircle
 10
242.859039
 20
230.406181
 30
0.0
 40
1.0
  0
CIRCLE
  5
78B
100
AcDbEntity
  8
2
370
    25
100
AcDbCircle
 10
242.859039
 20
230.406181
 30
0.0
 40
0.6
  0
ENDBLK
  5
78C
100
AcDbEntity
  8
2
100
AcDbBlockEnd
  0
BLOCK
  5
78D
100
AcDbEntity
  8
2
100
AcDbBlockBegin
  2
*D15
 70
     1
 10
0.0
 20
0.0
 30
0.0
  3
*D15
  1

  0
TEXT
  5
78E
100
AcDbEntity
  8
2
370
    25
100
AcDbText
 10
-183.287483
 20
-16.008121
 30
0.0
 40
5.0
  1
50
 50
90.0
 41
2.0
 72
     5
 11
-183.287483
 21
-8.008121
 31
0.0
100
AcDbText
  0
LINE
  5
78F
100
AcDbEntity
  8
2
370
    25
100
AcDbLine
 10
-182.287483
 20
-36.008121
 30
0.0
 11
-181.252207
 21
-32.144417
 31
0.0
  0
LINE
  5
790
100
AcDbEntity
  8
2
370
    25
100
AcDbLine
 10
-182.287483
 20
-36.008121
 30
0.0
 11
-183.32276
 21
-32.144417
 31
0.0
  0
LINE
  5
791
100
AcDbEntity
  8
2
370
    25
100
AcDbLine
 10
-182.287483
 20
-36.008121
 30
0.0
 11
-182.287483
 21
13.991879
 31
0.0
  0
LINE
  5
792
100
AcDbEntity
  8
2
370
    25
100
AcDbLine
 10
-182.287483
 20
13.991879
 30
0.0
 11
-183.32276
 21
10.128176
 31
0.0
  0
LINE
  5
793
100
AcDbEntity
  8
2
370
    25
100
AcDbLine
 10
-182.287483
 20
13.991879
 30
0.0
 11
-181.252207
 21
10.128176
 31
0.0
  0
LINE
  5
794
100
AcDbEntity
  8
2
370
    25
100
AcDbLine
 10
-209.642728
 20
13.991879
 30
0.0
 11
-180.287483
 21
13.991879
 31
0.0
  0
ENDBLK
  5
795
100
AcDbEntity
  8
2
100
AcDbBlockEnd
  0
BLOCK
  5
796
100
AcDbEntity
  8
2
100
AcDbBlockBegin
  2
*D16
 70
     1
 10
0.0
 20
0.0
 30
0.0
  3
*D16
  1

  0
LINE
  5
797
100
AcDbEntity
  8
2
370
    25
100
AcDbLine
 10
-248.742728
 20
33.491879
 30
0.0
 11
-248.742728
 21
77.025428
 31
0.0
  0
LINE
  5
798
100
AcDbEntity
  8
2
370
    25
100
AcDbLine
 10
-248.742728
 20
75.025428
 30
0.0
 11
-244.879025
 21
73.990152
 31
0.0
  0
LINE
  5
799
100
AcDbEntity
  8
2
370
    25
100
AcDbLine
 10
-248.742728
 20
75.025428
 30
0.0
 11
-244.879025
 21
76.060704
 31
0.0
  0
LINE
  5
79A
100
AcDbEntity
  8
2
370
    25
100
AcDbLine
 10
-248.742728
 20
75.025428
 30
0.0
 11
-201.542728
 21
75.025428
 31
0.0
  0
LINE
  5
79B
100
AcDbEntity
  8
2
370
    25
100
AcDbLine
 10
-201.542728
 20
75.025428
 30
0.0
 11
-205.406431
 21
76.060704
 31
0.0
  0
LINE
  5
79C
100
AcDbEntity
  8
2
370
    25
100
AcDbLine
 10
-201.542728
 20
75.025428
 30
0.0
 11
-205.406431
 21
73.990152
 31
0.0
  0
LINE
  5
79D
100
AcDbEntity
  8
2
370
    25
100
AcDbLine
 10
-201.542728
 20
33.491879
 30
0.0
 11
-201.542728
 21
77.025428
 31
0.0
  0
ENDBLK
  5
79E
100
AcDbEntity
  8
2
100
AcDbBlockEnd
  0
BLOCK
  5
79F
100
AcDbEntity
  8
2
100
AcDbBlockBegin
  2
*D17
 70
     1
 10
0.0
 20
0.0
 30
0.0
  3
*D17
  1

  0
LINE
  5
7A0
100
AcDbEntity
  8
2
370
    25
100
AcDbLine
 10
-172.137871
 20
-36.008121
 30
0.0
 11
-171.102595
 21
-32.144417
 31
0.0
  0
LINE
  5
7A1
100
AcDbEntity
  8
2
370
    25
100
AcDbLine
 10
-172.137871
 20
-36.008121
 30
0.0
 11
-173.173147
 21
-32.144417
 31
0.0
  0
LINE
  5
7A2
100
AcDbEntity
  8
2
370
    25
100
AcDbLine
 10
-172.137871
 20
-36.008121
 30
0.0
 11
-172.137871
 21
56.091879
 31
0.0
  0
LINE
  5
7A3
100
AcDbEntity
  8
2
370
    25
100
AcDbLine
 10
-172.137871
 20
56.091879
 30
0.0
 11
-173.173147
 21
52.228176
 31
0.0
  0
LINE
  5
7A4
100
AcDbEntity
  8
2
370
    25
100
AcDbLine
 10
-172.137871
 20
56.091879
 30
0.0
 11
-171.102595
 21
52.228176
 31
0.0
  0
ENDBLK
  5
7A5
100
AcDbEntity
  8
2
100
AcDbBlockEnd
  0
BLOCK
  5
7A6
100
AcDbEntity
  8
2
100
AcDbBlockBegin
  2
*D18
 70
     1
 10
0.0
 20
0.0
 30
0.0
  3
*D18
  1

  0
LINE
  5
7A7
100
AcDbEntity
  8
2
370
    25
100
AcDbLine
 10
-172.137871
 20
-74.108121
 30
0.0
 11
-171.102595
 21
-70.244417
 31
0.0
  0
LINE
  5
7A8
100
AcDbEntity
  8
2
370
    25
100
AcDbLine
 10
-172.137871
 20
-74.108121
 30
0.0
 11
-173.173147
 21
-70.244417
 31
0.0
  0
LINE
  5
7A9
100
AcDbEntity
  8
2
370
    25
100
AcDbLine
 10
-172.137871
 20
-74.108121
 30
0.0
 11
-172.137871
 21
-36.008121
 31
0.0
  0
LINE
  5
7AA
100
AcDbEntity
  8
2
370
    25
100
AcDbLine
 10
-172.137871
 20
-36.008121
 30
0.0
 11
-173.173147
 21
-39.871824
 31
0.0
  0
LINE
  5
7AB
100
AcDbEntity
  8
2
370
    25
100
AcDbLine
 10
-172.137871
 20
-36.008121
 30
0.0
 11
-171.102595
 21
-39.871824
 31
0.0
  0
LINE
  5
7AC
100
AcDbEntity
  8
2
370
    25
100
AcDbLine
 10
-195.142728
 20
-36.008121
 30
0.0
 11
-170.137871
 21
-36.008121
 31
0.0
  0
ENDBLK
  5
7AD
100
AcDbEntity
  8
2
100
AcDbBlockEnd
  0
BLOCK
  5
7AE
100
AcDbEntity
  8
2
100
AcDbBlockBegin
  2
*D19
 70
     1
 10
0.0
 20
0.0
 30
0.0
  3
*D19
  1

  0
LINE
  5
7AF
100
AcDbEntity
  8
2
370
    25
100
AcDbLine
 10
-224.142728
 20
-74.108121
 30
0.0
 11
-160.008553
 21
-74.108121
 31
0.0
  0
LINE
  5
7B0
100
AcDbEntity
  8
2
370
    25
100
AcDbLine
 10
-162.008553
 20
-74.108121
 30
0.0
 11
-160.973277
 21
-70.244417
 31
0.0
  0
LINE
  5
7B1
100
AcDbEntity
  8
2
370
    25
100
AcDbLine
 10
-162.008553
 20
-74.108121
 30
0.0
 11
-163.043829
 21
-70.244417
 31
0.0
  0
LINE
  5
7B2
100
AcDbEntity
  8
2
370
    25
100
AcDbLine
 10
-162.008553
 20
-74.108121
 30
0.0
 11
-162.008553
 21
56.091879
 31
0.0
  0
LINE
  5
7B3
100
AcDbEntity
  8
2
370
    25
100
AcDbLine
 10
-162.008553
 20
56.091879
 30
0.0
 11
-163.043829
 21
52.228176
 31
0.0
  0
LINE
  5
7B4
100
AcDbEntity
  8
2
370
    25
100
AcDbLine
 10
-162.008553
 20
56.091879
 30
0.0
 11
-160.973277
 21
52.228176
 31
0.0
  0
LINE
  5
7B5
100
AcDbEntity
  8
2
370
    25
100
AcDbLine
 10
-224.142728
 20
56.091879
 30
0.0
 11
-160.008553
 21
56.091879
 31
0.0
  0
ENDBLK
  5
7B6
100
AcDbEntity
  8
2
100
AcDbBlockEnd
  0
BLOCK
  5
7B7
100
AcDbEntity
  8
2
100
AcDbBlockBegin
  2
*D20
 70
     1
 10
0.0
 20
0.0
 30
0.0
  3
*D20
  1

  0
TEXT
  5
7B8
100
AcDbEntity
  8
2
370
    25
100
AcDbText
 10
-126.944779
 20
6.491879
 30
0.0
 40
5.0
  1
%%c25
 50
90.0
 41
2.0
 72
     5
 11
-126.944779
 21
19.491879
 31
0.0
100
AcDbText
  0
LINE
  5
7B9
100
AcDbEntity
  8
2
370
    25
100
AcDbLine
 10
-91.142728
 20
26.446073
 30
0.0
 11
-127.944779
 21
26.446073
 31
0.0
  0
LINE
  5
7BA
100
AcDbEntity
  8
2
370
    25
100
AcDbLine
 10
-125.944779
 20
26.446073
 30
0.0
 11
-126.980055
 21
22.58237
 31
0.0
  0
LINE
  5
7BB
100
AcDbEntity
  8
2
370
    25
100
AcDbLine
 10
-125.944779
 20
26.446073
 30
0.0
 11
-124.909502
 21
22.58237
 31
0.0
  0
LINE
  5
7BC
100
AcDbEntity
  8
2
370
    25
100
AcDbLine
 10
-125.944779
 20
26.446073
 30
0.0
 11
-125.944779
 21
1.537686
 31
0.0
  0
LINE
  5
7BD
100
AcDbEntity
  8
2
370
    25
100
AcDbLine
 10
-125.944779
 20
1.537686
 30
0.0
 11
-124.909502
 21
5.401389
 31
0.0
  0
LINE
  5
7BE
100
AcDbEntity
  8
2
370
    25
100
AcDbLine
 10
-125.944779
 20
1.537686
 30
0.0
 11
-126.980055
 21
5.401389
 31
0.0
  0
LINE
  5
7BF
100
AcDbEntity
  8
2
370
    25
100
AcDbLine
 10
-91.142728
 20
1.537686
 30
0.0
 11
-127.944779
 21
1.537686
 31
0.0
  0
ENDBLK
  5
7C0
100
AcDbEntity
  8
2
100
AcDbBlockEnd
  0
BLOCK
  5
7C1
100
AcDbEntity
  8
2
100
AcDbBlockBegin
  2
*D21
 70
     1
 10
0.0
 20
0.0
 30
0.0
  3
*D21
  1

  0
TEXT
  5
7C2
100
AcDbEntity
  8
2
370
    25
100
AcDbText
 10
-9.015854
 20
1.491879
 30
0.0
 40
5.0
  1
%%c24.7
 50
90.0
 41
2.0
 72
     5
 11
-9.015854
 21
24.491879
 31
0.0
100
AcDbText
  0
LINE
  5
7C3
100
AcDbEntity
  8
2
370
    25
100
AcDbLine
 10
-28.932597
 20
1.641879
 30
0.0
 11
-6.015854
 21
1.641879
 31
0.0
  0
LINE
  5
7C4
100
AcDbEntity
  8
2
370
    25
100
AcDbLine
 10
-8.015854
 20
1.641879
 30
0.0
 11
-6.980578
 21
5.505583
 31
0.0
  0
LINE
  5
7C5
100
AcDbEntity
  8
2
370
    25
100
AcDbLine
 10
-8.015854
 20
1.641879
 30
0.0
 11
-9.05113
 21
5.505583
 31
0.0
  0
LINE
  5
7C6
100
AcDbEntity
  8
2
370
    25
100
AcDbLine
 10
-8.015854
 20
1.641879
 30
0.0
 11
-8.015854
 21
26.341879
 31
0.0
  0
LINE
  5
7C7
100
AcDbEntity
  8
2
370
    25
100
AcDbLine
 10
-8.015854
 20
26.341879
 30
0.0
 11
-9.05113
 21
22.478176
 31
0.0
  0
LINE
  5
7C8
100
AcDbEntity
  8
2
370
    25
100
AcDbLine
 10
-8.015854
 20
26.341879
 30
0.0
 11
-6.980578
 21
22.478176
 31
0.0
  0
LINE
  5
7C9
100
AcDbEntity
  8
2
370
    25
100
AcDbLine
 10
-28.932597
 20
26.341879
 30
0.0
 11
-6.015854
 21
26.341879
 31
0.0
  0
ENDBLK
  5
7CA
100
AcDbEntity
  8
2
100
AcDbBlockEnd
  0
BLOCK
  5
7CB
100
AcDbEntity
  8
2
100
AcDbBlockBegin
  2
*D22
 70
     1
 10
0.0
 20
0.0
 30
0.0
  3
*D22
  1

  0
TEXT
  5
7CC
100
AcDbEntity
  8
2
370
    25
100
AcDbText
 10
-278.985673
 20
216.09198
 30
0.0
 40
5.0
  1
48.4
 41
2.0
 72
     5
 11
-260.985673
 21
216.09198
 31
0.0
100
AcDbText
  0
LINE
  5
7CD
100
AcDbEntity
  8
2
370
    25
100
AcDbLine
 10
-244.785673
 20
201.799589
 30
0.0
 11
-244.785673
 21
217.09198
 31
0.0
  0
LINE
  5
7CE
100
AcDbEntity
  8
2
370
    25
100
AcDbLine
 10
-244.785673
 20
215.09198
 30
0.0
 11
-248.649377
 21
216.127256
 31
0.0
  0
LINE
  5
7CF
100
AcDbEntity
  8
2
370
    25
100
AcDbLine
 10
-244.785673
 20
215.09198
 30
0.0
 11
-248.649377
 21
214.056704
 31
0.0
  0
LINE
  5
7D0
100
AcDbEntity
  8
2
370
    25
100
AcDbLine
 10
-244.785673
 20
215.09198
 30
0.0
 11
-293.185673
 21
215.09198
 31
0.0
  0
LINE
  5
7D1
100
AcDbEntity
  8
2
370
    25
100
AcDbLine
 10
-293.185673
 20
215.09198
 30
0.0
 11
-289.32197
 21
214.056704
 31
0.0
  0
LINE
  5
7D2
100
AcDbEntity
  8
2
370
    25
100
AcDbLine
 10
-293.185673
 20
215.09198
 30
0.0
 11
-289.32197
 21
216.127256
 31
0.0
  0
LINE
  5
7D3
100
AcDbEntity
  8
2
370
    25
100
AcDbLine
 10
-293.185673
 20
195.670596
 30
0.0
 11
-293.185673
 21
217.09198
 31
0.0
  0
ENDBLK
  5
7D4
100
AcDbEntity
  8
2
100
AcDbBlockEnd
  0
BLOCK
  5
7D5
100
AcDbEntity
  8
2
100
AcDbBlockBegin
  2
*D23
 70
     1
 10
0.0
 20
0.0
 30
0.0
  3
*D23
  1

  0
TEXT
  5
7D6
100
AcDbEntity
  8
2
370
    25
100
AcDbText
 10
-232.963791
 20
184.370596
 30
0.0
 40
5.0
  1
20.4
 50
90.0
 41
2.0
 72
     5
 11
-232.963791
 21
202.370596
 31
0.0
100
AcDbText
  0
LINE
  5
7D7
100
AcDbEntity
  8
2
370
    25
100
AcDbLine
 10
-255.285673
 20
184.170596
 30
0.0
 11
-229.963791
 21
184.170596
 31
0.0
  0
LINE
  5
7D8
100
AcDbEntity
  8
2
370
    25
100
AcDbLine
 10
-231.963791
 20
184.170596
 30
0.0
 11
-230.928515
 21
188.034299
 31
0.0
  0
LINE
  5
7D9
100
AcDbEntity
  8
2
370
    25
100
AcDbLine
 10
-231.963791
 20
184.170596
 30
0.0
 11
-232.999067
 21
188.034299
 31
0.0
  0
LINE
  5
7DA
100
AcDbEntity
  8
2
370
    25
100
AcDbLine
 10
-231.963791
 20
184.170596
 30
0.0
 11
-231.963791
 21
204.570596
 31
0.0
  0
LINE
  5
7DB
100
AcDbEntity
  8
2
370
    25
100
AcDbLine
 10
-231.963791
 20
204.570596
 30
0.0
 11
-232.999067
 21
200.706893
 31
0.0
  0
LINE
  5
7DC
100
AcDbEntity
  8
2
370
    25
100
AcDbLine
 10
-231.963791
 20
204.570596
 30
0.0
 11
-230.928515
 21
200.706893
 31
0.0
  0
LINE
  5
7DD
100
AcDbEntity
  8
2
370
    25
100
AcDbLine
 10
-255.285673
 20
204.570596
 30
0.0
 11
-229.963791
 21
204.570596
 31
0.0
  0
ENDBLK
  5
7DE
100
AcDbEntity
  8
2
100
AcDbBlockEnd
  0
BLOCK
  5
7DF
100
AcDbEntity
  8
2
100
AcDbBlockBegin
  2
*D24
 70
     1
 10
0.0
 20
0.0
 30
0.0
  3
*D24
  1

  0
TEXT
  5
7E0
100
AcDbEntity
  8
2
370
    25
100
AcDbText
 10
-232.963791
 20
143.05752
 30
0.0
 40
5.0
  1
1.8
 50
90.0
 41
2.0
 72
     5
 11
-232.963791
 21
156.05752
 31
0.0
100
AcDbText
  0
LINE
  5
7E1
100
AcDbEntity
  8
2
370
    25
100
AcDbLine
 10
-243.785673
 20
166.05752
 30
0.0
 11
-229.963791
 21
166.05752
 31
0.0
  0
LINE
  5
7E2
100
AcDbEntity
  8
2
370
    25
100
AcDbLine
 10
-231.963791
 20
166.05752
 30
0.0
 11
-232.999067
 21
162.193816
 31
0.0
  0
LINE
  5
7E3
100
AcDbEntity
  8
2
370
    25
100
AcDbLine
 10
-231.963791
 20
166.05752
 30
0.0
 11
-230.928515
 21
162.193816
 31
0.0
  0
LINE
  5
7E4
100
AcDbEntity
  8
2
370
    25
100
AcDbLine
 10
-231.963791
 20
141.05752
 30
0.0
 11
-231.963791
 21
177.85752
 31
0.0
  0
LINE
  5
7E5
100
AcDbEntity
  8
2
370
    25
100
AcDbLine
 10
-231.963791
 20
167.85752
 30
0.0
 11
-230.928515
 21
171.721223
 31
0.0
  0
LINE
  5
7E6
100
AcDbEntity
  8
2
370
    25
100
AcDbLine
 10
-231.963791
 20
167.85752
 30
0.0
 11
-232.999067
 21
171.721223
 31
0.0
  0
LINE
  5
7E7
100
AcDbEntity
  8
2
370
    25
100
AcDbLine
 10
-243.785673
 20
167.85752
 30
0.0
 11
-229.963791
 21
167.85752
 31
0.0
  0
ENDBLK
  5
7E8
100
AcDbEntity
  8
2
100
AcDbBlockEnd
  0
BLOCK
  5
7E9
100
AcDbEntity
  8
2
100
AcDbBlockBegin
  2
*D25
 70
     1
 10
0.0
 20
0.0
 30
0.0
  3
*D25
  1

  0
TEXT
  5
7EA
100
AcDbEntity
  8
2
370
    18
100
AcDbText
 10
330.251343
 20
-12.0023
 30
0.0
 40
5.0
  1
５８
 50
90.0
 72
     5
 11
330.251343
 21
-3.0023
 31
0.0
100
AcDbText
  0
LINE
  5
7EB
100
AcDbEntity
  8
2
370
    25
100
AcDbLine
 10
215.485596
 20
-36.0023
 30
0.0
 11
333.251343
 21
-36.0023
 31
0.0
  0
LINE
  5
7EC
100
AcDbEntity
  8
2
370
    25
100
AcDbLine
 10
331.251343
 20
-36.0023
 30
0.0
 11
332.286619
 21
-32.138597
 31
0.0
  0
LINE
  5
7ED
100
AcDbEntity
  8
2
370
    25
100
AcDbLine
 10
331.251343
 20
-36.0023
 30
0.0
 11
330.216067
 21
-32.138597
 31
0.0
  0
LINE
  5
7EE
100
AcDbEntity
  8
2
370
    25
100
AcDbLine
 10
331.251343
 20
-36.0023
 30
0.0
 11
331.251343
 21
21.9977
 31
0.0
  0
LINE
  5
7EF
100
AcDbEntity
  8
2
370
    25
100
AcDbLine
 10
331.251343
 20
21.9977
 30
0.0
 11
330.216067
 21
18.133997
 31
0.0
  0
LINE
  5
7F0
100
AcDbEntity
  8
2
370
    25
100
AcDbLine
 10
331.251343
 20
21.9977
 30
0.0
 11
332.286619
 21
18.133997
 31
0.0
  0
ENDBLK
  5
7F1
100
AcDbEntity
  8
2
100
AcDbBlockEnd
  0
BLOCK
  5
7F2
100
AcDbEntity
  8
2
100
AcDbBlockBegin
  2
*D26
 70
     1
 10
0.0
 20
0.0
 30
0.0
  3
*D26
  1

  0
TEXT
  5
7F3
100
AcDbEntity
  8
2
370
    18
100
AcDbText
 10
330.251343
 20
-49.0023
 30
0.0
 40
5.0
  1
１６
 50
90.0
 72
     5
 11
330.251343
 21
-40.0023
 31
0.0
100
AcDbText
  0
LINE
  5
7F4
100
AcDbEntity
  8
2
370
    25
100
AcDbLine
 10
331.251343
 20
-52.0023
 30
0.0
 11
332.286619
 21
-48.138597
 31
0.0
  0
LINE
  5
7F5
100
AcDbEntity
  8
2
370
    25
100
AcDbLine
 10
331.251343
 20
-52.0023
 30
0.0
 11
330.216067
 21
-48.138597
 31
0.0
  0
LINE
  5
7F6
100
AcDbEntity
  8
2
370
    25
100
AcDbLine
 10
331.251343
 20
-52.0023
 30
0.0
 11
331.251343
 21
-36.0023
 31
0.0
  0
LINE
  5
7F7
100
AcDbEntity
  8
2
370
    25
100
AcDbLine
 10
331.251343
 20
-36.0023
 30
0.0
 11
330.216067
 21
-39.866003
 31
0.0
  0
LINE
  5
7F8
100
AcDbEntity
  8
2
370
    25
100
AcDbLine
 10
331.251343
 20
-36.0023
 30
0.0
 11
332.286619
 21
-39.866003
 31
0.0
  0
ENDBLK
  5
7F9
100
AcDbEntity
  8
2
100
AcDbBlockEnd
  0
BLOCK
  5
7FA
100
AcDbEntity
  8
2
100
AcDbBlockBegin
  2
*D27
 70
     1
 10
0.0
 20
0.0
 30
0.0
  3
*D27
  1

  0
TEXT
  5
7FB
100
AcDbEntity
  8
2
370
    18
100
AcDbText
 10
340.465698
 20
-20.0023
 30
0.0
 40
5.0
  1
７４
 50
90.0
 72
     5
 11
340.465698
 21
-11.0023
 31
0.0
100
AcDbText
  0
LINE
  5
7FC
100
AcDbEntity
  8
2
370
    25
100
AcDbLine
 10
206.118263
 20
-52.0023
 30
0.0
 11
343.465698
 21
-52.0023
 31
0.0
  0
LINE
  5
7FD
100
AcDbEntity
  8
2
370
    25
100
AcDbLine
 10
341.465698
 20
-52.0023
 30
0.0
 11
342.500974
 21
-48.138597
 31
0.0
  0
LINE
  5
7FE
100
AcDbEntity
  8
2
370
    25
100
AcDbLine
 10
341.465698
 20
-52.0023
 30
0.0
 11
340.430422
 21
-48.138597
 31
0.0
  0
LINE
  5
7FF
100
AcDbEntity
  8
2
370
    25
100
AcDbLine
 10
341.465698
 20
-52.0023
 30
0.0
 11
341.465698
 21
21.9977
 31
0.0
  0
LINE
  5
800
100
AcDbEntity
  8
2
370
    25
100
AcDbLine
 10
341.465698
 20
21.9977
 30
0.0
 11
340.430422
 21
18.133997
 31
0.0
  0
LINE
  5
801
100
AcDbEntity
  8
2
370
    25
100
AcDbLine
 10
341.465698
 20
21.9977
 30
0.0
 11
342.500974
 21
18.133997
 31
0.0
  0
LINE
  5
802
100
AcDbEntity
  8
2
370
    25
100
AcDbLine
 10
206.118269
 20
21.9977
 30
0.0
 11
343.465698
 21
21.9977
 31
0.0
  0
ENDBLK
  5
803
100
AcDbEntity
  8
2
100
AcDbBlockEnd
  0
BLOCK
  5
804
100
AcDbEntity
  8
2
100
AcDbBlockBegin
  2
*D28
 70
     1
 10
0.0
 20
0.0
 30
0.0
  3
*D28
  1

  0
TEXT
  5
805
100
AcDbEntity
  8
2
370
    18
100
AcDbText
 10
340.465698
 20
-71.0023
 30
0.0
 40
5.0
  1
２８
 50
90.0
 72
     5
 11
340.465698
 21
-62.0023
 31
0.0
100
AcDbText
  0
LINE
  5
806
100
AcDbEntity
  8
2
370
    25
100
AcDbLine
 10
137.318269
 20
-80.0023
 30
0.0
 11
343.465698
 21
-80.0023
 31
0.0
  0
LINE
  5
807
100
AcDbEntity
  8
2
370
    25
100
AcDbLine
 10
341.465698
 20
-80.0023
 30
0.0
 11
342.500974
 21
-76.138597
 31
0.0
  0
LINE
  5
808
100
AcDbEntity
  8
2
370
    25
100
AcDbLine
 10
341.465698
 20
-80.0023
 30
0.0
 11
340.430422
 21
-76.138597
 31
0.0
  0
LINE
  5
809
100
AcDbEntity
  8
2
370
    25
100
AcDbLine
 10
341.465698
 20
-80.0023
 30
0.0
 11
341.465698
 21
-52.0023
 31
0.0
  0
LINE
  5
80A
100
AcDbEntity
  8
2
370
    25
100
AcDbLine
 10
341.465698
 20
-52.0023
 30
0.0
 11
340.430422
 21
-55.866003
 31
0.0
  0
LINE
  5
80B
100
AcDbEntity
  8
2
370
    25
100
AcDbLine
 10
341.465698
 20
-52.0023
 30
0.0
 11
342.500974
 21
-55.866003
 31
0.0
  0
ENDBLK
  5
80C
100
AcDbEntity
  8
2
100
AcDbBlockEnd
  0
BLOCK
  5
80D
100
AcDbEntity
  8
2
100
AcDbBlockBegin
  2
*D29
 70
     1
 10
0.0
 20
0.0
 30
0.0
  3
*D29
  1

  0
TEXT
  5
80E
100
AcDbEntity
  8
2
370
    25
100
AcDbText
 10
225.429603
 20
-71.508098
 30
0.0
 40
5.0
  1
１３５
 50
0.5
 72
     5
 11
239.42907
 21
-71.385927
 31
0.0
100
AcDbText
  0
LINE
  5
80F
100
AcDbEntity
  8
2
370
    25
100
AcDbLine
 10
300.122649
 20
-36.007437
 30
0.0
 11
300.452927
 21
-73.853494
 31
0.0
  0
LINE
  5
810
100
AcDbEntity
  8
2
370
    25
100
AcDbLine
 10
300.435473
 20
-71.85357
 30
0.0
 11
296.562883
 21
-70.85205
 31
0.0
  0
LINE
  5
811
100
AcDbEntity
  8
2
370
    25
100
AcDbLine
 10
300.435473
 20
-71.85357
 30
0.0
 11
296.580952
 21
-72.922524
 31
0.0
  0
LINE
  5
812
100
AcDbEntity
  8
2
370
    25
100
AcDbLine
 10
300.435473
 20
-71.85357
 30
0.0
 11
165.440614
 21
-73.031652
 31
0.0
  0
LINE
  5
813
100
AcDbEntity
  8
2
370
    25
100
AcDbLine
 10
165.440614
 20
-73.031652
 30
0.0
 11
169.313204
 21
-74.033172
 31
0.0
  0
LINE
  5
814
100
AcDbEntity
  8
2
370
    25
100
AcDbLine
 10
165.440614
 20
-73.031652
 30
0.0
 11
169.295136
 21
-71.962699
 31
0.0
  0
LINE
  5
815
100
AcDbEntity
  8
2
370
    25
100
AcDbLine
 10
165.127789
 20
-37.185519
 30
0.0
 11
165.458067
 21
-75.031576
 31
0.0
  0
ENDBLK
  5
816
100
AcDbEntity
  8
2
100
AcDbBlockEnd
  0
BLOCK
  5
817
100
AcDbEntity
  8
2
100
AcDbBlockBegin
  2
*D30
 70
     1
 10
0.0
 20
0.0
 30
0.0
  3
*D30
  1

  0
LINE
  5
818
100
AcDbEntity
  8
2
370
    25
100
AcDbLine
 10
135.211237
 20
-80.9688
 30
0.0
 11
135.211237
 21
-96.9688
 31
0.0
  0
LINE
  5
819
100
AcDbEntity
  8
2
370
    25
100
AcDbLine
 10
135.211237
 20
-94.9688
 30
0.0
 11
139.07494
 21
-96.004076
 31
0.0
  0
LINE
  5
81A
100
AcDbEntity
  8
2
370
    25
100
AcDbLine
 10
135.211237
 20
-94.9688
 30
0.0
 11
139.07494
 21
-93.933524
 31
0.0
  0
LINE
  5
81B
100
AcDbEntity
  8
2
370
    25
100
AcDbLine
 10
135.211237
 20
-94.9688
 30
0.0
 11
186.211237
 21
-94.9688
 31
0.0
  0
LINE
  5
81C
100
AcDbEntity
  8
2
370
    25
100
AcDbLine
 10
186.211237
 20
-94.9688
 30
0.0
 11
182.347533
 21
-93.933524
 31
0.0
  0
LINE
  5
81D
100
AcDbEntity
  8
2
370
    25
100
AcDbLine
 10
186.211237
 20
-94.9688
 30
0.0
 11
182.347533
 21
-96.004076
 31
0.0
  0
LINE
  5
81E
100
AcDbEntity
  8
2
370
    25
100
AcDbLine
 10
186.211237
 20
-65.9688
 30
0.0
 11
186.211237
 21
-96.9688
 31
0.0
  0
ENDBLK
  5
81F
100
AcDbEntity
  8
2
100
AcDbBlockEnd
  0
BLOCK
  5
820
100
AcDbEntity
  8
2
100
AcDbBlockBegin
  2
*D31
 70
     1
 10
0.0
 20
0.0
 30
0.0
  3
*D31
  1

  0
TEXT
  5
821
100
AcDbEntity
  8
2
370
    25
100
AcDbText
 10
-19.01123
 20
167.145201
 30
0.0
 40
5.0
  1
30
 50
90.0
 41
2.0
 72
     5
 11
-19.01123
 21
175.145201
 31
0.0
100
AcDbText
  0
LINE
  5
822
100
AcDbEntity
  8
2
370
    25
100
AcDbLine
 10
-39.0
 20
133.145201
 30
0.0
 11
-16.01123
 21
133.145201
 31
0.0
  0
LINE
  5
823
100
AcDbEntity
  8
2
370
    25
100
AcDbLine
 10
-18.01123
 20
133.145201
 30
0.0
 11
-19.046507
 21
129.281497
 31
0.0
  0
LINE
  5
824
100
AcDbEntity
  8
2
370
    25
100
AcDbLine
 10
-18.01123
 20
133.145201
 30
0.0
 11
-16.975954
 21
129.281497
 31
0.0
  0
LINE
  5
825
100
AcDbEntity
  8
2
370
    25
100
AcDbLine
 10
-18.01123
 20
123.145201
 30
0.0
 11
-18.01123
 21
179.145201
 31
0.0
  0
LINE
  5
826
100
AcDbEntity
  8
2
370
    25
100
AcDbLine
 10
-18.01123
 20
163.145201
 30
0.0
 11
-16.975954
 21
167.008904
 31
0.0
  0
LINE
  5
827
100
AcDbEntity
  8
2
370
    25
100
AcDbLine
 10
-18.01123
 20
163.145201
 30
0.0
 11
-19.046507
 21
167.008904
 31
0.0
  0
LINE
  5
828
100
AcDbEntity
  8
2
370
    25
100
AcDbLine
 10
-39.0
 20
163.145201
 30
0.0
 11
-16.01123
 21
163.145201
 31
0.0
  0
ENDBLK
  5
829
100
AcDbEntity
  8
2
100
AcDbBlockEnd
  0
BLOCK
  5
82A
100
AcDbEntity
  8
2
100
AcDbBlockBegin
  2
*D32
 70
     1
 10
0.0
 20
0.0
 30
0.0
  3
*D32
  1

  0
TEXT
  5
82B
100
AcDbEntity
  8
2
370
    25
100
AcDbText
 10
-75.043159
 20
173.179043
 30
0.0
 40
5.0
  1
%%c6
 50
90.0
 41
2.0
 72
     5
 11
-75.043159
 21
181.179043
 31
0.0
100
AcDbText
  0
LINE
  5
82C
100
AcDbEntity
  8
2
370
    25
100
AcDbLine
 10
-74.043159
 20
166.145201
 30
0.0
 11
-73.007883
 21
170.008904
 31
0.0
  0
LINE
  5
82D
100
AcDbEntity
  8
2
370
    25
100
AcDbLine
 10
-74.043159
 20
166.145201
 30
0.0
 11
-75.078436
 21
170.008904
 31
0.0
  0
LINE
  5
82E
100
AcDbEntity
  8
2
370
    25
100
AcDbLine
 10
-74.043159
 20
185.179043
 30
0.0
 11
-74.043159
 21
150.145201
 31
0.0
  0
LINE
  5
82F
100
AcDbEntity
  8
2
370
    25
100
AcDbLine
 10
-74.043159
 20
160.145201
 30
0.0
 11
-75.078436
 21
156.281497
 31
0.0
  0
LINE
  5
830
100
AcDbEntity
  8
2
370
    25
100
AcDbLine
 10
-74.043159
 20
160.145201
 30
0.0
 11
-73.007883
 21
156.281497
 31
0.0
  0
ENDBLK
  5
831
100
AcDbEntity
  8
2
100
AcDbBlockEnd
  0
BLOCK
  5
832
100
AcDbEntity
  8
2
100
AcDbBlockBegin
  2
*D33
 70
     1
 10
0.0
 20
0.0
 30
0.0
  3
*D33
  1

  0
TEXT
  5
833
100
AcDbEntity
  8
2
370
    25
100
AcDbText
 10
-70.0
 20
189.645201
 30
0.0
 40
5.0
  1
16.4
 41
2.0
 72
     5
 11
-52.0
 21
189.645201
 31
0.0
100
AcDbText
  0
LINE
  5
834
100
AcDbEntity
  8
2
370
    25
100
AcDbLine
 10
-68.2
 20
168.445201
 30
0.0
 11
-68.2
 21
190.645201
 31
0.0
  0
LINE
  5
835
100
AcDbEntity
  8
2
370
    25
100
AcDbLine
 10
-68.2
 20
188.645201
 30
0.0
 11
-64.336297
 21
187.609925
 31
0.0
  0
LINE
  5
836
100
AcDbEntity
  8
2
370
    25
100
AcDbLine
 10
-68.2
 20
188.645201
 30
0.0
 11
-64.336297
 21
189.680477
 31
0.0
  0
LINE
  5
837
100
AcDbEntity
  8
2
370
    25
100
AcDbLine
 10
-68.2
 20
188.645201
 30
0.0
 11
-51.8
 21
188.645201
 31
0.0
  0
LINE
  5
838
100
AcDbEntity
  8
2
370
    25
100
AcDbLine
 10
-51.8
 20
188.645201
 30
0.0
 11
-55.663703
 21
189.680477
 31
0.0
  0
LINE
  5
839
100
AcDbEntity
  8
2
370
    25
100
AcDbLine
 10
-51.8
 20
188.645201
 30
0.0
 11
-55.663703
 21
187.609925
 31
0.0
  0
LINE
  5
83A
100
AcDbEntity
  8
2
370
    25
100
AcDbLine
 10
-51.8
 20
168.445201
 30
0.0
 11
-51.8
 21
190.645201
 31
0.0
  0
ENDBLK
  5
83B
100
AcDbEntity
  8
2
100
AcDbBlockEnd
  0
BLOCK
  5
83C
100
AcDbEntity
  8
2
100
AcDbBlockBegin
  2
*D34
 70
     1
 10
0.0
 20
0.0
 30
0.0
  3
*D34
  1

  0
TEXT
  5
83D
100
AcDbEntity
  8
2
370
    25
100
AcDbText
 10
-70.0
 20
199.617596
 30
0.0
 40
5.0
  1
18.4
 41
2.0
 72
     5
 11
-52.0
 21
199.617596
 31
0.0
100
AcDbText
  0
LINE
  5
83E
100
AcDbEntity
  8
2
370
    25
100
AcDbLine
 10
-69.2
 20
156.795201
 30
0.0
 11
-69.2
 21
200.617596
 31
0.0
  0
LINE
  5
83F
100
AcDbEntity
  8
2
370
    25
100
AcDbLine
 10
-69.2
 20
198.617596
 30
0.0
 11
-65.336297
 21
197.582319
 31
0.0
  0
LINE
  5
840
100
AcDbEntity
  8
2
370
    25
100
AcDbLine
 10
-69.2
 20
198.617596
 30
0.0
 11
-65.336297
 21
199.652872
 31
0.0
  0
LINE
  5
841
100
AcDbEntity
  8
2
370
    25
100
AcDbLine
 10
-69.2
 20
198.617596
 30
0.0
 11
-50.8
 21
198.617596
 31
0.0
  0
LINE
  5
842
100
AcDbEntity
  8
2
370
    25
100
AcDbLine
 10
-50.8
 20
198.617596
 30
0.0
 11
-54.663703
 21
199.652872
 31
0.0
  0
LINE
  5
843
100
AcDbEntity
  8
2
370
    25
100
AcDbLine
 10
-50.8
 20
198.617596
 30
0.0
 11
-54.663703
 21
197.582319
 31
0.0
  0
LINE
  5
844
100
AcDbEntity
  8
2
370
    25
100
AcDbLine
 10
-50.8
 20
156.795201
 30
0.0
 11
-50.8
 21
200.617596
 31
0.0
  0
ENDBLK
  5
845
100
AcDbEntity
  8
2
100
AcDbBlockEnd
  0
BLOCK
  5
846
100
AcDbEntity
  8
2
100
AcDbBlockBegin
  2
*D35
 70
     1
 10
0.0
 20
0.0
 30
0.0
  3
*D35
  1

  0
TEXT
  5
847
100
AcDbEntity
  8
2
370
    25
100
AcDbText
 10
-64.999978
 20
-45.947384
 30
0.0
 40
5.0
  1
１２
 72
     5
 11
-55.999978
 21
-45.947384
 31
0.0
100
AcDbText
  0
LINE
  5
848
100
AcDbEntity
  8
2
370
    25
100
AcDbLine
 10
-65.999978
 20
-22.483317
 30
0.0
 11
-65.999978
 21
-48.947384
 31
0.0
  0
LINE
  5
849
100
AcDbEntity
  8
2
370
    25
100
AcDbLine
 10
-65.999978
 20
-46.947384
 30
0.0
 11
-62.136275
 21
-47.98266
 31
0.0
  0
LINE
  5
84A
100
AcDbEntity
  8
2
370
    25
100
AcDbLine
 10
-65.999978
 20
-46.947384
 30
0.0
 11
-62.136275
 21
-45.912108
 31
0.0
  0
LINE
  5
84B
100
AcDbEntity
  8
2
370
    25
100
AcDbLine
 10
-65.999978
 20
-46.947384
 30
0.0
 11
-53.999978
 21
-46.947384
 31
0.0
  0
LINE
  5
84C
100
AcDbEntity
  8
2
370
    25
100
AcDbLine
 10
-53.999978
 20
-46.947384
 30
0.0
 11
-57.863682
 21
-45.912108
 31
0.0
  0
LINE
  5
84D
100
AcDbEntity
  8
2
370
    25
100
AcDbLine
 10
-53.999978
 20
-46.947384
 30
0.0
 11
-57.863682
 21
-47.98266
 31
0.0
  0
LINE
  5
84E
100
AcDbEntity
  8
2
370
    25
100
AcDbLine
 10
-53.999978
 20
-22.483317
 30
0.0
 11
-53.999978
 21
-48.947384
 31
0.0
  0
ENDBLK
  5
84F
100
AcDbEntity
  8
2
100
AcDbBlockEnd
  0
BLOCK
  5
850
100
AcDbEntity
  8
2
100
AcDbBlockBegin
  2
*D36
 70
     1
 10
0.0
 20
0.0
 30
0.0
  3
*D36
  1

  0
TEXT
  5
851
100
AcDbEntity
  8
2
370
    25
100
AcDbText
 10
83.860535
 20
-21.5023
 30
0.0
 40
5.0
  1
%%c20
 50
90.0
 41
2.0
 72
     5
 11
83.860535
 21
-8.5023
 31
0.0
100
AcDbText
  0
LINE
  5
852
100
AcDbEntity
  8
2
370
    25
100
AcDbLine
 10
127.153078
 20
-4.0023
 30
0.0
 11
82.860535
 21
-4.0023
 31
0.0
  0
LINE
  5
853
100
AcDbEntity
  8
2
370
    25
100
AcDbLine
 10
84.860535
 20
-4.0023
 30
0.0
 11
83.825258
 21
-7.866003
 31
0.0
  0
LINE
  5
854
100
AcDbEntity
  8
2
370
    25
100
AcDbLine
 10
84.860535
 20
-4.0023
 30
0.0
 11
85.895811
 21
-7.866003
 31
0.0
  0
LINE
  5
855
100
AcDbEntity
  8
2
370
    25
100
AcDbLine
 10
84.860535
 20
-4.0023
 30
0.0
 11
84.860535
 21
-24.0023
 31
0.0
  0
LINE
  5
856
100
AcDbEntity
  8
2
370
    25
100
AcDbLine
 10
84.860535
 20
-24.0023
 30
0.0
 11
85.895811
 21
-20.138597
 31
0.0
  0
LINE
  5
857
100
AcDbEntity
  8
2
370
    25
100
AcDbLine
 10
84.860535
 20
-24.0023
 30
0.0
 11
83.825258
 21
-20.138597
 31
0.0
  0
LINE
  5
858
100
AcDbEntity
  8
2
370
    25
100
AcDbLine
 10
127.153078
 20
-24.0023
 30
0.0
 11
82.860535
 21
-24.0023
 31
0.0
  0
ENDBLK
  5
859
100
AcDbEntity
  8
2
100
AcDbBlockEnd
  0
BLOCK
  5
85A
100
AcDbEntity
  8
2
100
AcDbBlockBegin
  2
*D37
 70
     1
 10
0.0
 20
0.0
 30
0.0
  3
*D37
  1

  0
TEXT
  5
85B
100
AcDbEntity
  8
2
370
    25
100
AcDbText
 10
93.938293
 20
-52.0023
 30
0.0
 40
5.0
  1
66
 50
90.0
 41
2.0
 72
     5
 11
93.938293
 21
-44.0023
 31
0.0
100
AcDbText
  0
LINE
  5
85C
100
AcDbEntity
  8
2
370
    25
100
AcDbLine
 10
134.118263
 20
-80.0023
 30
0.0
 11
92.938293
 21
-80.0023
 31
0.0
  0
LINE
  5
85D
100
AcDbEntity
  8
2
370
    25
100
AcDbLine
 10
94.938293
 20
-80.0023
 30
0.0
 11
95.97357
 21
-76.138597
 31
0.0
  0
LINE
  5
85E
100
AcDbEntity
  8
2
370
    25
100
AcDbLine
 10
94.938293
 20
-80.0023
 30
0.0
 11
93.903017
 21
-76.138597
 31
0.0
  0
LINE
  5
85F
100
AcDbEntity
  8
2
370
    25
100
AcDbLine
 10
94.938293
 20
-80.0023
 30
0.0
 11
94.938293
 21
-14.0023
 31
0.0
  0
LINE
  5
860
100
AcDbEntity
  8
2
370
    25
100
AcDbLine
 10
94.938293
 20
-14.0023
 30
0.0
 11
93.903017
 21
-17.866003
 31
0.0
  0
LINE
  5
861
100
AcDbEntity
  8
2
370
    25
100
AcDbLine
 10
94.938293
 20
-14.0023
 30
0.0
 11
95.97357
 21
-17.866003
 31
0.0
  0
LINE
  5
862
100
AcDbEntity
  8
2
370
    25
100
AcDbLine
 10
119.983211
 20
-14.0023
 30
0.0
 11
92.938293
 21
-14.0023
 31
0.0
  0
ENDBLK
  5
863
100
AcDbEntity
  8
2
100
AcDbBlockEnd
  0
BLOCK
  5
864
100
AcDbEntity
  8
2
100
AcDbBlockBegin
  2
*D38
 70
     1
 10
0.0
 20
0.0
 30
0.0
  3
*D38
  1

  0
TEXT
  5
865
100
AcDbEntity
  8
2
370
    25
100
AcDbText
 10
64.092651
 20
-22.5023
 30
0.0
 40
5.0
  1
130
 50
90.0
 41
2.0
 72
     5
 11
64.092651
 21
-9.5023
 31
0.0
100
AcDbText
  0
LINE
  5
866
100
AcDbEntity
  8
2
370
    25
100
AcDbLine
 10
134.118263
 20
-80.0023
 30
0.0
 11
63.092651
 21
-80.0023
 31
0.0
  0
LINE
  5
867
100
AcDbEntity
  8
2
370
    25
100
AcDbLine
 10
65.092651
 20
-80.0023
 30
0.0
 11
66.127928
 21
-76.138597
 31
0.0
  0
LINE
  5
868
100
AcDbEntity
  8
2
370
    25
100
AcDbLine
 10
65.092651
 20
-80.0023
 30
0.0
 11
64.057375
 21
-76.138597
 31
0.0
  0
LINE
  5
869
100
AcDbEntity
  8
2
370
    25
100
AcDbLine
 10
65.092651
 20
-80.0023
 30
0.0
 11
65.092651
 21
49.9977
 31
0.0
  0
LINE
  5
86A
100
AcDbEntity
  8
2
370
    25
100
AcDbLine
 10
65.092651
 20
49.9977
 30
0.0
 11
64.057375
 21
46.133997
 31
0.0
  0
LINE
  5
86B
100
AcDbEntity
  8
2
370
    25
100
AcDbLine
 10
65.092651
 20
49.9977
 30
0.0
 11
66.127928
 21
46.133997
 31
0.0
  0
LINE
  5
86C
100
AcDbEntity
  8
2
370
    25
100
AcDbLine
 10
134.118263
 20
49.9977
 30
0.0
 11
63.092651
 21
49.9977
 31
0.0
  0
ENDBLK
  5
86D
100
AcDbEntity
  8
2
100
AcDbBlockEnd
  0
BLOCK
  5
86E
100
AcDbEntity
  8
2
100
AcDbBlockBegin
  2
*D39
 70
     1
 10
0.0
 20
0.0
 30
0.0
  3
*D39
  1

  0
TEXT
  5
86F
100
AcDbEntity
  8
2
370
    25
100
AcDbText
 10
74.187897
 20
-22.5023
 30
0.0
 40
5.0
  1
114
 50
90.0
 41
2.0
 72
     5
 11
74.187897
 21
-9.5023
 31
0.0
100
AcDbText
  0
LINE
  5
870
100
AcDbEntity
  8
2
370
    25
100
AcDbLine
 10
128.328007
 20
-72.0023
 30
0.0
 11
73.187897
 21
-72.0023
 31
0.0
  0
LINE
  5
871
100
AcDbEntity
  8
2
370
    25
100
AcDbLine
 10
75.187897
 20
-72.0023
 30
0.0
 11
76.223173
 21
-68.138597
 31
0.0
  0
LINE
  5
872
100
AcDbEntity
  8
2
370
    25
100
AcDbLine
 10
75.187897
 20
-72.0023
 30
0.0
 11
74.152621
 21
-68.138597
 31
0.0
  0
LINE
  5
873
100
AcDbEntity
  8
2
370
    25
100
AcDbLine
 10
75.187897
 20
-72.0023
 30
0.0
 11
75.187897
 21
41.9977
 31
0.0
  0
LINE
  5
874
100
AcDbEntity
  8
2
370
    25
100
AcDbLine
 10
75.187897
 20
41.9977
 30
0.0
 11
74.152621
 21
38.133997
 31
0.0
  0
LINE
  5
875
100
AcDbEntity
  8
2
370
    25
100
AcDbLine
 10
75.187897
 20
41.9977
 30
0.0
 11
76.223173
 21
38.133997
 31
0.0
  0
LINE
  5
876
100
AcDbEntity
  8
2
370
    25
100
AcDbLine
 10
128.328007
 20
41.9977
 30
0.0
 11
73.187897
 21
41.9977
 31
0.0
  0
ENDBLK
  5
877
100
AcDbEntity
  8
2
100
AcDbBlockEnd
  0
BLOCK
  5
878
100
AcDbEntity
  8
2
100
AcDbBlockBegin
  2
*D40
 70
     1
 10
0.0
 20
0.0
 30
0.0
  3
*D40
  1

  0
TEXT
  5
879
100
AcDbEntity
  8
2
370
    25
100
AcDbText
 10
74.187897
 20
53.9977
 30
0.0
 40
5.0
  1
8
 50
90.0
 41
2.0
 72
     5
 11
74.187897
 21
56.9977
 31
0.0
100
AcDbText
  0
LINE
  5
87A
100
AcDbEntity
  8
2
370
    25
100
AcDbLine
 10
128.328007
 20
41.9977
 30
0.0
 11
73.187897
 21
41.9977
 31
0.0
  0
LINE
  5
87B
100
AcDbEntity
  8
2
370
    25
100
AcDbLine
 10
75.187897
 20
41.9977
 30
0.0
 11
74.152621
 21
38.133997
 31
0.0
  0
LINE
  5
87C
100
AcDbEntity
  8
2
370
    25
100
AcDbLine
 10
75.187897
 20
41.9977
 30
0.0
 11
76.223173
 21
38.133997
 31
0.0
  0
LINE
  5
87D
100
AcDbEntity
  8
2
370
    25
100
AcDbLine
 10
75.187897
 20
31.9977
 30
0.0
 11
75.187897
 21
60.9977
 31
0.0
  0
LINE
  5
87E
100
AcDbEntity
  8
2
370
    25
100
AcDbLine
 10
75.187897
 20
49.9977
 30
0.0
 11
76.223173
 21
53.861403
 31
0.0
  0
LINE
  5
87F
100
AcDbEntity
  8
2
370
    25
100
AcDbLine
 10
75.187897
 20
49.9977
 30
0.0
 11
74.152621
 21
53.861403
 31
0.0
  0
LINE
  5
880
100
AcDbEntity
  8
2
370
    25
100
AcDbLine
 10
134.118263
 20
49.9977
 30
0.0
 11
73.187897
 21
49.9977
 31
0.0
  0
ENDBLK
  5
881
100
AcDbEntity
  8
2
100
AcDbBlockEnd
  0
BLOCK
  5
882
100
AcDbEntity
  8
2
100
AcDbBlockBegin
  2
*D41
 70
     1
 10
0.0
 20
0.0
 30
0.0
  3
*D41
  1

  0
TEXT
  5
883
100
AcDbEntity
  8
2
370
    25
100
AcDbText
 10
74.187897
 20
-89.0023
 30
0.0
 40
5.0
  1
8
 50
90.0
 41
2.0
 72
     5
 11
74.187897
 21
-86.0023
 31
0.0
100
AcDbText
  0
LINE
  5
884
100
AcDbEntity
  8
2
370
    25
100
AcDbLine
 10
134.118263
 20
-80.0023
 30
0.0
 11
73.187897
 21
-80.0023
 31
0.0
  0
LINE
  5
885
100
AcDbEntity
  8
2
370
    25
100
AcDbLine
 10
75.187897
 20
-80.0023
 30
0.0
 11
74.152621
 21
-83.866003
 31
0.0
  0
LINE
  5
886
100
AcDbEntity
  8
2
370
    25
100
AcDbLine
 10
75.187897
 20
-80.0023
 30
0.0
 11
76.223173
 21
-83.866003
 31
0.0
  0
LINE
  5
887
100
AcDbEntity
  8
2
370
    25
100
AcDbLine
 10
75.187897
 20
-91.0023
 30
0.0
 11
75.187897
 21
-62.0023
 31
0.0
  0
LINE
  5
888
100
AcDbEntity
  8
2
370
    25
100
AcDbLine
 10
75.187897
 20
-72.0023
 30
0.0
 11
76.223173
 21
-68.138597
 31
0.0
  0
LINE
  5
889
100
AcDbEntity
  8
2
370
    25
100
AcDbLine
 10
75.187897
 20
-72.0023
 30
0.0
 11
74.152621
 21
-68.138597
 31
0.0
  0
LINE
  5
88A
100
AcDbEntity
  8
2
370
    25
100
AcDbLine
 10
128.328007
 20
-72.0023
 30
0.0
 11
73.187897
 21
-72.0023
 31
0.0
  0
ENDBLK
  5
88B
100
AcDbEntity
  8
2
100
AcDbBlockEnd
  0
BLOCK
  5
88C
100
AcDbEntity
  8
2
100
AcDbBlockBegin
  2
*D42
 70
     1
 10
0.0
 20
0.0
 30
0.0
  3
*D42
  1

  0
TEXT
  5
88D
100
AcDbEntity
  8
2
370
    25
100
AcDbText
 10
100.618276
 20
16.9977
 30
0.0
 40
5.0
  1
10.5
 41
2.0
 72
     5
 11
118.618276
 21
16.9977
 31
0.0
100
AcDbText
  0
LINE
  5
88E
100
AcDbEntity
  8
2
370
    25
100
AcDbLine
 10
124.618276
 20
-4.450749
 30
0.0
 11
124.618276
 21
17.9977
 31
0.0
  0
LINE
  5
88F
100
AcDbEntity
  8
2
370
    25
100
AcDbLine
 10
124.618276
 20
15.9977
 30
0.0
 11
120.754573
 21
17.032976
 31
0.0
  0
LINE
  5
890
100
AcDbEntity
  8
2
370
    25
100
AcDbLine
 10
124.618276
 20
15.9977
 30
0.0
 11
120.754573
 21
14.962424
 31
0.0
  0
LINE
  5
891
100
AcDbEntity
  8
2
370
    25
100
AcDbLine
 10
98.618276
 20
15.9977
 30
0.0
 11
145.118263
 21
15.9977
 31
0.0
  0
LINE
  5
892
100
AcDbEntity
  8
2
370
    25
100
AcDbLine
 10
135.118263
 20
15.9977
 30
0.0
 11
138.981967
 21
14.962424
 31
0.0
  0
LINE
  5
893
100
AcDbEntity
  8
2
370
    25
100
AcDbLine
 10
135.118263
 20
15.9977
 30
0.0
 11
138.981967
 21
17.032976
 31
0.0
  0
ENDBLK
  5
894
100
AcDbEntity
  8
2
100
AcDbBlockEnd
  0
BLOCK
  5
895
100
AcDbEntity
  8
2
100
AcDbBlockBegin
  2
*D43
 70
     1
 10
0.0
 20
0.0
 30
0.0
  3
*D43
  1

  0
TEXT
  5
896
100
AcDbEntity
  8
2
370
    25
100
AcDbText
 10
104.403679
 20
-50.0023
 30
0.0
 40
5.0
  1
22
 50
90.0
 41
2.0
 72
     5
 11
104.403679
 21
-42.0023
 31
0.0
100
AcDbText
  0
LINE
  5
897
100
AcDbEntity
  8
2
370
    25
100
AcDbLine
 10
156.118263
 20
-36.0023
 30
0.0
 11
103.403679
 21
-36.0023
 31
0.0
  0
LINE
  5
898
100
AcDbEntity
  8
2
370
    25
100
AcDbLine
 10
105.403679
 20
-36.0023
 30
0.0
 11
104.368403
 21
-39.866003
 31
0.0
  0
LINE
  5
899
100
AcDbEntity
  8
2
370
    25
100
AcDbLine
 10
105.403679
 20
-36.0023
 30
0.0
 11
106.438955
 21
-39.866003
 31
0.0
  0
LINE
  5
89A
100
AcDbEntity
  8
2
370
    25
100
AcDbLine
 10
105.403679
 20
-52.0023
 30
0.0
 11
105.403679
 21
-4.0023
 31
0.0
  0
LINE
  5
89B
100
AcDbEntity
  8
2
370
    25
100
AcDbLine
 10
105.403679
 20
-14.0023
 30
0.0
 11
106.438955
 21
-10.138597
 31
0.0
  0
LINE
  5
89C
100
AcDbEntity
  8
2
370
    25
100
AcDbLine
 10
105.403679
 20
-14.0023
 30
0.0
 11
104.368403
 21
-10.138597
 31
0.0
  0
LINE
  5
89D
100
AcDbEntity
  8
2
370
    25
100
AcDbLine
 10
119.983211
 20
-14.0023
 30
0.0
 11
103.403679
 21
-14.0023
 31
0.0
  0
ENDBLK
  5
89E
100
AcDbEntity
  8
2
100
AcDbBlockEnd
  0
BLOCK
  5
89F
100
AcDbEntity
  8
2
100
AcDbBlockBegin
  2
*D44
 70
     1
 10
0.0
 20
0.0
 30
0.0
  3
*D44
  1

  0
TEXT
  5
8A0
100
AcDbEntity
  8
2
370
    25
100
AcDbText
 10
-90.000065
 20
-87.142822
 30
0.0
 40
5.0
  1
１０
 72
     5
 11
-81.000065
 21
-87.142822
 31
0.0
100
AcDbText
  0
LINE
  5
8A1
100
AcDbEntity
  8
2
370
    25
100
AcDbLine
 10
-90.000065
 20
-73.152496
 30
0.0
 11
-90.000065
 21
-90.142822
 31
0.0
  0
LINE
  5
8A2
100
AcDbEntity
  8
2
370
    25
100
AcDbLine
 10
-90.000065
 20
-88.142822
 30
0.0
 11
-86.136361
 21
-89.178098
 31
0.0
  0
LINE
  5
8A3
100
AcDbEntity
  8
2
370
    25
100
AcDbLine
 10
-90.000065
 20
-88.142822
 30
0.0
 11
-86.136361
 21
-87.107546
 31
0.0
  0
LINE
  5
8A4
100
AcDbEntity
  8
2
370
    25
100
AcDbLine
 10
-90.000065
 20
-88.142822
 30
0.0
 11
-80.000065
 21
-88.142822
 31
0.0
  0
LINE
  5
8A5
100
AcDbEntity
  8
2
370
    25
100
AcDbLine
 10
-80.000065
 20
-88.142822
 30
0.0
 11
-83.863768
 21
-87.107546
 31
0.0
  0
LINE
  5
8A6
100
AcDbEntity
  8
2
370
    25
100
AcDbLine
 10
-80.000065
 20
-88.142822
 30
0.0
 11
-83.863768
 21
-89.178098
 31
0.0
  0
LINE
  5
8A7
100
AcDbEntity
  8
2
370
    25
100
AcDbLine
 10
-80.000065
 20
-74.757093
 30
0.0
 11
-80.000065
 21
-90.142822
 31
0.0
  0
ENDBLK
  5
8A8
100
AcDbEntity
  8
2
100
AcDbBlockEnd
  0
BLOCK
  5
8A9
100
AcDbEntity
  8
2
100
AcDbBlockBegin
  2
*D45
 70
     1
 10
0.0
 20
0.0
 30
0.0
  3
*D45
  1

  0
TEXT
  5
8AA
100
AcDbEntity
  8
2
370
    25
100
AcDbText
 10
-40.000065
 20
-85.67569
 30
0.0
 40
5.0
  1
１０
 72
     5
 11
-31.000065
 21
-85.67569
 31
0.0
100
AcDbText
  0
LINE
  5
8AB
100
AcDbEntity
  8
2
370
    25
100
AcDbLine
 10
-40.000065
 20
-74.757093
 30
0.0
 11
-40.000065
 21
-88.67569
 31
0.0
  0
LINE
  5
8AC
100
AcDbEntity
  8
2
370
    25
100
AcDbLine
 10
-40.000065
 20
-86.67569
 30
0.0
 11
-36.136361
 21
-87.710966
 31
0.0
  0
LINE
  5
8AD
100
AcDbEntity
  8
2
370
    25
100
AcDbLine
 10
-40.000065
 20
-86.67569
 30
0.0
 11
-36.136361
 21
-85.640414
 31
0.0
  0
LINE
  5
8AE
100
AcDbEntity
  8
2
370
    25
100
AcDbLine
 10
-40.000065
 20
-86.67569
 30
0.0
 11
-30.000065
 21
-86.67569
 31
0.0
  0
LINE
  5
8AF
100
AcDbEntity
  8
2
370
    25
100
AcDbLine
 10
-30.000065
 20
-86.67569
 30
0.0
 11
-33.863768
 21
-85.640414
 31
0.0
  0
LINE
  5
8B0
100
AcDbEntity
  8
2
370
    25
100
AcDbLine
 10
-30.000065
 20
-86.67569
 30
0.0
 11
-33.863768
 21
-87.710966
 31
0.0
  0
LINE
  5
8B1
100
AcDbEntity
  8
2
370
    25
100
AcDbLine
 10
-30.000065
 20
-73.152496
 30
0.0
 11
-30.000065
 21
-88.67569
 31
0.0
  0
ENDBLK
  5
8B2
100
AcDbEntity
  8
2
100
AcDbBlockEnd
  0
BLOCK
  5
8B3
100
AcDbEntity
  8
2
100
AcDbBlockBegin
  2
*D46
 70
     1
 10
0.0
 20
0.0
 30
0.0
  3
*D46
  1

  0
TEXT
  5
8B4
100
AcDbEntity
  8
2
370
    25
100
AcDbText
 10
-119.250032
 20
-101.566956
 30
0.0
 40
5.0
  1
５８．５
 72
     5
 11
-100.250032
 21
-101.566956
 31
0.0
100
AcDbText
  0
LINE
  5
8B5
100
AcDbEntity
  8
2
370
    25
100
AcDbLine
 10
-138.5
 20
-37.000021
 30
0.0
 11
-138.5
 21
-104.566956
 31
0.0
  0
LINE
  5
8B6
100
AcDbEntity
  8
2
370
    25
100
AcDbLine
 10
-138.5
 20
-102.566956
 30
0.0
 11
-134.636297
 21
-103.602232
 31
0.0
  0
LINE
  5
8B7
100
AcDbEntity
  8
2
370
    25
100
AcDbLine
 10
-138.5
 20
-102.566956
 30
0.0
 11
-134.636297
 21
-101.531679
 31
0.0
  0
LINE
  5
8B8
100
AcDbEntity
  8
2
370
    25
100
AcDbLine
 10
-138.5
 20
-102.566956
 30
0.0
 11
-80.000065
 21
-102.566956
 31
0.0
  0
LINE
  5
8B9
100
AcDbEntity
  8
2
370
    25
100
AcDbLine
 10
-80.000065
 20
-102.566956
 30
0.0
 11
-83.863768
 21
-101.531679
 31
0.0
  0
LINE
  5
8BA
100
AcDbEntity
  8
2
370
    25
100
AcDbLine
 10
-80.000065
 20
-102.566956
 30
0.0
 11
-83.863768
 21
-103.602232
 31
0.0
  0
LINE
  5
8BB
100
AcDbEntity
  8
2
370
    25
100
AcDbLine
 10
-80.000065
 20
-74.757093
 30
0.0
 11
-80.000065
 21
-104.566956
 31
0.0
  0
ENDBLK
  5
8BC
100
AcDbEntity
  8
2
100
AcDbBlockEnd
  0
BLOCK
  5
8BD
100
AcDbEntity
  8
2
100
AcDbBlockBegin
  2
*D47
 70
     1
 10
0.0
 20
0.0
 30
0.0
  3
*D47
  1

  0
TEXT
  5
8BE
100
AcDbEntity
  8
2
370
    25
100
AcDbText
 10
-20.750032
 20
-100.966713
 30
0.0
 40
5.0
  1
５８．５
 72
     5
 11
-1.750032
 21
-100.966713
 31
0.0
100
AcDbText
  0
LINE
  5
8BF
100
AcDbEntity
  8
2
370
    25
100
AcDbLine
 10
-40.000065
 20
-74.757093
 30
0.0
 11
-40.000065
 21
-103.966713
 31
0.0
  0
LINE
  5
8C0
100
AcDbEntity
  8
2
370
    25
100
AcDbLine
 10
-40.000065
 20
-101.966713
 30
0.0
 11
-36.136361
 21
-103.001989
 31
0.0
  0
LINE
  5
8C1
100
AcDbEntity
  8
2
370
    25
100
AcDbLine
 10
-40.000065
 20
-101.966713
 30
0.0
 11
-36.136361
 21
-100.931437
 31
0.0
  0
LINE
  5
8C2
100
AcDbEntity
  8
2
370
    25
100
AcDbLine
 10
-40.000065
 20
-101.966713
 30
0.0
 11
18.5
 21
-101.966713
 31
0.0
  0
LINE
  5
8C3
100
AcDbEntity
  8
2
370
    25
100
AcDbLine
 10
18.5
 20
-101.966713
 30
0.0
 11
14.636297
 21
-100.931437
 31
0.0
  0
LINE
  5
8C4
100
AcDbEntity
  8
2
370
    25
100
AcDbLine
 10
18.5
 20
-101.966713
 30
0.0
 11
14.636297
 21
-103.001989
 31
0.0
  0
LINE
  5
8C5
100
AcDbEntity
  8
2
370
    25
100
AcDbLine
 10
18.5
 20
-37.000021
 30
0.0
 11
18.5
 21
-103.966713
 31
0.0
  0
ENDBLK
  5
8C6
100
AcDbEntity
  8
2
100
AcDbBlockEnd
  0
BLOCK
  5
8C7
100
AcDbEntity
  8
2
100
AcDbBlockBegin
  2
*D48
 70
     1
 10
0.0
 20
0.0
 30
0.0
  3
*D48
  1

  0
TEXT
  5
8C8
100
AcDbEntity
  8
2
370
    25
100
AcDbText
 10
-36.000028
 20
69.483444
 30
0.0
 40
5.0
  1
１８
 72
     5
 11
-27.000028
 21
69.483444
 31
0.0
100
AcDbText
  0
LINE
  5
8C9
100
AcDbEntity
  8
2
370
    25
100
AcDbLine
 10
-40.000028
 20
57.099979
 30
0.0
 11
-40.000028
 21
70.483444
 31
0.0
  0
LINE
  5
8CA
100
AcDbEntity
  8
2
370
    25
100
AcDbLine
 10
-40.000028
 20
68.483444
 30
0.0
 11
-36.136325
 21
67.448168
 31
0.0
  0
LINE
  5
8CB
100
AcDbEntity
  8
2
370
    25
100
AcDbLine
 10
-40.000028
 20
68.483444
 30
0.0
 11
-36.136325
 21
69.51872
 31
0.0
  0
LINE
  5
8CC
100
AcDbEntity
  8
2
370
    25
100
AcDbLine
 10
-40.000028
 20
68.483444
 30
0.0
 11
-22.000028
 21
68.483444
 31
0.0
  0
LINE
  5
8CD
100
AcDbEntity
  8
2
370
    25
100
AcDbLine
 10
-22.000028
 20
68.483444
 30
0.0
 11
-25.863731
 21
69.51872
 31
0.0
  0
LINE
  5
8CE
100
AcDbEntity
  8
2
370
    25
100
AcDbLine
 10
-22.000028
 20
68.483444
 30
0.0
 11
-25.863731
 21
67.448168
 31
0.0
  0
LINE
  5
8CF
100
AcDbEntity
  8
2
370
    25
100
AcDbLine
 10
-22.000028
 20
24.409551
 30
0.0
 11
-22.000028
 21
70.483444
 31
0.0
  0
ENDBLK
  5
8D0
100
AcDbEntity
  8
2
100
AcDbBlockEnd
  0
BLOCK
  5
8D1
100
AcDbEntity
  8
2
100
AcDbBlockBegin
  2
*D49
 70
     1
 10
0.0
 20
0.0
 30
0.0
  3
*D49
  1

  0
TEXT
  5
8D2
100
AcDbEntity
  8
2
370
    25
100
AcDbText
 10
-100.500028
 20
69.594452
 30
0.0
 40
5.0
  1
３１
 72
     5
 11
-91.500028
 21
69.594452
 31
0.0
100
AcDbText
  0
LINE
  5
8D3
100
AcDbEntity
  8
2
370
    25
100
AcDbLine
 10
-111.000028
 20
14.999979
 30
0.0
 11
-111.000028
 21
70.594452
 31
0.0
  0
LINE
  5
8D4
100
AcDbEntity
  8
2
370
    25
100
AcDbLine
 10
-111.000028
 20
68.594452
 30
0.0
 11
-107.136325
 21
67.559176
 31
0.0
  0
LINE
  5
8D5
100
AcDbEntity
  8
2
370
    25
100
AcDbLine
 10
-111.000028
 20
68.594452
 30
0.0
 11
-107.136325
 21
69.629728
 31
0.0
  0
LINE
  5
8D6
100
AcDbEntity
  8
2
370
    25
100
AcDbLine
 10
-111.000028
 20
68.594452
 30
0.0
 11
-80.000028
 21
68.594452
 31
0.0
  0
LINE
  5
8D7
100
AcDbEntity
  8
2
370
    25
100
AcDbLine
 10
-80.000028
 20
68.594452
 30
0.0
 11
-83.863731
 21
69.629728
 31
0.0
  0
LINE
  5
8D8
100
AcDbEntity
  8
2
370
    25
100
AcDbLine
 10
-80.000028
 20
68.594452
 30
0.0
 11
-83.863731
 21
67.559176
 31
0.0
  0
LINE
  5
8D9
100
AcDbEntity
  8
2
370
    25
100
AcDbLine
 10
-80.000028
 20
57.099979
 30
0.0
 11
-80.000028
 21
70.594452
 31
0.0
  0
ENDBLK
  5
8DA
100
AcDbEntity
  8
2
100
AcDbBlockEnd
  0
BLOCK
  5
8DB
100
AcDbEntity
  8
2
100
AcDbBlockBegin
  2
*D50
 70
     1
 10
0.0
 20
0.0
 30
0.0
  3
*D50
  1

  0
TEXT
  5
8DC
100
AcDbEntity
  8
2
370
    25
100
AcDbText
 10
-50.0
 20
69.407631
 30
0.0
 40
5.0
  1
４０
 72
     5
 11
-41.0
 21
69.407631
 31
0.0
100
AcDbText
  0
LINE
  5
8DD
100
AcDbEntity
  8
2
370
    25
100
AcDbLine
 10
-80.0
 20
39.500001
 30
0.0
 11
-80.0
 21
70.407631
 31
0.0
  0
LINE
  5
8DE
100
AcDbEntity
  8
2
370
    25
100
AcDbLine
 10
-80.0
 20
68.407631
 30
0.0
 11
-76.136297
 21
67.372355
 31
0.0
  0
LINE
  5
8DF
100
AcDbEntity
  8
2
370
    25
100
AcDbLine
 10
-80.0
 20
68.407631
 30
0.0
 11
-76.136297
 21
69.442907
 31
0.0
  0
LINE
  5
8E0
100
AcDbEntity
  8
2
370
    25
100
AcDbLine
 10
-80.0
 20
68.407631
 30
0.0
 11
-40.0
 21
68.407631
 31
0.0
  0
LINE
  5
8E1
100
AcDbEntity
  8
2
370
    25
100
AcDbLine
 10
-40.0
 20
68.407631
 30
0.0
 11
-43.863703
 21
69.442907
 31
0.0
  0
LINE
  5
8E2
100
AcDbEntity
  8
2
370
    25
100
AcDbLine
 10
-40.0
 20
68.407631
 30
0.0
 11
-43.863703
 21
67.372355
 31
0.0
  0
LINE
  5
8E3
100
AcDbEntity
  8
2
370
    25
100
AcDbLine
 10
-40.0
 20
39.500001
 30
0.0
 11
-40.0
 21
70.407631
 31
0.0
  0
ENDBLK
  5
8E4
100
AcDbEntity
  8
2
100
AcDbBlockEnd
  0
BLOCK
  5
8E5
100
AcDbEntity
  8
2
100
AcDbBlockBegin
  2
*D51
 70
     1
 10
0.0
 20
0.0
 30
0.0
  3
*D51
  1

  0
TEXT
  5
8E6
100
AcDbEntity
  8
2
370
    25
100
AcDbText
 10
318.051758
 20
-15.9688
 30
0.0
 40
5.0
  1
５０
 50
90.0
 72
     5
 11
318.051758
 21
-6.9688
 31
0.0
100
AcDbText
  0
LINE
  5
8E7
100
AcDbEntity
  8
2
370
    25
100
AcDbLine
 10
224.118263
 20
-35.9688
 30
0.0
 11
321.051758
 21
-35.9688
 31
0.0
  0
LINE
  5
8E8
100
AcDbEntity
  8
2
370
    25
100
AcDbLine
 10
319.051758
 20
-35.9688
 30
0.0
 11
320.087034
 21
-32.105097
 31
0.0
  0
LINE
  5
8E9
100
AcDbEntity
  8
2
370
    25
100
AcDbLine
 10
319.051758
 20
-35.9688
 30
0.0
 11
318.016482
 21
-32.105097
 31
0.0
  0
LINE
  5
8EA
100
AcDbEntity
  8
2
370
    25
100
AcDbLine
 10
319.051758
 20
-35.9688
 30
0.0
 11
319.051758
 21
14.0312
 31
0.0
  0
LINE
  5
8EB
100
AcDbEntity
  8
2
370
    25
100
AcDbLine
 10
319.051758
 20
14.0312
 30
0.0
 11
318.016482
 21
10.167497
 31
0.0
  0
LINE
  5
8EC
100
AcDbEntity
  8
2
370
    25
100
AcDbLine
 10
319.051758
 20
14.0312
 30
0.0
 11
320.087034
 21
10.167497
 31
0.0
  0
LINE
  5
8ED
100
AcDbEntity
  8
2
370
    25
100
AcDbLine
 10
205.718263
 20
14.0312
 30
0.0
 11
321.051758
 21
14.0312
 31
0.0
  0
ENDBLK
  5
8EE
100
AcDbEntity
  8
2
100
AcDbBlockEnd
  0
ENDSEC
  0
SECTION
  2
ENTITIES
  0
LINE
  5
59
100
AcDbEntity
  8
1
370
    50
100
AcDbLine
 10
236.559039
 20
180.656181
 30
0.0
 11
236.559039
 21
174.156181
 31
0.0
  0
ARC
  5
5A
100
AcDbEntity
  8
1
370
    50
100
AcDbCircle
 10
245.859039
 20
188.206181
 30
0.0
 40
3.0
100
AcDbArc
 50
115.841933
 51
180.0
  0
LINE
  5
5B
100
AcDbEntity
  8
1
370
    50
100
AcDbLine
 10
242.859039
 20
180.956181
 30
0.0
 11
236.859039
 21
180.956181
 31
0.0
  0
LINE
  5
5C
100
AcDbEntity
  8
1
370
    50
100
AcDbLine
 10
242.859039
 20
188.206181
 30
0.0
 11
242.859039
 21
166.606181
 31
0.0
  0
ARC
  5
5D
100
AcDbEntity
  8
1
370
    50
100
AcDbCircle
 10
236.859039
 20
180.656181
 30
0.0
 40
0.3
100
AcDbArc
 50
90.0
 51
180.0
  0
LINE
  5
5E
100
AcDbEntity
  8
1
370
    50
100
AcDbLine
 10
240.559039
 20
180.956181
 30
0.0
 11
240.559039
 21
185.406181
 31
0.0
  0
LINE
  5
5F
100
AcDbEntity
  8
1
370
    50
100
AcDbLine
 10
241.559039
 20
180.956181
 30
0.0
 11
241.559039
 21
185.406181
 31
0.0
  0
LINE
  5
60
100
AcDbEntity
  8
1
370
    50
100
AcDbLine
 10
239.559039
 20
180.956181
 30
0.0
 11
239.559039
 21
187.406181
 31
0.0
  0
ARC
  5
61
100
AcDbEntity
  8
1
370
    50
100
AcDbCircle
 10
245.859039
 20
166.606181
 30
0.0
 40
3.0
100
AcDbArc
 50
180.0
 51
244.158067
  0
LINE
  5
62
100
AcDbEntity
  8
1
370
    50
100
AcDbLine
 10
242.859039
 20
173.856181
 30
0.0
 11
236.859039
 21
173.856181
 31
0.0
  0
ARC
  5
63
100
AcDbEntity
  8
1
370
    50
100
AcDbCircle
 10
236.859039
 20
174.156181
 30
0.0
 40
0.3
100
AcDbArc
 50
180.0
 51
270.0
  0
LINE
  5
64
100
AcDbEntity
  8
1
370
    50
100
AcDbLine
 10
240.559039
 20
173.856181
 30
0.0
 11
240.559039
 21
169.406181
 31
0.0
  0
LINE
  5
65
100
AcDbEntity
  8
1
370
    50
100
AcDbLine
 10
241.559039
 20
173.856181
 30
0.0
 11
241.559039
 21
169.406181
 31
0.0
  0
LINE
  5
66
100
AcDbEntity
  8
1
370
    50
100
AcDbLine
 10
239.559039
 20
173.856181
 30
0.0
 11
239.559039
 21
167.406181
 31
0.0
  0
LINE
  5
67
100
AcDbEntity
  8
1
370
    50
100
AcDbLine
 10
259.159039
 20
99.983154
 30
0.0
 11
258.978506
 21
94.813355
 31
0.0
  0
ARC
  5
68
100
AcDbEntity
  8
1
370
    50
100
AcDbCircle
 10
256.979724
 20
94.883154
 30
0.0
 40
2.0
100
AcDbArc
 50
270.0
 51
358.0
  0
LINE
  5
69
100
AcDbEntity
  8
1
370
    50
100
AcDbLine
 10
241.059039
 20
99.983154
 30
0.0
 11
241.239573
 21
94.813355
 31
0.0
  0
ARC
  5
6A
100
AcDbEntity
  8
1
370
    50
100
AcDbCircle
 10
243.238354
 20
94.883154
 30
0.0
 40
2.0
100
AcDbArc
 50
182.0
 51
270.0
  0
LINE
  5
6B
100
AcDbEntity
  8
1
370
    50
100
AcDbLine
 10
243.238354
 20
92.883154
 30
0.0
 11
248.609039
 21
92.883154
 31
0.0
  0
LINE
  5
6C
100
AcDbEntity
  8
1
370
    50
100
AcDbLine
 10
251.109039
 20
92.883154
 30
0.0
 11
256.979724
 21
92.883154
 31
0.0
  0
LINE
  5
6D
100
AcDbEntity
  8
1
370
    50
100
AcDbLine
 10
313.957732
 20
174.064914
 30
0.0
 11
313.957732
 21
180.747445
 31
0.0
  0
LINE
  5
6E
100
AcDbEntity
  8
1
370
    50
100
AcDbLine
 10
324.157732
 20
164.485495
 30
0.0
 11
324.157732
 21
190.326865
 31
0.0
  0
LINE
  5
6F
100
AcDbEntity
  8
1
370
    50
100
AcDbLine
 10
314.157732
 20
173.864907
 30
0.0
 11
314.155987
 21
173.864922
 31
0.0
  0
ARC
  5
70
100
AcDbEntity
  8
1
370
    50
100
AcDbCircle
 10
314.157732
 20
174.064914
 30
0.0
 40
0.2
100
AcDbArc
 50
180.0
 51
269.5
  0
LINE
  5
71
100
AcDbEntity
  8
1
370
    50
100
AcDbLine
 10
317.057732
 20
162.30618
 30
0.0
 11
322.227531
 21
162.486713
 31
0.0
  0
ARC
  5
72
100
AcDbEntity
  8
1
370
    50
100
AcDbCircle
 10
322.157732
 20
164.485495
 30
0.0
 40
2.0
100
AcDbArc
 50
272.0
 51
0.0
  0
LINE
  5
73
100
AcDbEntity
  8
1
370
    50
100
AcDbLine
 10
315.657047
 20
144.606059
 30
0.0
 11
316.644556
 21
144.780184
 31
0.0
  0
ARC
  5
74
100
AcDbEntity
  8
1
370
    50
100
AcDbCircle
 10
316.557732
 20
145.272587
 30
0.0
 40
0.5
100
AcDbArc
 50
280.0
 51
360.0
  0
LINE
  5
75
100
AcDbEntity
  8
1
370
    50
100
AcDbLine
 10
315.657047
 20
144.606059
 30
0.0
 11
315.157732
 21
144.632227
 31
0.0
  0
LINE
  5
76
100
AcDbEntity
  8
1
370
    50
100
AcDbLine
 10
317.057732
 20
145.272587
 30
0.0
 11
317.057732
 21
209.539772
 31
0.0
  0
LINE
  5
77
100
AcDbEntity
  8
1
370
    50
100
AcDbLine
 10
317.507732
 20
147.464253
 30
0.0
 11
317.507732
 21
157.348105
 31
0.0
  0
LINE
  5
78
100
AcDbEntity
  8
1
370
    50
100
AcDbLine
 10
317.507732
 20
147.464253
 30
0.0
 11
317.057732
 21
147.440669
 31
0.0
  0
LINE
  5
79
100
AcDbEntity
  8
1
370
    50
100
AcDbLine
 10
317.507732
 20
157.348105
 30
0.0
 11
317.057732
 21
157.371689
 31
0.0
  0
LINE
  5
7A
100
AcDbEntity
  8
1
370
    50
100
AcDbLine
 10
315.157732
 20
144.632227
 30
0.0
 11
315.157732
 21
210.180133
 31
0.0
  0
LINE
  5
7B
100
AcDbEntity
  8
1
370
    50
100
AcDbLine
 10
236.767774
 20
103.083154
 30
0.0
 11
241.867728
 21
103.083154
 31
0.0
  0
ARC
  5
7C
100
AcDbEntity
  8
1
370
    50
100
AcDbCircle
 10
241.867728
 20
102.083154
 30
0.0
 40
1.0
100
AcDbArc
 50
53.130102
 51
90.0
  0
LINE
  5
7D
100
AcDbEntity
  8
1
370
    50
100
AcDbLine
 10
236.567781
 20
102.884899
 30
0.0
 11
236.567766
 21
102.883154
 31
0.0
  0
ARC
  5
7E
100
AcDbEntity
  8
1
370
    50
100
AcDbCircle
 10
236.767774
 20
102.883154
 30
0.0
 40
0.2
100
AcDbArc
 50
90.0
 51
179.5
  0
LINE
  5
7F
100
AcDbEntity
  8
1
370
    50
100
AcDbLine
 10
260.359039
 20
101.383154
 30
0.0
 11
260.185036
 21
100.396329
 31
0.0
  0
LINE
  5
80
100
AcDbEntity
  8
1
370
    50
100
AcDbLine
 10
259.692632
 20
99.983154
 30
0.0
 11
231.725447
 21
99.983154
 31
0.0
  0
ARC
  5
81
100
AcDbEntity
  8
1
370
    50
100
AcDbCircle
 10
259.692632
 20
100.483154
 30
0.0
 40
0.5
100
AcDbArc
 50
270.0
 51
350.0
  0
LINE
  5
82
100
AcDbEntity
  8
1
370
    50
100
AcDbLine
 10
260.359039
 20
101.383154
 30
0.0
 11
260.332835
 21
101.883154
 31
0.0
  0
LINE
  5
83
100
AcDbEntity
  8
1
370
    25
100
AcDbLine
 10
257.904805
 20
99.606394
 30
0.0
 11
257.92455
 21
99.983154
 31
0.0
  0
LINE
  5
84
100
AcDbEntity
  8
1
370
    25
100
AcDbLine
 10
242.812528
 20
99.620627
 30
0.0
 11
242.793529
 21
99.983154
 31
0.0
  0
LINE
  5
85
100
AcDbEntity
  8
1
370
    50
100
AcDbLine
 10
246.609039
 20
99.983154
 30
0.0
 11
246.638684
 21
99.947579
 31
0.0
  0
LINE
  5
86
100
AcDbEntity
  8
1
370
    50
100
AcDbLine
 10
247.609039
 20
99.983154
 30
0.0
 11
247.638684
 21
99.947579
 31
0.0
  0
LINE
  5
87
100
AcDbEntity
  8
1
370
    50
100
AcDbLine
 10
245.609039
 20
99.983154
 30
0.0
 11
245.638686
 21
99.947577
 31
0.0
  0
LINE
  5
88
100
AcDbEntity
  8
1
370
    25
100
AcDbLine
 10
246.859037
 20
99.533155
 30
0.0
 11
246.638684
 21
99.947579
 31
0.0
  0
LINE
  5
89
100
AcDbEntity
  8
1
370
    25
100
AcDbLine
 10
246.859037
 20
99.533155
 30
0.0
 11
247.140228
 21
99.983154
 31
0.0
  0
LINE
  5
8A
100
AcDbEntity
  8
1
370
    25
100
AcDbLine
 10
245.859038
 20
99.533155
 30
0.0
 11
245.638686
 21
99.947577
 31
0.0
  0
LINE
  5
8B
100
AcDbEntity
  8
1
370
    25
100
AcDbLine
 10
245.859038
 20
99.533155
 30
0.0
 11
246.140228
 21
99.983154
 31
0.0
  0
LINE
  5
8C
100
AcDbEntity
  8
1
370
    25
100
AcDbLine
 10
247.859037
 20
99.533155
 30
0.0
 11
247.638684
 21
99.947579
 31
0.0
  0
LINE
  5
8D
100
AcDbEntity
  8
1
370
    25
100
AcDbLine
 10
247.859037
 20
99.533155
 30
0.0
 11
248.109039
 21
99.933242
 31
0.0
  0
LINE
  5
8E
100
AcDbEntity
  8
1
370
    50
100
AcDbLine
 10
243.609039
 20
99.983154
 30
0.0
 11
243.638684
 21
99.947579
 31
0.0
  0
LINE
  5
8F
100
AcDbEntity
  8
1
370
    50
100
AcDbLine
 10
244.609039
 20
99.983154
 30
0.0
 11
244.638684
 21
99.947579
 31
0.0
  0
LINE
  5
90
100
AcDbEntity
  8
1
370
    25
100
AcDbLine
 10
243.859037
 20
99.533155
 30
0.0
 11
243.638684
 21
99.947579
 31
0.0
  0
LINE
  5
91
100
AcDbEntity
  8
1
370
    25
100
AcDbLine
 10
243.859037
 20
99.533155
 30
0.0
 11
244.140228
 21
99.983154
 31
0.0
  0
LINE
  5
92
100
AcDbEntity
  8
1
370
    25
100
AcDbLine
 10
242.859038
 20
99.533155
 30
0.0
 11
242.812528
 21
99.620627
 31
0.0
  0
LINE
  5
93
100
AcDbEntity
  8
1
370
    25
100
AcDbLine
 10
242.859038
 20
99.533155
 30
0.0
 11
243.140228
 21
99.983154
 31
0.0
  0
LINE
  5
94
100
AcDbEntity
  8
1
370
    25
100
AcDbLine
 10
244.859037
 20
99.533155
 30
0.0
 11
244.638684
 21
99.947579
 31
0.0
  0
LINE
  5
95
100
AcDbEntity
  8
1
370
    25
100
AcDbLine
 10
244.859037
 20
99.533155
 30
0.0
 11
245.140228
 21
99.983154
 31
0.0
  0
LINE
  5
96
100
AcDbEntity
  8
1
370
    50
100
AcDbLine
 10
255.609039
 20
99.983154
 30
0.0
 11
255.638684
 21
99.947579
 31
0.0
  0
LINE
  5
97
100
AcDbEntity
  8
1
370
    50
100
AcDbLine
 10
256.609039
 20
99.983154
 30
0.0
 11
256.638684
 21
99.947579
 31
0.0
  0
LINE
  5
98
100
AcDbEntity
  8
1
370
    25
100
AcDbLine
 10
255.859037
 20
99.533155
 30
0.0
 11
255.638684
 21
99.947579
 31
0.0
  0
LINE
  5
99
100
AcDbEntity
  8
1
370
    25
100
AcDbLine
 10
255.859037
 20
99.533155
 30
0.0
 11
256.140228
 21
99.983154
 31
0.0
  0
LINE
  5
9A
100
AcDbEntity
  8
1
370
    25
100
AcDbLine
 10
256.859037
 20
99.533155
 30
0.0
 11
256.638684
 21
99.947579
 31
0.0
  0
LINE
  5
9B
100
AcDbEntity
  8
1
370
    25
100
AcDbLine
 10
256.859037
 20
99.533155
 30
0.0
 11
257.140228
 21
99.983154
 31
0.0
  0
LINE
  5
9C
100
AcDbEntity
  8
1
370
    50
100
AcDbLine
 10
257.609039
 20
99.983154
 30
0.0
 11
257.638686
 21
99.947577
 31
0.0
  0
LINE
  5
9D
100
AcDbEntity
  8
1
370
    25
100
AcDbLine
 10
257.859038
 20
99.533155
 30
0.0
 11
257.638686
 21
99.947577
 31
0.0
  0
LINE
  5
9E
100
AcDbEntity
  8
1
370
    25
100
AcDbLine
 10
257.859039
 20
99.533155
 30
0.0
 11
257.904805
 21
99.606394
 31
0.0
  0
LINE
  5
9F
100
AcDbEntity
  8
1
370
    50
100
AcDbLine
 10
254.609039
 20
99.983154
 30
0.0
 11
254.638684
 21
99.947579
 31
0.0
  0
LINE
  5
A0
100
AcDbEntity
  8
1
370
    25
100
AcDbLine
 10
254.859037
 20
99.533155
 30
0.0
 11
254.638684
 21
99.947579
 31
0.0
  0
LINE
  5
A1
100
AcDbEntity
  8
1
370
    25
100
AcDbLine
 10
254.859037
 20
99.533155
 30
0.0
 11
255.140228
 21
99.983154
 31
0.0
  0
LINE
  5
A2
100
AcDbEntity
  8
1
370
    50
100
AcDbLine
 10
253.609039
 20
99.983154
 30
0.0
 11
253.638684
 21
99.947579
 31
0.0
  0
LINE
  5
A3
100
AcDbEntity
  8
1
370
    25
100
AcDbLine
 10
253.859037
 20
99.533155
 30
0.0
 11
253.638684
 21
99.947579
 31
0.0
  0
LINE
  5
A4
100
AcDbEntity
  8
1
370
    25
100
AcDbLine
 10
253.859037
 20
99.533155
 30
0.0
 11
254.140228
 21
99.983154
 31
0.0
  0
LINE
  5
A5
100
AcDbEntity
  8
1
370
    50
100
AcDbLine
 10
252.609039
 20
99.983154
 30
0.0
 11
252.638684
 21
99.947579
 31
0.0
  0
LINE
  5
A6
100
AcDbEntity
  8
1
370
    25
100
AcDbLine
 10
252.859037
 20
99.533155
 30
0.0
 11
252.638684
 21
99.947579
 31
0.0
  0
LINE
  5
A7
100
AcDbEntity
  8
1
370
    25
100
AcDbLine
 10
252.859037
 20
99.533155
 30
0.0
 11
253.140228
 21
99.983154
 31
0.0
  0
LINE
  5
A8
100
AcDbEntity
  8
1
370
    50
100
AcDbLine
 10
251.609039
 20
99.983153
 30
0.0
 11
251.638684
 21
99.947579
 31
0.0
  0
LINE
  5
A9
100
AcDbEntity
  8
1
370
    25
100
AcDbLine
 10
251.859037
 20
99.533155
 30
0.0
 11
251.638684
 21
99.947579
 31
0.0
  0
LINE
  5
AA
100
AcDbEntity
  8
1
370
    25
100
AcDbLine
 10
251.859037
 20
99.533155
 30
0.0
 11
252.140228
 21
99.983154
 31
0.0
  0
LINE
  5
AB
100
AcDbEntity
  8
1
370
    50
100
AcDbLine
 10
314.157732
 20
180.947453
 30
0.0
 11
314.155987
 21
180.947438
 31
0.0
  0
ARC
  5
AC
100
AcDbEntity
  8
1
370
    50
100
AcDbCircle
 10
314.157732
 20
180.747445
 30
0.0
 40
0.2
100
AcDbArc
 50
90.5
 51
180.0
  0
LINE
  5
AD
100
AcDbEntity
  8
1
370
    50
100
AcDbLine
 10
317.057732
 20
192.50618
 30
0.0
 11
322.227531
 21
192.325646
 31
0.0
  0
ARC
  5
AE
100
AcDbEntity
  8
1
370
    50
100
AcDbCircle
 10
322.157732
 20
190.326865
 30
0.0
 40
2.0
100
AcDbArc
 50
360.0
 51
88.0
  0
LINE
  5
AF
100
AcDbEntity
  8
1
370
    50
100
AcDbLine
 10
315.657047
 20
210.206301
 30
0.0
 11
316.644556
 21
210.032176
 31
0.0
  0
ARC
  5
B0
100
AcDbEntity
  8
1
370
    50
100
AcDbCircle
 10
316.557732
 20
209.539772
 30
0.0
 40
0.5
100
AcDbArc
 50
0.0
 51
80.0
  0
LINE
  5
B1
100
AcDbEntity
  8
1
370
    50
100
AcDbLine
 10
315.657047
 20
210.206301
 30
0.0
 11
315.157732
 21
210.180133
 31
0.0
  0
LINE
  5
B2
100
AcDbEntity
  8
1
370
    50
100
AcDbLine
 10
317.507732
 20
207.348107
 30
0.0
 11
317.507732
 21
197.464254
 31
0.0
  0
LINE
  5
B3
100
AcDbEntity
  8
1
370
    50
100
AcDbLine
 10
317.507732
 20
207.348107
 30
0.0
 11
317.057732
 21
207.37169
 31
0.0
  0
LINE
  5
B4
100
AcDbEntity
  8
1
370
    50
100
AcDbLine
 10
317.507732
 20
197.464254
 30
0.0
 11
317.057732
 21
197.440671
 31
0.0
  0
LINE
  5
B5
100
AcDbEntity
  8
1
370
    50
100
AcDbLine
 10
248.609039
 20
99.983154
 30
0.0
 11
248.638684
 21
99.947579
 31
0.0
  0
LINE
  5
B6
100
AcDbEntity
  8
1
370
    25
100
AcDbLine
 10
248.859037
 20
99.533155
 30
0.0
 11
248.638684
 21
99.947579
 31
0.0
  0
LINE
  5
B7
100
AcDbEntity
  8
1
370
    25
100
AcDbLine
 10
248.859037
 20
99.533155
 30
0.0
 11
249.109039
 21
99.933242
 31
0.0
  0
LINE
  5
B8
100
AcDbEntity
  8
1
370
    50
100
AcDbLine
 10
249.609039
 20
99.983154
 30
0.0
 11
249.638684
 21
99.947579
 31
0.0
  0
LINE
  5
B9
100
AcDbEntity
  8
1
370
    25
100
AcDbLine
 10
249.859037
 20
99.533155
 30
0.0
 11
249.638684
 21
99.947579
 31
0.0
  0
LINE
  5
BA
100
AcDbEntity
  8
1
370
    25
100
AcDbLine
 10
249.859037
 20
99.533155
 30
0.0
 11
250.109039
 21
99.933242
 31
0.0
  0
LINE
  5
BB
100
AcDbEntity
  8
1
370
    50
100
AcDbLine
 10
250.609039
 20
99.983154
 30
0.0
 11
250.638684
 21
99.947579
 31
0.0
  0
LINE
  5
BC
100
AcDbEntity
  8
1
370
    25
100
AcDbLine
 10
250.859037
 20
99.533155
 30
0.0
 11
250.638684
 21
99.947579
 31
0.0
  0
LINE
  5
BD
100
AcDbEntity
  8
1
370
    25
100
AcDbLine
 10
250.859037
 20
99.533155
 30
0.0
 11
251.109039
 21
99.933242
 31
0.0
  0
LINE
  5
BE
100
AcDbEntity
  8
1
370
    50
100
AcDbLine
 10
262.359039
 20
210.406181
 30
0.0
 11
229.859039
 21
210.406181
 31
0.0
  0
LINE
  5
BF
100
AcDbEntity
  8
1
370
    50
100
AcDbLine
 10
262.359039
 20
210.406181
 30
0.0
 11
262.359039
 21
144.406181
 31
0.0
  0
LINE
  5
C0
100
AcDbEntity
  8
1
370
    50
100
AcDbLine
 10
257.359039
 20
188.906181
 30
0.0
 11
257.359039
 21
165.906181
 31
0.0
  0
LINE
  5
C1
100
AcDbEntity
  8
1
370
    50
100
AcDbLine
 10
255.359039
 20
190.906181
 30
0.0
 11
241.559039
 21
190.906181
 31
0.0
  0
ARC
  5
C2
100
AcDbEntity
  8
1
370
    50
100
AcDbCircle
 10
255.359039
 20
188.906181
 30
0.0
 40
2.0
100
AcDbArc
 50
0.0
 51
90.0
  0
LINE
  5
C3
100
AcDbEntity
  8
1
370
    50
100
AcDbLine
 10
239.259039
 20
181.006181
 30
0.0
 11
233.859039
 21
181.006181
 31
0.0
  0
ARC
  5
C4
100
AcDbEntity
  8
1
370
    50
100
AcDbCircle
 10
241.559039
 20
188.906181
 30
0.0
 40
2.0
100
AcDbArc
 50
90.0
 51
180.0
  0
LINE
  5
C5
100
AcDbEntity
  8
1
370
    50
100
AcDbLine
 10
239.559039
 20
187.406181
 30
0.0
 11
239.559039
 21
188.906181
 31
0.0
  0
ARC
  5
C6
100
AcDbEntity
  8
1
370
    50
100
AcDbCircle
 10
239.259039
 20
181.306181
 30
0.0
 40
0.3
100
AcDbArc
 50
270.0
 51
360.0
  0
LINE
  5
C7
100
AcDbEntity
  8
1
370
    50
100
AcDbLine
 10
262.359039
 20
144.406181
 30
0.0
 11
229.859039
 21
144.406181
 31
0.0
  0
LINE
  5
C8
100
AcDbEntity
  8
1
370
    50
100
AcDbLine
 10
255.359039
 20
163.906181
 30
0.0
 11
241.559039
 21
163.906181
 31
0.0
  0
ARC
  5
C9
100
AcDbEntity
  8
1
370
    50
100
AcDbCircle
 10
255.359039
 20
165.906181
 30
0.0
 40
2.0
100
AcDbArc
 50
270.0
 51
360.0
  0
LINE
  5
CA
100
AcDbEntity
  8
1
370
    50
100
AcDbLine
 10
239.259039
 20
173.806181
 30
0.0
 11
233.859039
 21
173.806181
 31
0.0
  0
ARC
  5
CB
100
AcDbEntity
  8
1
370
    50
100
AcDbCircle
 10
241.559039
 20
165.906181
 30
0.0
 40
2.0
100
AcDbArc
 50
180.0
 51
270.0
  0
LINE
  5
CC
100
AcDbEntity
  8
1
370
    50
100
AcDbLine
 10
239.559039
 20
167.406181
 30
0.0
 11
239.559039
 21
165.906181
 31
0.0
  0
ARC
  5
CD
100
AcDbEntity
  8
1
370
    50
100
AcDbCircle
 10
239.259039
 20
173.506181
 30
0.0
 40
0.3
100
AcDbArc
 50
0.0
 51
90.0
  0
LINE
  5
CE
100
AcDbEntity
  8
1
370
    50
100
AcDbLine
 10
314.157732
 20
144.40618
 30
0.0
 11
315.157732
 21
144.40618
 31
0.0
  0
ARC
  5
CF
100
AcDbEntity
  8
1
370
    50
100
AcDbCircle
 10
309.907732
 20
149.40618
 30
0.0
 40
7.25
100
AcDbArc
 50
316.397181
 51
318.707567
  0
LINE
  5
D0
100
AcDbEntity
  8
1
370
    50
100
AcDbLine
 10
315.157732
 20
144.40618
 30
0.0
 11
315.157732
 21
144.632227
 31
0.0
  0
LINE
  5
D1
100
AcDbEntity
  8
1
370
    50
100
AcDbLine
 10
314.157732
 20
144.40618
 30
0.0
 11
314.157732
 21
210.40618
 31
0.0
  0
LINE
  5
D2
100
AcDbEntity
  8
1
370
    25
  6
CENTER
100
AcDbLine
 10
249.859039
 20
215.353597
 30
0.0
 11
249.859039
 21
142.072301
 31
0.0
  0
LINE
  5
D3
100
AcDbEntity
  8
1
370
    50
100
AcDbLine
 10
227.731832
 20
102.883154
 30
0.0
 11
262.359039
 21
102.883154
 31
0.0
  0
LINE
  5
D4
100
AcDbEntity
  8
1
370
    50
100
AcDbLine
 10
262.359039
 20
101.883154
 30
0.0
 11
262.359039
 21
102.883154
 31
0.0
  0
LINE
  5
D5
100
AcDbEntity
  8
1
370
    50
100
AcDbLine
 10
262.359039
 20
101.883154
 30
0.0
 11
227.731832
 21
101.883154
 31
0.0
  0
LINE
  5
D6
100
AcDbEntity
  8
1
370
    50
100
AcDbLine
 10
317.157732
 20
157.366448
 30
0.0
 11
317.157732
 21
162.309672
 31
0.0
  0
LINE
  5
D7
100
AcDbEntity
  8
1
370
    50
100
AcDbLine
 10
314.157732
 20
210.40618
 30
0.0
 11
315.157732
 21
210.40618
 31
0.0
  0
ARC
  5
D8
100
AcDbEntity
  8
1
370
    50
100
AcDbCircle
 10
309.907732
 20
205.40618
 30
0.0
 40
7.25
100
AcDbArc
 50
41.292433
 51
43.602819
  0
LINE
  5
D9
100
AcDbEntity
  8
1
370
    50
100
AcDbLine
 10
315.157732
 20
210.40618
 30
0.0
 11
315.157732
 21
210.180133
 31
0.0
  0
LINE
  5
DA
100
AcDbEntity
  8
1
370
    50
100
AcDbLine
 10
317.157732
 20
197.445912
 30
0.0
 11
317.157732
 21
192.502688
 31
0.0
  0
CIRCLE
  5
DB
100
AcDbEntity
  8
1
370
    50
100
AcDbCircle
 10
249.859039
 20
202.406181
 30
0.0
 40
3.5
  0
ARC
  5
DC
100
AcDbEntity
  8
1
370
    25
100
AcDbCircle
 10
252.009039
 20
204.556181
 30
0.0
 40
1.658571
100
AcDbArc
 50
180.0
 51
270.0
  0
ARC
  5
DD
100
AcDbEntity
  8
1
370
    25
100
AcDbCircle
 10
247.709039
 20
204.556181
 30
0.0
 40
1.658571
100
AcDbArc
 50
270.0
 51
360.0
  0
ARC
  5
DE
100
AcDbEntity
  8
1
370
    25
100
AcDbCircle
 10
247.709039
 20
200.256181
 30
0.0
 40
1.658571
100
AcDbArc
 50
0.0
 51
90.0
  0
ARC
  5
DF
100
AcDbEntity
  8
1
370
    25
100
AcDbCircle
 10
252.009039
 20
200.256181
 30
0.0
 40
1.658571
100
AcDbArc
 50
90.0
 51
180.0
  0
LINE
  5
E0
100
AcDbEntity
  8
1
370
    25
100
AcDbLine
 10
249.859039
 20
200.256181
 30
0.0
 11
250.350468
 21
200.256181
 31
0.0
  0
LINE
  5
E1
100
AcDbEntity
  8
1
370
    25
100
AcDbLine
 10
249.859039
 20
200.256181
 30
0.0
 11
249.367611
 21
200.256181
 31
0.0
  0
LINE
  5
E2
100
AcDbEntity
  8
1
370
    25
100
AcDbLine
 10
247.709039
 20
201.914753
 30
0.0
 11
247.709039
 21
202.406181
 31
0.0
  0
LINE
  5
E3
100
AcDbEntity
  8
1
370
    25
100
AcDbLine
 10
247.709039
 20
202.89761
 30
0.0
 11
247.709039
 21
202.406181
 31
0.0
  0
LINE
  5
E4
100
AcDbEntity
  8
1
370
    25
100
AcDbLine
 10
249.859039
 20
204.556181
 30
0.0
 11
249.367611
 21
204.556181
 31
0.0
  0
LINE
  5
E5
100
AcDbEntity
  8
1
370
    25
100
AcDbLine
 10
249.859039
 20
204.556181
 30
0.0
 11
250.350468
 21
204.556181
 31
0.0
  0
LINE
  5
E6
100
AcDbEntity
  8
1
370
    25
100
AcDbLine
 10
252.009039
 20
202.89761
 30
0.0
 11
252.009039
 21
202.406181
 31
0.0
  0
LINE
  5
E7
100
AcDbEntity
  8
1
370
    25
100
AcDbLine
 10
252.009039
 20
201.914753
 30
0.0
 11
252.009039
 21
202.406181
 31
0.0
  0
CIRCLE
  5
E8
100
AcDbEntity
  8
1
370
    50
100
AcDbCircle
 10
249.859039
 20
152.406181
 30
0.0
 40
3.5
  0
ARC
  5
E9
100
AcDbEntity
  8
1
370
    25
100
AcDbCircle
 10
252.009039
 20
154.556181
 30
0.0
 40
1.658571
100
AcDbArc
 50
180.0
 51
270.0
  0
ARC
  5
EA
100
AcDbEntity
  8
1
370
    25
100
AcDbCircle
 10
247.709039
 20
154.556181
 30
0.0
 40
1.658571
100
AcDbArc
 50
270.0
 51
360.0
  0
ARC
  5
EB
100
AcDbEntity
  8
1
370
    25
100
AcDbCircle
 10
247.709039
 20
150.256181
 30
0.0
 40
1.658571
100
AcDbArc
 50
0.0
 51
90.0
  0
ARC
  5
EC
100
AcDbEntity
  8
1
370
    25
100
AcDbCircle
 10
252.009039
 20
150.256181
 30
0.0
 40
1.658571
100
AcDbArc
 50
90.0
 51
180.0
  0
LINE
  5
ED
100
AcDbEntity
  8
1
370
    25
100
AcDbLine
 10
249.859039
 20
150.256181
 30
0.0
 11
250.350468
 21
150.256181
 31
0.0
  0
LINE
  5
EE
100
AcDbEntity
  8
1
370
    25
100
AcDbLine
 10
249.859039
 20
150.256181
 30
0.0
 11
249.367611
 21
150.256181
 31
0.0
  0
LINE
  5
EF
100
AcDbEntity
  8
1
370
    25
100
AcDbLine
 10
247.709039
 20
151.914753
 30
0.0
 11
247.709039
 21
152.406181
 31
0.0
  0
LINE
  5
F0
100
AcDbEntity
  8
1
370
    25
100
AcDbLine
 10
247.709039
 20
152.89761
 30
0.0
 11
247.709039
 21
152.406181
 31
0.0
  0
LINE
  5
F1
100
AcDbEntity
  8
1
370
    25
100
AcDbLine
 10
249.859039
 20
154.556181
 30
0.0
 11
249.367611
 21
154.556181
 31
0.0
  0
LINE
  5
F2
100
AcDbEntity
  8
1
370
    25
100
AcDbLine
 10
249.859039
 20
154.556181
 30
0.0
 11
250.350468
 21
154.556181
 31
0.0
  0
LINE
  5
F3
100
AcDbEntity
  8
1
370
    25
100
AcDbLine
 10
252.009039
 20
152.89761
 30
0.0
 11
252.009039
 21
152.406181
 31
0.0
  0
LINE
  5
F4
100
AcDbEntity
  8
1
370
    25
100
AcDbLine
 10
252.009039
 20
151.914753
 30
0.0
 11
252.009039
 21
152.406181
 31
0.0
  0
LINE
  5
F5
100
AcDbEntity
  8
1
370
    25
  6
CENTER
100
AcDbLine
 10
242.834192
 20
152.406181
 30
0.0
 11
256.883886
 21
152.406181
 31
0.0
  0
LINE
  5
F6
100
AcDbEntity
  8
1
370
    25
  6
CENTER
100
AcDbLine
 10
256.883886
 20
202.406181
 30
0.0
 11
242.834192
 21
202.406181
 31
0.0
  0
LINE
  5
F7
100
AcDbEntity
  8
1
370
    50
100
AcDbLine
 10
321.926643
 20
200.656178
 30
0.0
 11
317.657732
 21
200.656178
 31
0.0
  0
LINE
  5
F8
100
AcDbEntity
  8
1
370
    50
100
AcDbLine
 10
320.988821
 20
204.156178
 30
0.0
 11
317.657732
 21
204.156178
 31
0.0
  0
LINE
  5
F9
100
AcDbEntity
  8
1
370
    50
100
AcDbLine
 10
336.157732
 20
202.406178
 30
0.0
 11
331.492669
 21
203.656178
 31
0.0
  0
LINE
  5
FA
100
AcDbEntity
  8
1
370
    50
100
AcDbLine
 10
336.157732
 20
202.406178
 30
0.0
 11
331.492669
 21
201.156178
 31
0.0
  0
LINE
  5
FB
100
AcDbEntity
  8
1
370
    50
100
AcDbLine
 10
331.492669
 20
201.156178
 30
0.0
 11
321.792669
 21
201.156178
 31
0.0
  0
LINE
  5
FC
100
AcDbEntity
  8
1
370
    50
100
AcDbLine
 10
331.492669
 20
203.656178
 30
0.0
 11
321.122796
 21
203.656178
 31
0.0
  0
LINE
  5
FD
100
AcDbEntity
  8
1
370
    50
100
AcDbLine
 10
321.926643
 20
200.656178
 30
0.0
 11
320.988821
 21
204.156178
 31
0.0
  0
LINE
  5
FE
100
AcDbEntity
  8
1
370
    25
100
AcDbLine
 10
323.326643
 20
200.656178
 30
0.0
 11
322.388821
 21
204.156178
 31
0.0
  0
LINE
  5
FF
100
AcDbEntity
  8
1
370
    25
100
AcDbLine
 10
324.726643
 20
200.656178
 30
0.0
 11
323.788821
 21
204.156178
 31
0.0
  0
LINE
  5
100
100
AcDbEntity
  8
1
370
    25
100
AcDbLine
 10
326.126643
 20
200.656178
 30
0.0
 11
325.188821
 21
204.156178
 31
0.0
  0
LINE
  5
101
100
AcDbEntity
  8
1
370
    25
100
AcDbLine
 10
327.526643
 20
200.656178
 30
0.0
 11
326.588821
 21
204.156178
 31
0.0
  0
LINE
  5
102
100
AcDbEntity
  8
1
370
    25
100
AcDbLine
 10
328.926643
 20
200.656178
 30
0.0
 11
327.988821
 21
204.156178
 31
0.0
  0
LINE
  5
103
100
AcDbEntity
  8
1
370
    25
100
AcDbLine
 10
330.326643
 20
200.656178
 30
0.0
 11
329.388821
 21
204.156178
 31
0.0
  0
LINE
  5
104
100
AcDbEntity
  8
1
370
    25
100
AcDbLine
 10
331.715379
 20
200.698215
 30
0.0
 11
330.788821
 21
204.156178
 31
0.0
  0
LINE
  5
105
100
AcDbEntity
  8
1
370
    25
100
AcDbLine
 10
333.021597
 20
201.048215
 30
0.0
 11
332.237577
 21
203.974218
 31
0.0
  0
LINE
  5
106
100
AcDbEntity
  8
1
370
    25
100
AcDbLine
 10
334.327815
 20
201.398215
 30
0.0
 11
333.745867
 21
203.570073
 31
0.0
  0
LINE
  5
107
100
AcDbEntity
  8
1
370
    50
100
AcDbLine
 10
321.926643
 20
150.656182
 30
0.0
 11
317.657732
 21
150.656182
 31
0.0
  0
LINE
  5
108
100
AcDbEntity
  8
1
370
    50
100
AcDbLine
 10
320.988821
 20
154.156182
 30
0.0
 11
317.657732
 21
154.156182
 31
0.0
  0
LINE
  5
109
100
AcDbEntity
  8
1
370
    50
100
AcDbLine
 10
336.157732
 20
152.406182
 30
0.0
 11
331.492669
 21
153.656182
 31
0.0
  0
LINE
  5
10A
100
AcDbEntity
  8
1
370
    50
100
AcDbLine
 10
336.157732
 20
152.406182
 30
0.0
 11
331.492669
 21
151.156182
 31
0.0
  0
LINE
  5
10B
100
AcDbEntity
  8
1
370
    50
100
AcDbLine
 10
331.492669
 20
151.156182
 30
0.0
 11
321.792669
 21
151.156182
 31
0.0
  0
LINE
  5
10C
100
AcDbEntity
  8
1
370
    50
100
AcDbLine
 10
331.492669
 20
153.656182
 30
0.0
 11
321.122796
 21
153.656182
 31
0.0
  0
LINE
  5
10D
100
AcDbEntity
  8
1
370
    50
100
AcDbLine
 10
321.926643
 20
150.656182
 30
0.0
 11
320.988821
 21
154.156182
 31
0.0
  0
LINE
  5
10E
100
AcDbEntity
  8
1
370
    25
100
AcDbLine
 10
323.326643
 20
150.656182
 30
0.0
 11
322.388821
 21
154.156182
 31
0.0
  0
LINE
  5
10F
100
AcDbEntity
  8
1
370
    25
100
AcDbLine
 10
324.726643
 20
150.656182
 30
0.0
 11
323.788821
 21
154.156182
 31
0.0
  0
LINE
  5
110
100
AcDbEntity
  8
1
370
    25
100
AcDbLine
 10
326.126643
 20
150.656182
 30
0.0
 11
325.188821
 21
154.156182
 31
0.0
  0
LINE
  5
111
100
AcDbEntity
  8
1
370
    25
100
AcDbLine
 10
327.526643
 20
150.656182
 30
0.0
 11
326.588821
 21
154.156182
 31
0.0
  0
LINE
  5
112
100
AcDbEntity
  8
1
370
    25
100
AcDbLine
 10
328.926643
 20
150.656182
 30
0.0
 11
327.988821
 21
154.156182
 31
0.0
  0
LINE
  5
113
100
AcDbEntity
  8
1
370
    25
100
AcDbLine
 10
330.326643
 20
150.656182
 30
0.0
 11
329.388821
 21
154.156182
 31
0.0
  0
LINE
  5
114
100
AcDbEntity
  8
1
370
    25
100
AcDbLine
 10
331.715379
 20
150.698219
 30
0.0
 11
330.788821
 21
154.156182
 31
0.0
  0
LINE
  5
115
100
AcDbEntity
  8
1
370
    25
100
AcDbLine
 10
333.021597
 20
151.048219
 30
0.0
 11
332.237577
 21
153.974222
 31
0.0
  0
LINE
  5
116
100
AcDbEntity
  8
1
370
    25
100
AcDbLine
 10
334.327815
 20
151.398219
 30
0.0
 11
333.745867
 21
153.570077
 31
0.0
  0
LINE
  5
117
100
AcDbEntity
  8
1
370
    50
100
AcDbLine
 10
248.109039
 20
95.114242
 30
0.0
 11
248.109039
 21
99.383154
 31
0.0
  0
LINE
  5
118
100
AcDbEntity
  8
1
370
    50
100
AcDbLine
 10
251.609039
 20
96.052065
 30
0.0
 11
251.609039
 21
99.383154
 31
0.0
  0
LINE
  5
119
100
AcDbEntity
  8
1
370
    50
100
AcDbLine
 10
249.859039
 20
80.883154
 30
0.0
 11
251.109039
 21
85.548217
 31
0.0
  0
LINE
  5
11A
100
AcDbEntity
  8
1
370
    50
100
AcDbLine
 10
249.859039
 20
80.883154
 30
0.0
 11
248.609039
 21
85.548217
 31
0.0
  0
LINE
  5
11B
100
AcDbEntity
  8
1
370
    50
100
AcDbLine
 10
248.609039
 20
85.548217
 30
0.0
 11
248.609039
 21
95.248217
 31
0.0
  0
LINE
  5
11C
100
AcDbEntity
  8
1
370
    50
100
AcDbLine
 10
251.109039
 20
85.548217
 30
0.0
 11
251.109039
 21
95.91809
 31
0.0
  0
LINE
  5
11D
100
AcDbEntity
  8
1
370
    50
100
AcDbLine
 10
248.109039
 20
95.114242
 30
0.0
 11
251.609039
 21
96.052065
 31
0.0
  0
LINE
  5
11E
100
AcDbEntity
  8
1
370
    25
100
AcDbLine
 10
248.109039
 20
93.714242
 30
0.0
 11
251.609039
 21
94.652065
 31
0.0
  0
LINE
  5
11F
100
AcDbEntity
  8
1
370
    25
100
AcDbLine
 10
248.109039
 20
92.314242
 30
0.0
 11
251.609039
 21
93.252065
 31
0.0
  0
LINE
  5
120
100
AcDbEntity
  8
1
370
    25
100
AcDbLine
 10
248.109039
 20
90.914242
 30
0.0
 11
251.609039
 21
91.852065
 31
0.0
  0
LINE
  5
121
100
AcDbEntity
  8
1
370
    25
100
AcDbLine
 10
248.109039
 20
89.514242
 30
0.0
 11
251.609039
 21
90.452065
 31
0.0
  0
LINE
  5
122
100
AcDbEntity
  8
1
370
    25
100
AcDbLine
 10
248.109039
 20
88.114242
 30
0.0
 11
251.609039
 21
89.052065
 31
0.0
  0
LINE
  5
123
100
AcDbEntity
  8
1
370
    25
100
AcDbLine
 10
248.109039
 20
86.714242
 30
0.0
 11
251.609039
 21
87.652065
 31
0.0
  0
LINE
  5
124
100
AcDbEntity
  8
1
370
    25
100
AcDbLine
 10
248.151076
 20
85.325506
 30
0.0
 11
251.609039
 21
86.252065
 31
0.0
  0
LINE
  5
125
100
AcDbEntity
  8
1
370
    25
100
AcDbLine
 10
248.501076
 20
84.019288
 30
0.0
 11
251.42708
 21
84.803309
 31
0.0
  0
LINE
  5
126
100
AcDbEntity
  8
1
370
    25
100
AcDbLine
 10
248.851076
 20
82.713071
 30
0.0
 11
251.022935
 21
83.295018
 31
0.0
  0
LINE
  5
127
100
AcDbEntity
  8
1
370
    25
  6
CENTER
100
AcDbLine
 10
221.461975
 20
177.406187
 30
0.0
 11
264.853851
 21
177.406187
 31
0.0
  0
LINE
  5
128
100
AcDbEntity
  8
1
370
    25
  6
CENTER
100
AcDbLine
 10
310.693451
 20
177.406188
 30
0.0
 11
328.050171
 21
177.406188
 31
0.0
  0
LINE
  5
129
100
AcDbEntity
  8
1
370
    25
  6
CENTER
100
AcDbLine
 10
249.859039
 20
104.152182
 30
0.0
 11
249.859039
 21
79.847128
 31
0.0
  0
LINE
  5
12A
100
AcDbEntity
  8
1
370
    25
  6
CENTER
100
AcDbLine
 10
312.013774
 20
202.406176
 30
0.0
 11
337.35498
 21
202.406176
 31
0.0
  0
LINE
  5
12B
100
AcDbEntity
  8
1
370
    25
  6
CENTER
100
AcDbLine
 10
312.013774
 20
152.406199
 30
0.0
 11
337.35498
 21
152.406199
 31
0.0
  0
LINE
  5
12C
100
AcDbEntity
  8
1
370
    50
100
AcDbLine
 10
231.059039
 20
101.383154
 30
0.0
 11
231.559039
 21
101.883154
 31
0.0
  0
LINE
  5
12D
100
AcDbEntity
  8
1
370
    50
100
AcDbLine
 10
231.059039
 20
101.383154
 30
0.0
 11
231.233043
 21
100.396329
 31
0.0
  0
ARC
  5
12E
100
AcDbEntity
  8
1
370
    50
100
AcDbCircle
 10
231.725447
 20
100.483154
 30
0.0
 40
0.5
100
AcDbArc
 50
190.0
 51
270.0
  0
LINE
  5
12F
100
AcDbEntity
  8
1
370
    50
100
AcDbLine
 10
224.859039
 20
205.406181
 30
0.0
 11
224.859039
 21
149.406181
 31
0.0
  0
ARC
  5
130
100
AcDbEntity
  8
1
370
    50
100
AcDbCircle
 10
229.859039
 20
205.406181
 30
0.0
 40
5.0
100
AcDbArc
 50
90.0
 51
180.0
  0
LINE
  5
131
100
AcDbEntity
  8
1
370
    50
100
AcDbLine
 10
233.559039
 20
180.706181
 30
0.0
 11
233.559039
 21
174.106181
 31
0.0
  0
ARC
  5
132
100
AcDbEntity
  8
1
370
    50
100
AcDbCircle
 10
233.859039
 20
180.706181
 30
0.0
 40
0.3
100
AcDbArc
 50
90.0
 51
180.0
  0
ARC
  5
133
100
AcDbEntity
  8
1
370
    50
100
AcDbCircle
 10
229.859039
 20
149.406181
 30
0.0
 40
5.0
100
AcDbArc
 50
180.0
 51
270.0
  0
ARC
  5
134
100
AcDbEntity
  8
1
370
    50
100
AcDbCircle
 10
233.859039
 20
174.106181
 30
0.0
 40
0.3
100
AcDbArc
 50
180.0
 51
270.0
  0
LINE
  5
135
100
AcDbEntity
  8
1
370
    50
100
AcDbLine
 10
224.917618
 20
100.607418
 30
0.0
 11
226.812593
 21
102.502392
 31
0.0
  0
LINE
  5
136
100
AcDbEntity
  8
1
370
    50
100
AcDbLine
 10
225.695435
 20
99.971022
 30
0.0
 11
227.519699
 21
101.795286
 31
0.0
  0
LINE
  5
137
100
AcDbEntity
  8
1
370
    50
100
AcDbLine
 10
225.271171
 20
99.971022
 30
0.0
 11
224.917618
 21
100.324575
 31
0.0
  0
ARC
  5
138
100
AcDbEntity
  8
1
370
    50
100
AcDbCircle
 10
225.483303
 20
100.183154
 30
0.0
 40
0.3
100
AcDbArc
 50
225.0
 51
315.0
  0
ARC
  5
139
100
AcDbEntity
  8
1
370
    50
100
AcDbCircle
 10
225.059039
 20
100.465996
 30
0.0
 40
0.2
100
AcDbArc
 50
135.0
 51
225.0
  0
ARC
  5
13A
100
AcDbEntity
  8
1
370
    50
100
AcDbCircle
 10
227.731832
 20
101.583154
 30
0.0
 40
1.3
100
AcDbArc
 50
90.0
 51
135.0
  0
ARC
  5
13B
100
AcDbEntity
  8
1
370
    50
100
AcDbCircle
 10
227.731832
 20
101.583154
 30
0.0
 40
0.3
100
AcDbArc
 50
90.0
 51
135.0
  0
ARC
  5
13C
100
AcDbEntity
  8
1
370
    50
100
AcDbCircle
 10
-30.000028
 20
-25.500207
 30
0.0
 40
0.500186
100
AcDbArc
 50
358.435894
 51
90.0
  0
ARC
  5
13D
100
AcDbEntity
  8
1
370
    50
100
AcDbCircle
 10
-30.000028
 20
-46.486181
 30
0.0
 40
0.5
100
AcDbArc
 50
270.0
 51
360.0
  0
ARC
  5
13E
100
AcDbEntity
  8
1
370
    50
100
AcDbCircle
 10
-90.000028
 20
-25.500207
 30
0.0
 40
0.500186
100
AcDbArc
 50
90.0
 51
181.564106
  0
ARC
  5
13F
100
AcDbEntity
  8
1
370
    50
100
AcDbCircle
 10
-90.000028
 20
-46.486181
 30
0.0
 40
0.5
100
AcDbArc
 50
180.0
 51
270.0
  0
LINE
  5
140
100
AcDbEntity
  8
1
370
    25
100
AcDbLine
 10
-40.000028
 20
-34.000021
 30
0.0
 11
-47.500065
 21
-34.000021
 31
0.0
  0
LINE
  5
141
100
AcDbEntity
  8
1
370
    25
100
AcDbLine
 10
-40.000028
 20
-38.000021
 30
0.0
 11
-47.500065
 21
-38.000021
 31
0.0
  0
LINE
  5
142
100
AcDbEntity
  8
1
370
    25
100
AcDbLine
 10
-40.000028
 20
-37.500021
 30
0.0
 11
-47.500065
 21
-37.500021
 31
0.0
  0
LINE
  5
143
100
AcDbEntity
  8
1
370
    25
100
AcDbLine
 10
-47.500065
 20
-34.500021
 30
0.0
 11
-40.000028
 21
-34.500021
 31
0.0
  0
LINE
  5
144
100
AcDbEntity
  8
1
370
    18
  6
CENTER
100
AcDbLine
 10
-31.369858
 20
133.14938
 30
0.0
 11
-81.265
 21
133.14938
 31
0.0
  0
LINE
  5
145
100
AcDbEntity
  8
1
370
    18
  6
CENTER
100
AcDbLine
 10
-38.500028
 20
163.14938
 30
0.0
 11
-81.924607
 21
163.14938
 31
0.0
  0
LINE
  5
146
100
AcDbEntity
  8
1
370
    25
100
AcDbLine
 10
-51.800065
 20
135.14938
 30
0.0
 11
-40.000028
 21
135.14938
 31
0.0
  0
LINE
  5
147
100
AcDbEntity
  8
1
370
    25
100
AcDbLine
 10
-51.800065
 20
131.14938
 30
0.0
 11
-40.000028
 21
131.14938
 31
0.0
  0
LINE
  5
148
100
AcDbEntity
  8
1
370
    25
100
AcDbLine
 10
-51.800065
 20
131.54938
 30
0.0
 11
-40.000028
 21
131.54938
 31
0.0
  0
LINE
  5
149
100
AcDbEntity
  8
1
370
    25
100
AcDbLine
 10
-40.000028
 20
134.74938
 30
0.0
 11
-51.800065
 21
134.74938
 31
0.0
  0
LINE
  5
14A
100
AcDbEntity
  8
1
370
    25
100
AcDbLine
 10
-51.800065
 20
165.14938
 30
0.0
 11
-40.000028
 21
165.14938
 31
0.0
  0
LINE
  5
14B
100
AcDbEntity
  8
1
370
    25
100
AcDbLine
 10
-51.800065
 20
161.14938
 30
0.0
 11
-40.000028
 21
161.14938
 31
0.0
  0
LINE
  5
14C
100
AcDbEntity
  8
1
370
    25
100
AcDbLine
 10
-51.800065
 20
161.54938
 30
0.0
 11
-40.000028
 21
161.54938
 31
0.0
  0
LINE
  5
14D
100
AcDbEntity
  8
1
370
    25
100
AcDbLine
 10
-40.000028
 20
164.74938
 30
0.0
 11
-51.800065
 21
164.74938
 31
0.0
  0
LINE
  5
14E
100
AcDbEntity
  8
1
370
    18
  6
CENTER
100
AcDbLine
 10
-60.000028
 20
61.43755
 30
0.0
 11
-60.000028
 21
-81.344799
 31
0.0
  0
LINE
  5
14F
100
AcDbEntity
  8
1
370
    18
  6
CENTER
100
AcDbLine
 10
-18.970688
 20
148.14938
 30
0.0
 11
-114.42479
 21
148.14938
 31
0.0
  0
LINE
  5
150
100
AcDbEntity
  8
1
370
    18
  6
CENTER
100
AcDbLine
 10
186.199972
 20
62.10056
 30
0.0
 11
186.199972
 21
-80.212871
 31
0.0
  0
LINE
  5
151
100
AcDbEntity
  8
1
370
    25
100
AcDbLine
 10
-40.535606
 20
51.749979
 30
0.0
 11
-40.000028
 21
49.751176
 31
0.0
  0
LINE
  5
152
100
AcDbEntity
  8
1
370
    25
100
AcDbLine
 10
-41.935606
 20
51.749979
 30
0.0
 11
-40.997784
 21
48.249979
 31
0.0
  0
LINE
  5
153
100
AcDbEntity
  8
1
370
    25
100
AcDbLine
 10
-43.335606
 20
51.749979
 30
0.0
 11
-42.397784
 21
48.249979
 31
0.0
  0
LINE
  5
154
100
AcDbEntity
  8
1
370
    25
100
AcDbLine
 10
-44.735606
 20
51.749979
 30
0.0
 11
-43.797784
 21
48.249979
 31
0.0
  0
LINE
  5
155
100
AcDbEntity
  8
1
370
    25
100
AcDbLine
 10
-46.06187
 20
51.474794
 30
0.0
 11
-45.210385
 21
48.29701
 31
0.0
  0
LINE
  5
156
100
AcDbEntity
  8
1
370
    25
100
AcDbLine
 10
-47.368088
 20
51.124794
 30
0.0
 11
-46.718676
 21
48.701155
 31
0.0
  0
LINE
  5
157
100
AcDbEntity
  8
1
370
    25
100
AcDbLine
 10
-48.674306
 20
50.774794
 30
0.0
 11
-48.226966
 21
49.1053
 31
0.0
  0
LINE
  5
158
100
AcDbEntity
  8
1
370
    25
100
AcDbLine
 10
-49.980523
 20
50.424794
 30
0.0
 11
-49.735257
 21
49.509446
 31
0.0
  0
LINE
  5
159
100
AcDbEntity
  8
1
370
    50
100
AcDbLine
 10
-40.000028
 20
48.499979
 30
0.0
 11
-45.001952
 21
48.499979
 31
0.0
  0
LINE
  5
15A
100
AcDbEntity
  8
1
370
    50
100
AcDbLine
 10
-40.000028
 20
51.499979
 30
0.0
 11
-45.001952
 21
51.499979
 31
0.0
  0
LINE
  5
15B
100
AcDbEntity
  8
1
370
    50
100
AcDbLine
 10
-50.600028
 20
49.999979
 30
0.0
 11
-45.001952
 21
51.499979
 31
0.0
  0
LINE
  5
15C
100
AcDbEntity
  8
1
370
    50
100
AcDbLine
 10
-50.600028
 20
49.999979
 30
0.0
 11
-45.001952
 21
48.499979
 31
0.0
  0
LINE
  5
15D
100
AcDbEntity
  8
1
370
    25
100
AcDbLine
 10
-79.46445
 20
48.249979
 30
0.0
 11
-80.000028
 21
50.248783
 31
0.0
  0
LINE
  5
15E
100
AcDbEntity
  8
1
370
    25
100
AcDbLine
 10
-78.06445
 20
48.249979
 30
0.0
 11
-79.002272
 21
51.749979
 31
0.0
  0
LINE
  5
15F
100
AcDbEntity
  8
1
370
    25
100
AcDbLine
 10
-76.66445
 20
48.249979
 30
0.0
 11
-77.602272
 21
51.749979
 31
0.0
  0
LINE
  5
160
100
AcDbEntity
  8
1
370
    25
100
AcDbLine
 10
-75.26445
 20
48.249979
 30
0.0
 11
-76.202272
 21
51.749979
 31
0.0
  0
LINE
  5
161
100
AcDbEntity
  8
1
370
    25
100
AcDbLine
 10
-73.938186
 20
48.525165
 30
0.0
 11
-74.789671
 21
51.702949
 31
0.0
  0
LINE
  5
162
100
AcDbEntity
  8
1
370
    25
100
AcDbLine
 10
-72.631968
 20
48.875165
 30
0.0
 11
-73.28138
 21
51.298804
 31
0.0
  0
LINE
  5
163
100
AcDbEntity
  8
1
370
    25
100
AcDbLine
 10
-71.32575
 20
49.225165
 30
0.0
 11
-71.77309
 21
50.894658
 31
0.0
  0
LINE
  5
164
100
AcDbEntity
  8
1
370
    25
100
AcDbLine
 10
-70.019533
 20
49.575165
 30
0.0
 11
-70.2648
 21
50.490513
 31
0.0
  0
LINE
  5
165
100
AcDbEntity
  8
1
370
    50
100
AcDbLine
 10
-80.000028
 20
51.499979
 30
0.0
 11
-74.998104
 21
51.499979
 31
0.0
  0
LINE
  5
166
100
AcDbEntity
  8
1
370
    50
100
AcDbLine
 10
-80.000028
 20
48.499979
 30
0.0
 11
-74.998104
 21
48.499979
 31
0.0
  0
LINE
  5
167
100
AcDbEntity
  8
1
370
    50
100
AcDbLine
 10
-69.400028
 20
49.999979
 30
0.0
 11
-74.998104
 21
48.499979
 31
0.0
  0
LINE
  5
168
100
AcDbEntity
  8
1
370
    50
100
AcDbLine
 10
-69.400028
 20
49.999979
 30
0.0
 11
-74.998104
 21
51.499979
 31
0.0
  0
LINE
  5
169
100
AcDbEntity
  8
1
370
    18
  6
CENTER
100
AcDbLine
 10
-83.412201
 20
49.999979
 30
0.0
 11
-68.079323
 21
49.999979
 31
0.0
  0
LINE
  5
16A
100
AcDbEntity
  8
1
370
    18
  6
CENTER
100
AcDbLine
 10
-51.398697
 20
49.999979
 30
0.0
 11
-30.994675
 21
49.999979
 31
0.0
  0
LINE
  5
16B
100
AcDbEntity
  8
1
370
    25
  6
DASHED
100
AcDbLine
 10
-35.000028
 20
53.249979
 30
0.0
 11
-35.000028
 21
46.749979
 31
0.0
  0
LINE
  5
16C
100
AcDbEntity
  8
1
370
    25
  6
DASHED
100
AcDbLine
 10
-34.98758
 20
53.249979
 30
0.0
 11
-35.000028
 21
53.249979
 31
0.0
  0
ARC
  5
16D
100
AcDbEntity
  8
1
370
    25
  6
DASHED
100
AcDbCircle
 10
-34.98758
 20
51.149979
 30
0.0
 40
2.1
100
AcDbArc
 50
37.247781
 51
90.0
  0
LINE
  5
16E
100
AcDbEntity
  8
1
370
    25
  6
DASHED
100
AcDbLine
 10
-34.98758
 20
46.749979
 30
0.0
 11
-35.000028
 21
46.749979
 31
0.0
  0
ARC
  5
16F
100
AcDbEntity
  8
1
370
    25
  6
DASHED
100
AcDbCircle
 10
-34.98758
 20
48.849979
 30
0.0
 40
2.1
100
AcDbArc
 50
270.0
 51
322.752219
  0
ARC
  5
170
100
AcDbEntity
  8
1
370
    25
  6
DASHED
100
AcDbCircle
 10
-36.500028
 20
49.999979
 30
0.0
 40
4.0
100
AcDbArc
 50
322.752218
 51
37.247782
  0
LINE
  5
171
100
AcDbEntity
  8
1
370
    25
  6
DASHED
100
AcDbLine
 10
-40.000028
 20
51.499979
 30
0.0
 11
-35.000028
 21
51.499979
 31
0.0
  0
LINE
  5
172
100
AcDbEntity
  8
1
370
    25
  6
DASHED
100
AcDbLine
 10
-40.000028
 20
48.499979
 30
0.0
 11
-35.000028
 21
48.499979
 31
0.0
  0
LINE
  5
173
100
AcDbEntity
  8
1
370
    25
  6
DASHED
100
AcDbLine
 10
-35.000028
 20
137.29938
 30
0.0
 11
-35.000028
 21
128.99938
 31
0.0
  0
LINE
  5
174
100
AcDbEntity
  8
1
370
    25
  6
DASHED
100
AcDbLine
 10
-35.000028
 20
128.99938
 30
0.0
 11
-33.000028
 21
129.174357
 31
0.0
  0
LINE
  5
175
100
AcDbEntity
  8
1
370
    25
  6
DASHED
100
AcDbLine
 10
-35.000028
 20
137.29938
 30
0.0
 11
-33.000028
 21
137.124403
 31
0.0
  0
ARC
  5
176
100
AcDbEntity
  8
1
370
    25
  6
DASHED
100
AcDbCircle
 10
-48.550833
 20
133.14938
 30
0.0
 40
16.050805
100
AcDbArc
 50
345.661355
 51
14.338645
  0
LINE
  5
177
100
AcDbEntity
  8
1
370
    25
  6
DASHED
100
AcDbLine
 10
-40.000028
 20
135.14938
 30
0.0
 11
-35.000028
 21
135.14938
 31
0.0
  0
LINE
  5
178
100
AcDbEntity
  8
1
370
    25
  6
DASHED
100
AcDbLine
 10
-40.000028
 20
131.14938
 30
0.0
 11
-35.000028
 21
131.14938
 31
0.0
  0
LINE
  5
179
100
AcDbEntity
  8
1
370
    50
100
AcDbLine
 10
-80.000028
 20
124.543878
 30
0.0
 11
-80.000028
 21
171.754882
 31
0.0
  0
LINE
  5
17A
100
AcDbEntity
  8
1
370
    50
100
AcDbLine
 10
-80.000028
 20
124.543878
 30
0.0
 11
-88.578532
 21
124.993459
 31
0.0
  0
ARC
  5
17B
100
AcDbEntity
  8
1
370
    50
100
AcDbCircle
 10
-88.500028
 20
126.491403
 30
0.0
 40
1.5
100
AcDbArc
 50
180.0
 51
267.0
  0
LINE
  5
17C
100
AcDbEntity
  8
1
370
    50
100
AcDbLine
 10
-90.000028
 20
126.491403
 30
0.0
 11
-90.000028
 21
169.807357
 31
0.0
  0
ARC
  5
17D
100
AcDbEntity
  8
1
370
    50
100
AcDbCircle
 10
-88.500028
 20
169.807357
 30
0.0
 40
1.5
100
AcDbArc
 50
93.0
 51
180.0
  0
LINE
  5
17E
100
AcDbEntity
  8
1
370
    50
100
AcDbLine
 10
-80.000028
 20
171.754882
 30
0.0
 11
-88.578532
 21
171.305302
 31
0.0
  0
LINE
  5
17F
100
AcDbEntity
  8
1
370
    50
100
AcDbLine
 10
-40.000028
 20
124.543878
 30
0.0
 11
-40.000028
 21
171.754882
 31
0.0
  0
LINE
  5
180
100
AcDbEntity
  8
1
370
    50
100
AcDbLine
 10
-40.000028
 20
124.543878
 30
0.0
 11
-31.421524
 21
124.993459
 31
0.0
  0
ARC
  5
181
100
AcDbEntity
  8
1
370
    50
100
AcDbCircle
 10
-31.500028
 20
126.491403
 30
0.0
 40
1.5
100
AcDbArc
 50
273.0
 51
360.0
  0
LINE
  5
182
100
AcDbEntity
  8
1
370
    50
100
AcDbLine
 10
-30.000028
 20
126.491403
 30
0.0
 11
-30.000028
 21
169.807357
 31
0.0
  0
ARC
  5
183
100
AcDbEntity
  8
1
370
    50
100
AcDbCircle
 10
-31.500028
 20
169.807357
 30
0.0
 40
1.5
100
AcDbArc
 50
0.0
 51
87.0
  0
LINE
  5
184
100
AcDbEntity
  8
1
370
    50
100
AcDbLine
 10
-40.000028
 20
171.754882
 30
0.0
 11
-31.421524
 21
171.305302
 31
0.0
  0
LINE
  5
185
100
AcDbEntity
  8
1
370
    50
100
AcDbLine
 10
-90.000028
 20
54.152455
 30
0.0
 11
-90.000028
 21
-72.152496
 31
0.0
  0
LINE
  5
186
100
AcDbEntity
  8
1
370
    50
100
AcDbLine
 10
-80.000028
 20
56.099979
 30
0.0
 11
-80.000028
 21
-73.757093
 31
0.0
  0
LINE
  5
187
100
AcDbEntity
  8
1
370
    25
100
AcDbLine
 10
-81.000028
 20
27.499979
 30
0.0
 11
-80.000028
 21
27.499979
 31
0.0
  0
LINE
  5
188
100
AcDbEntity
  8
1
370
    25
100
AcDbLine
 10
-81.000028
 20
-45.500021
 30
0.0
 11
-80.000028
 21
-45.500021
 31
0.0
  0
LINE
  5
189
100
AcDbEntity
  8
1
370
    25
100
AcDbLine
 10
-81.000028
 20
27.499979
 30
0.0
 11
-81.000028
 21
-45.500021
 31
0.0
  0
LINE
  5
18A
100
AcDbEntity
  8
1
370
    50
100
AcDbLine
 10
-82.300028
 20
-73.636555
 30
0.0
 11
-82.300028
 21
-73.979483
 31
0.0
  0
LINE
  5
18B
100
AcDbEntity
  8
1
370
    50
100
AcDbLine
 10
-80.000028
 20
56.099979
 30
0.0
 11
-88.578532
 21
55.650399
 31
0.0
  0
ARC
  5
18C
100
AcDbEntity
  8
1
370
    50
100
AcDbCircle
 10
-88.500028
 20
54.152455
 30
0.0
 40
1.5
100
AcDbArc
 50
93.0
 51
180.0
  0
LINE
  5
18D
100
AcDbEntity
  8
1
370
    50
100
AcDbLine
 10
-82.300028
 20
-73.979483
 30
0.0
 11
-88.578532
 21
-73.65044
 31
0.0
  0
LINE
  5
18E
100
AcDbEntity
  8
1
370
    50
100
AcDbLine
 10
-80.000028
 20
-73.757093
 30
0.0
 11
-82.300028
 21
-73.636555
 31
0.0
  0
ARC
  5
18F
100
AcDbEntity
  8
1
370
    50
100
AcDbCircle
 10
-88.500028
 20
-72.152496
 30
0.0
 40
1.5
100
AcDbArc
 50
180.0
 51
267.0
  0
LINE
  5
190
100
AcDbEntity
  8
1
370
    50
100
AcDbLine
 10
-30.000028
 20
54.152455
 30
0.0
 11
-30.000028
 21
-72.152496
 31
0.0
  0
LINE
  5
191
100
AcDbEntity
  8
1
370
    50
100
AcDbLine
 10
-40.000028
 20
56.099979
 30
0.0
 11
-40.000028
 21
-73.757093
 31
0.0
  0
LINE
  5
192
100
AcDbEntity
  8
1
370
    25
100
AcDbLine
 10
-39.000028
 20
27.499979
 30
0.0
 11
-40.000028
 21
27.499979
 31
0.0
  0
LINE
  5
193
100
AcDbEntity
  8
1
370
    25
100
AcDbLine
 10
-39.000028
 20
-45.500021
 30
0.0
 11
-40.000028
 21
-45.500021
 31
0.0
  0
LINE
  5
194
100
AcDbEntity
  8
1
370
    25
100
AcDbLine
 10
-39.000028
 20
27.499979
 30
0.0
 11
-39.000028
 21
-45.500021
 31
0.0
  0
LINE
  5
195
100
AcDbEntity
  8
1
370
    50
100
AcDbLine
 10
-37.700028
 20
-73.636555
 30
0.0
 11
-37.700028
 21
-73.979483
 31
0.0
  0
LINE
  5
196
100
AcDbEntity
  8
1
370
    50
100
AcDbLine
 10
-40.000028
 20
56.099979
 30
0.0
 11
-31.421524
 21
55.650399
 31
0.0
  0
ARC
  5
197
100
AcDbEntity
  8
1
370
    50
100
AcDbCircle
 10
-31.500028
 20
54.152455
 30
0.0
 40
1.5
100
AcDbArc
 50
0.0
 51
87.0
  0
LINE
  5
198
100
AcDbEntity
  8
1
370
    50
100
AcDbLine
 10
-37.700028
 20
-73.979483
 30
0.0
 11
-31.421524
 21
-73.65044
 31
0.0
  0
LINE
  5
199
100
AcDbEntity
  8
1
370
    50
100
AcDbLine
 10
-40.000028
 20
-73.757093
 30
0.0
 11
-37.700028
 21
-73.636555
 31
0.0
  0
ARC
  5
19A
100
AcDbEntity
  8
1
370
    50
100
AcDbCircle
 10
-31.500028
 20
-72.152496
 30
0.0
 40
1.5
100
AcDbArc
 50
273.0
 51
0.0
  0
LINE
  5
19B
100
AcDbEntity
  8
1
370
    50
100
AcDbLine
 10
162.599972
 20
32.499979
 30
0.0
 11
162.599972
 21
-50.500021
 31
0.0
  0
ARC
  5
19C
100
AcDbEntity
  8
1
370
    50
100
AcDbCircle
 10
186.199972
 20
-50.500021
 30
0.0
 40
23.6
100
AcDbArc
 50
180.0
 51
360.0
  0
LINE
  5
19D
100
AcDbEntity
  8
1
370
    50
100
AcDbLine
 10
209.799972
 20
32.499979
 30
0.0
 11
209.799972
 21
-50.500021
 31
0.0
  0
LINE
  5
19E
100
AcDbEntity
  8
1
370
    25
100
AcDbLine
 10
-40.535606
 20
149.89938
 30
0.0
 11
-40.000028
 21
147.900577
 31
0.0
  0
LINE
  5
19F
100
AcDbEntity
  8
1
370
    25
100
AcDbLine
 10
-41.935606
 20
149.89938
 30
0.0
 11
-40.997784
 21
146.39938
 31
0.0
  0
LINE
  5
1A0
100
AcDbEntity
  8
1
370
    25
100
AcDbLine
 10
-43.335606
 20
149.89938
 30
0.0
 11
-42.397784
 21
146.39938
 31
0.0
  0
LINE
  5
1A1
100
AcDbEntity
  8
1
370
    25
100
AcDbLine
 10
-44.735606
 20
149.89938
 30
0.0
 11
-43.797784
 21
146.39938
 31
0.0
  0
LINE
  5
1A2
100
AcDbEntity
  8
1
370
    25
100
AcDbLine
 10
-46.06187
 20
149.624195
 30
0.0
 11
-45.210385
 21
146.446411
 31
0.0
  0
LINE
  5
1A3
100
AcDbEntity
  8
1
370
    25
100
AcDbLine
 10
-47.368088
 20
149.274195
 30
0.0
 11
-46.718676
 21
146.850556
 31
0.0
  0
LINE
  5
1A4
100
AcDbEntity
  8
1
370
    25
100
AcDbLine
 10
-48.674306
 20
148.924195
 30
0.0
 11
-48.226966
 21
147.254701
 31
0.0
  0
LINE
  5
1A5
100
AcDbEntity
  8
1
370
    25
100
AcDbLine
 10
-49.980523
 20
148.574195
 30
0.0
 11
-49.735257
 21
147.658846
 31
0.0
  0
LINE
  5
1A6
100
AcDbEntity
  8
1
370
    50
100
AcDbLine
 10
-40.000028
 20
146.64938
 30
0.0
 11
-45.001952
 21
146.64938
 31
0.0
  0
LINE
  5
1A7
100
AcDbEntity
  8
1
370
    50
100
AcDbLine
 10
-40.000028
 20
149.64938
 30
0.0
 11
-45.001952
 21
149.64938
 31
0.0
  0
LINE
  5
1A8
100
AcDbEntity
  8
1
370
    50
100
AcDbLine
 10
-50.600028
 20
148.14938
 30
0.0
 11
-45.001952
 21
149.64938
 31
0.0
  0
LINE
  5
1A9
100
AcDbEntity
  8
1
370
    50
100
AcDbLine
 10
-50.600028
 20
148.14938
 30
0.0
 11
-45.001952
 21
146.64938
 31
0.0
  0
LINE
  5
1AA
100
AcDbEntity
  8
1
370
    25
100
AcDbLine
 10
-79.46445
 20
146.39938
 30
0.0
 11
-80.000028
 21
148.398184
 31
0.0
  0
LINE
  5
1AB
100
AcDbEntity
  8
1
370
    25
100
AcDbLine
 10
-78.06445
 20
146.39938
 30
0.0
 11
-79.002272
 21
149.89938
 31
0.0
  0
LINE
  5
1AC
100
AcDbEntity
  8
1
370
    25
100
AcDbLine
 10
-76.66445
 20
146.39938
 30
0.0
 11
-77.602272
 21
149.89938
 31
0.0
  0
LINE
  5
1AD
100
AcDbEntity
  8
1
370
    25
100
AcDbLine
 10
-75.26445
 20
146.39938
 30
0.0
 11
-76.202272
 21
149.89938
 31
0.0
  0
LINE
  5
1AE
100
AcDbEntity
  8
1
370
    25
100
AcDbLine
 10
-73.938186
 20
146.674565
 30
0.0
 11
-74.789671
 21
149.85235
 31
0.0
  0
LINE
  5
1AF
100
AcDbEntity
  8
1
370
    25
100
AcDbLine
 10
-72.631968
 20
147.024565
 30
0.0
 11
-73.28138
 21
149.448204
 31
0.0
  0
LINE
  5
1B0
100
AcDbEntity
  8
1
370
    25
100
AcDbLine
 10
-71.32575
 20
147.374565
 30
0.0
 11
-71.77309
 21
149.044059
 31
0.0
  0
LINE
  5
1B1
100
AcDbEntity
  8
1
370
    25
100
AcDbLine
 10
-70.019533
 20
147.724565
 30
0.0
 11
-70.2648
 21
148.639914
 31
0.0
  0
LINE
  5
1B2
100
AcDbEntity
  8
1
370
    50
100
AcDbLine
 10
-80.000028
 20
149.64938
 30
0.0
 11
-74.998104
 21
149.64938
 31
0.0
  0
LINE
  5
1B3
100
AcDbEntity
  8
1
370
    50
100
AcDbLine
 10
-80.000028
 20
146.64938
 30
0.0
 11
-74.998104
 21
146.64938
 31
0.0
  0
LINE
  5
1B4
100
AcDbEntity
  8
1
370
    50
100
AcDbLine
 10
-69.400028
 20
148.14938
 30
0.0
 11
-74.998104
 21
146.64938
 31
0.0
  0
LINE
  5
1B5
100
AcDbEntity
  8
1
370
    50
100
AcDbLine
 10
-69.400028
 20
148.14938
 30
0.0
 11
-74.998104
 21
149.64938
 31
0.0
  0
LINE
  5
1B6
100
AcDbEntity
  8
1
370
    18
  6
CENTER
100
AcDbLine
 10
-254.000028
 20
-36.000021
 30
0.0
 11
-196.000028
 21
-36.000021
 31
0.0
  0
LINE
  5
1B7
100
AcDbEntity
  8
1
370
    50
100
AcDbLine
 10
-221.500028
 20
24.257757
 30
0.0
 11
-221.500028
 21
3.742202
 31
0.0
  0
ARC
  5
1B8
100
AcDbEntity
  8
1
370
    50
100
AcDbCircle
 10
-220.280331
 20
24.257757
 30
0.0
 40
1.219697
100
AcDbArc
 50
120.765809
 51
180.0
  0
ARC
  5
1B9
100
AcDbEntity
  8
1
370
    50
100
AcDbCircle
 10
-220.280331
 20
3.742202
 30
0.0
 40
1.219697
100
AcDbArc
 50
180.0
 51
239.234191
  0
CIRCLE
  5
1BA
100
AcDbEntity
  8
1
370
    50
100
AcDbCircle
 10
-225.000028
 20
13.999979
 30
0.0
 40
12.5
  0
LINE
  5
1BB
100
AcDbEntity
  8
1
370
    50
100
AcDbLine
 10
-228.500028
 20
24.257757
 30
0.0
 11
-228.500028
 21
3.742202
 31
0.0
  0
ARC
  5
1BC
100
AcDbEntity
  8
1
370
    50
100
AcDbCircle
 10
-229.719725
 20
24.257757
 30
0.0
 40
1.219697
100
AcDbArc
 50
0.0
 51
59.234191
  0
ARC
  5
1BD
100
AcDbEntity
  8
1
370
    50
100
AcDbCircle
 10
-229.719725
 20
3.742202
 30
0.0
 40
1.219697
100
AcDbArc
 50
300.765809
 51
360.0
  0
ARC
  5
1BE
100
AcDbEntity
  8
1
370
    25
100
AcDbCircle
 10
-225.000028
 20
13.999979
 30
0.0
 40
12.0
100
AcDbArc
 50
73.790151
 51
105.65384
  0
ARC
  5
1BF
100
AcDbEntity
  8
1
370
    25
100
AcDbCircle
 10
-225.000028
 20
13.999979
 30
0.0
 40
12.0
100
AcDbArc
 50
254.34616
 51
286.209849
  0
LINE
  5
1C0
100
AcDbEntity
  8
1
370
    25
100
AcDbLine
 10
-220.000028
 20
23.740563
 30
0.0
 11
-220.000028
 21
4.416508
 31
0.0
  0
LINE
  5
1C1
100
AcDbEntity
  8
1
370
    25
100
AcDbLine
 10
-230.000028
 20
23.740563
 30
0.0
 11
-230.000028
 21
4.416508
 31
0.0
  0
LINE
  5
1C2
100
AcDbEntity
  8
1
370
    18
  6
CENTER
100
AcDbLine
 10
-239.500028
 20
13.999979
 30
0.0
 11
-210.500028
 21
13.999979
 31
0.0
  0
LINE
  5
1C3
100
AcDbEntity
  8
1
370
    18
  6
CENTER
100
AcDbLine
 10
-225.000028
 20
-80.212871
 30
0.0
 11
-225.000028
 21
62.10056
 31
0.0
  0
LINE
  5
1C4
100
AcDbEntity
  8
1
370
    50
100
AcDbLine
 10
-201.400028
 20
-50.500021
 30
0.0
 11
-201.400028
 21
32.499979
 31
0.0
  0
ARC
  5
1C5
100
AcDbEntity
  8
1
370
    50
100
AcDbCircle
 10
-225.000028
 20
32.499979
 30
0.0
 40
23.6
100
AcDbArc
 50
0.0
 51
180.0
  0
ARC
  5
1C6
100
AcDbEntity
  8
1
370
    50
100
AcDbCircle
 10
-225.000028
 20
-50.500021
 30
0.0
 40
23.6
100
AcDbArc
 50
180.0
 51
360.0
  0
LINE
  5
1C7
100
AcDbEntity
  8
1
370
    50
100
AcDbLine
 10
-248.600028
 20
-44.288666
 30
0.0
 11
-248.600028
 21
-50.500021
 31
0.0
  0
LINE
  5
1C8
100
AcDbEntity
  8
1
370
    50
100
AcDbLine
 10
185.149972
 20
9.999979
 30
0.0
 11
187.249972
 21
9.999979
 31
0.0
  0
LINE
  5
1C9
100
AcDbEntity
  8
1
370
    25
100
AcDbLine
 10
186.449972
 20
13.899979
 30
0.0
 11
187.349972
 21
13.899979
 31
0.0
  0
LINE
  5
1CA
100
AcDbEntity
  8
1
370
    25
100
AcDbLine
 10
186.449972
 20
12.899979
 30
0.0
 11
187.349972
 21
12.899979
 31
0.0
  0
LINE
  5
1CB
100
AcDbEntity
  8
1
370
    25
100
AcDbLine
 10
186.449972
 20
13.899979
 30
0.0
 11
186.449972
 21
12.899979
 31
0.0
  0
LINE
  5
1CC
100
AcDbEntity
  8
1
370
    25
100
AcDbLine
 10
185.049972
 20
15.299979
 30
0.0
 11
185.599972
 21
15.299979
 31
0.0
  0
LINE
  5
1CD
100
AcDbEntity
  8
1
370
    25
100
AcDbLine
 10
185.049972
 20
14.299979
 30
0.0
 11
185.599972
 21
14.299979
 31
0.0
  0
LINE
  5
1CE
100
AcDbEntity
  8
1
370
    25
100
AcDbLine
 10
185.599972
 20
15.299979
 30
0.0
 11
185.599972
 21
14.299979
 31
0.0
  0
LINE
  5
1CF
100
AcDbEntity
  8
1
370
    25
100
AcDbLine
 10
185.049972
 20
11.699979
 30
0.0
 11
185.649972
 21
11.699979
 31
0.0
  0
LINE
  5
1D0
100
AcDbEntity
  8
1
370
    25
100
AcDbLine
 10
185.649972
 20
11.699979
 30
0.0
 11
185.649972
 21
9.999979
 31
0.0
  0
LINE
  5
1D1
100
AcDbEntity
  8
1
370
    18
  6
CENTER
100
AcDbLine
 10
202.068096
 20
13.999979
 30
0.0
 11
170.58296
 21
13.999979
 31
0.0
  0
CIRCLE
  5
1D2
100
AcDbEntity
  8
1
370
    50
100
AcDbCircle
 10
186.199972
 20
13.999979
 30
0.0
 40
12.35
  0
CIRCLE
  5
1D3
100
AcDbEntity
  8
1
370
    50
100
AcDbCircle
 10
186.199972
 20
13.999979
 30
0.0
 40
9.75
  0
CIRCLE
  5
1D4
100
AcDbEntity
  8
1
370
    50
100
AcDbCircle
 10
186.199972
 20
13.999979
 30
0.0
 40
7.625
  0
LINE
  5
1D5
100
AcDbEntity
  8
1
370
    50
100
AcDbLine
 10
185.049972
 20
9.999979
 30
0.0
 11
187.349972
 21
9.999979
 31
0.0
  0
LINE
  5
1D6
100
AcDbEntity
  8
1
370
    50
100
AcDbLine
 10
185.049972
 20
16.799979
 30
0.0
 11
187.349972
 21
16.799979
 31
0.0
  0
LINE
  5
1D7
100
AcDbEntity
  8
1
370
    50
100
AcDbLine
 10
185.049972
 20
9.999979
 30
0.0
 11
185.049972
 21
16.799979
 31
0.0
  0
LINE
  5
1D8
100
AcDbEntity
  8
1
370
    50
100
AcDbLine
 10
187.349972
 20
9.999979
 30
0.0
 11
187.349972
 21
16.799979
 31
0.0
  0
LINE
  5
1D9
100
AcDbEntity
  8
1
370
    18
  6
CENTER
100
AcDbLine
 10
-116.911057
 20
13.999979
 30
0.0
 11
-19.874619
 21
13.999979
 31
0.0
  0
ARC
  5
1DA
100
AcDbEntity
  8
1
370
    50
100
AcDbCircle
 10
-41.000028
 20
13.999979
 30
0.0
 40
70.0
100
AcDbArc
 50
172.965724
 51
187.034276
  0
LINE
  5
1DB
100
AcDbEntity
  8
1
370
    25
100
AcDbLine
 10
-96.500028
 20
24.098504
 30
0.0
 11
-96.500028
 21
3.925047
 31
0.0
  0
ELLIPSE
  5
1DC
100
AcDbEntity
  8
1
370
    50
100
AcDbEllipse
 10
-96.500028
 20
13.999979
 30
0.0
 11
0.0
 21
11.45645
 31
0.0
210
0.0
220
0.0
230
1.0
 40
0.349148
 41
3.324891
 42
6.0391810000000001
  0
LINE
  5
1DD
100
AcDbEntity
  8
1
370
    50
100
AcDbLine
 10
-106.60001
 20
26.081373
 30
0.0
 11
-90.000028
 21
26.454173
 31
0.0
  0
ARC
  5
1DE
100
AcDbEntity
  8
1
370
    50
100
AcDbCircle
 10
-106.503251
 20
22.082543
 30
0.0
 40
4.0
100
AcDbArc
 50
91.386113
 51
172.965724
  0
LINE
  5
1DF
100
AcDbEntity
  8
1
370
    50
100
AcDbLine
 10
-106.60001
 20
1.918586
 30
0.0
 11
-90.000028
 21
1.545786
 31
0.0
  0
ARC
  5
1E0
100
AcDbEntity
  8
1
370
    50
100
AcDbCircle
 10
-106.503251
 20
5.917416
 30
0.0
 40
4.0
100
AcDbArc
 50
187.034276
 51
268.613887
  0
LINE
  5
1E1
100
AcDbEntity
  8
1
370
    50
100
AcDbLine
 10
-75.500028
 20
18.699979
 30
0.0
 11
-75.500028
 21
9.299979
 31
0.0
  0
LINE
  5
1E2
100
AcDbEntity
  8
1
370
    50
100
AcDbLine
 10
-80.000028
 20
18.999979
 30
0.0
 11
-75.800028
 21
18.999979
 31
0.0
  0
LINE
  5
1E3
100
AcDbEntity
  8
1
370
    50
100
AcDbLine
 10
-80.000028
 20
8.999979
 30
0.0
 11
-75.800028
 21
8.999979
 31
0.0
  0
LINE
  5
1E4
100
AcDbEntity
  8
1
370
    50
100
AcDbLine
 10
-75.500028
 20
18.699979
 30
0.0
 11
-75.800028
 21
18.999979
 31
0.0
  0
LINE
  5
1E5
100
AcDbEntity
  8
1
370
    50
100
AcDbLine
 10
-75.500028
 20
9.299979
 30
0.0
 11
-75.800028
 21
8.999979
 31
0.0
  0
LINE
  5
1E6
100
AcDbEntity
  8
1
370
    25
100
AcDbLine
 10
-75.800028
 20
18.999979
 30
0.0
 11
-75.800028
 21
8.999979
 31
0.0
  0
LINE
  5
1E7
100
AcDbEntity
  8
1
370
    25
100
AcDbLine
 10
-75.800028
 20
18.867641
 30
0.0
 11
-75.500028
 21
18.594093
 31
0.0
  0
LINE
  5
1E8
100
AcDbEntity
  8
1
370
    25
100
AcDbLine
 10
-75.800028
 20
15.142725
 30
0.0
 11
-75.500028
 21
14.99201
 31
0.0
  0
LINE
  5
1E9
100
AcDbEntity
  8
1
370
    25
100
AcDbLine
 10
-80.000028
 20
15.142725
 30
0.0
 11
-75.800028
 21
15.142725
 31
0.0
  0
LINE
  5
1EA
100
AcDbEntity
  8
1
370
    25
100
AcDbLine
 10
-80.000028
 20
18.867641
 30
0.0
 11
-75.800028
 21
18.867641
 31
0.0
  0
LINE
  5
1EB
100
AcDbEntity
  8
1
370
    50
100
AcDbLine
 10
-75.500028
 20
11.171552
 30
0.0
 11
-72.500065
 21
11.171552
 31
0.0
  0
LINE
  5
1EC
100
AcDbEntity
  8
1
370
    50
100
AcDbLine
 10
-72.500065
 20
15.414193
 30
0.0
 11
-75.500028
 21
15.414193
 31
0.0
  0
LINE
  5
1ED
100
AcDbEntity
  8
1
370
    50
100
AcDbLine
 10
-75.500028
 20
16.828407
 30
0.0
 11
-72.500065
 21
16.828407
 31
0.0
  0
LINE
  5
1EE
100
AcDbEntity
  8
1
370
    50
100
AcDbLine
 10
-28.789897
 20
1.649979
 30
0.0
 11
-30.000028
 21
1.649979
 31
0.0
  0
LINE
  5
1EF
100
AcDbEntity
  8
1
370
    50
100
AcDbLine
 10
-22.316766
 20
4.125204
 30
0.0
 11
-28.423372
 21
1.719571
 31
0.0
  0
ARC
  5
1F0
100
AcDbEntity
  8
1
370
    50
100
AcDbCircle
 10
-22.500028
 20
4.590408
 30
0.0
 40
0.5
100
AcDbArc
 50
291.501434
 51
360.0
  0
ARC
  5
1F1
100
AcDbEntity
  8
1
370
    50
100
AcDbCircle
 10
-28.789897
 20
2.649979
 30
0.0
 40
1.0
100
AcDbArc
 50
270.0
 51
291.501434
  0
LINE
  5
1F2
100
AcDbEntity
  8
1
370
    50
100
AcDbLine
 10
-22.000028
 20
23.409551
 30
0.0
 11
-22.000028
 21
4.590408
 31
0.0
  0
LINE
  5
1F3
100
AcDbEntity
  8
1
370
    50
100
AcDbLine
 10
-28.789897
 20
26.349979
 30
0.0
 11
-30.000028
 21
26.349979
 31
0.0
  0
LINE
  5
1F4
100
AcDbEntity
  8
1
370
    50
100
AcDbLine
 10
-22.316766
 20
23.874755
 30
0.0
 11
-28.423372
 21
26.280388
 31
0.0
  0
ARC
  5
1F5
100
AcDbEntity
  8
1
370
    50
100
AcDbCircle
 10
-22.500028
 20
23.409551
 30
0.0
 40
0.5
100
AcDbArc
 50
0.0
 51
68.498566
  0
ARC
  5
1F6
100
AcDbEntity
  8
1
370
    50
100
AcDbCircle
 10
-28.789897
 20
25.349979
 30
0.0
 40
1.0
100
AcDbArc
 50
68.498566
 51
90.0
  0
LINE
  5
1F7
100
AcDbEntity
  8
1
370
    25
100
AcDbLine
 10
-28.600028
 20
2.004797
 30
0.0
 11
-28.600028
 21
25.953977
 31
0.0
  0
LINE
  5
1F8
100
AcDbEntity
  8
1
370
    50
100
AcDbLine
 10
-21.950028
 20
6.624979
 30
0.0
 11
-21.950028
 21
21.374979
 31
0.0
  0
ARC
  5
1F9
100
AcDbEntity
  8
1
370
    50
100
AcDbCircle
 10
-22.200028
 20
6.624979
 30
0.0
 40
0.25
100
AcDbArc
 50
323.130102
 51
360.0
  0
ARC
  5
1FA
100
AcDbEntity
  8
1
370
    50
100
AcDbCircle
 10
-22.200028
 20
21.374979
 30
0.0
 40
0.25
100
AcDbArc
 50
0.0
 51
36.869898
  0
ARC
  5
1FB
100
AcDbEntity
  8
1
370
    50
100
AcDbCircle
 10
-91.613921
 20
159.64938
 30
0.0
 40
1.0
100
AcDbArc
 50
90.0
 51
173.088773
  0
ARC
  5
1FC
100
AcDbEntity
  8
1
370
    50
100
AcDbCircle
 10
-91.613921
 20
136.64938
 30
0.0
 40
1.0
100
AcDbArc
 50
186.911227
 51
270.0
  0
LINE
  5
1FD
100
AcDbEntity
  8
1
370
    50
100
AcDbLine
 10
-91.613921
 20
160.64938
 30
0.0
 11
-90.000028
 21
160.64938
 31
0.0
  0
LINE
  5
1FE
100
AcDbEntity
  8
1
370
    50
100
AcDbLine
 10
-92.606655
 20
159.769712
 30
0.0
 11
-92.888632
 21
157.443394
 31
0.0
  0
ARC
  5
1FF
100
AcDbEntity
  8
1
370
    50
100
AcDbCircle
 10
-81.000028
 20
148.14938
 30
0.0
 40
30.0
100
AcDbArc
 50
174.957505
 51
185.046668
  0
LINE
  5
200
100
AcDbEntity
  8
1
370
    50
100
AcDbLine
 10
-91.613921
 20
135.64938
 30
0.0
 11
-90.000028
 21
135.64938
 31
0.0
  0
ARC
  5
201
100
AcDbEntity
  8
1
370
    50
100
AcDbCircle
 10
-98.845035
 20
158.165383
 30
0.0
 40
6.0
100
AcDbArc
 50
272.571436
 51
353.088773
  0
ARC
  5
202
100
AcDbEntity
  8
1
370
    50
100
AcDbCircle
 10
-109.887792
 20
150.698323
 30
0.0
 40
1.0
100
AcDbArc
 50
92.571436
 51
174.957505
  0
LINE
  5
203
100
AcDbEntity
  8
1
370
    50
100
AcDbLine
 10
-109.932657
 20
151.697316
 30
0.0
 11
-98.575845
 21
152.171424
 31
0.0
  0
ARC
  5
204
100
AcDbEntity
  8
1
370
    50
100
AcDbCircle
 10
-109.887792
 20
145.600437
 30
0.0
 40
1.0
100
AcDbArc
 50
185.042495
 51
267.428564
  0
LINE
  5
205
100
AcDbEntity
  8
1
370
    50
100
AcDbLine
 10
-109.932657
 20
144.601444
 30
0.0
 11
-98.575845
 21
144.127336
 31
0.0
  0
ARC
  5
206
100
AcDbEntity
  8
1
370
    50
100
AcDbCircle
 10
-98.845035
 20
138.133378
 30
0.0
 40
6.0
100
AcDbArc
 50
6.911227
 51
87.428564
  0
LINE
  5
207
100
AcDbEntity
  8
1
370
    50
100
AcDbLine
 10
-92.606655
 20
136.529049
 30
0.0
 11
-92.888632
 21
138.855366
 31
0.0
  0
LINE
  5
208
100
AcDbEntity
  8
1
370
    50
100
AcDbLine
 10
-80.000028
 20
143.14938
 30
0.0
 11
-75.800028
 21
143.14938
 31
0.0
  0
LINE
  5
209
100
AcDbEntity
  8
1
370
    50
100
AcDbLine
 10
-80.000028
 20
153.14938
 30
0.0
 11
-75.800028
 21
153.14938
 31
0.0
  0
LINE
  5
20A
100
AcDbEntity
  8
1
370
    50
100
AcDbLine
 10
-75.500028
 20
143.44938
 30
0.0
 11
-75.800028
 21
143.14938
 31
0.0
  0
LINE
  5
20B
100
AcDbEntity
  8
1
370
    50
100
AcDbLine
 10
-75.500028
 20
152.84938
 30
0.0
 11
-75.800028
 21
153.14938
 31
0.0
  0
LINE
  5
20C
100
AcDbEntity
  8
1
370
    25
100
AcDbLine
 10
-75.800028
 20
143.281718
 30
0.0
 11
-75.500028
 21
143.555267
 31
0.0
  0
LINE
  5
20D
100
AcDbEntity
  8
1
370
    25
100
AcDbLine
 10
-80.000028
 20
143.281718
 30
0.0
 11
-75.800028
 21
143.281718
 31
0.0
  0
LINE
  5
20E
100
AcDbEntity
  8
1
370
    50
100
AcDbLine
 10
-75.500028
 20
143.44938
 30
0.0
 11
-75.500028
 21
146.64938
 31
0.0
  0
LINE
  5
20F
100
AcDbEntity
  8
1
370
    50
100
AcDbLine
 10
-75.500028
 20
149.64938
 30
0.0
 11
-75.500028
 21
152.84938
 31
0.0
  0
LINE
  5
210
100
AcDbEntity
  8
1
370
    25
100
AcDbLine
 10
-75.800028
 20
143.14938
 30
0.0
 11
-75.800028
 21
146.64938
 31
0.0
  0
LINE
  5
211
100
AcDbEntity
  8
1
370
    25
100
AcDbLine
 10
-75.800028
 20
149.64938
 30
0.0
 11
-75.800028
 21
153.14938
 31
0.0
  0
LINE
  5
212
100
AcDbEntity
  8
1
370
    50
100
AcDbLine
 10
-75.500028
 20
145.320953
 30
0.0
 11
-68.200065
 21
145.320953
 31
0.0
  0
LINE
  5
213
100
AcDbEntity
  8
1
370
    50
100
AcDbLine
 10
-74.677945
 20
146.735167
 30
0.0
 11
-68.200065
 21
146.735167
 31
0.0
  0
LINE
  5
214
100
AcDbEntity
  8
1
370
    50
100
AcDbLine
 10
-75.500028
 20
150.977807
 30
0.0
 11
-68.200065
 21
150.977807
 31
0.0
  0
LINE
  5
215
100
AcDbEntity
  8
1
370
    50
100
AcDbLine
 10
-28.789897
 20
135.79938
 30
0.0
 11
-30.000028
 21
135.79938
 31
0.0
  0
LINE
  5
216
100
AcDbEntity
  8
1
370
    50
100
AcDbLine
 10
-22.316766
 20
138.274605
 30
0.0
 11
-28.423372
 21
135.868972
 31
0.0
  0
ARC
  5
217
100
AcDbEntity
  8
1
370
    50
100
AcDbCircle
 10
-22.500028
 20
138.739809
 30
0.0
 40
0.5
100
AcDbArc
 50
291.501434
 51
360.0
  0
ARC
  5
218
100
AcDbEntity
  8
1
370
    50
100
AcDbCircle
 10
-28.789897
 20
136.79938
 30
0.0
 40
1.0
100
AcDbArc
 50
270.0
 51
291.501434
  0
LINE
  5
219
100
AcDbEntity
  8
1
370
    50
100
AcDbLine
 10
-22.000028
 20
157.558951
 30
0.0
 11
-22.000028
 21
138.739809
 31
0.0
  0
LINE
  5
21A
100
AcDbEntity
  8
1
370
    50
100
AcDbLine
 10
-28.789897
 20
160.49938
 30
0.0
 11
-30.000028
 21
160.49938
 31
0.0
  0
LINE
  5
21B
100
AcDbEntity
  8
1
370
    50
100
AcDbLine
 10
-22.316766
 20
158.024156
 30
0.0
 11
-28.423372
 21
160.429789
 31
0.0
  0
ARC
  5
21C
100
AcDbEntity
  8
1
370
    50
100
AcDbCircle
 10
-22.500028
 20
157.558951
 30
0.0
 40
0.5
100
AcDbArc
 50
0.0
 51
68.498566
  0
ARC
  5
21D
100
AcDbEntity
  8
1
370
    50
100
AcDbCircle
 10
-28.789897
 20
159.49938
 30
0.0
 40
1.0
100
AcDbArc
 50
68.498566
 51
90.0
  0
LINE
  5
21E
100
AcDbEntity
  8
1
370
    25
100
AcDbLine
 10
-28.600028
 20
136.154197
 30
0.0
 11
-28.600028
 21
160.103378
 31
0.0
  0
LINE
  5
21F
100
AcDbEntity
  8
1
370
    50
100
AcDbLine
 10
-21.950028
 20
140.77438
 30
0.0
 11
-21.950028
 21
155.52438
 31
0.0
  0
ARC
  5
220
100
AcDbEntity
  8
1
370
    50
100
AcDbCircle
 10
-22.200028
 20
140.77438
 30
0.0
 40
0.25
100
AcDbArc
 50
323.130102
 51
360.0
  0
ARC
  5
221
100
AcDbEntity
  8
1
370
    50
100
AcDbCircle
 10
-22.200028
 20
155.52438
 30
0.0
 40
0.25
100
AcDbArc
 50
0.0
 51
36.869898
  0
LINE
  5
222
100
AcDbEntity
  8
1
370
    18
  6
CENTER
100
AcDbLine
 10
-144.314819
 20
-36.000021
 30
0.0
 11
30.065125
 21
-36.000021
 31
0.0
  0
LINE
  5
223
100
AcDbEntity
  8
1
370
    18
  6
CENTER
100
AcDbLine
 10
157.414958
 20
-36.000021
 30
0.0
 11
215.921443
 21
-36.000021
 31
0.0
  0
LINE
  5
224
100
AcDbEntity
  8
1
370
    50
100
AcDbLine
 10
-29.500028
 20
-25.51386
 30
0.0
 11
-29.500028
 21
-46.486181
 31
0.0
  0
LINE
  5
225
100
AcDbEntity
  8
1
370
    50
100
AcDbLine
 10
-90.500214
 20
-25.51386
 30
0.0
 11
-90.500214
 21
-46.486181
 31
0.0
  0
LINE
  5
226
100
AcDbEntity
  8
1
370
    50
100
AcDbLine
 10
-72.500065
 20
-39.057105
 30
0.0
 11
-80.000028
 21
-39.122556
 31
0.0
  0
LINE
  5
227
100
AcDbEntity
  8
1
370
    50
100
AcDbLine
 10
-72.500065
 20
-32.942936
 30
0.0
 11
-80.000028
 21
-32.877485
 31
0.0
  0
LINE
  5
228
100
AcDbEntity
  8
1
370
    50
100
AcDbLine
 10
-68.200065
 20
130.129822
 30
0.0
 11
-80.000028
 21
130.026845
 31
0.0
  0
LINE
  5
229
100
AcDbEntity
  8
1
370
    50
100
AcDbLine
 10
-68.200065
 20
136.168939
 30
0.0
 11
-80.000028
 21
136.271915
 31
0.0
  0
LINE
  5
22A
100
AcDbEntity
  8
1
370
    50
100
AcDbLine
 10
-68.200065
 20
166.168939
 30
0.0
 11
-80.000028
 21
166.271915
 31
0.0
  0
LINE
  5
22B
100
AcDbEntity
  8
1
370
    50
100
AcDbLine
 10
-68.200065
 20
160.129822
 30
0.0
 11
-80.000028
 21
160.026845
 31
0.0
  0
LINE
  5
22C
100
AcDbEntity
  8
1
370
    50
100
AcDbLine
 10
-51.800065
 20
151.64938
 30
0.0
 11
-45.100028
 21
151.64938
 31
0.0
  0
LINE
  5
22D
100
AcDbEntity
  8
1
370
    50
100
AcDbLine
 10
-51.800065
 20
145.320953
 30
0.0
 11
-45.100028
 21
145.320953
 31
0.0
  0
LINE
  5
22E
100
AcDbEntity
  8
1
370
    50
100
AcDbLine
 10
-51.800065
 20
146.735167
 30
0.0
 11
-45.322111
 21
146.735167
 31
0.0
  0
LINE
  5
22F
100
AcDbEntity
  8
1
370
    50
100
AcDbLine
 10
-51.800065
 20
150.977807
 30
0.0
 11
-45.100028
 21
150.977807
 31
0.0
  0
LINE
  5
230
100
AcDbEntity
  8
1
370
    50
100
AcDbLine
 10
-40.000028
 20
154.92438
 30
0.0
 11
-44.100028
 21
154.92438
 31
0.0
  0
LINE
  5
231
100
AcDbEntity
  8
1
370
    50
100
AcDbLine
 10
-40.000028
 20
141.37438
 30
0.0
 11
-44.100028
 21
141.37438
 31
0.0
  0
ARC
  5
232
100
AcDbEntity
  8
1
370
    50
100
AcDbCircle
 10
-44.100028
 20
142.37438
 30
0.0
 40
1.0
100
AcDbArc
 50
180.0
 51
270.0
  0
ARC
  5
233
100
AcDbEntity
  8
1
370
    50
100
AcDbCircle
 10
-44.100028
 20
153.92438
 30
0.0
 40
1.0
100
AcDbArc
 50
90.0
 51
180.0
  0
LINE
  5
234
100
AcDbEntity
  8
1
370
    50
100
AcDbLine
 10
-45.100028
 20
142.37438
 30
0.0
 11
-45.100028
 21
146.67566
 31
0.0
  0
LINE
  5
235
100
AcDbEntity
  8
1
370
    50
100
AcDbLine
 10
-45.100028
 20
149.623101
 30
0.0
 11
-45.100028
 21
153.92438
 31
0.0
  0
LINE
  5
236
100
AcDbEntity
  8
1
370
    50
100
AcDbLine
 10
-47.500065
 20
11.171552
 30
0.0
 11
-45.100028
 21
11.171552
 31
0.0
  0
LINE
  5
237
100
AcDbEntity
  8
1
370
    50
100
AcDbLine
 10
-47.500065
 20
15.414193
 30
0.0
 11
-45.100028
 21
15.414193
 31
0.0
  0
LINE
  5
238
100
AcDbEntity
  8
1
370
    50
100
AcDbLine
 10
-47.500065
 20
16.828407
 30
0.0
 11
-45.100028
 21
16.828407
 31
0.0
  0
LINE
  5
239
100
AcDbEntity
  8
1
370
    50
100
AcDbLine
 10
-45.100028
 20
8.224979
 30
0.0
 11
-45.100028
 21
19.774979
 31
0.0
  0
LINE
  5
23A
100
AcDbEntity
  8
1
370
    50
100
AcDbLine
 10
-40.000028
 20
20.774979
 30
0.0
 11
-44.100028
 21
20.774979
 31
0.0
  0
LINE
  5
23B
100
AcDbEntity
  8
1
370
    50
100
AcDbLine
 10
-40.000028
 20
7.224979
 30
0.0
 11
-44.100028
 21
7.224979
 31
0.0
  0
ARC
  5
23C
100
AcDbEntity
  8
1
370
    50
100
AcDbCircle
 10
-44.100028
 20
8.224979
 30
0.0
 40
1.0
100
AcDbArc
 50
180.0
 51
270.0
  0
ARC
  5
23D
100
AcDbEntity
  8
1
370
    50
100
AcDbCircle
 10
-44.100028
 20
19.774979
 30
0.0
 40
1.0
100
AcDbArc
 50
90.0
 51
180.0
  0
LINE
  5
23E
100
AcDbEntity
  8
1
370
    18
  6
CENTER
100
AcDbLine
 10
-245.132844
 20
194.370596
 30
0.0
 11
-297.082275
 21
194.370596
 31
0.0
  0
LINE
  5
23F
100
AcDbEntity
  8
1
370
    50
100
AcDbLine
 10
-244.785673
 20
187.941603
 30
0.0
 11
-244.785673
 21
200.799589
 31
0.0
  0
LINE
  5
240
100
AcDbEntity
  8
1
370
    50
100
AcDbLine
 10
-270.285673
 20
189.870596
 30
0.0
 11
-274.885673
 21
189.870596
 31
0.0
  0
LINE
  5
241
100
AcDbEntity
  8
1
370
    50
100
AcDbLine
 10
-270.285673
 20
198.870596
 30
0.0
 11
-274.885673
 21
198.870596
 31
0.0
  0
ARC
  5
242
100
AcDbEntity
  8
1
370
    50
100
AcDbCircle
 10
-270.285673
 20
187.370596
 30
0.0
 40
2.5
100
AcDbArc
 50
6.670316
 51
90.0
  0
ARC
  5
243
100
AcDbEntity
  8
1
370
    50
100
AcDbCircle
 10
-265.319519
 20
187.951377
 30
0.0
 40
2.5
100
AcDbArc
 50
186.670316
 51
253.861245
  0
ARC
  5
244
100
AcDbEntity
  8
1
370
    50
100
AcDbCircle
 10
-256.285673
 20
219.170596
 30
0.0
 40
35.0
100
AcDbArc
 50
253.861245
 51
286.07665
  0
ARC
  5
245
100
AcDbEntity
  8
1
370
    50
100
AcDbCircle
 10
-270.285673
 20
201.370596
 30
0.0
 40
2.5
100
AcDbArc
 50
270.0
 51
353.329684
  0
ARC
  5
246
100
AcDbEntity
  8
1
370
    50
100
AcDbCircle
 10
-265.319519
 20
200.789815
 30
0.0
 40
2.5
100
AcDbArc
 50
106.138755
 51
173.329684
  0
ARC
  5
247
100
AcDbEntity
  8
1
370
    50
100
AcDbCircle
 10
-256.285673
 20
169.570596
 30
0.0
 40
35.0
100
AcDbArc
 50
73.92335
 51
106.138755
  0
ARC
  5
248
100
AcDbEntity
  8
1
370
    50
100
AcDbCircle
 10
-247.285673
 20
200.799589
 30
0.0
 40
2.5
100
AcDbArc
 50
0.0
 51
73.92335
  0
ARC
  5
249
100
AcDbEntity
  8
1
370
    50
100
AcDbCircle
 10
-247.285673
 20
187.941603
 30
0.0
 40
2.5
100
AcDbArc
 50
286.07665
 51
360.0
  0
LINE
  5
24A
100
AcDbEntity
  8
1
370
    50
100
AcDbLine
 10
-293.007067
 20
195.053618
 30
0.0
 11
-290.266034
 21
197.353618
 31
0.0
  0
LINE
  5
24B
100
AcDbEntity
  8
1
370
    50
100
AcDbLine
 10
-293.068696
 20
194.349202
 30
0.0
 11
-291.306586
 21
192.249202
 31
0.0
  0
LINE
  5
24C
100
AcDbEntity
  8
1
370
    50
100
AcDbLine
 10
-275.185673
 20
191.270596
 30
0.0
 11
-282.385673
 21
191.270596
 31
0.0
  0
LINE
  5
24D
100
AcDbEntity
  8
1
370
    50
100
AcDbLine
 10
-275.185673
 20
197.470596
 30
0.0
 11
-289.94464
 21
197.470596
 31
0.0
  0
LINE
  5
24E
100
AcDbEntity
  8
1
370
    50
100
AcDbLine
 10
-275.185673
 20
190.170596
 30
0.0
 11
-275.185673
 21
191.270596
 31
0.0
  0
LINE
  5
24F
100
AcDbEntity
  8
1
370
    50
100
AcDbLine
 10
-275.185673
 20
197.470596
 30
0.0
 11
-275.185673
 21
198.570596
 31
0.0
  0
ARC
  5
250
100
AcDbEntity
  8
1
370
    50
100
AcDbCircle
 10
-274.885673
 20
190.170596
 30
0.0
 40
0.3
100
AcDbArc
 50
180.0
 51
270.0
  0
ARC
  5
251
100
AcDbEntity
  8
1
370
    50
100
AcDbCircle
 10
-274.885673
 20
198.570596
 30
0.0
 40
0.3
100
AcDbArc
 50
90.0
 51
180.0
  0
ARC
  5
252
100
AcDbEntity
  8
1
370
    50
100
AcDbCircle
 10
-290.923564
 20
192.570596
 30
0.0
 40
0.5
100
AcDbArc
 50
220.0
 51
270.0
  0
ARC
  5
253
100
AcDbEntity
  8
1
370
    50
100
AcDbCircle
 10
-289.94464
 20
196.970596
 30
0.0
 40
0.5
100
AcDbArc
 50
90.0
 51
130.0
  0
CIRCLE
  5
254
100
AcDbEntity
  8
1
370
    25
100
AcDbCircle
 10
-249.085673
 20
194.370596
 30
0.0
 40
2.0
  0
CIRCLE
  5
255
100
AcDbEntity
  8
1
370
    25
100
AcDbCircle
 10
-249.085673
 20
194.370596
 30
0.0
 40
2.75
  0
LINE
  5
256
100
AcDbEntity
  8
1
370
    25
100
AcDbLine
 10
-259.885673
 20
185.970596
 30
0.0
 11
-259.885673
 21
202.770596
 31
0.0
  0
LINE
  5
257
100
AcDbEntity
  8
1
370
    25
100
AcDbLine
 10
-255.385673
 20
185.970596
 30
0.0
 11
-259.885673
 21
185.970596
 31
0.0
  0
LINE
  5
258
100
AcDbEntity
  8
1
370
    25
100
AcDbLine
 10
-255.385673
 20
185.970596
 30
0.0
 11
-255.385673
 21
202.770596
 31
0.0
  0
LINE
  5
259
100
AcDbEntity
  8
1
370
    25
100
AcDbLine
 10
-255.385673
 20
202.770596
 30
0.0
 11
-259.885673
 21
202.770596
 31
0.0
  0
LINE
  5
25A
100
AcDbEntity
  8
1
370
    25
100
AcDbLine
 10
-245.885673
 20
187.941603
 30
0.0
 11
-245.885673
 21
200.799589
 31
0.0
  0
ARC
  5
25B
100
AcDbEntity
  8
1
370
    25
100
AcDbCircle
 10
-256.285673
 20
219.170596
 30
0.0
 40
33.9
100
AcDbArc
 50
253.92335
 51
286.07665
  0
ARC
  5
25C
100
AcDbEntity
  8
1
370
    25
100
AcDbCircle
 10
-256.285673
 20
169.570596
 30
0.0
 40
33.9
100
AcDbArc
 50
73.92335
 51
106.07665
  0
ARC
  5
25D
100
AcDbEntity
  8
1
370
    25
100
AcDbCircle
 10
-247.285673
 20
187.941603
 30
0.0
 40
1.4
100
AcDbArc
 50
286.07665
 51
360.0
  0
ARC
  5
25E
100
AcDbEntity
  8
1
370
    25
100
AcDbCircle
 10
-247.285673
 20
200.799589
 30
0.0
 40
1.4
100
AcDbArc
 50
0.0
 51
73.92335
  0
LINE
  5
25F
100
AcDbEntity
  8
1
370
    25
100
AcDbLine
 10
-266.685673
 20
187.941603
 30
0.0
 11
-266.685673
 21
200.799589
 31
0.0
  0
ARC
  5
260
100
AcDbEntity
  8
1
370
    25
100
AcDbCircle
 10
-265.285673
 20
187.941603
 30
0.0
 40
1.4
100
AcDbArc
 50
180.0
 51
253.92335
  0
ARC
  5
261
100
AcDbEntity
  8
1
370
    25
100
AcDbCircle
 10
-265.285673
 20
200.799589
 30
0.0
 40
1.4
100
AcDbArc
 50
106.07665
 51
180.0
  0
LINE
  5
262
100
AcDbEntity
  8
1
370
    18
  6
CENTER
100
AcDbLine
 10
-249.085673
 20
190.620596
 30
0.0
 11
-249.085673
 21
198.120596
 31
0.0
  0
LINE
  5
263
100
AcDbEntity
  8
1
370
    50
100
AcDbLine
 10
-271.185673
 20
194.970596
 30
0.0
 11
-293.106009
 21
194.970596
 31
0.0
  0
LINE
  5
264
100
AcDbEntity
  8
1
370
    50
100
AcDbLine
 10
-271.185673
 20
193.770596
 30
0.0
 11
-292.583187
 21
193.770596
 31
0.0
  0
LINE
  5
265
100
AcDbEntity
  8
1
370
    50
100
AcDbLine
 10
-271.185673
 20
194.970596
 30
0.0
 11
-271.185673
 21
193.770596
 31
0.0
  0
TEXT
  5
266
100
AcDbEntity
  8
1
370
    25
100
AcDbText
 10
-259.485673
 20
202.570596
 30
0.0
 40
3.5
  1
Ｇ
 50
270.0
 72
     5
 11
-259.485673
 21
199.770596
 31
0.0
100
AcDbText
  0
TEXT
  5
267
100
AcDbEntity
  8
1
370
    25
100
AcDbText
 10
-259.485673
 20
199.370596
 30
0.0
 40
3.5
  1
Ｉ
 50
270.0
 72
     5
 11
-259.485673
 21
196.570596
 31
0.0
100
AcDbText
  0
TEXT
  5
268
100
AcDbEntity
  8
1
370
    25
100
AcDbText
 10
-259.485673
 20
196.170596
 30
0.0
 40
3.5
  1
Ｋ
 50
270.0
 72
     5
 11
-259.485673
 21
193.370596
 31
0.0
100
AcDbText
  0
TEXT
  5
269
100
AcDbEntity
  8
1
370
    25
100
AcDbText
 10
-259.485673
 20
192.970596
 30
0.0
 40
3.5
  1
Ｅ
 50
270.0
 72
     5
 11
-259.485673
 21
190.170596
 31
0.0
100
AcDbText
  0
TEXT
  5
26A
100
AcDbEntity
  8
1
370
    25
100
AcDbText
 10
-259.485673
 20
189.770596
 30
0.0
 40
3.5
  1
Ｎ
 50
270.0
 72
     5
 11
-259.485673
 21
186.970596
 31
0.0
100
AcDbText
  0
LINE
  5
26B
100
AcDbEntity
  8
1
370
    50
100
AcDbLine
 10
-289.985673
 20
192.070596
 30
0.0
 11
-290.923564
 21
192.070596
 31
0.0
  0
LINE
  5
26C
100
AcDbEntity
  8
1
370
    50
100
AcDbLine
 10
-288.185673
 20
192.870596
 30
0.0
 11
-289.185673
 21
192.870596
 31
0.0
  0
LINE
  5
26D
100
AcDbEntity
  8
1
370
    50
100
AcDbLine
 10
-289.185673
 20
192.870596
 30
0.0
 11
-289.985673
 21
192.070596
 31
0.0
  0
LINE
  5
26E
100
AcDbEntity
  8
1
370
    50
100
AcDbLine
 10
-288.185673
 20
192.870596
 30
0.0
 11
-287.235673
 21
191.920596
 31
0.0
  0
LINE
  5
26F
100
AcDbEntity
  8
1
370
    50
100
AcDbLine
 10
-285.685673
 20
192.470596
 30
0.0
 11
-286.685673
 21
192.470596
 31
0.0
  0
LINE
  5
270
100
AcDbEntity
  8
1
370
    50
100
AcDbLine
 10
-286.685673
 20
192.470596
 30
0.0
 11
-287.235673
 21
191.920596
 31
0.0
  0
LINE
  5
271
100
AcDbEntity
  8
1
370
    50
100
AcDbLine
 10
-285.685673
 20
192.470596
 30
0.0
 11
-284.735673
 21
191.520596
 31
0.0
  0
LINE
  5
272
100
AcDbEntity
  8
1
370
    50
100
AcDbLine
 10
-283.185673
 20
192.070596
 30
0.0
 11
-284.185673
 21
192.070596
 31
0.0
  0
LINE
  5
273
100
AcDbEntity
  8
1
370
    50
100
AcDbLine
 10
-284.185673
 20
192.070596
 30
0.0
 11
-284.735673
 21
191.520596
 31
0.0
  0
LINE
  5
274
100
AcDbEntity
  8
1
370
    50
100
AcDbLine
 10
-283.185673
 20
192.070596
 30
0.0
 11
-282.385673
 21
191.270596
 31
0.0
  0
LINE
  5
275
100
AcDbEntity
  8
1
370
    50
100
AcDbLine
 10
-244.785673
 20
167.85752
 30
0.0
 11
-293.185673
 21
167.85752
 31
0.0
  0
LINE
  5
276
100
AcDbEntity
  8
1
370
    50
100
AcDbLine
 10
-244.785673
 20
166.05752
 30
0.0
 11
-293.185673
 21
166.05752
 31
0.0
  0
LINE
  5
277
100
AcDbEntity
  8
1
370
    50
100
AcDbLine
 10
-244.785673
 20
167.85752
 30
0.0
 11
-244.785673
 21
166.05752
 31
0.0
  0
LINE
  5
278
100
AcDbEntity
  8
1
370
    50
100
AcDbLine
 10
-275.185673
 20
167.85752
 30
0.0
 11
-275.185673
 21
166.05752
 31
0.0
  0
LINE
  5
279
100
AcDbEntity
  8
1
370
    50
100
AcDbLine
 10
-282.385673
 20
167.85752
 30
0.0
 11
-282.385673
 21
166.05752
 31
0.0
  0
LINE
  5
27A
100
AcDbEntity
  8
1
370
    50
100
AcDbLine
 10
-284.735673
 20
167.85752
 30
0.0
 11
-284.735673
 21
166.05752
 31
0.0
  0
LINE
  5
27B
100
AcDbEntity
  8
1
370
    50
100
AcDbLine
 10
-287.235673
 20
167.85752
 30
0.0
 11
-287.235673
 21
166.05752
 31
0.0
  0
LINE
  5
27C
100
AcDbEntity
  8
1
370
    50
100
AcDbLine
 10
-289.985673
 20
167.85752
 30
0.0
 11
-289.985673
 21
166.05752
 31
0.0
  0
LINE
  5
27D
100
AcDbEntity
  8
1
370
    50
100
AcDbLine
 10
-291.306586
 20
167.85752
 30
0.0
 11
-291.306586
 21
166.05752
 31
0.0
  0
LINE
  5
27E
100
AcDbEntity
  8
1
370
    50
100
AcDbLine
 10
-67.000065
 20
168.64938
 30
0.0
 11
-53.000065
 21
168.64938
 31
0.0
  0
LINE
  5
27F
100
AcDbEntity
  8
1
370
    18
  6
CENTER
100
AcDbLine
 10
-60.000065
 20
83.0143
 30
0.0
 11
-60.000065
 21
174.260784
 31
0.0
  0
LINE
  5
280
100
AcDbEntity
  8
1
370
    50
100
AcDbLine
 10
-47.600068
 20
99.54938
 30
0.0
 11
-47.600068
 21
100.74938
 31
0.0
  0
LINE
  5
281
100
AcDbEntity
  8
1
370
    50
100
AcDbLine
 10
-72.400068
 20
99.54938
 30
0.0
 11
-72.400068
 21
100.74938
 31
0.0
  0
LINE
  5
282
100
AcDbEntity
  8
1
370
    50
100
AcDbLine
 10
-70.200068
 20
101.14938
 30
0.0
 11
-49.800068
 21
101.14938
 31
0.0
  0
LINE
  5
283
100
AcDbEntity
  8
1
370
    50
100
AcDbLine
 10
-72.400068
 20
100.74938
 30
0.0
 11
-70.600068
 21
100.74938
 31
0.0
  0
LINE
  5
284
100
AcDbEntity
  8
1
370
    50
100
AcDbLine
 10
-49.400068
 20
100.74938
 30
0.0
 11
-47.600068
 21
100.74938
 31
0.0
  0
ARC
  5
285
100
AcDbEntity
  8
1
370
    50
100
AcDbCircle
 10
-70.100068
 20
99.94938
 30
0.0
 40
0.4
100
AcDbArc
 50
270.0
 51
360.0
  0
ARC
  5
286
100
AcDbEntity
  8
1
370
    50
100
AcDbCircle
 10
-70.200068
 20
100.74938
 30
0.0
 40
0.4
100
AcDbArc
 50
90.0
 51
180.0
  0
ARC
  5
287
100
AcDbEntity
  8
1
370
    50
100
AcDbCircle
 10
-49.900068
 20
99.94938
 30
0.0
 40
0.4
100
AcDbArc
 50
180.0
 51
270.0
  0
ARC
  5
288
100
AcDbEntity
  8
1
370
    50
100
AcDbCircle
 10
-49.800068
 20
100.74938
 30
0.0
 40
0.4
100
AcDbArc
 50
0.0
 51
90.0
  0
LINE
  5
289
100
AcDbEntity
  8
1
370
    50
100
AcDbLine
 10
-68.200065
 20
101.14938
 30
0.0
 11
-68.200065
 21
167.44938
 31
0.0
  0
LINE
  5
28A
100
AcDbEntity
  8
1
370
    50
100
AcDbLine
 10
-51.300065
 20
120.64938
 30
0.0
 11
-51.300065
 21
129.64938
 31
0.0
  0
LINE
  5
28B
100
AcDbEntity
  8
1
370
    50
100
AcDbLine
 10
-53.000065
 20
130.14938
 30
0.0
 11
-51.800065
 21
130.14938
 31
0.0
  0
LINE
  5
28C
100
AcDbEntity
  8
1
370
    50
100
AcDbLine
 10
-53.000065
 20
120.14938
 30
0.0
 11
-51.800065
 21
120.14938
 31
0.0
  0
LINE
  5
28D
100
AcDbEntity
  8
1
370
    50
100
AcDbLine
 10
-51.300065
 20
166.14938
 30
0.0
 11
-51.300065
 21
166.74938
 31
0.0
  0
LINE
  5
28E
100
AcDbEntity
  8
1
370
    50
100
AcDbLine
 10
-51.800065
 20
167.24938
 30
0.0
 11
-51.300065
 21
166.74938
 31
0.0
  0
LINE
  5
28F
100
AcDbEntity
  8
1
370
    50
100
AcDbLine
 10
-66.800065
 20
167.44938
 30
0.0
 11
-53.000065
 21
167.44938
 31
0.0
  0
LINE
  5
290
100
AcDbEntity
  8
1
370
    50
100
AcDbLine
 10
-67.000065
 20
166.24938
 30
0.0
 11
-67.000065
 21
167.24938
 31
0.0
  0
LINE
  5
291
100
AcDbEntity
  8
1
370
    50
100
AcDbLine
 10
-68.200065
 20
166.24938
 30
0.0
 11
-67.000065
 21
166.24938
 31
0.0
  0
ARC
  5
292
100
AcDbEntity
  8
1
370
    50
100
AcDbCircle
 10
-67.000065
 20
167.44938
 30
0.0
 40
1.2
100
AcDbArc
 50
90.0
 51
180.0
  0
ARC
  5
293
100
AcDbEntity
  8
1
370
    50
100
AcDbCircle
 10
-66.800065
 20
167.24938
 30
0.0
 40
0.2
100
AcDbArc
 50
90.0
 51
180.0
  0
LINE
  5
294
100
AcDbEntity
  8
1
370
    50
100
AcDbLine
 10
-54.500065
 20
103.64938
 30
0.0
 11
-54.500065
 21
110.14938
 31
0.0
  0
LINE
  5
295
100
AcDbEntity
  8
1
370
    50
100
AcDbLine
 10
-65.500065
 20
103.64938
 30
0.0
 11
-65.500065
 21
110.14938
 31
0.0
  0
LINE
  5
296
100
AcDbEntity
  8
1
370
    50
100
AcDbLine
 10
-68.200065
 20
103.14938
 30
0.0
 11
-66.000065
 21
103.14938
 31
0.0
  0
LINE
  5
297
100
AcDbEntity
  8
1
370
    50
100
AcDbLine
 10
-54.000065
 20
103.14938
 30
0.0
 11
-53.000065
 21
103.14938
 31
0.0
  0
ARC
  5
298
100
AcDbEntity
  8
1
370
    50
100
AcDbCircle
 10
-58.500065
 20
110.14938
 30
0.0
 40
4.0
100
AcDbArc
 50
0.0
 51
90.0
  0
ARC
  5
299
100
AcDbEntity
  8
1
370
    50
100
AcDbCircle
 10
-61.500065
 20
110.14938
 30
0.0
 40
4.0
100
AcDbArc
 50
90.0
 51
180.0
  0
ARC
  5
29A
100
AcDbEntity
  8
1
370
    50
100
AcDbCircle
 10
-54.000065
 20
103.64938
 30
0.0
 40
0.5
100
AcDbArc
 50
180.0
 51
270.0
  0
ARC
  5
29B
100
AcDbEntity
  8
1
370
    50
100
AcDbCircle
 10
-66.000065
 20
103.64938
 30
0.0
 40
0.5
100
AcDbArc
 50
270.0
 51
360.0
  0
LINE
  5
29C
100
AcDbEntity
  8
1
370
    50
100
AcDbLine
 10
-53.000065
 20
167.24938
 30
0.0
 11
-53.000065
 21
168.64938
 31
0.0
  0
ARC
  5
29D
100
AcDbEntity
  8
1
370
    50
100
AcDbCircle
 10
-51.800065
 20
120.64938
 30
0.0
 40
0.5
100
AcDbArc
 50
270.0
 51
360.0
  0
ARC
  5
29E
100
AcDbEntity
  8
1
370
    50
100
AcDbCircle
 10
-51.800065
 20
129.64938
 30
0.0
 40
0.5
100
AcDbArc
 50
0.0
 51
90.0
  0
LINE
  5
29F
100
AcDbEntity
  8
1
370
    50
100
AcDbLine
 10
-69.700068
 20
99.94938
 30
0.0
 11
-69.400065
 21
99.94938
 31
0.0
  0
LINE
  5
2A0
100
AcDbEntity
  8
1
370
    50
100
AcDbLine
 10
-50.600065
 20
99.94938
 30
0.0
 11
-50.300068
 21
99.94938
 31
0.0
  0
LINE
  5
2A1
100
AcDbEntity
  8
1
370
    50
100
AcDbLine
 10
-61.500065
 20
114.14938
 30
0.0
 11
-61.11652
 21
114.14938
 31
0.0
  0
LINE
  5
2A2
100
AcDbEntity
  8
1
370
    50
100
AcDbLine
 10
-58.88361
 20
114.14938
 30
0.0
 11
-58.500065
 21
114.14938
 31
0.0
  0
LINE
  5
2A3
100
AcDbEntity
  8
1
370
    50
100
AcDbLine
 10
-47.600065
 20
98.34938
 30
0.0
 11
-47.600065
 21
99.54938
 31
0.0
  0
LINE
  5
2A4
100
AcDbEntity
  8
1
370
    50
100
AcDbLine
 10
-72.400065
 20
98.34938
 30
0.0
 11
-72.400065
 21
99.54938
 31
0.0
  0
LINE
  5
2A5
100
AcDbEntity
  8
1
370
    50
100
AcDbLine
 10
-68.500065
 20
98.74938
 30
0.0
 11
-51.500065
 21
98.74938
 31
0.0
  0
LINE
  5
2A6
100
AcDbEntity
  8
1
370
    50
100
AcDbLine
 10
-72.400065
 20
99.54938
 30
0.0
 11
-69.800065
 21
99.54938
 31
0.0
  0
LINE
  5
2A7
100
AcDbEntity
  8
1
370
    50
100
AcDbLine
 10
-50.200065
 20
99.54938
 30
0.0
 11
-47.600065
 21
99.54938
 31
0.0
  0
LINE
  5
2A8
100
AcDbEntity
  8
1
370
    50
100
AcDbLine
 10
-51.800065
 20
101.14938
 30
0.0
 11
-51.800065
 21
120.14938
 31
0.0
  0
LINE
  5
2A9
100
AcDbEntity
  8
1
370
    50
100
AcDbLine
 10
-53.000065
 20
101.14938
 30
0.0
 11
-53.000065
 21
120.14938
 31
0.0
  0
LINE
  5
2AA
100
AcDbEntity
  8
1
370
    50
100
AcDbLine
 10
-53.000065
 20
130.14938
 30
0.0
 11
-53.000065
 21
167.24938
 31
0.0
  0
ARC
  5
2AB
100
AcDbEntity
  8
1
370
    50
100
AcDbCircle
 10
-53.000065
 20
167.44938
 30
0.0
 40
1.2
100
AcDbArc
 50
0.0
 51
90.0
  0
ARC
  5
2AC
100
AcDbEntity
  8
1
370
    50
100
AcDbCircle
 10
-68.900065
 20
98.54938
 30
0.0
 40
0.2
100
AcDbArc
 50
270.0
 51
360.0
  0
ARC
  5
2AD
100
AcDbEntity
  8
1
370
    50
100
AcDbCircle
 10
-69.800065
 20
99.74938
 30
0.0
 40
0.2
100
AcDbArc
 50
270.0
 51
360.0
  0
ARC
  5
2AE
100
AcDbEntity
  8
1
370
    50
100
AcDbCircle
 10
-69.400065
 20
99.74938
 30
0.0
 40
0.2
100
AcDbArc
 50
90.0
 51
180.0
  0
ARC
  5
2AF
100
AcDbEntity
  8
1
370
    50
100
AcDbCircle
 10
-50.200065
 20
99.74938
 30
0.0
 40
0.2
100
AcDbArc
 50
180.0
 51
270.0
  0
ARC
  5
2B0
100
AcDbEntity
  8
1
370
    50
100
AcDbCircle
 10
-50.600065
 20
99.74938
 30
0.0
 40
0.2
100
AcDbArc
 50
360.0
 51
90.0
  0
ARC
  5
2B1
100
AcDbEntity
  8
1
370
    50
100
AcDbCircle
 10
-51.100065
 20
98.54938
 30
0.0
 40
0.2
100
AcDbArc
 50
180.0
 51
270.0
  0
ARC
  5
2B2
100
AcDbEntity
  8
1
370
    50
100
AcDbCircle
 10
-51.500065
 20
98.54938
 30
0.0
 40
0.2
100
AcDbArc
 50
0.0
 51
90.0
  0
ARC
  5
2B3
100
AcDbEntity
  8
1
370
    50
100
AcDbCircle
 10
-68.500065
 20
98.54938
 30
0.0
 40
0.2
100
AcDbArc
 50
90.0
 51
180.0
  0
LINE
  5
2B4
100
AcDbEntity
  8
1
370
    50
100
AcDbLine
 10
-69.400065
 20
99.94938
 30
0.0
 11
-50.600065
 21
99.94938
 31
0.0
  0
LINE
  5
2B5
100
AcDbEntity
  8
1
370
    50
100
AcDbLine
 10
-51.800065
 20
130.14938
 30
0.0
 11
-51.800065
 21
167.44938
 31
0.0
  0
LINE
  5
2B6
100
AcDbEntity
  8
1
370
    50
100
AcDbLine
 10
-72.500065
 20
97.14938
 30
0.0
 11
-47.500065
 21
97.14938
 31
0.0
  0
LINE
  5
2B7
100
AcDbEntity
  8
1
370
    50
100
AcDbLine
 10
-72.500065
 20
98.34938
 30
0.0
 11
-47.500065
 21
98.34938
 31
0.0
  0
LINE
  5
2B8
100
AcDbEntity
  8
1
370
    50
100
AcDbLine
 10
-47.500065
 20
97.14938
 30
0.0
 11
-47.500065
 21
98.34938
 31
0.0
  0
LINE
  5
2B9
100
AcDbEntity
  8
1
370
    50
100
AcDbLine
 10
-72.500065
 20
97.14938
 30
0.0
 11
-72.500065
 21
98.34938
 31
0.0
  0
LINE
  5
2BA
100
AcDbEntity
  8
1
370
    50
100
AcDbLine
 10
-51.200065
 20
113.89938
 30
0.0
 11
-51.200065
 21
122.39938
 31
0.0
  0
LINE
  5
2BB
100
AcDbEntity
  8
1
370
    50
100
AcDbLine
 10
-51.800065
 20
113.39938
 30
0.0
 11
-51.700065
 21
113.39938
 31
0.0
  0
ARC
  5
2BC
100
AcDbEntity
  8
1
370
    50
100
AcDbCircle
 10
-51.700065
 20
113.89938
 30
0.0
 40
0.5
100
AcDbArc
 50
270.0
 51
360.0
  0
LINE
  5
2BD
100
AcDbEntity
  8
1
370
    50
100
AcDbLine
 10
-68.200065
 20
113.39938
 30
0.0
 11
-68.400065
 21
113.39938
 31
0.0
  0
LINE
  5
2BE
100
AcDbEntity
  8
1
370
    50
100
AcDbLine
 10
-68.200065
 20
122.89938
 30
0.0
 11
-68.400065
 21
122.89938
 31
0.0
  0
LINE
  5
2BF
100
AcDbEntity
  8
1
370
    50
100
AcDbLine
 10
-68.900065
 20
113.89938
 30
0.0
 11
-68.900065
 21
122.39938
 31
0.0
  0
ARC
  5
2C0
100
AcDbEntity
  8
1
370
    50
100
AcDbCircle
 10
-68.400065
 20
113.89938
 30
0.0
 40
0.5
100
AcDbArc
 50
180.0
 51
270.0
  0
ARC
  5
2C1
100
AcDbEntity
  8
1
370
    50
100
AcDbCircle
 10
-68.400065
 20
122.39938
 30
0.0
 40
0.5
100
AcDbArc
 50
90.0
 51
180.0
  0
LINE
  5
2C2
100
AcDbEntity
  8
1
370
    50
100
AcDbLine
 10
-68.300065
 20
127.89938
 30
0.0
 11
-68.200065
 21
127.89938
 31
0.0
  0
LINE
  5
2C3
100
AcDbEntity
  8
1
370
    50
100
AcDbLine
 10
-68.300065
 20
109.39938
 30
0.0
 11
-68.200065
 21
109.39938
 31
0.0
  0
ARC
  5
2C4
100
AcDbEntity
  8
1
370
    50
100
AcDbCircle
 10
-68.300065
 20
127.39938
 30
0.0
 40
0.5
100
AcDbArc
 50
90.0
 51
180.0
  0
ARC
  5
2C5
100
AcDbEntity
  8
1
370
    50
100
AcDbCircle
 10
-68.300065
 20
109.89938
 30
0.0
 40
0.5
100
AcDbArc
 50
180.0
 51
270.0
  0
ARC
  5
2C6
100
AcDbEntity
  8
1
370
    50
100
AcDbCircle
 10
-68.300065
 20
122.89938
 30
0.0
 40
0.5
100
AcDbArc
 50
180.0
 51
199.347367
  0
LINE
  5
2C7
100
AcDbEntity
  8
1
370
    50
100
AcDbLine
 10
-68.800065
 20
109.89938
 30
0.0
 11
-68.800065
 21
113.59938
 31
0.0
  0
LINE
  5
2C8
100
AcDbEntity
  8
1
370
    50
100
AcDbLine
 10
-68.800065
 20
122.89938
 30
0.0
 11
-68.800065
 21
127.39938
 31
0.0
  0
LINE
  5
2C9
100
AcDbEntity
  8
1
370
    50
100
AcDbLine
 10
-51.300065
 20
113.59938
 30
0.0
 11
-51.300065
 21
109.89938
 31
0.0
  0
ARC
  5
2CA
100
AcDbEntity
  8
1
370
    50
100
AcDbCircle
 10
-51.800065
 20
109.89938
 30
0.0
 40
0.5
100
AcDbArc
 50
270.0
 51
360.0
  0
LINE
  5
2CB
100
AcDbEntity
  8
1
370
    50
100
AcDbLine
 10
-68.900065
 20
140.19938
 30
0.0
 11
-68.200065
 21
140.19938
 31
0.0
  0
LINE
  5
2CC
100
AcDbEntity
  8
1
370
    50
100
AcDbLine
 10
-68.900065
 20
156.09938
 30
0.0
 11
-68.200065
 21
156.09938
 31
0.0
  0
ARC
  5
2CD
100
AcDbEntity
  8
1
370
    50
100
AcDbCircle
 10
-68.900065
 20
140.49938
 30
0.0
 40
0.3
100
AcDbArc
 50
180.0
 51
270.0
  0
ARC
  5
2CE
100
AcDbEntity
  8
1
370
    50
100
AcDbCircle
 10
-68.900065
 20
155.79938
 30
0.0
 40
0.3
100
AcDbArc
 50
90.0
 51
180.0
  0
LINE
  5
2CF
100
AcDbEntity
  8
1
370
    50
100
AcDbLine
 10
-51.800065
 20
140.19938
 30
0.0
 11
-51.100065
 21
140.19938
 31
0.0
  0
LINE
  5
2D0
100
AcDbEntity
  8
1
370
    50
100
AcDbLine
 10
-51.800065
 20
156.09938
 30
0.0
 11
-51.100065
 21
156.09938
 31
0.0
  0
ARC
  5
2D1
100
AcDbEntity
  8
1
370
    50
100
AcDbCircle
 10
-51.100065
 20
140.49938
 30
0.0
 40
0.3
100
AcDbArc
 50
270.0
 51
360.0
  0
ARC
  5
2D2
100
AcDbEntity
  8
1
370
    50
100
AcDbCircle
 10
-51.100065
 20
155.79938
 30
0.0
 40
0.3
100
AcDbArc
 50
0.0
 51
90.0
  0
LINE
  5
2D3
100
AcDbEntity
  8
1
370
    50
100
AcDbLine
 10
-54.000065
 20
88.14938
 30
0.0
 11
-54.000065
 21
96.64938
 31
0.0
  0
LINE
  5
2D4
100
AcDbEntity
  8
1
370
    50
100
AcDbLine
 10
-54.000065
 20
88.14938
 30
0.0
 11
-54.302689
 21
87.019971
 31
0.0
  0
ARC
  5
2D5
100
AcDbEntity
  8
1
370
    50
100
AcDbCircle
 10
-37.550046
 20
117.035562
 30
0.0
 40
35.0
100
AcDbArc
 50
216.724911
 51
240.027598
  0
ARC
  5
2D6
100
AcDbEntity
  8
1
370
    50
100
AcDbCircle
 10
-54.785652
 20
87.14938
 30
0.0
 40
0.5
100
AcDbArc
 50
240.027598
 51
345.0
  0
ARC
  5
2D7
100
AcDbEntity
  8
1
370
    50
100
AcDbCircle
 10
-64.000065
 20
97.30243
 30
0.0
 40
2.0
100
AcDbArc
 50
199.057997
 51
216.724911
  0
LINE
  5
2D8
100
AcDbEntity
  8
1
370
    50
100
AcDbLine
 10
-51.200065
 20
135.14938
 30
0.0
 11
-51.200065
 21
138.149429
 31
0.0
  0
LINE
  5
2D9
100
AcDbEntity
  8
1
370
    50
100
AcDbLine
 10
-68.800065
 20
138.149429
 30
0.0
 11
-68.200065
 21
138.149429
 31
0.0
  0
LINE
  5
2DA
100
AcDbEntity
  8
1
370
    50
100
AcDbLine
 10
-51.800065
 20
138.149429
 30
0.0
 11
-51.200065
 21
138.149429
 31
0.0
  0
LINE
  5
2DB
100
AcDbEntity
  8
1
370
    50
100
AcDbLine
 10
-67.250065
 20
97.14938
 30
0.0
 11
-67.250065
 21
96.84938
 31
0.0
  0
LINE
  5
2DC
100
AcDbEntity
  8
1
370
    50
100
AcDbLine
 10
-52.750065
 20
97.14938
 30
0.0
 11
-52.750065
 21
96.84938
 31
0.0
  0
LINE
  5
2DD
100
AcDbEntity
  8
1
370
    50
100
AcDbLine
 10
-67.050065
 20
96.64938
 30
0.0
 11
-52.950065
 21
96.64938
 31
0.0
  0
ARC
  5
2DE
100
AcDbEntity
  8
1
370
    50
100
AcDbCircle
 10
-52.950065
 20
96.84938
 30
0.0
 40
0.2
100
AcDbArc
 50
270.0
 51
360.0
  0
ARC
  5
2DF
100
AcDbEntity
  8
1
370
    50
100
AcDbCircle
 10
-67.050065
 20
96.84938
 30
0.0
 40
0.2
100
AcDbArc
 50
180.0
 51
270.0
  0
ARC
  5
2E0
100
AcDbEntity
  8
1
370
    50
100
AcDbCircle
 10
-68.600065
 20
158.04938
 30
0.0
 40
0.4
100
AcDbArc
 50
180.0
 51
360.0
  0
ARC
  5
2E1
100
AcDbEntity
  8
1
370
    50
100
AcDbCircle
 10
-68.600065
 20
112.54938
 30
0.0
 40
0.4
100
AcDbArc
 50
180.0
 51
240.0
  0
ARC
  5
2E2
100
AcDbEntity
  8
1
370
    50
100
AcDbCircle
 10
-68.600065
 20
119.74938
 30
0.0
 40
0.4
100
AcDbArc
 50
138.590378
 51
180.0
  0
LINE
  5
2E3
100
AcDbEntity
  8
1
370
    50
100
AcDbLine
 10
-69.000065
 20
112.54938
 30
0.0
 11
-69.000065
 21
119.74938
 31
0.0
  0
LINE
  5
2E4
100
AcDbEntity
  8
1
370
    50
100
AcDbLine
 10
-50.600065
 20
114.54938
 30
0.0
 11
-50.600065
 21
117.74938
 31
0.0
  0
LINE
  5
2E5
100
AcDbEntity
  8
1
370
    50
100
AcDbLine
 10
-50.600065
 20
160.04938
 30
0.0
 11
-50.600065
 21
161.14938
 31
0.0
  0
LINE
  5
2E6
100
AcDbEntity
  8
1
370
    50
100
AcDbLine
 10
-51.200065
 20
114.14938
 30
0.0
 11
-51.000065
 21
114.14938
 31
0.0
  0
LINE
  5
2E7
100
AcDbEntity
  8
1
370
    50
100
AcDbLine
 10
-51.200065
 20
118.14938
 30
0.0
 11
-51.000065
 21
118.14938
 31
0.0
  0
LINE
  5
2E8
100
AcDbEntity
  8
1
370
    50
100
AcDbLine
 10
-51.800065
 20
159.64938
 30
0.0
 11
-51.000065
 21
159.64938
 31
0.0
  0
ARC
  5
2E9
100
AcDbEntity
  8
1
370
    50
100
AcDbCircle
 10
-51.000065
 20
160.04938
 30
0.0
 40
0.4
100
AcDbArc
 50
270.0
 51
360.0
  0
ARC
  5
2EA
100
AcDbEntity
  8
1
370
    50
100
AcDbCircle
 10
-51.000065
 20
114.54938
 30
0.0
 40
0.4
100
AcDbArc
 50
270.0
 51
360.0
  0
ARC
  5
2EB
100
AcDbEntity
  8
1
370
    50
100
AcDbCircle
 10
-51.000065
 20
117.74938
 30
0.0
 40
0.4
100
AcDbArc
 50
0.0
 51
90.0
  0
LINE
  5
2EC
100
AcDbEntity
  8
1
370
    25
100
AcDbLine
 10
-61.750065
 20
103.14938
 30
0.0
 11
-61.750065
 21
101.14938
 31
0.0
  0
LINE
  5
2ED
100
AcDbEntity
  8
1
370
    25
100
AcDbLine
 10
-58.250065
 20
101.14938
 30
0.0
 11
-58.250065
 21
104.221177
 31
0.0
  0
LINE
  5
2EE
100
AcDbEntity
  8
1
370
    25
100
AcDbLine
 10
-61.750065
 20
103.14938
 30
0.0
 11
-58.250065
 21
104.221177
 31
0.0
  0
LINE
  5
2EF
100
AcDbEntity
  8
1
370
    25
100
AcDbLine
 10
-61.250065
 20
103.283355
 30
0.0
 11
-61.250065
 21
113.551304
 31
0.0
  0
LINE
  5
2F0
100
AcDbEntity
  8
1
370
    25
100
AcDbLine
 10
-58.750065
 20
104.087202
 30
0.0
 11
-58.750065
 21
113.551304
 31
0.0
  0
LINE
  5
2F1
100
AcDbEntity
  8
1
370
    25
100
AcDbLine
 10
-60.000065
 20
119.14938
 30
0.0
 11
-58.750065
 21
113.551304
 31
0.0
  0
LINE
  5
2F2
100
AcDbEntity
  8
1
370
    25
100
AcDbLine
 10
-60.000065
 20
119.14938
 30
0.0
 11
-61.250065
 21
113.551304
 31
0.0
  0
LINE
  5
2F3
100
AcDbEntity
  8
1
370
    25
100
AcDbLine
 10
-61.750065
 20
103.14938
 30
0.0
 11
-58.250065
 21
104.221177
 31
0.0
  0
LINE
  5
2F4
100
AcDbEntity
  8
1
370
    25
100
AcDbLine
 10
-61.750065
 20
103.14938
 30
0.0
 11
-58.250065
 21
104.221177
 31
0.0
  0
LINE
  5
2F5
100
AcDbEntity
  8
1
370
    25
100
AcDbLine
 10
-61.750065
 20
103.14938
 30
0.0
 11
-58.250065
 21
104.221177
 31
0.0
  0
LINE
  5
2F6
100
AcDbEntity
  8
1
370
    25
100
AcDbLine
 10
-61.750065
 20
103.14938
 30
0.0
 11
-58.250065
 21
104.221177
 31
0.0
  0
LINE
  5
2F7
100
AcDbEntity
  8
1
370
    25
100
AcDbLine
 10
-61.750065
 20
103.14938
 30
0.0
 11
-58.250065
 21
104.221177
 31
0.0
  0
LINE
  5
2F8
100
AcDbEntity
  8
1
370
    25
100
AcDbLine
 10
-61.750065
 20
103.14938
 30
0.0
 11
-58.250065
 21
104.221177
 31
0.0
  0
LINE
  5
2F9
100
AcDbEntity
  8
1
370
    18
100
AcDbLine
 10
-61.750065
 20
107.14938
 30
0.0
 11
-58.250065
 21
108.221177
 31
0.0
  0
LINE
  5
2FA
100
AcDbEntity
  8
1
370
    18
100
AcDbLine
 10
-61.750065
 20
109.14938
 30
0.0
 11
-58.250065
 21
110.221177
 31
0.0
  0
LINE
  5
2FB
100
AcDbEntity
  8
1
370
    18
100
AcDbLine
 10
-61.750065
 20
111.14938
 30
0.0
 11
-58.250065
 21
112.221177
 31
0.0
  0
LINE
  5
2FC
100
AcDbEntity
  8
1
370
    18
100
AcDbLine
 10
-61.750065
 20
113.14938
 30
0.0
 11
-58.401076
 21
114.180713
 31
0.0
  0
LINE
  5
2FD
100
AcDbEntity
  8
1
370
    18
100
AcDbLine
 10
-61.307742
 20
115.2679
 30
0.0
 11
-58.901076
 21
116.046739
 31
0.0
  0
LINE
  5
2FE
100
AcDbEntity
  8
1
370
    18
100
AcDbLine
 10
-60.730392
 20
117.422601
 30
0.0
 11
-59.401076
 21
117.912764
 31
0.0
  0
LINE
  5
2FF
100
AcDbEntity
  8
1
370
    18
100
AcDbLine
 10
-61.750065
 20
105.149426
 30
0.0
 11
-58.250065
 21
106.221223
 31
0.0
  0
LINE
  5
300
100
AcDbEntity
  8
1
370
    50
100
AcDbLine
 10
-69.000065
 20
158.04938
 30
0.0
 11
-69.000065
 21
160.14938
 31
0.0
  0
LINE
  5
301
100
AcDbEntity
  8
1
370
    50
100
AcDbLine
 10
-68.800065
 20
136.14938
 30
0.0
 11
-68.800065
 21
138.149429
 31
0.0
  0
ARC
  5
302
100
AcDbEntity
  8
1
370
    18
100
AcDbCircle
 10
-63.850065
 20
96.542575
 30
0.0
 40
2.0
100
AcDbArc
 50
180.0
 51
217.419357
  0
ARC
  5
303
100
AcDbEntity
  8
1
370
    18
100
AcDbCircle
 10
-37.244051
 20
116.898655
 30
0.0
 40
35.5
100
AcDbArc
 50
217.419357
 51
239.13382
  0
ARC
  5
304
100
AcDbEntity
  8
1
370
    18
100
AcDbCircle
 10
-55.046354
 20
87.11329
 30
0.0
 40
0.8
100
AcDbArc
 50
239.13382
 51
345.0
  0
LINE
  5
305
100
AcDbEntity
  8
1
370
    18
100
AcDbLine
 10
-54.150065
 20
87.367323
 30
0.0
 11
-54.273613
 21
86.906234
 31
0.0
  0
LINE
  5
306
100
AcDbEntity
  8
1
370
    18
100
AcDbLine
 10
-54.150065
 20
87.367323
 30
0.0
 11
-54.150065
 21
87.589573
 31
0.0
  0
LINE
  5
307
100
AcDbEntity
  8
1
370
    50
100
AcDbLine
 10
-69.200065
 20
140.49938
 30
0.0
 11
-69.200065
 21
145.320953
 31
0.0
  0
LINE
  5
308
100
AcDbEntity
  8
1
370
    50
100
AcDbLine
 10
-69.200065
 20
150.977807
 30
0.0
 11
-69.200065
 21
155.79938
 31
0.0
  0
LINE
  5
309
100
AcDbEntity
  8
1
370
    50
100
AcDbLine
 10
-50.800065
 20
140.49938
 30
0.0
 11
-50.800065
 21
145.320953
 31
0.0
  0
LINE
  5
30A
100
AcDbEntity
  8
1
370
    50
100
AcDbLine
 10
-50.800065
 20
150.977807
 30
0.0
 11
-50.800065
 21
155.79938
 31
0.0
  0
LINE
  5
30B
100
AcDbEntity
  8
1
370
    50
100
AcDbLine
 10
139.199998
 20
49.899979
 30
0.0
 11
137.999998
 21
49.899979
 31
0.0
  0
LINE
  5
30C
100
AcDbEntity
  8
1
370
    50
100
AcDbLine
 10
137.999998
 20
-79.900021
 30
0.0
 11
139.199998
 21
-79.900021
 31
0.0
  0
LINE
  5
30D
100
AcDbEntity
  8
1
370
    50
100
AcDbLine
 10
137.599998
 20
-75.224656
 30
0.0
 11
138.799998
 21
-75.224656
 31
0.0
  0
LINE
  5
30E
100
AcDbEntity
  8
1
370
    50
100
AcDbLine
 10
137.599998
 20
45.224615
 30
0.0
 11
138.799998
 21
45.224615
 31
0.0
  0
LINE
  5
30F
100
AcDbEntity
  8
1
370
    50
100
AcDbLine
 10
137.599998
 20
22.499979
 30
0.0
 11
138.799998
 21
22.499979
 31
0.0
  0
LINE
  5
310
100
AcDbEntity
  8
1
370
    50
100
AcDbLine
 10
137.599998
 20
-52.500021
 30
0.0
 11
138.799998
 21
-52.500021
 31
0.0
  0
LINE
  5
311
100
AcDbEntity
  8
1
370
    50
100
AcDbLine
 10
137.599998
 20
22.499979
 30
0.0
 11
137.599998
 21
24.499979
 31
0.0
  0
LINE
  5
312
100
AcDbEntity
  8
1
370
    25
100
AcDbLine
 10
141.199998
 20
-52.400021
 30
0.0
 11
151.799998
 21
-52.400021
 31
0.0
  0
ARC
  5
313
100
AcDbEntity
  8
1
370
    25
100
AcDbCircle
 10
151.799998
 20
-52.000021
 30
0.0
 40
0.4
100
AcDbArc
 50
270.0
 51
360.0
  0
LINE
  5
314
100
AcDbEntity
  8
1
370
    25
100
AcDbLine
 10
141.199998
 20
22.399979
 30
0.0
 11
151.799998
 21
22.399979
 31
0.0
  0
ARC
  5
315
100
AcDbEntity
  8
1
370
    25
100
AcDbCircle
 10
151.799998
 20
21.999979
 30
0.0
 40
0.4
100
AcDbArc
 50
0.0
 51
90.0
  0
ARC
  5
316
100
AcDbEntity
  8
1
370
    50
100
AcDbCircle
 10
139.399998
 20
22.199979
 30
0.0
 40
0.2
100
AcDbArc
 50
180.0
 51
270.0
  0
ARC
  5
317
100
AcDbEntity
  8
1
370
    50
100
AcDbCircle
 10
139.399998
 20
-52.200021
 30
0.0
 40
0.2
100
AcDbArc
 50
90.0
 51
180.0
  0
LINE
  5
318
100
AcDbEntity
  8
1
370
    50
100
AcDbLine
 10
139.199998
 20
-79.900021
 30
0.0
 11
139.199998
 21
-52.200021
 31
0.0
  0
ARC
  5
319
100
AcDbEntity
  8
1
370
    50
100
AcDbCircle
 10
134.999998
 20
46.721278
 30
0.0
 40
3.0
100
AcDbArc
 50
330.073565
 51
360.0
  0
ARC
  5
31A
100
AcDbEntity
  8
1
370
    50
100
AcDbCircle
 10
136.199998
 20
46.721278
 30
0.0
 40
3.0
100
AcDbArc
 50
330.073565
 51
360.0
  0
LINE
  5
31B
100
AcDbEntity
  8
1
370
    50
100
AcDbLine
 10
137.999998
 20
21.999979
 30
0.0
 11
137.999998
 21
22.499979
 31
0.0
  0
LINE
  5
31C
100
AcDbEntity
  8
1
370
    50
100
AcDbLine
 10
137.999998
 20
46.721278
 30
0.0
 11
137.999998
 21
49.899979
 31
0.0
  0
ARC
  5
31D
100
AcDbEntity
  8
1
370
    50
100
AcDbCircle
 10
134.999998
 20
-76.721319
 30
0.0
 40
3.0
100
AcDbArc
 50
0.0
 51
29.926435
  0
ARC
  5
31E
100
AcDbEntity
  8
1
370
    50
100
AcDbCircle
 10
136.199998
 20
-76.721319
 30
0.0
 40
3.0
100
AcDbArc
 50
0.0
 51
29.926435
  0
LINE
  5
31F
100
AcDbEntity
  8
1
370
    50
100
AcDbLine
 10
137.999998
 20
-79.900021
 30
0.0
 11
137.999998
 21
-76.721319
 31
0.0
  0
LINE
  5
320
100
AcDbEntity
  8
1
370
    50
100
AcDbLine
 10
137.999998
 20
-52.500021
 30
0.0
 11
137.999998
 21
-52.000021
 31
0.0
  0
LINE
  5
321
100
AcDbEntity
  8
1
370
    25
100
AcDbLine
 10
141.199998
 20
21.999979
 30
0.0
 11
141.199998
 21
22.399979
 31
0.0
  0
LINE
  5
322
100
AcDbEntity
  8
1
370
    25
100
AcDbLine
 10
141.199998
 20
-52.400021
 30
0.0
 11
141.199998
 21
-52.000021
 31
0.0
  0
LINE
  5
323
100
AcDbEntity
  8
1
370
    50
100
AcDbLine
 10
137.599998
 20
-54.500021
 30
0.0
 11
137.599998
 21
-52.500021
 31
0.0
  0
LINE
  5
324
100
AcDbEntity
  8
1
370
    25
100
AcDbLine
 10
138.099998
 20
13.499979
 30
0.0
 11
142.499998
 21
13.499979
 31
0.0
  0
LINE
  5
325
100
AcDbEntity
  8
1
370
    25
100
AcDbLine
 10
138.099998
 20
8.999979
 30
0.0
 11
142.499998
 21
8.999979
 31
0.0
  0
LINE
  5
326
100
AcDbEntity
  8
1
370
    25
100
AcDbLine
 10
143.499998
 20
9.999979
 30
0.0
 11
143.499998
 21
12.499979
 31
0.0
  0
ARC
  5
327
100
AcDbEntity
  8
1
370
    25
100
AcDbCircle
 10
142.499998
 20
12.499979
 30
0.0
 40
1.0
100
AcDbArc
 50
0.0
 51
90.0
  0
ARC
  5
328
100
AcDbEntity
  8
1
370
    25
100
AcDbCircle
 10
142.499998
 20
9.999979
 30
0.0
 40
1.0
100
AcDbArc
 50
270.0
 51
360.0
  0
LINE
  5
329
100
AcDbEntity
  8
1
370
    25
100
AcDbLine
 10
138.099998
 20
-39.000021
 30
0.0
 11
142.499998
 21
-39.000021
 31
0.0
  0
LINE
  5
32A
100
AcDbEntity
  8
1
370
    25
100
AcDbLine
 10
138.099998
 20
-43.500021
 30
0.0
 11
142.499998
 21
-43.500021
 31
0.0
  0
LINE
  5
32B
100
AcDbEntity
  8
1
370
    25
100
AcDbLine
 10
143.499998
 20
-42.500021
 30
0.0
 11
143.499998
 21
-40.000021
 31
0.0
  0
ARC
  5
32C
100
AcDbEntity
  8
1
370
    25
100
AcDbCircle
 10
142.499998
 20
-40.000021
 30
0.0
 40
1.0
100
AcDbArc
 50
0.0
 51
90.0
  0
ARC
  5
32D
100
AcDbEntity
  8
1
370
    25
100
AcDbCircle
 10
142.499998
 20
-42.500021
 30
0.0
 40
1.0
100
AcDbArc
 50
270.0
 51
360.0
  0
LINE
  5
32E
100
AcDbEntity
  8
1
370
    50
100
AcDbLine
 10
139.299998
 20
-29.600021
 30
0.0
 11
139.299998
 21
1.599979
 31
0.0
  0
LINE
  5
32F
100
AcDbEntity
  8
1
370
    50
100
AcDbLine
 10
139.199998
 20
22.199979
 30
0.0
 11
139.199998
 21
49.899979
 31
0.0
  0
LINE
  5
330
100
AcDbEntity
  8
1
370
    50
100
AcDbLine
 10
138.099998
 20
-29.600021
 30
0.0
 11
138.099998
 21
1.599979
 31
0.0
  0
LINE
  5
331
100
AcDbEntity
  8
1
370
    50
100
AcDbLine
 10
137.999998
 20
49.899979
 30
0.0
 11
136.799998
 21
49.899979
 31
0.0
  0
LINE
  5
332
100
AcDbEntity
  8
1
370
    50
100
AcDbLine
 10
137.599998
 20
46.335702
 30
0.0
 11
137.599998
 21
24.499979
 31
0.0
  0
LINE
  5
333
100
AcDbEntity
  8
1
370
    50
100
AcDbLine
 10
137.599998
 20
24.499979
 30
0.0
 11
136.399998
 21
24.499979
 31
0.0
  0
LINE
  5
334
100
AcDbEntity
  8
1
370
    50
100
AcDbLine
 10
136.399998
 20
46.335702
 30
0.0
 11
137.599998
 21
46.335702
 31
0.0
  0
LINE
  5
335
100
AcDbEntity
  8
1
370
    50
100
AcDbLine
 10
136.799998
 20
47.832365
 30
0.0
 11
136.799998
 21
49.899979
 31
0.0
  0
ARC
  5
336
100
AcDbEntity
  8
1
370
    50
100
AcDbCircle
 10
133.799998
 20
47.832365
 30
0.0
 40
3.0
100
AcDbArc
 50
330.073565
 51
360.0
  0
ARC
  5
337
100
AcDbEntity
  8
1
370
    50
100
AcDbCircle
 10
134.999998
 20
47.832365
 30
0.0
 40
3.0
100
AcDbArc
 50
330.073565
 51
360.0
  0
LINE
  5
338
100
AcDbEntity
  8
1
370
    50
100
AcDbLine
 10
137.999998
 20
-79.900021
 30
0.0
 11
136.799998
 21
-79.900021
 31
0.0
  0
LINE
  5
339
100
AcDbEntity
  8
1
370
    50
100
AcDbLine
 10
137.599998
 20
-76.335744
 30
0.0
 11
137.599998
 21
-54.500021
 31
0.0
  0
LINE
  5
33A
100
AcDbEntity
  8
1
370
    50
100
AcDbLine
 10
137.599998
 20
-54.500021
 30
0.0
 11
136.399998
 21
-54.500021
 31
0.0
  0
LINE
  5
33B
100
AcDbEntity
  8
1
370
    50
100
AcDbLine
 10
136.399998
 20
-76.335744
 30
0.0
 11
137.599998
 21
-76.335744
 31
0.0
  0
LINE
  5
33C
100
AcDbEntity
  8
1
370
    50
100
AcDbLine
 10
136.799998
 20
-77.832406
 30
0.0
 11
136.799998
 21
-79.900021
 31
0.0
  0
ARC
  5
33D
100
AcDbEntity
  8
1
370
    50
100
AcDbCircle
 10
133.799998
 20
-77.832406
 30
0.0
 40
3.0
100
AcDbArc
 50
0.0
 51
29.926435
  0
ARC
  5
33E
100
AcDbEntity
  8
1
370
    50
100
AcDbCircle
 10
134.999998
 20
-77.832406
 30
0.0
 40
3.0
100
AcDbArc
 50
0.0
 51
29.926435
  0
LINE
  5
33F
100
AcDbEntity
  8
1
370
    50
100
AcDbLine
 10
137.999998
 20
21.999979
 30
0.0
 11
157.699998
 21
21.999979
 31
0.0
  0
LINE
  5
340
100
AcDbEntity
  8
1
370
    50
100
AcDbLine
 10
137.999998
 20
-52.000021
 30
0.0
 11
157.699998
 21
-52.000021
 31
0.0
  0
LINE
  5
341
100
AcDbEntity
  8
1
370
    50
100
AcDbLine
 10
160.699998
 20
-40.400021
 30
0.0
 11
151.699998
 21
-40.400021
 31
0.0
  0
LINE
  5
342
100
AcDbEntity
  8
1
370
    50
100
AcDbLine
 10
151.199998
 20
-39.900021
 30
0.0
 11
151.199998
 21
-39.300021
 31
0.0
  0
LINE
  5
343
100
AcDbEntity
  8
1
370
    50
100
AcDbLine
 10
155.199998
 20
-38.300021
 30
0.0
 11
155.199998
 21
-38.800021
 31
0.0
  0
ARC
  5
344
100
AcDbEntity
  8
1
370
    50
100
AcDbCircle
 10
156.199998
 20
-38.300021
 30
0.0
 40
1.0
100
AcDbArc
 50
0.0
 51
180.0
  0
LINE
  5
345
100
AcDbEntity
  8
1
370
    50
100
AcDbLine
 10
151.699998
 20
-38.800021
 30
0.0
 11
155.199998
 21
-38.800021
 31
0.0
  0
LINE
  5
346
100
AcDbEntity
  8
1
370
    50
100
AcDbLine
 10
147.199998
 20
-1.200021
 30
0.0
 11
147.199998
 21
-0.400021
 31
0.0
  0
LINE
  5
347
100
AcDbEntity
  8
1
370
    50
100
AcDbLine
 10
153.199998
 20
-1.200021
 30
0.0
 11
153.199998
 21
-0.400021
 31
0.0
  0
LINE
  5
348
100
AcDbEntity
  8
1
370
    50
100
AcDbLine
 10
152.699998
 20
0.099979
 30
0.0
 11
147.699998
 21
0.099979
 31
0.0
  0
LINE
  5
349
100
AcDbEntity
  8
1
370
    50
100
AcDbLine
 10
152.699998
 20
-1.700021
 30
0.0
 11
147.699998
 21
-1.700021
 31
0.0
  0
CIRCLE
  5
34A
100
AcDbEntity
  8
1
370
    50
100
AcDbCircle
 10
154.199998
 20
9.999979
 30
0.0
 40
2.1
  0
LINE
  5
34B
100
AcDbEntity
  8
1
370
    50
100
AcDbLine
 10
136.799998
 20
1.599979
 30
0.0
 11
139.599998
 21
1.599979
 31
0.0
  0
LINE
  5
34C
100
AcDbEntity
  8
1
370
    50
100
AcDbLine
 10
136.799998
 20
-29.600021
 30
0.0
 11
139.599998
 21
-29.600021
 31
0.0
  0
LINE
  5
34D
100
AcDbEntity
  8
1
370
    50
100
AcDbLine
 10
140.599998
 20
-5.000021
 30
0.0
 11
142.199998
 21
-5.000021
 31
0.0
  0
LINE
  5
34E
100
AcDbEntity
  8
1
370
    50
100
AcDbLine
 10
140.599998
 20
-23.000021
 30
0.0
 11
142.199998
 21
-23.000021
 31
0.0
  0
LINE
  5
34F
100
AcDbEntity
  8
1
370
    50
100
AcDbLine
 10
139.599998
 20
-29.600021
 30
0.0
 11
139.599998
 21
-24.000021
 31
0.0
  0
LINE
  5
350
100
AcDbEntity
  8
1
370
    50
100
AcDbLine
 10
139.599998
 20
-4.000021
 30
0.0
 11
139.599998
 21
1.599979
 31
0.0
  0
ARC
  5
351
100
AcDbEntity
  8
1
370
    50
100
AcDbCircle
 10
140.599998
 20
-4.000021
 30
0.0
 40
1.0
100
AcDbArc
 50
180.0
 51
270.0
  0
ARC
  5
352
100
AcDbEntity
  8
1
370
    50
100
AcDbCircle
 10
140.599998
 20
-24.000021
 30
0.0
 40
1.0
100
AcDbArc
 50
90.0
 51
180.0
  0
LINE
  5
353
100
AcDbEntity
  8
1
370
    50
100
AcDbLine
 10
145.099998
 20
-26.000021
 30
0.0
 11
145.099998
 21
-7.000021
 31
0.0
  0
ARC
  5
354
100
AcDbEntity
  8
1
370
    50
100
AcDbCircle
 10
147.699998
 20
-7.000021
 30
0.0
 40
2.6
100
AcDbArc
 50
90.0
 51
180.0
  0
LINE
  5
355
100
AcDbEntity
  8
1
370
    50
100
AcDbLine
 10
151.783919
 20
-4.400021
 30
0.0
 11
147.699998
 21
-4.400021
 31
0.0
  0
ARC
  5
356
100
AcDbEntity
  8
1
370
    50
100
AcDbCircle
 10
151.783919
 20
-7.000021
 30
0.0
 40
2.6
100
AcDbArc
 50
9.594068
 51
90.0
  0
ARC
  5
357
100
AcDbEntity
  8
1
370
    50
100
AcDbCircle
 10
157.699998
 20
-6.000021
 30
0.0
 40
3.4
100
AcDbArc
 50
189.594068
 51
270.0
  0
ARC
  5
358
100
AcDbEntity
  8
1
370
    50
100
AcDbCircle
 10
157.699998
 20
-22.000021
 30
0.0
 40
3.4
100
AcDbArc
 50
90.0
 51
180.0
  0
LINE
  5
359
100
AcDbEntity
  8
1
370
    50
100
AcDbLine
 10
154.299998
 20
-26.000021
 30
0.0
 11
154.299998
 21
-22.000021
 31
0.0
  0
ARC
  5
35A
100
AcDbEntity
  8
1
370
    50
100
AcDbCircle
 10
151.699998
 20
-26.000021
 30
0.0
 40
2.6
100
AcDbArc
 50
270.0
 51
360.0
  0
LINE
  5
35B
100
AcDbEntity
  8
1
370
    50
100
AcDbLine
 10
151.699998
 20
-28.600021
 30
0.0
 11
147.699998
 21
-28.600021
 31
0.0
  0
ARC
  5
35C
100
AcDbEntity
  8
1
370
    50
100
AcDbCircle
 10
147.699998
 20
-26.000021
 30
0.0
 40
2.6
100
AcDbArc
 50
180.0
 51
270.0
  0
LINE
  5
35D
100
AcDbEntity
  8
1
370
    50
100
AcDbLine
 10
138.999998
 20
7.549979
 30
0.0
 11
136.799998
 21
7.549979
 31
0.0
  0
LINE
  5
35E
100
AcDbEntity
  8
1
370
    50
100
AcDbLine
 10
138.999998
 20
14.949979
 30
0.0
 11
136.799998
 21
14.949979
 31
0.0
  0
LINE
  5
35F
100
AcDbEntity
  8
1
370
    50
100
AcDbLine
 10
137.999998
 20
-44.950021
 30
0.0
 11
137.999998
 21
-37.550021
 31
0.0
  0
LINE
  5
360
100
AcDbEntity
  8
1
370
    50
100
AcDbLine
 10
137.999998
 20
7.549979
 30
0.0
 11
137.999998
 21
14.949979
 31
0.0
  0
LINE
  5
361
100
AcDbEntity
  8
1
370
    50
100
AcDbLine
 10
144.499998
 20
-43.250021
 30
0.0
 11
144.499998
 21
-39.250021
 31
0.0
  0
LINE
  5
362
100
AcDbEntity
  8
1
370
    50
100
AcDbLine
 10
139.999998
 20
13.749979
 30
0.0
 11
143.999998
 21
13.749979
 31
0.0
  0
LINE
  5
363
100
AcDbEntity
  8
1
370
    50
100
AcDbLine
 10
139.999998
 20
8.749979
 30
0.0
 11
143.999998
 21
8.749979
 31
0.0
  0
LINE
  5
364
100
AcDbEntity
  8
1
370
    50
100
AcDbLine
 10
144.499998
 20
9.249979
 30
0.0
 11
144.499998
 21
13.249979
 31
0.0
  0
ARC
  5
365
100
AcDbEntity
  8
1
370
    50
100
AcDbCircle
 10
138.999998
 20
13.949979
 30
0.0
 40
1.0
100
AcDbArc
 50
0.0
 51
90.0
  0
ARC
  5
366
100
AcDbEntity
  8
1
370
    50
100
AcDbCircle
 10
138.999998
 20
8.549979
 30
0.0
 40
1.0
100
AcDbArc
 50
270.0
 51
0.0
  0
ARC
  5
367
100
AcDbEntity
  8
1
370
    50
100
AcDbCircle
 10
143.999998
 20
13.249979
 30
0.0
 40
0.5
100
AcDbArc
 50
360.0
 51
90.0
  0
ARC
  5
368
100
AcDbEntity
  8
1
370
    50
100
AcDbCircle
 10
143.999998
 20
9.249979
 30
0.0
 40
0.5
100
AcDbArc
 50
270.0
 51
360.0
  0
LINE
  5
369
100
AcDbEntity
  8
1
370
    50
100
AcDbLine
 10
143.999998
 20
-38.750021
 30
0.0
 11
139.999998
 21
-38.750021
 31
0.0
  0
LINE
  5
36A
100
AcDbEntity
  8
1
370
    50
100
AcDbLine
 10
139.999998
 20
-43.750021
 30
0.0
 11
143.999998
 21
-43.750021
 31
0.0
  0
ARC
  5
36B
100
AcDbEntity
  8
1
370
    50
100
AcDbCircle
 10
138.999998
 20
-38.550021
 30
0.0
 40
1.0
100
AcDbArc
 50
360.0
 51
90.0
  0
ARC
  5
36C
100
AcDbEntity
  8
1
370
    50
100
AcDbCircle
 10
138.999998
 20
-43.950021
 30
0.0
 40
1.0
100
AcDbArc
 50
270.0
 51
360.0
  0
ARC
  5
36D
100
AcDbEntity
  8
1
370
    50
100
AcDbCircle
 10
143.999998
 20
-39.250021
 30
0.0
 40
0.5
100
AcDbArc
 50
0.0
 51
90.0
  0
ARC
  5
36E
100
AcDbEntity
  8
1
370
    50
100
AcDbCircle
 10
143.999998
 20
-43.250021
 30
0.0
 40
0.5
100
AcDbArc
 50
270.0
 51
360.0
  0
LINE
  5
36F
100
AcDbEntity
  8
1
370
    50
100
AcDbLine
 10
138.999998
 20
-37.550021
 30
0.0
 11
136.799998
 21
-37.550021
 31
0.0
  0
LINE
  5
370
100
AcDbEntity
  8
1
370
    50
100
AcDbLine
 10
138.999998
 20
-44.950021
 30
0.0
 11
136.799998
 21
-44.950021
 31
0.0
  0
LINE
  5
371
100
AcDbEntity
  8
1
370
    50
100
AcDbLine
 10
142.699998
 20
-22.500021
 30
0.0
 11
142.699998
 21
-5.500021
 31
0.0
  0
LINE
  5
372
100
AcDbEntity
  8
1
370
    18
  6
CENTER
100
AcDbLine
 10
121.064947
 20
-14.000021
 30
0.0
 11
144.484717
 21
-14.000021
 31
0.0
  0
LINE
  5
373
100
AcDbEntity
  8
1
370
    50
100
AcDbLine
 10
137.999998
 20
21.999979
 30
0.0
 11
137.999998
 21
22.499979
 31
0.0
  0
LINE
  5
374
100
AcDbEntity
  8
1
370
    50
100
AcDbLine
 10
137.999998
 20
46.721278
 30
0.0
 11
137.999998
 21
49.899979
 31
0.0
  0
LINE
  5
375
100
AcDbEntity
  8
1
370
    50
100
AcDbLine
 10
137.999998
 20
-79.900021
 30
0.0
 11
137.999998
 21
-76.721319
 31
0.0
  0
LINE
  5
376
100
AcDbEntity
  8
1
370
    50
100
AcDbLine
 10
137.999998
 20
-52.500021
 30
0.0
 11
137.999998
 21
-52.000021
 31
0.0
  0
LINE
  5
377
100
AcDbEntity
  8
1
370
    50
100
AcDbLine
 10
139.999998
 20
-43.950021
 30
0.0
 11
139.999998
 21
-43.500021
 31
0.0
  0
LINE
  5
378
100
AcDbEntity
  8
1
370
    50
100
AcDbLine
 10
139.999998
 20
-39.000021
 30
0.0
 11
139.999998
 21
-38.550021
 31
0.0
  0
LINE
  5
379
100
AcDbEntity
  8
1
370
    50
100
AcDbLine
 10
139.999998
 20
8.549979
 30
0.0
 11
139.999998
 21
8.999979
 31
0.0
  0
LINE
  5
37A
100
AcDbEntity
  8
1
370
    50
100
AcDbLine
 10
139.999998
 20
13.499979
 30
0.0
 11
139.999998
 21
13.949979
 31
0.0
  0
LINE
  5
37B
100
AcDbEntity
  8
1
370
    50
100
AcDbLine
 10
136.799998
 20
-54.500021
 30
0.0
 11
136.799998
 21
-25.241956
 31
0.0
  0
LINE
  5
37C
100
AcDbEntity
  8
1
370
    50
100
AcDbLine
 10
136.799998
 20
-2.758085
 30
0.0
 11
136.799998
 21
24.499979
 31
0.0
  0
ARC
  5
37D
100
AcDbEntity
  8
1
370
    50
100
AcDbCircle
 10
147.699998
 20
-0.400021
 30
0.0
 40
0.5
100
AcDbArc
 50
90.0
 51
180.0
  0
ARC
  5
37E
100
AcDbEntity
  8
1
370
    50
100
AcDbCircle
 10
147.699998
 20
-1.200021
 30
0.0
 40
0.5
100
AcDbArc
 50
180.0
 51
270.0
  0
ARC
  5
37F
100
AcDbEntity
  8
1
370
    50
100
AcDbCircle
 10
152.699998
 20
-0.400021
 30
0.0
 40
0.5
100
AcDbArc
 50
0.0
 51
90.0
  0
ARC
  5
380
100
AcDbEntity
  8
1
370
    50
100
AcDbCircle
 10
152.699998
 20
-1.200021
 30
0.0
 40
0.5
100
AcDbArc
 50
270.0
 51
360.0
  0
ARC
  5
381
100
AcDbEntity
  8
1
370
    50
100
AcDbCircle
 10
151.699998
 20
-39.300021
 30
0.0
 40
0.5
100
AcDbArc
 50
90.0
 51
180.0
  0
ARC
  5
382
100
AcDbEntity
  8
1
370
    50
100
AcDbCircle
 10
151.699998
 20
-39.900021
 30
0.0
 40
0.5
100
AcDbArc
 50
180.0
 51
270.0
  0
ARC
  5
383
100
AcDbEntity
  8
1
370
    50
100
AcDbCircle
 10
142.199998
 20
-5.500021
 30
0.0
 40
0.5
100
AcDbArc
 50
0.0
 51
90.0
  0
ARC
  5
384
100
AcDbEntity
  8
1
370
    50
100
AcDbCircle
 10
142.199998
 20
-22.500021
 30
0.0
 40
0.5
100
AcDbArc
 50
270.0
 51
360.0
  0
LINE
  5
385
100
AcDbEntity
  8
1
370
    50
100
AcDbLine
 10
135.199998
 20
49.999979
 30
0.0
 11
136.399998
 21
49.999979
 31
0.0
  0
LINE
  5
386
100
AcDbEntity
  8
1
370
    50
100
AcDbLine
 10
135.199998
 20
-80.000021
 30
0.0
 11
136.399998
 21
-80.000021
 31
0.0
  0
LINE
  5
387
100
AcDbEntity
  8
1
370
    50
100
AcDbLine
 10
136.399998
 20
-80.000021
 30
0.0
 11
136.399998
 21
49.999979
 31
0.0
  0
LINE
  5
388
100
AcDbEntity
  8
1
370
    18
  6
CENTER
100
AcDbLine
 10
129.409742
 20
41.999979
 30
0.0
 11
158.504467
 21
41.999979
 31
0.0
  0
LINE
  5
389
100
AcDbEntity
  8
1
370
    18
  6
CENTER
100
AcDbLine
 10
129.409742
 20
-72.000021
 30
0.0
 11
158.504467
 21
-72.000021
 31
0.0
  0
LINE
  5
38A
100
AcDbEntity
  8
1
370
    50
100
AcDbLine
 10
136.399998
 20
46.649979
 30
0.0
 11
136.508204
 21
46.541774
 31
0.0
  0
LINE
  5
38B
100
AcDbEntity
  8
1
370
    50
100
AcDbLine
 10
136.399998
 20
-76.650021
 30
0.0
 11
136.508204
 21
-76.541815
 31
0.0
  0
LINE
  5
38C
100
AcDbEntity
  8
1
370
    50
100
AcDbLine
 10
135.199998
 20
-2.400021
 30
0.0
 11
135.199998
 21
49.999979
 31
0.0
  0
LINE
  5
38D
100
AcDbEntity
  8
1
370
    50
100
AcDbLine
 10
135.199998
 20
-80.000021
 30
0.0
 11
135.199998
 21
-25.600021
 31
0.0
  0
LINE
  5
38E
100
AcDbEntity
  8
1
370
    50
100
AcDbLine
 10
135.199998
 20
-24.000021
 30
0.0
 11
135.199998
 21
-4.000021
 31
0.0
  0
LINE
  5
38F
100
AcDbEntity
  8
1
370
    50
100
AcDbLine
 10
135.199998
 20
-25.600021
 30
0.0
 11
135.199998
 21
-23.813921
 31
0.0
  0
LINE
  5
390
100
AcDbEntity
  8
1
370
    50
100
AcDbLine
 10
135.199998
 20
-4.186121
 30
0.0
 11
135.199998
 21
-2.400021
 31
0.0
  0
LINE
  5
391
100
AcDbEntity
  8
1
370
    25
100
AcDbLine
 10
140.885398
 20
-10.20035
 30
0.0
 11
142.499998
 21
-10.20035
 31
0.0
  0
LINE
  5
392
100
AcDbEntity
  8
1
370
    25
100
AcDbLine
 10
140.885398
 20
-17.799692
 30
0.0
 11
142.499998
 21
-17.799692
 31
0.0
  0
LINE
  5
393
100
AcDbEntity
  8
1
370
    50
100
AcDbLine
 10
136.399998
 20
-2.751633
 30
0.0
 11
138.099998
 21
-2.779053
 31
0.0
  0
LINE
  5
394
100
AcDbEntity
  8
1
370
    50
100
AcDbLine
 10
139.299998
 20
-2.798408
 30
0.0
 11
139.599998
 21
-2.803246
 31
0.0
  0
LINE
  5
395
100
AcDbEntity
  8
1
370
    25
100
AcDbLine
 10
136.399998
 20
-5.526421
 30
0.0
 11
138.099998
 21
-5.526421
 31
0.0
  0
LINE
  5
396
100
AcDbEntity
  8
1
370
    25
100
AcDbLine
 10
139.299998
 20
-5.526421
 30
0.0
 11
142.499998
 21
-5.526421
 31
0.0
  0
LINE
  5
397
100
AcDbEntity
  8
1
370
    25
100
AcDbLine
 10
136.399998
 20
-7.273952
 30
0.0
 11
138.099998
 21
-7.273952
 31
0.0
  0
LINE
  5
398
100
AcDbEntity
  8
1
370
    25
100
AcDbLine
 10
139.299998
 20
-7.273952
 30
0.0
 11
142.499998
 21
-7.273952
 31
0.0
  0
LINE
  5
399
100
AcDbEntity
  8
1
370
    25
100
AcDbLine
 10
136.399998
 20
-20.726089
 30
0.0
 11
138.099998
 21
-20.726089
 31
0.0
  0
LINE
  5
39A
100
AcDbEntity
  8
1
370
    25
100
AcDbLine
 10
139.299998
 20
-20.726089
 30
0.0
 11
142.499998
 21
-20.726089
 31
0.0
  0
LINE
  5
39B
100
AcDbEntity
  8
1
370
    25
100
AcDbLine
 10
136.399998
 20
-22.473621
 30
0.0
 11
138.099998
 21
-22.473621
 31
0.0
  0
LINE
  5
39C
100
AcDbEntity
  8
1
370
    25
100
AcDbLine
 10
139.299998
 20
-22.473621
 30
0.0
 11
142.499998
 21
-22.473621
 31
0.0
  0
LINE
  5
39D
100
AcDbEntity
  8
1
370
    50
100
AcDbLine
 10
136.399998
 20
-25.248408
 30
0.0
 11
138.099998
 21
-25.220988
 31
0.0
  0
LINE
  5
39E
100
AcDbEntity
  8
1
370
    50
100
AcDbLine
 10
139.299998
 20
-25.201633
 30
0.0
 11
139.599998
 21
-25.196795
 31
0.0
  0
ARC
  5
39F
100
AcDbEntity
  8
1
370
    25
100
AcDbCircle
 10
144.03591
 20
-14.000021
 30
0.0
 40
4.935912
100
AcDbArc
 50
129.663953
 51
163.633855
  0
ARC
  5
3A0
100
AcDbEntity
  8
1
370
    25
100
AcDbCircle
 10
144.03591
 20
-14.000021
 30
0.0
 40
4.935912
100
AcDbArc
 50
196.366145
 51
230.336047
  0
LINE
  5
3A1
100
AcDbEntity
  8
1
370
    25
100
AcDbLine
 10
141.199998
 20
43.749979
 30
0.0
 11
139.199998
 21
43.749979
 31
0.0
  0
LINE
  5
3A2
100
AcDbEntity
  8
1
370
    25
100
AcDbLine
 10
139.199998
 20
40.249979
 30
0.0
 11
142.271795
 21
40.249979
 31
0.0
  0
LINE
  5
3A3
100
AcDbEntity
  8
1
370
    25
100
AcDbLine
 10
141.199998
 20
43.749979
 30
0.0
 11
142.271795
 21
40.249979
 31
0.0
  0
LINE
  5
3A4
100
AcDbEntity
  8
1
370
    25
100
AcDbLine
 10
141.333973
 20
43.249979
 30
0.0
 11
151.601922
 21
43.249979
 31
0.0
  0
LINE
  5
3A5
100
AcDbEntity
  8
1
370
    25
100
AcDbLine
 10
142.137821
 20
40.749979
 30
0.0
 11
151.601922
 21
40.749979
 31
0.0
  0
LINE
  5
3A6
100
AcDbEntity
  8
1
370
    25
100
AcDbLine
 10
157.199998
 20
41.999979
 30
0.0
 11
151.601922
 21
40.749979
 31
0.0
  0
LINE
  5
3A7
100
AcDbEntity
  8
1
370
    25
100
AcDbLine
 10
157.199998
 20
41.999979
 30
0.0
 11
151.601922
 21
43.249979
 31
0.0
  0
LINE
  5
3A8
100
AcDbEntity
  8
1
370
    25
100
AcDbLine
 10
141.199998
 20
43.749979
 30
0.0
 11
142.271795
 21
40.249979
 31
0.0
  0
LINE
  5
3A9
100
AcDbEntity
  8
1
370
    25
100
AcDbLine
 10
141.199998
 20
43.749979
 30
0.0
 11
142.271795
 21
40.249979
 31
0.0
  0
LINE
  5
3AA
100
AcDbEntity
  8
1
370
    25
100
AcDbLine
 10
141.199998
 20
43.749979
 30
0.0
 11
142.271795
 21
40.249979
 31
0.0
  0
LINE
  5
3AB
100
AcDbEntity
  8
1
370
    25
100
AcDbLine
 10
141.199998
 20
43.749979
 30
0.0
 11
142.271795
 21
40.249979
 31
0.0
  0
LINE
  5
3AC
100
AcDbEntity
  8
1
370
    25
100
AcDbLine
 10
141.199998
 20
43.749979
 30
0.0
 11
142.271795
 21
40.249979
 31
0.0
  0
LINE
  5
3AD
100
AcDbEntity
  8
1
370
    25
100
AcDbLine
 10
141.199998
 20
43.749979
 30
0.0
 11
142.271795
 21
40.249979
 31
0.0
  0
LINE
  5
3AE
100
AcDbEntity
  8
1
370
    18
100
AcDbLine
 10
145.199998
 20
43.749979
 30
0.0
 11
146.271795
 21
40.249979
 31
0.0
  0
LINE
  5
3AF
100
AcDbEntity
  8
1
370
    18
100
AcDbLine
 10
147.199998
 20
43.749979
 30
0.0
 11
148.271795
 21
40.249979
 31
0.0
  0
LINE
  5
3B0
100
AcDbEntity
  8
1
370
    18
100
AcDbLine
 10
149.199998
 20
43.749979
 30
0.0
 11
150.271795
 21
40.249979
 31
0.0
  0
LINE
  5
3B1
100
AcDbEntity
  8
1
370
    18
100
AcDbLine
 10
151.199998
 20
43.749979
 30
0.0
 11
152.231332
 21
40.400991
 31
0.0
  0
LINE
  5
3B2
100
AcDbEntity
  8
1
370
    18
100
AcDbLine
 10
153.318518
 20
43.307657
 30
0.0
 11
154.097357
 21
40.900991
 31
0.0
  0
LINE
  5
3B3
100
AcDbEntity
  8
1
370
    18
100
AcDbLine
 10
155.473219
 20
42.730307
 30
0.0
 11
155.963383
 21
41.400991
 31
0.0
  0
LINE
  5
3B4
100
AcDbEntity
  8
1
370
    18
100
AcDbLine
 10
143.200044
 20
43.749979
 30
0.0
 11
144.271841
 21
40.249979
 31
0.0
  0
LINE
  5
3B5
100
AcDbEntity
  8
1
370
    25
100
AcDbLine
 10
141.199998
 20
-70.250021
 30
0.0
 11
139.199998
 21
-70.250021
 31
0.0
  0
LINE
  5
3B6
100
AcDbEntity
  8
1
370
    25
100
AcDbLine
 10
139.199998
 20
-73.750021
 30
0.0
 11
142.271795
 21
-73.750021
 31
0.0
  0
LINE
  5
3B7
100
AcDbEntity
  8
1
370
    25
100
AcDbLine
 10
141.199998
 20
-70.250021
 30
0.0
 11
142.271795
 21
-73.750021
 31
0.0
  0
LINE
  5
3B8
100
AcDbEntity
  8
1
370
    25
100
AcDbLine
 10
141.333973
 20
-70.750021
 30
0.0
 11
151.601922
 21
-70.750021
 31
0.0
  0
LINE
  5
3B9
100
AcDbEntity
  8
1
370
    25
100
AcDbLine
 10
142.137821
 20
-73.250021
 30
0.0
 11
151.601922
 21
-73.250021
 31
0.0
  0
LINE
  5
3BA
100
AcDbEntity
  8
1
370
    25
100
AcDbLine
 10
157.199998
 20
-72.000021
 30
0.0
 11
151.601922
 21
-73.250021
 31
0.0
  0
LINE
  5
3BB
100
AcDbEntity
  8
1
370
    25
100
AcDbLine
 10
157.199998
 20
-72.000021
 30
0.0
 11
151.601922
 21
-70.750021
 31
0.0
  0
LINE
  5
3BC
100
AcDbEntity
  8
1
370
    25
100
AcDbLine
 10
141.199998
 20
-70.250021
 30
0.0
 11
142.271795
 21
-73.750021
 31
0.0
  0
LINE
  5
3BD
100
AcDbEntity
  8
1
370
    25
100
AcDbLine
 10
141.199998
 20
-70.250021
 30
0.0
 11
142.271795
 21
-73.750021
 31
0.0
  0
LINE
  5
3BE
100
AcDbEntity
  8
1
370
    25
100
AcDbLine
 10
141.199998
 20
-70.250021
 30
0.0
 11
142.271795
 21
-73.750021
 31
0.0
  0
LINE
  5
3BF
100
AcDbEntity
  8
1
370
    25
100
AcDbLine
 10
141.199998
 20
-70.250021
 30
0.0
 11
142.271795
 21
-73.750021
 31
0.0
  0
LINE
  5
3C0
100
AcDbEntity
  8
1
370
    25
100
AcDbLine
 10
141.199998
 20
-70.250021
 30
0.0
 11
142.271795
 21
-73.750021
 31
0.0
  0
LINE
  5
3C1
100
AcDbEntity
  8
1
370
    25
100
AcDbLine
 10
141.199998
 20
-70.250021
 30
0.0
 11
142.271795
 21
-73.750021
 31
0.0
  0
LINE
  5
3C2
100
AcDbEntity
  8
1
370
    18
100
AcDbLine
 10
145.199998
 20
-70.250021
 30
0.0
 11
146.271795
 21
-73.750021
 31
0.0
  0
LINE
  5
3C3
100
AcDbEntity
  8
1
370
    18
100
AcDbLine
 10
147.199998
 20
-70.250021
 30
0.0
 11
148.271795
 21
-73.750021
 31
0.0
  0
LINE
  5
3C4
100
AcDbEntity
  8
1
370
    18
100
AcDbLine
 10
149.199998
 20
-70.250021
 30
0.0
 11
150.271795
 21
-73.750021
 31
0.0
  0
LINE
  5
3C5
100
AcDbEntity
  8
1
370
    18
100
AcDbLine
 10
151.199998
 20
-70.250021
 30
0.0
 11
152.231332
 21
-73.599009
 31
0.0
  0
LINE
  5
3C6
100
AcDbEntity
  8
1
370
    18
100
AcDbLine
 10
153.318518
 20
-70.692343
 30
0.0
 11
154.097357
 21
-73.099009
 31
0.0
  0
LINE
  5
3C7
100
AcDbEntity
  8
1
370
    18
100
AcDbLine
 10
155.473219
 20
-71.269693
 30
0.0
 11
155.963383
 21
-72.599009
 31
0.0
  0
LINE
  5
3C8
100
AcDbEntity
  8
1
370
    18
100
AcDbLine
 10
143.200044
 20
-70.250021
 30
0.0
 11
144.271841
 21
-73.750021
 31
0.0
  0
LINE
  5
3C9
100
AcDbEntity
  8
1
370
    50
100
AcDbLine
 10
157.699998
 20
-52.000021
 30
0.0
 11
162.647716
 21
-52.000021
 31
0.0
  0
LINE
  5
3CA
100
AcDbEntity
  8
1
370
    50
100
AcDbLine
 10
157.699998
 20
-52.000021
 30
0.0
 11
157.699998
 21
-51.000021
 31
0.0
  0
LINE
  5
3CB
100
AcDbEntity
  8
1
370
    50
100
AcDbLine
 10
158.199998
 20
-50.500021
 30
0.0
 11
162.647682
 21
-50.500021
 31
0.0
  0
LINE
  5
3CC
100
AcDbEntity
  8
1
370
    50
100
AcDbLine
 10
137.999998
 20
-52.000021
 30
0.0
 11
157.699998
 21
-52.000021
 31
0.0
  0
ARC
  5
3CD
100
AcDbEntity
  8
1
370
    50
100
AcDbCircle
 10
158.199998
 20
-51.000021
 30
0.0
 40
0.5
100
AcDbArc
 50
90.0
 51
180.0
  0
LINE
  5
3CE
100
AcDbEntity
  8
1
370
    50
100
AcDbLine
 10
160.699998
 20
-40.400021
 30
0.0
 11
151.699998
 21
-40.400021
 31
0.0
  0
LINE
  5
3CF
100
AcDbEntity
  8
1
370
    50
100
AcDbLine
 10
161.199998
 20
-39.900021
 30
0.0
 11
161.199998
 21
-39.300021
 31
0.0
  0
LINE
  5
3D0
100
AcDbEntity
  8
1
370
    50
100
AcDbLine
 10
157.199998
 20
-38.800021
 30
0.0
 11
160.699998
 21
-38.800021
 31
0.0
  0
ARC
  5
3D1
100
AcDbEntity
  8
1
370
    50
100
AcDbCircle
 10
160.699998
 20
-39.300021
 30
0.0
 40
0.5
100
AcDbArc
 50
0.0
 51
90.0
  0
ARC
  5
3D2
100
AcDbEntity
  8
1
370
    50
100
AcDbCircle
 10
160.699998
 20
-39.900021
 30
0.0
 40
0.5
100
AcDbArc
 50
270.0
 51
360.0
  0
ARC
  5
3D3
100
AcDbEntity
  8
1
370
    50
100
AcDbCircle
 10
151.783919
 20
-7.000021
 30
0.0
 40
2.6
100
AcDbArc
 50
9.594068
 51
90.0
  0
ARC
  5
3D4
100
AcDbEntity
  8
1
370
    50
100
AcDbCircle
 10
157.699998
 20
-6.000021
 30
0.0
 40
3.4
100
AcDbArc
 50
189.594068
 51
270.0
  0
LINE
  5
3D5
100
AcDbEntity
  8
1
370
    50
100
AcDbLine
 10
162.599998
 20
-9.400021
 30
0.0
 11
157.699998
 21
-9.400021
 31
0.0
  0
LINE
  5
3D6
100
AcDbEntity
  8
1
370
    50
100
AcDbLine
 10
162.599998
 20
-18.600021
 30
0.0
 11
157.699998
 21
-18.600021
 31
0.0
  0
ARC
  5
3D7
100
AcDbEntity
  8
1
370
    50
100
AcDbCircle
 10
157.699998
 20
-22.000021
 30
0.0
 40
3.4
100
AcDbArc
 50
90.0
 51
180.0
  0
LINE
  5
3D8
100
AcDbEntity
  8
1
370
    50
100
AcDbLine
 10
154.299998
 20
-26.000021
 30
0.0
 11
154.299998
 21
-22.000021
 31
0.0
  0
ARC
  5
3D9
100
AcDbEntity
  8
1
370
    50
100
AcDbCircle
 10
151.699998
 20
-26.000021
 30
0.0
 40
2.6
100
AcDbArc
 50
270.0
 51
360.0
  0
LINE
  5
3DA
100
AcDbEntity
  8
1
370
    50
100
AcDbLine
 10
157.699998
 20
21.999979
 30
0.0
 11
162.599998
 21
21.999979
 31
0.0
  0
LINE
  5
3DB
100
AcDbEntity
  8
1
370
    50
100
AcDbLine
 10
157.699998
 20
20.999979
 30
0.0
 11
157.699998
 21
21.999979
 31
0.0
  0
LINE
  5
3DC
100
AcDbEntity
  8
1
370
    50
100
AcDbLine
 10
158.199998
 20
20.499979
 30
0.0
 11
162.599998
 21
20.499979
 31
0.0
  0
LINE
  5
3DD
100
AcDbEntity
  8
1
370
    50
100
AcDbLine
 10
137.999998
 20
21.999979
 30
0.0
 11
157.699998
 21
21.999979
 31
0.0
  0
ARC
  5
3DE
100
AcDbEntity
  8
1
370
    50
100
AcDbCircle
 10
158.199998
 20
20.999979
 30
0.0
 40
0.5
100
AcDbArc
 50
180.0
 51
270.0
  0
LINE
  5
3DF
100
AcDbEntity
  8
1
370
    18
  6
CENTER
100
AcDbLine
 10
157.581046
 20
-36.000021
 30
0.0
 11
215.199998
 21
-36.000021
 31
0.0
  0
LINE
  5
3E0
100
AcDbEntity
  8
1
370
    50
100
AcDbLine
 10
139.199998
 20
49.899979
 30
0.0
 11
137.999998
 21
49.899979
 31
0.0
  0
LINE
  5
3E1
100
AcDbEntity
  8
1
370
    50
100
AcDbLine
 10
137.999998
 20
-79.900021
 30
0.0
 11
139.199998
 21
-79.900021
 31
0.0
  0
LINE
  5
3E2
100
AcDbEntity
  8
1
370
    50
100
AcDbLine
 10
137.599998
 20
-75.224656
 30
0.0
 11
138.799998
 21
-75.224656
 31
0.0
  0
LINE
  5
3E3
100
AcDbEntity
  8
1
370
    50
100
AcDbLine
 10
137.599998
 20
45.224615
 30
0.0
 11
138.799998
 21
45.224615
 31
0.0
  0
LINE
  5
3E4
100
AcDbEntity
  8
1
370
    50
100
AcDbLine
 10
137.599998
 20
22.499979
 30
0.0
 11
138.799998
 21
22.499979
 31
0.0
  0
LINE
  5
3E5
100
AcDbEntity
  8
1
370
    50
100
AcDbLine
 10
137.599998
 20
-52.500021
 30
0.0
 11
138.799998
 21
-52.500021
 31
0.0
  0
LINE
  5
3E6
100
AcDbEntity
  8
1
370
    50
100
AcDbLine
 10
137.599998
 20
22.499979
 30
0.0
 11
137.599998
 21
24.499979
 31
0.0
  0
LINE
  5
3E7
100
AcDbEntity
  8
1
370
    50
100
AcDbLine
 10
141.199998
 20
-52.400021
 30
0.0
 11
151.799998
 21
-52.400021
 31
0.0
  0
ARC
  5
3E8
100
AcDbEntity
  8
1
370
    50
100
AcDbCircle
 10
151.799998
 20
-52.000021
 30
0.0
 40
0.4
100
AcDbArc
 50
270.0
 51
360.0
  0
LINE
  5
3E9
100
AcDbEntity
  8
1
370
    50
100
AcDbLine
 10
141.199998
 20
22.399979
 30
0.0
 11
151.799998
 21
22.399979
 31
0.0
  0
ARC
  5
3EA
100
AcDbEntity
  8
1
370
    50
100
AcDbCircle
 10
151.799998
 20
21.999979
 30
0.0
 40
0.4
100
AcDbArc
 50
0.0
 51
90.0
  0
ARC
  5
3EB
100
AcDbEntity
  8
1
370
    50
100
AcDbCircle
 10
139.399998
 20
22.199979
 30
0.0
 40
0.2
100
AcDbArc
 50
180.0
 51
270.0
  0
ARC
  5
3EC
100
AcDbEntity
  8
1
370
    50
100
AcDbCircle
 10
139.399998
 20
-52.200021
 30
0.0
 40
0.2
100
AcDbArc
 50
90.0
 51
180.0
  0
LINE
  5
3ED
100
AcDbEntity
  8
1
370
    50
100
AcDbLine
 10
139.199998
 20
-79.900021
 30
0.0
 11
139.199998
 21
-52.200021
 31
0.0
  0
ARC
  5
3EE
100
AcDbEntity
  8
1
370
    50
100
AcDbCircle
 10
134.999998
 20
46.721278
 30
0.0
 40
3.0
100
AcDbArc
 50
330.073565
 51
360.0
  0
ARC
  5
3EF
100
AcDbEntity
  8
1
370
    50
100
AcDbCircle
 10
136.199998
 20
46.721278
 30
0.0
 40
3.0
100
AcDbArc
 50
330.073565
 51
360.0
  0
LINE
  5
3F0
100
AcDbEntity
  8
1
370
    50
100
AcDbLine
 10
137.999998
 20
21.999979
 30
0.0
 11
137.999998
 21
22.499979
 31
0.0
  0
LINE
  5
3F1
100
AcDbEntity
  8
1
370
    50
100
AcDbLine
 10
137.999998
 20
46.721278
 30
0.0
 11
137.999998
 21
49.899979
 31
0.0
  0
ARC
  5
3F2
100
AcDbEntity
  8
1
370
    50
100
AcDbCircle
 10
134.999998
 20
-76.721319
 30
0.0
 40
3.0
100
AcDbArc
 50
0.0
 51
29.926435
  0
ARC
  5
3F3
100
AcDbEntity
  8
1
370
    50
100
AcDbCircle
 10
136.199998
 20
-76.721319
 30
0.0
 40
3.0
100
AcDbArc
 50
0.0
 51
29.926435
  0
LINE
  5
3F4
100
AcDbEntity
  8
1
370
    50
100
AcDbLine
 10
137.999998
 20
-79.900021
 30
0.0
 11
137.999998
 21
-76.721319
 31
0.0
  0
LINE
  5
3F5
100
AcDbEntity
  8
1
370
    50
100
AcDbLine
 10
137.999998
 20
-52.500021
 30
0.0
 11
137.999998
 21
-52.000021
 31
0.0
  0
LINE
  5
3F6
100
AcDbEntity
  8
1
370
    50
100
AcDbLine
 10
141.199998
 20
21.999979
 30
0.0
 11
141.199998
 21
22.399979
 31
0.0
  0
LINE
  5
3F7
100
AcDbEntity
  8
1
370
    25
100
AcDbLine
 10
141.199998
 20
-52.400021
 30
0.0
 11
141.199998
 21
-52.000021
 31
0.0
  0
LINE
  5
3F8
100
AcDbEntity
  8
1
370
    50
100
AcDbLine
 10
137.599998
 20
-54.500021
 30
0.0
 11
137.599998
 21
-52.500021
 31
0.0
  0
LINE
  5
3F9
100
AcDbEntity
  8
1
370
    50
100
AcDbLine
 10
157.699998
 20
21.999979
 30
0.0
 11
162.599998
 21
21.999979
 31
0.0
  0
LINE
  5
3FA
100
AcDbEntity
  8
1
370
    50
100
AcDbLine
 10
157.699998
 20
-52.000021
 30
0.0
 11
162.647716
 21
-52.000021
 31
0.0
  0
LINE
  5
3FB
100
AcDbEntity
  8
1
370
    25
100
AcDbLine
 10
138.099998
 20
13.499979
 30
0.0
 11
142.499998
 21
13.499979
 31
0.0
  0
LINE
  5
3FC
100
AcDbEntity
  8
1
370
    25
100
AcDbLine
 10
138.099998
 20
8.999979
 30
0.0
 11
142.499998
 21
8.999979
 31
0.0
  0
LINE
  5
3FD
100
AcDbEntity
  8
1
370
    25
100
AcDbLine
 10
143.499998
 20
9.999979
 30
0.0
 11
143.499998
 21
12.499979
 31
0.0
  0
ARC
  5
3FE
100
AcDbEntity
  8
1
370
    25
100
AcDbCircle
 10
142.499998
 20
12.499979
 30
0.0
 40
1.0
100
AcDbArc
 50
0.0
 51
90.0
  0
ARC
  5
3FF
100
AcDbEntity
  8
1
370
    25
100
AcDbCircle
 10
142.499998
 20
9.999979
 30
0.0
 40
1.0
100
AcDbArc
 50
270.0
 51
360.0
  0
LINE
  5
400
100
AcDbEntity
  8
1
370
    25
100
AcDbLine
 10
138.099998
 20
-39.000021
 30
0.0
 11
142.499998
 21
-39.000021
 31
0.0
  0
LINE
  5
401
100
AcDbEntity
  8
1
370
    25
100
AcDbLine
 10
138.099998
 20
-43.500021
 30
0.0
 11
142.499998
 21
-43.500021
 31
0.0
  0
LINE
  5
402
100
AcDbEntity
  8
1
370
    25
100
AcDbLine
 10
143.499998
 20
-42.500021
 30
0.0
 11
143.499998
 21
-40.000021
 31
0.0
  0
ARC
  5
403
100
AcDbEntity
  8
1
370
    25
100
AcDbCircle
 10
142.499998
 20
-40.000021
 30
0.0
 40
1.0
100
AcDbArc
 50
0.0
 51
90.0
  0
ARC
  5
404
100
AcDbEntity
  8
1
370
    25
100
AcDbCircle
 10
142.499998
 20
-42.500021
 30
0.0
 40
1.0
100
AcDbArc
 50
270.0
 51
360.0
  0
LINE
  5
405
100
AcDbEntity
  8
1
370
    50
100
AcDbLine
 10
139.299998
 20
-29.600021
 30
0.0
 11
139.299998
 21
1.599979
 31
0.0
  0
LINE
  5
406
100
AcDbEntity
  8
1
370
    50
100
AcDbLine
 10
139.199998
 20
22.199979
 30
0.0
 11
139.199998
 21
49.899979
 31
0.0
  0
LINE
  5
407
100
AcDbEntity
  8
1
370
    50
100
AcDbLine
 10
138.099998
 20
-29.600021
 30
0.0
 11
138.099998
 21
1.599979
 31
0.0
  0
LINE
  5
408
100
AcDbEntity
  8
1
370
    50
100
AcDbLine
 10
137.999998
 20
49.899979
 30
0.0
 11
136.799998
 21
49.899979
 31
0.0
  0
LINE
  5
409
100
AcDbEntity
  8
1
370
    50
100
AcDbLine
 10
137.599998
 20
46.335702
 30
0.0
 11
137.599998
 21
24.499979
 31
0.0
  0
LINE
  5
40A
100
AcDbEntity
  8
1
370
    50
100
AcDbLine
 10
137.599998
 20
24.499979
 30
0.0
 11
136.399998
 21
24.499979
 31
0.0
  0
LINE
  5
40B
100
AcDbEntity
  8
1
370
    50
100
AcDbLine
 10
136.399998
 20
46.335702
 30
0.0
 11
137.599998
 21
46.335702
 31
0.0
  0
LINE
  5
40C
100
AcDbEntity
  8
1
370
    50
100
AcDbLine
 10
136.799998
 20
47.832365
 30
0.0
 11
136.799998
 21
49.899979
 31
0.0
  0
ARC
  5
40D
100
AcDbEntity
  8
1
370
    50
100
AcDbCircle
 10
133.799998
 20
47.832365
 30
0.0
 40
3.0
100
AcDbArc
 50
330.073565
 51
360.0
  0
ARC
  5
40E
100
AcDbEntity
  8
1
370
    50
100
AcDbCircle
 10
134.999998
 20
47.832365
 30
0.0
 40
3.0
100
AcDbArc
 50
330.073565
 51
360.0
  0
LINE
  5
40F
100
AcDbEntity
  8
1
370
    50
100
AcDbLine
 10
137.999998
 20
-79.900021
 30
0.0
 11
136.799998
 21
-79.900021
 31
0.0
  0
LINE
  5
410
100
AcDbEntity
  8
1
370
    50
100
AcDbLine
 10
137.599998
 20
-76.335744
 30
0.0
 11
137.599998
 21
-54.500021
 31
0.0
  0
LINE
  5
411
100
AcDbEntity
  8
1
370
    50
100
AcDbLine
 10
137.599998
 20
-54.500021
 30
0.0
 11
136.399998
 21
-54.500021
 31
0.0
  0
LINE
  5
412
100
AcDbEntity
  8
1
370
    50
100
AcDbLine
 10
136.399998
 20
-76.335744
 30
0.0
 11
137.599998
 21
-76.335744
 31
0.0
  0
LINE
  5
413
100
AcDbEntity
  8
1
370
    50
100
AcDbLine
 10
136.799998
 20
-77.832406
 30
0.0
 11
136.799998
 21
-79.900021
 31
0.0
  0
ARC
  5
414
100
AcDbEntity
  8
1
370
    50
100
AcDbCircle
 10
133.799998
 20
-77.832406
 30
0.0
 40
3.0
100
AcDbArc
 50
0.0
 51
29.926435
  0
ARC
  5
415
100
AcDbEntity
  8
1
370
    50
100
AcDbCircle
 10
134.999998
 20
-77.832406
 30
0.0
 40
3.0
100
AcDbArc
 50
0.0
 51
29.926435
  0
LINE
  5
416
100
AcDbEntity
  8
1
370
    50
100
AcDbLine
 10
157.699998
 20
-52.000021
 30
0.0
 11
157.699998
 21
-51.000021
 31
0.0
  0
LINE
  5
417
100
AcDbEntity
  8
1
370
    50
100
AcDbLine
 10
157.699998
 20
20.999979
 30
0.0
 11
157.699998
 21
21.999979
 31
0.0
  0
LINE
  5
418
100
AcDbEntity
  8
1
370
    50
100
AcDbLine
 10
158.199998
 20
-50.500021
 30
0.0
 11
162.647682
 21
-50.500021
 31
0.0
  0
LINE
  5
419
100
AcDbEntity
  8
1
370
    50
100
AcDbLine
 10
158.199998
 20
20.499979
 30
0.0
 11
162.599998
 21
20.499979
 31
0.0
  0
LINE
  5
41A
100
AcDbEntity
  8
1
370
    50
100
AcDbLine
 10
137.999998
 20
21.999979
 30
0.0
 11
157.699998
 21
21.999979
 31
0.0
  0
LINE
  5
41B
100
AcDbEntity
  8
1
370
    50
100
AcDbLine
 10
137.999998
 20
-52.000021
 30
0.0
 11
157.699998
 21
-52.000021
 31
0.0
  0
LINE
  5
41C
100
AcDbEntity
  8
1
370
    50
100
AcDbLine
 10
160.699998
 20
-40.400021
 30
0.0
 11
151.699998
 21
-40.400021
 31
0.0
  0
LINE
  5
41D
100
AcDbEntity
  8
1
370
    50
100
AcDbLine
 10
151.199998
 20
-39.900021
 30
0.0
 11
151.199998
 21
-39.300021
 31
0.0
  0
LINE
  5
41E
100
AcDbEntity
  8
1
370
    50
100
AcDbLine
 10
155.199998
 20
-38.300021
 30
0.0
 11
155.199998
 21
-38.800021
 31
0.0
  0
LINE
  5
41F
100
AcDbEntity
  8
1
370
    50
100
AcDbLine
 10
157.199998
 20
-38.300021
 30
0.0
 11
157.199998
 21
-38.800021
 31
0.0
  0
ARC
  5
420
100
AcDbEntity
  8
1
370
    50
100
AcDbCircle
 10
156.199998
 20
-38.300021
 30
0.0
 40
1.0
100
AcDbArc
 50
0.0
 51
180.0
  0
LINE
  5
421
100
AcDbEntity
  8
1
370
    50
100
AcDbLine
 10
151.699998
 20
-38.800021
 30
0.0
 11
155.199998
 21
-38.800021
 31
0.0
  0
LINE
  5
422
100
AcDbEntity
  8
1
370
    50
100
AcDbLine
 10
157.199998
 20
-38.800021
 30
0.0
 11
160.699998
 21
-38.800021
 31
0.0
  0
LINE
  5
423
100
AcDbEntity
  8
1
370
    50
100
AcDbLine
 10
147.199998
 20
-1.200021
 30
0.0
 11
147.199998
 21
-0.400021
 31
0.0
  0
LINE
  5
424
100
AcDbEntity
  8
1
370
    50
100
AcDbLine
 10
153.199998
 20
-1.200021
 30
0.0
 11
153.199998
 21
-0.400021
 31
0.0
  0
LINE
  5
425
100
AcDbEntity
  8
1
370
    50
100
AcDbLine
 10
152.699998
 20
0.099979
 30
0.0
 11
147.699998
 21
0.099979
 31
0.0
  0
LINE
  5
426
100
AcDbEntity
  8
1
370
    50
100
AcDbLine
 10
152.699998
 20
-1.700021
 30
0.0
 11
147.699998
 21
-1.700021
 31
0.0
  0
CIRCLE
  5
427
100
AcDbEntity
  8
1
370
    50
100
AcDbCircle
 10
154.199998
 20
9.999979
 30
0.0
 40
2.1
  0
LINE
  5
428
100
AcDbEntity
  8
1
370
    50
100
AcDbLine
 10
136.799998
 20
1.599979
 30
0.0
 11
139.599998
 21
1.599979
 31
0.0
  0
LINE
  5
429
100
AcDbEntity
  8
1
370
    50
100
AcDbLine
 10
136.799998
 20
-29.600021
 30
0.0
 11
139.599998
 21
-29.600021
 31
0.0
  0
LINE
  5
42A
100
AcDbEntity
  8
1
370
    50
100
AcDbLine
 10
140.599998
 20
-5.000021
 30
0.0
 11
142.199998
 21
-5.000021
 31
0.0
  0
LINE
  5
42B
100
AcDbEntity
  8
1
370
    50
100
AcDbLine
 10
140.599998
 20
-23.000021
 30
0.0
 11
142.199998
 21
-23.000021
 31
0.0
  0
LINE
  5
42C
100
AcDbEntity
  8
1
370
    50
100
AcDbLine
 10
139.599998
 20
-29.600021
 30
0.0
 11
139.599998
 21
-24.000021
 31
0.0
  0
LINE
  5
42D
100
AcDbEntity
  8
1
370
    50
100
AcDbLine
 10
139.599998
 20
-4.000021
 30
0.0
 11
139.599998
 21
1.599979
 31
0.0
  0
ARC
  5
42E
100
AcDbEntity
  8
1
370
    50
100
AcDbCircle
 10
140.599998
 20
-4.000021
 30
0.0
 40
1.0
100
AcDbArc
 50
180.0
 51
270.0
  0
ARC
  5
42F
100
AcDbEntity
  8
1
370
    50
100
AcDbCircle
 10
140.599998
 20
-24.000021
 30
0.0
 40
1.0
100
AcDbArc
 50
90.0
 51
180.0
  0
LINE
  5
430
100
AcDbEntity
  8
1
370
    50
100
AcDbLine
 10
145.099998
 20
-26.000021
 30
0.0
 11
145.099998
 21
-7.000021
 31
0.0
  0
ARC
  5
431
100
AcDbEntity
  8
1
370
    50
100
AcDbCircle
 10
147.699998
 20
-7.000021
 30
0.0
 40
2.6
100
AcDbArc
 50
90.0
 51
180.0
  0
LINE
  5
432
100
AcDbEntity
  8
1
370
    50
100
AcDbLine
 10
151.783919
 20
-4.400021
 30
0.0
 11
147.699998
 21
-4.400021
 31
0.0
  0
ARC
  5
433
100
AcDbEntity
  8
1
370
    50
100
AcDbCircle
 10
151.783919
 20
-7.000021
 30
0.0
 40
2.6
100
AcDbArc
 50
9.594068
 51
90.0
  0
ARC
  5
434
100
AcDbEntity
  8
1
370
    50
100
AcDbCircle
 10
157.699998
 20
-6.000021
 30
0.0
 40
3.4
100
AcDbArc
 50
189.594068
 51
270.0
  0
LINE
  5
435
100
AcDbEntity
  8
1
370
    50
100
AcDbLine
 10
162.599998
 20
-9.400021
 30
0.0
 11
157.699998
 21
-9.400021
 31
0.0
  0
LINE
  5
436
100
AcDbEntity
  8
1
370
    50
100
AcDbLine
 10
162.599998
 20
-18.600021
 30
0.0
 11
157.699998
 21
-18.600021
 31
0.0
  0
ARC
  5
437
100
AcDbEntity
  8
1
370
    50
100
AcDbCircle
 10
157.699998
 20
-22.000021
 30
0.0
 40
3.4
100
AcDbArc
 50
90.0
 51
180.0
  0
LINE
  5
438
100
AcDbEntity
  8
1
370
    50
100
AcDbLine
 10
154.299998
 20
-26.000021
 30
0.0
 11
154.299998
 21
-22.000021
 31
0.0
  0
ARC
  5
439
100
AcDbEntity
  8
1
370
    50
100
AcDbCircle
 10
151.699998
 20
-26.000021
 30
0.0
 40
2.6
100
AcDbArc
 50
270.0
 51
360.0
  0
LINE
  5
43A
100
AcDbEntity
  8
1
370
    50
100
AcDbLine
 10
151.699998
 20
-28.600021
 30
0.0
 11
147.699998
 21
-28.600021
 31
0.0
  0
ARC
  5
43B
100
AcDbEntity
  8
1
370
    50
100
AcDbCircle
 10
147.699998
 20
-26.000021
 30
0.0
 40
2.6
100
AcDbArc
 50
180.0
 51
270.0
  0
LINE
  5
43C
100
AcDbEntity
  8
1
370
    50
100
AcDbLine
 10
138.999998
 20
7.549979
 30
0.0
 11
136.799998
 21
7.549979
 31
0.0
  0
LINE
  5
43D
100
AcDbEntity
  8
1
370
    50
100
AcDbLine
 10
138.999998
 20
14.949979
 30
0.0
 11
136.799998
 21
14.949979
 31
0.0
  0
LINE
  5
43E
100
AcDbEntity
  8
1
370
    50
100
AcDbLine
 10
137.999998
 20
-44.950021
 30
0.0
 11
137.999998
 21
-37.550021
 31
0.0
  0
LINE
  5
43F
100
AcDbEntity
  8
1
370
    50
100
AcDbLine
 10
137.999998
 20
7.549979
 30
0.0
 11
137.999998
 21
14.949979
 31
0.0
  0
LINE
  5
440
100
AcDbEntity
  8
1
370
    50
100
AcDbLine
 10
144.499998
 20
-43.250021
 30
0.0
 11
144.499998
 21
-39.250021
 31
0.0
  0
LINE
  5
441
100
AcDbEntity
  8
1
370
    50
100
AcDbLine
 10
139.999998
 20
13.749979
 30
0.0
 11
143.999998
 21
13.749979
 31
0.0
  0
LINE
  5
442
100
AcDbEntity
  8
1
370
    50
100
AcDbLine
 10
139.999998
 20
8.749979
 30
0.0
 11
143.999998
 21
8.749979
 31
0.0
  0
LINE
  5
443
100
AcDbEntity
  8
1
370
    50
100
AcDbLine
 10
144.499998
 20
9.249979
 30
0.0
 11
144.499998
 21
13.249979
 31
0.0
  0
ARC
  5
444
100
AcDbEntity
  8
1
370
    50
100
AcDbCircle
 10
138.999998
 20
13.949979
 30
0.0
 40
1.0
100
AcDbArc
 50
0.0
 51
90.0
  0
ARC
  5
445
100
AcDbEntity
  8
1
370
    50
100
AcDbCircle
 10
138.999998
 20
8.549979
 30
0.0
 40
1.0
100
AcDbArc
 50
270.0
 51
0.0
  0
ARC
  5
446
100
AcDbEntity
  8
1
370
    50
100
AcDbCircle
 10
143.999998
 20
13.249979
 30
0.0
 40
0.5
100
AcDbArc
 50
360.0
 51
90.0
  0
ARC
  5
447
100
AcDbEntity
  8
1
370
    50
100
AcDbCircle
 10
143.999998
 20
9.249979
 30
0.0
 40
0.5
100
AcDbArc
 50
270.0
 51
360.0
  0
LINE
  5
448
100
AcDbEntity
  8
1
370
    50
100
AcDbLine
 10
143.999998
 20
-38.750021
 30
0.0
 11
139.999998
 21
-38.750021
 31
0.0
  0
LINE
  5
449
100
AcDbEntity
  8
1
370
    50
100
AcDbLine
 10
139.999998
 20
-43.750021
 30
0.0
 11
143.999998
 21
-43.750021
 31
0.0
  0
ARC
  5
44A
100
AcDbEntity
  8
1
370
    50
100
AcDbCircle
 10
138.999998
 20
-38.550021
 30
0.0
 40
1.0
100
AcDbArc
 50
360.0
 51
90.0
  0
ARC
  5
44B
100
AcDbEntity
  8
1
370
    50
100
AcDbCircle
 10
138.999998
 20
-43.950021
 30
0.0
 40
1.0
100
AcDbArc
 50
270.0
 51
360.0
  0
ARC
  5
44C
100
AcDbEntity
  8
1
370
    50
100
AcDbCircle
 10
143.999998
 20
-39.250021
 30
0.0
 40
0.5
100
AcDbArc
 50
0.0
 51
90.0
  0
ARC
  5
44D
100
AcDbEntity
  8
1
370
    50
100
AcDbCircle
 10
143.999998
 20
-43.250021
 30
0.0
 40
0.5
100
AcDbArc
 50
270.0
 51
360.0
  0
LINE
  5
44E
100
AcDbEntity
  8
1
370
    50
100
AcDbLine
 10
138.999998
 20
-37.550021
 30
0.0
 11
136.799998
 21
-37.550021
 31
0.0
  0
LINE
  5
44F
100
AcDbEntity
  8
1
370
    50
100
AcDbLine
 10
138.999998
 20
-44.950021
 30
0.0
 11
136.799998
 21
-44.950021
 31
0.0
  0
LINE
  5
450
100
AcDbEntity
  8
1
370
    50
100
AcDbLine
 10
142.699998
 20
-22.500021
 30
0.0
 11
142.699998
 21
-5.500021
 31
0.0
  0
LINE
  5
451
100
AcDbEntity
  8
1
370
    18
  6
CENTER
100
AcDbLine
 10
121.064947
 20
-14.000021
 30
0.0
 11
144.484717
 21
-14.000021
 31
0.0
  0
LINE
  5
452
100
AcDbEntity
  8
1
370
    50
100
AcDbLine
 10
137.999998
 20
21.999979
 30
0.0
 11
137.999998
 21
22.499979
 31
0.0
  0
LINE
  5
453
100
AcDbEntity
  8
1
370
    50
100
AcDbLine
 10
137.999998
 20
46.721278
 30
0.0
 11
137.999998
 21
49.899979
 31
0.0
  0
LINE
  5
454
100
AcDbEntity
  8
1
370
    50
100
AcDbLine
 10
137.999998
 20
-79.900021
 30
0.0
 11
137.999998
 21
-76.721319
 31
0.0
  0
LINE
  5
455
100
AcDbEntity
  8
1
370
    50
100
AcDbLine
 10
137.999998
 20
-52.500021
 30
0.0
 11
137.999998
 21
-52.000021
 31
0.0
  0
LINE
  5
456
100
AcDbEntity
  8
1
370
    50
100
AcDbLine
 10
139.999998
 20
-43.950021
 30
0.0
 11
139.999998
 21
-43.500021
 31
0.0
  0
LINE
  5
457
100
AcDbEntity
  8
1
370
    50
100
AcDbLine
 10
139.999998
 20
-39.000021
 30
0.0
 11
139.999998
 21
-38.550021
 31
0.0
  0
LINE
  5
458
100
AcDbEntity
  8
1
370
    50
100
AcDbLine
 10
139.999998
 20
8.549979
 30
0.0
 11
139.999998
 21
8.999979
 31
0.0
  0
LINE
  5
459
100
AcDbEntity
  8
1
370
    50
100
AcDbLine
 10
139.999998
 20
13.499979
 30
0.0
 11
139.999998
 21
13.949979
 31
0.0
  0
LINE
  5
45A
100
AcDbEntity
  8
1
370
    50
100
AcDbLine
 10
136.799998
 20
-54.500021
 30
0.0
 11
136.799998
 21
-25.241956
 31
0.0
  0
LINE
  5
45B
100
AcDbEntity
  8
1
370
    50
100
AcDbLine
 10
136.799998
 20
-2.758085
 30
0.0
 11
136.799998
 21
24.499979
 31
0.0
  0
ARC
  5
45C
100
AcDbEntity
  8
1
370
    50
100
AcDbCircle
 10
147.699998
 20
-0.400021
 30
0.0
 40
0.5
100
AcDbArc
 50
90.0
 51
180.0
  0
ARC
  5
45D
100
AcDbEntity
  8
1
370
    50
100
AcDbCircle
 10
147.699998
 20
-1.200021
 30
0.0
 40
0.5
100
AcDbArc
 50
180.0
 51
270.0
  0
ARC
  5
45E
100
AcDbEntity
  8
1
370
    50
100
AcDbCircle
 10
152.699998
 20
-0.400021
 30
0.0
 40
0.5
100
AcDbArc
 50
0.0
 51
90.0
  0
ARC
  5
45F
100
AcDbEntity
  8
1
370
    50
100
AcDbCircle
 10
152.699998
 20
-1.200021
 30
0.0
 40
0.5
100
AcDbArc
 50
270.0
 51
360.0
  0
ARC
  5
460
100
AcDbEntity
  8
1
370
    50
100
AcDbCircle
 10
151.699998
 20
-39.300021
 30
0.0
 40
0.5
100
AcDbArc
 50
90.0
 51
180.0
  0
ARC
  5
461
100
AcDbEntity
  8
1
370
    50
100
AcDbCircle
 10
151.699998
 20
-39.900021
 30
0.0
 40
0.5
100
AcDbArc
 50
180.0
 51
270.0
  0
ARC
  5
462
100
AcDbEntity
  8
1
370
    50
100
AcDbCircle
 10
142.199998
 20
-5.500021
 30
0.0
 40
0.5
100
AcDbArc
 50
0.0
 51
90.0
  0
ARC
  5
463
100
AcDbEntity
  8
1
370
    50
100
AcDbCircle
 10
142.199998
 20
-22.500021
 30
0.0
 40
0.5
100
AcDbArc
 50
270.0
 51
360.0
  0
ARC
  5
464
100
AcDbEntity
  8
1
370
    50
100
AcDbCircle
 10
158.199998
 20
-51.000021
 30
0.0
 40
0.5
100
AcDbArc
 50
90.0
 51
180.0
  0
ARC
  5
465
100
AcDbEntity
  8
1
370
    50
100
AcDbCircle
 10
158.199998
 20
20.999979
 30
0.0
 40
0.5
100
AcDbArc
 50
180.0
 51
270.0
  0
LINE
  5
466
100
AcDbEntity
  8
1
370
    50
100
AcDbLine
 10
135.199998
 20
49.999979
 30
0.0
 11
136.399998
 21
49.999979
 31
0.0
  0
LINE
  5
467
100
AcDbEntity
  8
1
370
    50
100
AcDbLine
 10
135.199998
 20
-80.000021
 30
0.0
 11
136.399998
 21
-80.000021
 31
0.0
  0
LINE
  5
468
100
AcDbEntity
  8
1
370
    50
100
AcDbLine
 10
136.399998
 20
-80.000021
 30
0.0
 11
136.399998
 21
49.999979
 31
0.0
  0
LINE
  5
469
100
AcDbEntity
  8
1
370
    18
  6
CENTER
100
AcDbLine
 10
129.409742
 20
41.999979
 30
0.0
 11
158.504467
 21
41.999979
 31
0.0
  0
LINE
  5
46A
100
AcDbEntity
  8
1
370
    18
  6
CENTER
100
AcDbLine
 10
129.409742
 20
-72.000021
 30
0.0
 11
158.504467
 21
-72.000021
 31
0.0
  0
LINE
  5
46B
100
AcDbEntity
  8
1
370
    50
100
AcDbLine
 10
136.399998
 20
46.649979
 30
0.0
 11
136.508204
 21
46.541774
 31
0.0
  0
LINE
  5
46C
100
AcDbEntity
  8
1
370
    50
100
AcDbLine
 10
136.399998
 20
-76.650021
 30
0.0
 11
136.508204
 21
-76.541815
 31
0.0
  0
LINE
  5
46D
100
AcDbEntity
  8
1
370
    50
100
AcDbLine
 10
135.199998
 20
-2.400021
 30
0.0
 11
135.199998
 21
49.999979
 31
0.0
  0
LINE
  5
46E
100
AcDbEntity
  8
1
370
    50
100
AcDbLine
 10
135.199998
 20
-80.000021
 30
0.0
 11
135.199998
 21
-25.600021
 31
0.0
  0
LINE
  5
46F
100
AcDbEntity
  8
1
370
    50
100
AcDbLine
 10
135.199998
 20
-24.000021
 30
0.0
 11
135.199998
 21
-4.000021
 31
0.0
  0
LINE
  5
470
100
AcDbEntity
  8
1
370
    50
100
AcDbLine
 10
135.199998
 20
-25.600021
 30
0.0
 11
135.199998
 21
-23.813921
 31
0.0
  0
LINE
  5
471
100
AcDbEntity
  8
1
370
    50
100
AcDbLine
 10
135.199998
 20
-4.186121
 30
0.0
 11
135.199998
 21
-2.400021
 31
0.0
  0
LINE
  5
472
100
AcDbEntity
  8
1
370
    25
100
AcDbLine
 10
140.885398
 20
-10.20035
 30
0.0
 11
142.499998
 21
-10.20035
 31
0.0
  0
LINE
  5
473
100
AcDbEntity
  8
1
370
    25
100
AcDbLine
 10
140.885398
 20
-17.799692
 30
0.0
 11
142.499998
 21
-17.799692
 31
0.0
  0
LINE
  5
474
100
AcDbEntity
  8
1
370
    50
100
AcDbLine
 10
136.399998
 20
-2.751633
 30
0.0
 11
138.099998
 21
-2.779053
 31
0.0
  0
LINE
  5
475
100
AcDbEntity
  8
1
370
    50
100
AcDbLine
 10
139.299998
 20
-2.798408
 30
0.0
 11
139.599998
 21
-2.803246
 31
0.0
  0
LINE
  5
476
100
AcDbEntity
  8
1
370
    25
100
AcDbLine
 10
136.399998
 20
-5.526421
 30
0.0
 11
138.099998
 21
-5.526421
 31
0.0
  0
LINE
  5
477
100
AcDbEntity
  8
1
370
    25
100
AcDbLine
 10
139.299998
 20
-5.526421
 30
0.0
 11
142.499998
 21
-5.526421
 31
0.0
  0
LINE
  5
478
100
AcDbEntity
  8
1
370
    25
100
AcDbLine
 10
136.399998
 20
-7.273952
 30
0.0
 11
138.099998
 21
-7.273952
 31
0.0
  0
LINE
  5
479
100
AcDbEntity
  8
1
370
    25
100
AcDbLine
 10
139.299998
 20
-7.273952
 30
0.0
 11
142.499998
 21
-7.273952
 31
0.0
  0
LINE
  5
47A
100
AcDbEntity
  8
1
370
    25
100
AcDbLine
 10
136.399998
 20
-20.726089
 30
0.0
 11
138.099998
 21
-20.726089
 31
0.0
  0
LINE
  5
47B
100
AcDbEntity
  8
1
370
    25
100
AcDbLine
 10
139.299998
 20
-20.726089
 30
0.0
 11
142.499998
 21
-20.726089
 31
0.0
  0
LINE
  5
47C
100
AcDbEntity
  8
1
370
    25
100
AcDbLine
 10
136.399998
 20
-22.473621
 30
0.0
 11
138.099998
 21
-22.473621
 31
0.0
  0
LINE
  5
47D
100
AcDbEntity
  8
1
370
    25
100
AcDbLine
 10
139.299998
 20
-22.473621
 30
0.0
 11
142.499998
 21
-22.473621
 31
0.0
  0
LINE
  5
47E
100
AcDbEntity
  8
1
370
    50
100
AcDbLine
 10
136.399998
 20
-25.248408
 30
0.0
 11
138.099998
 21
-25.220988
 31
0.0
  0
LINE
  5
47F
100
AcDbEntity
  8
1
370
    50
100
AcDbLine
 10
139.299998
 20
-25.201633
 30
0.0
 11
139.599998
 21
-25.196795
 31
0.0
  0
ARC
  5
480
100
AcDbEntity
  8
1
370
    25
100
AcDbCircle
 10
144.03591
 20
-14.000021
 30
0.0
 40
4.935912
100
AcDbArc
 50
129.663953
 51
163.633855
  0
ARC
  5
481
100
AcDbEntity
  8
1
370
    25
100
AcDbCircle
 10
144.03591
 20
-14.000021
 30
0.0
 40
4.935912
100
AcDbArc
 50
196.366145
 51
230.336047
  0
LINE
  5
482
100
AcDbEntity
  8
1
370
    25
100
AcDbLine
 10
141.199998
 20
43.749979
 30
0.0
 11
139.199998
 21
43.749979
 31
0.0
  0
LINE
  5
483
100
AcDbEntity
  8
1
370
    25
100
AcDbLine
 10
139.199998
 20
40.249979
 30
0.0
 11
142.271795
 21
40.249979
 31
0.0
  0
LINE
  5
484
100
AcDbEntity
  8
1
370
    25
100
AcDbLine
 10
141.199998
 20
43.749979
 30
0.0
 11
142.271795
 21
40.249979
 31
0.0
  0
LINE
  5
485
100
AcDbEntity
  8
1
370
    25
100
AcDbLine
 10
141.333973
 20
43.249979
 30
0.0
 11
151.601922
 21
43.249979
 31
0.0
  0
LINE
  5
486
100
AcDbEntity
  8
1
370
    25
100
AcDbLine
 10
142.137821
 20
40.749979
 30
0.0
 11
151.601922
 21
40.749979
 31
0.0
  0
LINE
  5
487
100
AcDbEntity
  8
1
370
    25
100
AcDbLine
 10
157.199998
 20
41.999979
 30
0.0
 11
151.601922
 21
40.749979
 31
0.0
  0
LINE
  5
488
100
AcDbEntity
  8
1
370
    25
100
AcDbLine
 10
157.199998
 20
41.999979
 30
0.0
 11
151.601922
 21
43.249979
 31
0.0
  0
LINE
  5
489
100
AcDbEntity
  8
1
370
    25
100
AcDbLine
 10
141.199998
 20
43.749979
 30
0.0
 11
142.271795
 21
40.249979
 31
0.0
  0
LINE
  5
48A
100
AcDbEntity
  8
1
370
    25
100
AcDbLine
 10
141.199998
 20
43.749979
 30
0.0
 11
142.271795
 21
40.249979
 31
0.0
  0
LINE
  5
48B
100
AcDbEntity
  8
1
370
    25
100
AcDbLine
 10
141.199998
 20
43.749979
 30
0.0
 11
142.271795
 21
40.249979
 31
0.0
  0
LINE
  5
48C
100
AcDbEntity
  8
1
370
    25
100
AcDbLine
 10
141.199998
 20
43.749979
 30
0.0
 11
142.271795
 21
40.249979
 31
0.0
  0
LINE
  5
48D
100
AcDbEntity
  8
1
370
    25
100
AcDbLine
 10
141.199998
 20
43.749979
 30
0.0
 11
142.271795
 21
40.249979
 31
0.0
  0
LINE
  5
48E
100
AcDbEntity
  8
1
370
    25
100
AcDbLine
 10
141.199998
 20
43.749979
 30
0.0
 11
142.271795
 21
40.249979
 31
0.0
  0
LINE
  5
48F
100
AcDbEntity
  8
1
370
    18
100
AcDbLine
 10
145.199998
 20
43.749979
 30
0.0
 11
146.271795
 21
40.249979
 31
0.0
  0
LINE
  5
490
100
AcDbEntity
  8
1
370
    18
100
AcDbLine
 10
147.199998
 20
43.749979
 30
0.0
 11
148.271795
 21
40.249979
 31
0.0
  0
LINE
  5
491
100
AcDbEntity
  8
1
370
    18
100
AcDbLine
 10
149.199998
 20
43.749979
 30
0.0
 11
150.271795
 21
40.249979
 31
0.0
  0
LINE
  5
492
100
AcDbEntity
  8
1
370
    18
100
AcDbLine
 10
151.199998
 20
43.749979
 30
0.0
 11
152.231332
 21
40.400991
 31
0.0
  0
LINE
  5
493
100
AcDbEntity
  8
1
370
    18
100
AcDbLine
 10
153.318518
 20
43.307657
 30
0.0
 11
154.097357
 21
40.900991
 31
0.0
  0
LINE
  5
494
100
AcDbEntity
  8
1
370
    18
100
AcDbLine
 10
155.473219
 20
42.730307
 30
0.0
 11
155.963383
 21
41.400991
 31
0.0
  0
LINE
  5
495
100
AcDbEntity
  8
1
370
    18
100
AcDbLine
 10
143.200044
 20
43.749979
 30
0.0
 11
144.271841
 21
40.249979
 31
0.0
  0
LINE
  5
496
100
AcDbEntity
  8
1
370
    25
100
AcDbLine
 10
141.199998
 20
-70.250021
 30
0.0
 11
139.199998
 21
-70.250021
 31
0.0
  0
LINE
  5
497
100
AcDbEntity
  8
1
370
    25
100
AcDbLine
 10
139.199998
 20
-73.750021
 30
0.0
 11
142.271795
 21
-73.750021
 31
0.0
  0
LINE
  5
498
100
AcDbEntity
  8
1
370
    25
100
AcDbLine
 10
141.199998
 20
-70.250021
 30
0.0
 11
142.271795
 21
-73.750021
 31
0.0
  0
LINE
  5
499
100
AcDbEntity
  8
1
370
    25
100
AcDbLine
 10
141.333973
 20
-70.750021
 30
0.0
 11
151.601922
 21
-70.750021
 31
0.0
  0
LINE
  5
49A
100
AcDbEntity
  8
1
370
    25
100
AcDbLine
 10
142.137821
 20
-73.250021
 30
0.0
 11
151.601922
 21
-73.250021
 31
0.0
  0
LINE
  5
49B
100
AcDbEntity
  8
1
370
    25
100
AcDbLine
 10
157.199998
 20
-72.000021
 30
0.0
 11
151.601922
 21
-73.250021
 31
0.0
  0
LINE
  5
49C
100
AcDbEntity
  8
1
370
    25
100
AcDbLine
 10
157.199998
 20
-72.000021
 30
0.0
 11
151.601922
 21
-70.750021
 31
0.0
  0
LINE
  5
49D
100
AcDbEntity
  8
1
370
    25
100
AcDbLine
 10
141.199998
 20
-70.250021
 30
0.0
 11
142.271795
 21
-73.750021
 31
0.0
  0
LINE
  5
49E
100
AcDbEntity
  8
1
370
    25
100
AcDbLine
 10
141.199998
 20
-70.250021
 30
0.0
 11
142.271795
 21
-73.750021
 31
0.0
  0
LINE
  5
49F
100
AcDbEntity
  8
1
370
    25
100
AcDbLine
 10
141.199998
 20
-70.250021
 30
0.0
 11
142.271795
 21
-73.750021
 31
0.0
  0
LINE
  5
4A0
100
AcDbEntity
  8
1
370
    25
100
AcDbLine
 10
141.199998
 20
-70.250021
 30
0.0
 11
142.271795
 21
-73.750021
 31
0.0
  0
LINE
  5
4A1
100
AcDbEntity
  8
1
370
    25
100
AcDbLine
 10
141.199998
 20
-70.250021
 30
0.0
 11
142.271795
 21
-73.750021
 31
0.0
  0
LINE
  5
4A2
100
AcDbEntity
  8
1
370
    25
100
AcDbLine
 10
141.199998
 20
-70.250021
 30
0.0
 11
142.271795
 21
-73.750021
 31
0.0
  0
LINE
  5
4A3
100
AcDbEntity
  8
1
370
    18
100
AcDbLine
 10
145.199998
 20
-70.250021
 30
0.0
 11
146.271795
 21
-73.750021
 31
0.0
  0
LINE
  5
4A4
100
AcDbEntity
  8
1
370
    18
100
AcDbLine
 10
147.199998
 20
-70.250021
 30
0.0
 11
148.271795
 21
-73.750021
 31
0.0
  0
LINE
  5
4A5
100
AcDbEntity
  8
1
370
    18
100
AcDbLine
 10
149.199998
 20
-70.250021
 30
0.0
 11
150.271795
 21
-73.750021
 31
0.0
  0
LINE
  5
4A6
100
AcDbEntity
  8
1
370
    18
100
AcDbLine
 10
151.199998
 20
-70.250021
 30
0.0
 11
152.231332
 21
-73.599009
 31
0.0
  0
LINE
  5
4A7
100
AcDbEntity
  8
1
370
    18
100
AcDbLine
 10
153.318518
 20
-70.692343
 30
0.0
 11
154.097357
 21
-73.099009
 31
0.0
  0
LINE
  5
4A8
100
AcDbEntity
  8
1
370
    18
100
AcDbLine
 10
155.473219
 20
-71.269693
 30
0.0
 11
155.963383
 21
-72.599009
 31
0.0
  0
LINE
  5
4A9
100
AcDbEntity
  8
1
370
    18
100
AcDbLine
 10
143.200044
 20
-70.250021
 30
0.0
 11
144.271841
 21
-73.750021
 31
0.0
  0
LINE
  5
4AA
100
AcDbEntity
  8
1
370
    50
100
AcDbLine
 10
-248.600028
 20
32.499979
 30
0.0
 11
-248.600028
 21
-27.288019
 31
0.0
  0
ARC
  5
4AB
100
AcDbEntity
  8
1
370
    50
100
AcDbCircle
 10
186.106998
 20
32.499979
 30
0.0
 40
23.6
100
AcDbArc
 50
0.0
 51
180.0
  0
LINE
  5
4AC
100
AcDbEntity
  8
1
370
    50
100
AcDbLine
 10
-68.800065
 20
148.149429
 30
0.0
 11
-68.200065
 21
148.149429
 31
0.0
  0
LINE
  5
4AD
100
AcDbEntity
  8
1
370
    50
100
AcDbLine
 10
-51.800065
 20
148.149429
 30
0.0
 11
-51.200065
 21
148.149429
 31
0.0
  0
LINE
  5
4AE
100
AcDbEntity
  8
1
370
    50
100
AcDbLine
 10
-80.000065
 20
-32.500021
 30
0.0
 11
-72.500065
 21
-32.500021
 31
0.0
  0
LINE
  5
4AF
100
AcDbEntity
  8
1
370
    50
100
AcDbLine
 10
-72.500065
 20
49.999979
 30
0.0
 11
-72.500065
 21
-80.000021
 31
0.0
  0
LINE
  5
4B0
100
AcDbEntity
  8
1
370
    50
100
AcDbLine
 10
-47.500065
 20
49.999979
 30
0.0
 11
-47.500065
 21
-80.000021
 31
0.0
  0
LINE
  5
4B1
100
AcDbEntity
  8
1
370
    50
100
AcDbLine
 10
-72.500065
 20
-80.000021
 30
0.0
 11
-47.500065
 21
-80.000021
 31
0.0
  0
LINE
  5
4B2
100
AcDbEntity
  8
1
370
    18
  6
CENTER
100
AcDbLine
 10
-60.000065
 20
-80.000021
 30
0.0
 11
-60.000065
 21
-90.51556
 31
0.0
  0
LINE
  5
4B3
100
AcDbEntity
  8
1
370
    50
100
AcDbLine
 10
-72.500065
 20
49.999979
 30
0.0
 11
-47.500065
 21
49.999979
 31
0.0
  0
LINE
  5
4B4
100
AcDbEntity
  8
1
370
    18
  6
CENTER
100
AcDbLine
 10
-66.699055
 20
41.999979
 30
0.0
 11
-53.434399
 21
41.999979
 31
0.0
  0
LINE
  5
4B5
100
AcDbEntity
  8
1
370
    18
  6
CENTER
100
AcDbLine
 10
-66.699055
 20
-72.000021
 30
0.0
 11
-53.434399
 21
-72.000021
 31
0.0
  0
LINE
  5
4B6
100
AcDbEntity
  8
1
370
    25
100
AcDbLine
 10
-60.000041
 20
44.199944
 30
0.0
 11
-59.500041
 21
44.199944
 31
0.0
  0
ARC
  5
4B7
100
AcDbEntity
  8
1
370
    25
100
AcDbCircle
 10
-57.800041
 20
44.199944
 30
0.0
 40
1.7
100
AcDbArc
 50
180.0
 51
270.0
  0
LINE
  5
4B8
100
AcDbEntity
  8
1
370
    25
100
AcDbLine
 10
-57.800041
 20
42.499944
 30
0.0
 11
-57.800041
 21
41.999944
 31
0.0
  0
LINE
  5
4B9
100
AcDbEntity
  8
1
370
    25
100
AcDbLine
 10
-60.000041
 20
39.799944
 30
0.0
 11
-59.500041
 21
39.799944
 31
0.0
  0
ARC
  5
4BA
100
AcDbEntity
  8
1
370
    25
100
AcDbCircle
 10
-57.800041
 20
39.799944
 30
0.0
 40
1.7
100
AcDbArc
 50
90.0
 51
180.0
  0
LINE
  5
4BB
100
AcDbEntity
  8
1
370
    25
100
AcDbLine
 10
-57.800041
 20
41.499944
 30
0.0
 11
-57.800041
 21
41.999944
 31
0.0
  0
LINE
  5
4BC
100
AcDbEntity
  8
1
370
    25
100
AcDbLine
 10
-60.000041
 20
44.199944
 30
0.0
 11
-60.500041
 21
44.199944
 31
0.0
  0
ARC
  5
4BD
100
AcDbEntity
  8
1
370
    25
100
AcDbCircle
 10
-62.200041
 20
44.199944
 30
0.0
 40
1.7
100
AcDbArc
 50
270.0
 51
360.0
  0
LINE
  5
4BE
100
AcDbEntity
  8
1
370
    25
100
AcDbLine
 10
-62.200041
 20
42.499944
 30
0.0
 11
-62.200041
 21
41.999944
 31
0.0
  0
LINE
  5
4BF
100
AcDbEntity
  8
1
370
    25
100
AcDbLine
 10
-60.000041
 20
39.799944
 30
0.0
 11
-60.500041
 21
39.799944
 31
0.0
  0
ARC
  5
4C0
100
AcDbEntity
  8
1
370
    25
100
AcDbCircle
 10
-62.200041
 20
39.799944
 30
0.0
 40
1.7
100
AcDbArc
 50
0.0
 51
90.0
  0
LINE
  5
4C1
100
AcDbEntity
  8
1
370
    25
100
AcDbLine
 10
-62.200041
 20
41.499944
 30
0.0
 11
-62.200041
 21
41.999944
 31
0.0
  0
LINE
  5
4C2
100
AcDbEntity
  8
1
370
    25
100
AcDbLine
 10
-60.000041
 20
-69.800056
 30
0.0
 11
-59.500041
 21
-69.800056
 31
0.0
  0
ARC
  5
4C3
100
AcDbEntity
  8
1
370
    25
100
AcDbCircle
 10
-57.800041
 20
-69.800056
 30
0.0
 40
1.7
100
AcDbArc
 50
180.0
 51
270.0
  0
LINE
  5
4C4
100
AcDbEntity
  8
1
370
    25
100
AcDbLine
 10
-57.800041
 20
-71.500056
 30
0.0
 11
-57.800041
 21
-72.000056
 31
0.0
  0
LINE
  5
4C5
100
AcDbEntity
  8
1
370
    25
100
AcDbLine
 10
-60.000041
 20
-74.200056
 30
0.0
 11
-59.500041
 21
-74.200056
 31
0.0
  0
ARC
  5
4C6
100
AcDbEntity
  8
1
370
    25
100
AcDbCircle
 10
-57.800041
 20
-74.200056
 30
0.0
 40
1.7
100
AcDbArc
 50
90.0
 51
180.0
  0
LINE
  5
4C7
100
AcDbEntity
  8
1
370
    25
100
AcDbLine
 10
-57.800041
 20
-72.500056
 30
0.0
 11
-57.800041
 21
-72.000056
 31
0.0
  0
LINE
  5
4C8
100
AcDbEntity
  8
1
370
    25
100
AcDbLine
 10
-60.000041
 20
-69.800056
 30
0.0
 11
-60.500041
 21
-69.800056
 31
0.0
  0
ARC
  5
4C9
100
AcDbEntity
  8
1
370
    25
100
AcDbCircle
 10
-62.200041
 20
-69.800056
 30
0.0
 40
1.7
100
AcDbArc
 50
270.0
 51
360.0
  0
LINE
  5
4CA
100
AcDbEntity
  8
1
370
    25
100
AcDbLine
 10
-62.200041
 20
-71.500056
 30
0.0
 11
-62.200041
 21
-72.000056
 31
0.0
  0
LINE
  5
4CB
100
AcDbEntity
  8
1
370
    25
100
AcDbLine
 10
-60.000041
 20
-74.200056
 30
0.0
 11
-60.500041
 21
-74.200056
 31
0.0
  0
ARC
  5
4CC
100
AcDbEntity
  8
1
370
    25
100
AcDbCircle
 10
-62.200041
 20
-74.200056
 30
0.0
 40
1.7
100
AcDbArc
 50
0.0
 51
90.0
  0
LINE
  5
4CD
100
AcDbEntity
  8
1
370
    25
100
AcDbLine
 10
-62.200041
 20
-72.500056
 30
0.0
 11
-62.200041
 21
-72.000056
 31
0.0
  0
CIRCLE
  5
4CE
100
AcDbEntity
  8
1
370
    25
100
AcDbCircle
 10
-60.000065
 20
41.999979
 30
0.0
 40
3.5
  0
CIRCLE
  5
4CF
100
AcDbEntity
  8
1
370
    25
100
AcDbCircle
 10
-60.000065
 20
-72.000021
 30
0.0
 40
3.5
  0
LINE
  5
4D0
100
AcDbEntity
  8
1
370
    18
  6
CENTER
100
AcDbLine
 10
-43.520588
 20
-14.000021
 30
0.0
 11
-76.479542
 21
-14.000021
 31
0.0
  0
LINE
  5
4D1
100
AcDbEntity
  8
1
370
   100
100
AcDbLine
 10
-51.300065
 20
166.14938
 30
0.0
 11
-51.800065
 21
166.14938
 31
0.0
  0
ARC
  5
4D2
100
AcDbEntity
  8
1
370
    50
100
AcDbCircle
 10
-51.700065
 20
122.39938
 30
0.0
 40
0.5
100
AcDbArc
 50
360.0
 51
36.869898
  0
LINE
  5
4D3
100
AcDbEntity
  8
1
370
    25
100
AcDbLine
 10
-65.650028
 20
20.699979
 30
0.0
 11
-64.700028
 21
20.699979
 31
0.0
  0
LINE
  5
4D4
100
AcDbEntity
  8
1
370
    25
100
AcDbLine
 10
-61.56232
 20
19.249979
 30
0.0
 11
-61.56232
 21
22.249979
 31
0.0
  0
LINE
  5
4D5
100
AcDbEntity
  8
1
370
    25
100
AcDbLine
 10
-58.15132
 20
19.249979
 30
0.0
 11
-58.15132
 21
22.249979
 31
0.0
  0
LINE
  5
4D6
100
AcDbEntity
  8
1
370
    25
100
AcDbLine
 10
-58.15132
 20
20.799979
 30
0.0
 11
-57.00132
 21
20.799979
 31
0.0
  0
LINE
  5
4D7
100
AcDbEntity
  8
1
370
    25
100
AcDbLine
 10
-54.950028
 20
22.249979
 30
0.0
 11
-54.950028
 21
19.249979
 31
0.0
  0
LINE
  5
4D8
100
AcDbEntity
  8
1
370
    25
100
AcDbLine
 10
-52.850028
 20
22.249979
 30
0.0
 11
-52.850028
 21
19.249979
 31
0.0
  0
LINE
  5
4D9
100
AcDbEntity
  8
1
370
    25
100
AcDbLine
 10
-63.22332
 20
22.249979
 30
0.0
 11
-63.22332
 21
19.249979
 31
0.0
  0
ARC
  5
4DA
100
AcDbEntity
  8
1
370
    25
100
AcDbCircle
 10
-66.000028
 20
20.749979
 30
0.0
 40
1.5
100
AcDbArc
 50
90.0
 51
270.0
  0
ARC
  5
4DB
100
AcDbEntity
  8
1
370
    25
100
AcDbCircle
 10
-66.000028
 20
22.249979
 30
0.0
 40
3.0
100
AcDbArc
 50
270.0
 51
295.679289
  0
LINE
  5
4DC
100
AcDbEntity
  8
1
370
    25
100
AcDbLine
 10
-64.700028
 20
19.546278
 30
0.0
 11
-64.700028
 21
20.699979
 31
0.0
  0
LINE
  5
4DD
100
AcDbEntity
  8
1
370
    25
100
AcDbLine
 10
-60.996246
 20
20.958866
 30
0.0
 11
-59.56232
 21
19.249979
 31
0.0
  0
LINE
  5
4DE
100
AcDbEntity
  8
1
370
    25
100
AcDbLine
 10
-59.56232
 20
22.249979
 30
0.0
 11
-61.56232
 21
20.449171
 31
0.0
  0
LINE
  5
4DF
100
AcDbEntity
  8
1
370
    25
100
AcDbLine
 10
-58.15132
 20
22.249979
 30
0.0
 11
-56.15132
 21
22.249979
 31
0.0
  0
LINE
  5
4E0
100
AcDbEntity
  8
1
370
    25
100
AcDbLine
 10
-66.000028
 20
22.249979
 30
0.0
 11
-64.800028
 21
22.249979
 31
0.0
  0
LINE
  5
4E1
100
AcDbEntity
  8
1
370
    25
100
AcDbLine
 10
-58.15132
 20
19.249979
 30
0.0
 11
-56.15132
 21
19.249979
 31
0.0
  0
LINE
  5
4E2
100
AcDbEntity
  8
1
370
    25
100
AcDbLine
 10
-54.950028
 20
22.249979
 30
0.0
 11
-52.850028
 21
19.249979
 31
0.0
  0
LINE
  5
4E3
100
AcDbEntity
  8
1
370
    25
100
AcDbLine
 10
-64.061028
 20
5.749979
 30
0.0
 11
-61.811028
 21
5.749979
 31
0.0
  0
ARC
  5
4E4
100
AcDbEntity
  8
1
370
    25
100
AcDbCircle
 10
-56.698737
 20
6.899979
 30
0.0
 40
1.85
100
AcDbArc
 50
53.516263
 51
90.0
  0
LINE
  5
4E5
100
AcDbEntity
  8
1
370
    25
100
AcDbLine
 10
-56.698737
 20
8.749979
 30
0.0
 11
-57.082504
 21
8.749979
 31
0.0
  0
ARC
  5
4E6
100
AcDbEntity
  8
1
370
    25
100
AcDbCircle
 10
-57.082504
 20
8.033747
 30
0.0
 40
0.716232
100
AcDbArc
 50
90.0
 51
261.246106
  0
ARC
  5
4E7
100
AcDbEntity
  8
1
370
    25
100
AcDbCircle
 10
-56.314969
 20
6.466212
 30
0.0
 40
0.716232
100
AcDbArc
 50
270.0
 51
81.246106
  0
LINE
  5
4E8
100
AcDbEntity
  8
1
370
    25
100
AcDbLine
 10
-57.191508
 20
7.325859
 30
0.0
 11
-56.205965
 21
7.1741
 31
0.0
  0
LINE
  5
4E9
100
AcDbEntity
  8
1
370
    25
100
AcDbLine
 10
-56.698737
 20
5.749979
 30
0.0
 11
-56.314969
 21
5.749979
 31
0.0
  0
ARC
  5
4EA
100
AcDbEntity
  8
1
370
    25
100
AcDbCircle
 10
-56.698737
 20
7.599979
 30
0.0
 40
1.85
100
AcDbArc
 50
233.516263
 51
270.0
  0
LINE
  5
4EB
100
AcDbEntity
  8
1
370
    25
100
AcDbLine
 10
-64.061028
 20
8.749979
 30
0.0
 11
-64.061028
 21
5.749979
 31
0.0
  0
LINE
  5
4EC
100
AcDbEntity
  8
1
370
    25
100
AcDbLine
 10
-60.000028
 20
5.749979
 30
0.0
 11
-58.900028
 21
8.749979
 31
0.0
  0
LINE
  5
4ED
100
AcDbEntity
  8
1
370
    25
100
AcDbLine
 10
-60.000028
 20
5.749979
 30
0.0
 11
-61.100028
 21
8.749979
 31
0.0
  0
CIRCLE
  5
4EE
100
AcDbEntity
  8
1
370
    50
100
AcDbCircle
 10
-100.0
 20
-36.0
 30
0.0
 40
3.0
  0
LINE
  5
4EF
100
AcDbEntity
  8
1
370
    25
  6
CENTER
100
AcDbLine
 10
-100.0
 20
-31.424904
 30
0.0
 11
-100.0
 21
-40.823647
 31
0.0
  0
ARC
  5
4F0
100
AcDbEntity
  8
1
370
    25
100
AcDbCircle
 10
-98.25
 20
-34.25
 30
0.0
 40
1.35
100
AcDbArc
 50
180.0
 51
270.0
  0
ARC
  5
4F1
100
AcDbEntity
  8
1
370
    25
100
AcDbCircle
 10
-101.75
 20
-37.75
 30
0.0
 40
1.35
100
AcDbArc
 50
0.0
 51
90.0
  0
ARC
  5
4F2
100
AcDbEntity
  8
1
370
    25
100
AcDbCircle
 10
-101.75
 20
-34.25
 30
0.0
 40
1.35
100
AcDbArc
 50
270.0
 51
360.0
  0
ARC
  5
4F3
100
AcDbEntity
  8
1
370
    25
100
AcDbCircle
 10
-98.25
 20
-37.75
 30
0.0
 40
1.35
100
AcDbArc
 50
90.0
 51
180.0
  0
LINE
  5
4F4
100
AcDbEntity
  8
1
370
    25
100
AcDbLine
 10
-98.25
 20
-36.4
 30
0.0
 11
-98.25
 21
-36.0
 31
0.0
  0
LINE
  5
4F5
100
AcDbEntity
  8
1
370
    25
100
AcDbLine
 10
-98.25
 20
-35.6
 30
0.0
 11
-98.25
 21
-36.0
 31
0.0
  0
LINE
  5
4F6
100
AcDbEntity
  8
1
370
    25
100
AcDbLine
 10
-100.0
 20
-34.25
 30
0.0
 11
-99.6
 21
-34.25
 31
0.0
  0
LINE
  5
4F7
100
AcDbEntity
  8
1
370
    25
100
AcDbLine
 10
-100.0
 20
-34.25
 30
0.0
 11
-100.4
 21
-34.25
 31
0.0
  0
LINE
  5
4F8
100
AcDbEntity
  8
1
370
    25
100
AcDbLine
 10
-101.75
 20
-35.6
 30
0.0
 11
-101.75
 21
-36.0
 31
0.0
  0
LINE
  5
4F9
100
AcDbEntity
  8
1
370
    25
100
AcDbLine
 10
-101.75
 20
-36.4
 30
0.0
 11
-101.75
 21
-36.0
 31
0.0
  0
LINE
  5
4FA
100
AcDbEntity
  8
1
370
    25
100
AcDbLine
 10
-100.0
 20
-37.75
 30
0.0
 11
-100.4
 21
-37.75
 31
0.0
  0
LINE
  5
4FB
100
AcDbEntity
  8
1
370
    25
100
AcDbLine
 10
-100.0
 20
-37.75
 30
0.0
 11
-99.6
 21
-37.75
 31
0.0
  0
ARC
  5
4FC
100
AcDbEntity
  8
1
370
    18
  6
DASHED
100
AcDbCircle
 10
204.399972
 20
-50.500021
 30
0.0
 40
1.5
100
AcDbArc
 50
270.0
 51
360.0
  0
LINE
  5
4FD
100
AcDbEntity
  8
1
370
    18
  6
DASHED
100
AcDbLine
 10
161.199972
 20
-52.000021
 30
0.0
 11
204.608154
 21
-52.000021
 31
0.0
  0
LINE
  5
4FE
100
AcDbEntity
  8
1
370
    18
  6
DASHED
100
AcDbLine
 10
205.899972
 20
-50.500021
 30
0.0
 11
205.899972
 21
-44.321416
 31
0.0
  0
LINE
  5
4FF
100
AcDbEntity
  8
1
370
    18
  6
DASHED
100
AcDbLine
 10
161.199972
 20
21.999979
 30
0.0
 11
204.400024
 21
21.999979
 31
0.0
  0
LINE
  5
500
100
AcDbEntity
  8
1
370
    18
  6
DASHED
100
AcDbLine
 10
205.899972
 20
-27.32775
 30
0.0
 11
205.899972
 21
20.499979
 31
0.0
  0
ARC
  5
501
100
AcDbEntity
  8
1
370
    18
  6
DASHED
100
AcDbCircle
 10
204.399972
 20
20.499979
 30
0.0
 40
1.5
100
AcDbArc
 50
0.0
 51
90.0
  0
LINE
  5
502
100
AcDbEntity
  8
1
370
    50
100
AcDbLine
 10
-53.000065
 20
167.24938
 30
0.0
 11
-53.000065
 21
169.44938
 31
0.0
  0
LINE
  5
503
100
AcDbEntity
  8
1
370
    50
100
AcDbLine
 10
-66.500065
 20
169.44938
 30
0.0
 11
-53.000065
 21
169.44938
 31
0.0
  0
LINE
  5
504
100
AcDbEntity
  8
1
370
    50
100
AcDbLine
 10
-66.500065
 20
168.64938
 30
0.0
 11
-66.500065
 21
169.44938
 31
0.0
  0
ARC
  5
505
100
AcDbEntity
  8
1
370
    50
100
AcDbCircle
 10
-225.000028
 20
-36.000021
 30
0.0
 40
11.5
100
AcDbArc
 50
47.199751
 51
131.800249
  0
ARC
  5
506
100
AcDbEntity
  8
1
370
    50
100
AcDbCircle
 10
-225.000028
 20
-36.000021
 30
0.0
 40
11.5
100
AcDbArc
 50
227.115073
 51
311.884927
  0
ARC
  5
507
100
AcDbEntity
  8
1
370
    50
100
AcDbCircle
 10
186.199972
 20
-36.000021
 30
0.0
 40
11.5
100
AcDbArc
 50
48.157599
 51
132.842401
  0
ARC
  5
508
100
AcDbEntity
  8
1
370
    50
100
AcDbCircle
 10
186.199972
 20
-36.000021
 30
0.0
 40
11.5
100
AcDbArc
 50
228.15719
 51
312.84281
  0
LINE
  5
509
100
AcDbEntity
  8
1
370
   100
100
AcDbLine
 10
-293.185673
 20
167.85752
 30
0.0
 11
-293.185673
 21
166.05752
 31
0.0
  0
LINE
  5
50A
100
AcDbEntity
  8
1
370
    18
  6
CENTER
100
AcDbLine
 10
120.983217
 20
-14.0
 30
0.0
 11
150.099998
 21
-14.0
 31
0.0
  0
LINE
  5
50B
100
AcDbEntity
  8
1
370
    25
100
AcDbLine
 10
126.118282
 20
-6.0
 30
0.0
 11
134.618269
 21
-6.0
 31
0.0
  0
LINE
  5
50C
100
AcDbEntity
  8
1
370
    25
100
AcDbLine
 10
126.118282
 20
-22.0
 30
0.0
 11
134.618269
 21
-22.0
 31
0.0
  0
LINE
  5
50D
100
AcDbEntity
  8
1
370
    25
100
AcDbLine
 10
126.118282
 20
-6.0
 30
0.0
 11
124.618282
 21
-5.71379
 31
0.0
  0
LINE
  5
50E
100
AcDbEntity
  8
1
370
    25
100
AcDbLine
 10
126.118282
 20
-22.0
 30
0.0
 11
124.618282
 21
-22.28621
 31
0.0
  0
LINE
  5
50F
100
AcDbEntity
  8
1
370
    50
100
AcDbLine
 10
124.618282
 20
-22.551551
 30
0.0
 11
124.618282
 21
-18.4
 31
0.0
  0
LINE
  5
510
100
AcDbEntity
  8
1
370
    25
100
AcDbLine
 10
126.118282
 20
-22.0
 30
0.0
 11
126.118282
 21
-18.4
 31
0.0
  0
LINE
  5
511
100
AcDbEntity
  8
1
370
    25
100
AcDbLine
 10
126.118282
 20
-9.6
 30
0.0
 11
126.118282
 21
-6.0
 31
0.0
  0
ARC
  5
512
100
AcDbEntity
  8
1
370
    50
100
AcDbCircle
 10
128.153083
 20
-17.504746
 30
0.0
 40
6.495254
100
AcDbArc
 50
262.877226
 51
270.0
  0
ARC
  5
513
100
AcDbEntity
  8
1
370
    50
100
AcDbCircle
 10
127.96875
 20
-18.979875
 30
0.0
 40
5.008652
100
AcDbArc
 50
254.144152
 51
262.877226
  0
ARC
  5
514
100
AcDbEntity
  8
1
370
    50
100
AcDbCircle
 10
127.86677
 20
-19.338932
 30
0.0
 40
4.635394
100
AcDbArc
 50
244.981479
 51
254.144152
  0
ARC
  5
515
100
AcDbEntity
  8
1
370
    50
100
AcDbCircle
 10
127.665155
 20
-19.770931
 30
0.0
 40
4.158664
100
AcDbArc
 50
234.704258
 51
244.981479
  0
ARC
  5
516
100
AcDbEntity
  8
1
370
    50
100
AcDbCircle
 10
127.8571
 20
-19.499795
 30
0.0
 40
4.490864
100
AcDbArc
 50
224.728879
 51
234.704258
  0
ARC
  5
517
100
AcDbEntity
  8
1
370
    50
100
AcDbCircle
 10
124.785749
 20
-22.542215
 30
0.0
 40
0.167727
100
AcDbArc
 50
183.190791
 51
224.728879
  0
LINE
  5
518
100
AcDbEntity
  8
1
370
    50
100
AcDbLine
 10
128.153083
 20
-4.0
 30
0.0
 11
134.618269
 21
-4.0
 31
0.0
  0
LINE
  5
519
100
AcDbEntity
  8
1
370
    50
100
AcDbLine
 10
124.618282
 20
-5.448449
 30
0.0
 11
124.618282
 21
-9.6
 31
0.0
  0
ARC
  5
51A
100
AcDbEntity
  8
1
370
    50
100
AcDbCircle
 10
128.153083
 20
-10.495254
 30
0.0
 40
6.495254
100
AcDbArc
 50
90.0
 51
97.122774
  0
ARC
  5
51B
100
AcDbEntity
  8
1
370
    50
100
AcDbCircle
 10
127.96875
 20
-9.020125
 30
0.0
 40
5.008652
100
AcDbArc
 50
97.122774
 51
105.855848
  0
ARC
  5
51C
100
AcDbEntity
  8
1
370
    50
100
AcDbCircle
 10
127.86677
 20
-8.661068
 30
0.0
 40
4.635394
100
AcDbArc
 50
105.855848
 51
115.018521
  0
ARC
  5
51D
100
AcDbEntity
  8
1
370
    50
100
AcDbCircle
 10
127.665155
 20
-8.229069
 30
0.0
 40
4.158664
100
AcDbArc
 50
115.018521
 51
125.295742
  0
ARC
  5
51E
100
AcDbEntity
  8
1
370
    50
100
AcDbCircle
 10
127.8571
 20
-8.500205
 30
0.0
 40
4.490864
100
AcDbArc
 50
125.295742
 51
135.271121
  0
ARC
  5
51F
100
AcDbEntity
  8
1
370
    50
100
AcDbCircle
 10
124.785749
 20
-5.457785
 30
0.0
 40
0.167727
100
AcDbArc
 50
135.271121
 51
176.809209
  0
LINE
  5
520
100
AcDbEntity
  8
1
370
    50
100
AcDbLine
 10
128.153083
 20
-24.0
 30
0.0
 11
134.618269
 21
-24.0
 31
0.0
  0
LINE
  5
521
100
AcDbEntity
  8
1
370
    50
100
AcDbLine
 10
134.618269
 20
-2.6
 30
0.0
 11
134.618269
 21
-25.4
 31
0.0
  0
LINE
  5
522
100
AcDbEntity
  8
1
370
    50
100
AcDbLine
 10
134.618269
 20
-4.1861
 30
0.0
 11
135.118269
 21
-4.1861
 31
0.0
  0
LINE
  5
523
100
AcDbEntity
  8
1
370
    50
100
AcDbLine
 10
134.618269
 20
-3.6435
 30
0.0
 11
135.118269
 21
-3.6435
 31
0.0
  0
LINE
  5
524
100
AcDbEntity
  8
1
370
    50
100
AcDbLine
 10
134.618269
 20
-24.3565
 30
0.0
 11
135.118269
 21
-24.3565
 31
0.0
  0
LINE
  5
525
100
AcDbEntity
  8
1
370
    50
100
AcDbLine
 10
134.618269
 20
-23.8139
 30
0.0
 11
135.118269
 21
-23.8139
 31
0.0
  0
LINE
  5
526
100
AcDbEntity
  8
1
370
    50
100
AcDbLine
 10
134.618269
 20
-5.3996
 30
0.0
 11
135.118269
 21
-5.3996
 31
0.0
  0
LINE
  5
527
100
AcDbEntity
  8
1
370
    50
100
AcDbLine
 10
134.618269
 20
-22.6004
 30
0.0
 11
135.118269
 21
-22.6004
 31
0.0
  0
LINE
  5
528
100
AcDbEntity
  8
1
370
    50
100
AcDbLine
 10
135.118269
 20
-25.6
 30
0.0
 11
134.818269
 21
-25.6
 31
0.0
  0
LINE
  5
529
100
AcDbEntity
  8
1
370
    50
100
AcDbLine
 10
135.118269
 20
-2.4
 30
0.0
 11
134.818269
 21
-2.4
 31
0.0
  0
ARC
  5
52A
100
AcDbEntity
  8
1
370
    50
100
AcDbCircle
 10
134.818269
 20
-2.6
 30
0.0
 40
0.2
100
AcDbArc
 50
90.0
 51
180.0
  0
ARC
  5
52B
100
AcDbEntity
  8
1
370
    50
100
AcDbCircle
 10
134.818269
 20
-25.4
 30
0.0
 40
0.2
100
AcDbArc
 50
180.0
 51
270.0
  0
LINE
  5
52C
100
AcDbEntity
  8
1
370
    50
100
AcDbLine
 10
124.282201
 20
-18.8
 30
0.0
 11
124.282201
 21
-9.2
 31
0.0
  0
LINE
  5
52D
100
AcDbEntity
  8
1
370
    50
100
AcDbLine
 10
124.282201
 20
-18.4
 30
0.0
 11
134.618263
 21
-18.4
 31
0.0
  0
LINE
  5
52E
100
AcDbEntity
  8
1
370
    50
100
AcDbLine
 10
124.282201
 20
-9.6
 30
0.0
 11
134.618263
 21
-9.6
 31
0.0
  0
LINE
  5
52F
100
AcDbEntity
  8
1
370
    50
100
AcDbLine
 10
124.282201
 20
-9.2
 30
0.0
 11
124.618276
 21
-9.2
 31
0.0
  0
LINE
  5
530
100
AcDbEntity
  8
1
370
    50
100
AcDbLine
 10
124.282201
 20
-18.8
 30
0.0
 11
124.618276
 21
-18.8
 31
0.0
  0
LINE
  5
531
100
AcDbEntity
  8
1
370
    18
  6
CENTER
100
AcDbLine
 10
-43.470614
 20
-14.000021
 30
0.0
 11
-76.429568
 21
-14.000021
 31
0.0
  0
ARC
  5
532
100
AcDbEntity
  8
1
370
    50
100
AcDbCircle
 10
-60.000006
 20
-14.000025
 30
0.0
 40
10.0
100
AcDbArc
 50
56.251011
 51
123.748989
  0
ARC
  5
533
100
AcDbEntity
  8
1
370
    50
100
AcDbCircle
 10
-60.000006
 20
-14.000025
 30
0.0
 40
10.0
100
AcDbArc
 50
236.251011
 51
303.748989
  0
ARC
  5
534
100
AcDbEntity
  8
1
370
    50
100
AcDbCircle
 10
-55.000006
 20
-6.51671
 30
0.0
 40
1.0
100
AcDbArc
 50
0.0
 51
56.251011
  0
ARC
  5
535
100
AcDbEntity
  8
1
370
    50
100
AcDbCircle
 10
-65.000006
 20
-6.51671
 30
0.0
 40
1.0
100
AcDbArc
 50
123.748989
 51
180.0
  0
ARC
  5
536
100
AcDbEntity
  8
1
370
    50
100
AcDbCircle
 10
-55.000006
 20
-21.48334
 30
0.0
 40
1.0
100
AcDbArc
 50
303.748989
 51
360.0
  0
ARC
  5
537
100
AcDbEntity
  8
1
370
    50
100
AcDbCircle
 10
-65.000006
 20
-21.48334
 30
0.0
 40
1.0
100
AcDbArc
 50
180.0
 51
236.251011
  0
ARC
  5
538
100
AcDbEntity
  8
1
370
    50
100
AcDbCircle
 10
-60.000028
 20
-14.000021
 30
0.0
 40
11.6
100
AcDbArc
 50
243.227412
 51
296.772588
  0
ARC
  5
539
100
AcDbEntity
  8
1
370
    50
100
AcDbCircle
 10
-60.000028
 20
-14.000021
 30
0.0
 40
11.6
100
AcDbArc
 50
63.227412
 51
116.772588
  0
LINE
  5
53A
100
AcDbEntity
  8
1
370
    50
100
AcDbLine
 10
-65.500028
 20
-23.910116
 30
0.0
 11
-65.500028
 21
-23.813914
 31
0.0
  0
LINE
  5
53B
100
AcDbEntity
  8
1
370
    50
100
AcDbLine
 10
-65.500028
 20
-4.186127
 30
0.0
 11
-65.500028
 21
-4.089925
 31
0.0
  0
LINE
  5
53C
100
AcDbEntity
  8
1
370
    50
100
AcDbLine
 10
-54.500028
 20
-23.910116
 30
0.0
 11
-54.500028
 21
-23.813914
 31
0.0
  0
LINE
  5
53D
100
AcDbEntity
  8
1
370
    50
100
AcDbLine
 10
-54.500028
 20
-4.186127
 30
0.0
 11
-54.500028
 21
-4.089925
 31
0.0
  0
LINE
  5
53E
100
AcDbEntity
  8
1
370
    50
100
AcDbLine
 10
-52.750028
 20
-22.366621
 30
0.0
 11
-52.750028
 21
-5.63342
 31
0.0
  0
ARC
  5
53F
100
AcDbEntity
  8
1
370
    50
100
AcDbCircle
 10
-60.000028
 20
-14.000021
 30
0.0
 40
11.25
100
AcDbArc
 50
119.267578
 51
128.895871
  0
ARC
  5
540
100
AcDbEntity
  8
1
370
    50
100
AcDbCircle
 10
-60.000028
 20
-14.000021
 30
0.0
 40
11.25
100
AcDbArc
 50
51.104129
 51
60.732422
  0
ARC
  5
541
100
AcDbEntity
  8
1
370
    50
100
AcDbCircle
 10
-60.000028
 20
-14.000021
 30
0.0
 40
11.25
100
AcDbArc
 50
231.104129
 51
240.732422
  0
ARC
  5
542
100
AcDbEntity
  8
1
370
    50
100
AcDbCircle
 10
-60.000028
 20
-14.000021
 30
0.0
 40
11.25
100
AcDbArc
 50
299.267578
 51
308.895871
  0
ARC
  5
543
100
AcDbEntity
  8
1
370
    50
100
AcDbCircle
 10
-53.250028
 20
-22.366621
 30
0.0
 40
0.5
100
AcDbArc
 50
308.895871
 51
360.0
  0
ARC
  5
544
100
AcDbEntity
  8
1
370
    50
100
AcDbCircle
 10
-66.750028
 20
-5.63342
 30
0.0
 40
0.5
100
AcDbArc
 50
128.895871
 51
180.0
  0
ARC
  5
545
100
AcDbEntity
  8
1
370
    50
100
AcDbCircle
 10
-53.250028
 20
-5.63342
 30
0.0
 40
0.5
100
AcDbArc
 50
0.0
 51
51.104129
  0
ARC
  5
546
100
AcDbEntity
  8
1
370
    50
100
AcDbCircle
 10
-55.000028
 20
-4.089925
 30
0.0
 40
0.5
100
AcDbArc
 50
0.0
 51
63.227412
  0
ARC
  5
547
100
AcDbEntity
  8
1
370
    50
100
AcDbCircle
 10
-65.000028
 20
-4.089925
 30
0.0
 40
0.5
100
AcDbArc
 50
116.772588
 51
180.0
  0
ARC
  5
548
100
AcDbEntity
  8
1
370
    50
100
AcDbCircle
 10
-65.000028
 20
-23.910116
 30
0.0
 40
0.5
100
AcDbArc
 50
180.0
 51
243.227412
  0
ARC
  5
549
100
AcDbEntity
  8
1
370
    50
100
AcDbCircle
 10
-55.000028
 20
-23.910116
 30
0.0
 40
0.5
100
AcDbArc
 50
296.772588
 51
360.0
  0
LINE
  5
54A
100
AcDbEntity
  8
1
370
    50
100
AcDbLine
 10
-67.250028
 20
-22.366621
 30
0.0
 11
-67.250028
 21
-5.63342
 31
0.0
  0
LINE
  5
54B
100
AcDbEntity
  8
1
370
    25
100
AcDbLine
 10
-54.401906
 20
-6.000023
 30
0.0
 11
-54.401906
 21
-9.540736
 31
0.0
  0
LINE
  5
54C
100
AcDbEntity
  8
1
370
    25
100
AcDbLine
 10
-54.401906
 20
-18.459305
 30
0.0
 11
-54.401906
 21
-22.000023
 31
0.0
  0
LINE
  5
54D
100
AcDbEntity
  8
1
370
    50
100
AcDbLine
 10
-66.000006
 20
-11.985317
 30
0.0
 11
-66.000006
 21
-6.516708
 31
0.0
  0
LINE
  5
54E
100
AcDbEntity
  8
1
370
    50
100
AcDbLine
 10
-66.000006
 20
-21.483337
 30
0.0
 11
-66.000006
 21
-16.014766
 31
0.0
  0
LINE
  5
54F
100
AcDbEntity
  8
1
370
    50
100
AcDbLine
 10
-54.000006
 20
-11.985316
 30
0.0
 11
-54.000006
 21
-6.516708
 31
0.0
  0
LINE
  5
550
100
AcDbEntity
  8
1
370
    50
100
AcDbLine
 10
-54.000006
 20
-21.483337
 30
0.0
 11
-54.000006
 21
-16.014767
 31
0.0
  0
LINE
  5
551
100
AcDbEntity
  8
1
370
    50
100
AcDbLine
 10
-66.000006
 20
-16.014766
 30
0.0
 11
-66.000006
 21
-11.985317
 31
0.0
  0
LINE
  5
552
100
AcDbEntity
  8
1
370
    50
100
AcDbLine
 10
-54.000006
 20
-16.014767
 30
0.0
 11
-54.000006
 21
-11.985316
 31
0.0
  0
LINE
  5
553
100
AcDbEntity
  8
1
370
    50
100
AcDbLine
 10
-55.850028
 20
-9.600002
 30
0.0
 11
-60.000028
 21
-9.600002
 31
0.0
  0
LINE
  5
554
100
AcDbEntity
  8
1
370
    50
100
AcDbLine
 10
-55.850028
 20
-18.40004
 30
0.0
 11
-60.000028
 21
-18.40004
 31
0.0
  0
LINE
  5
555
100
AcDbEntity
  8
1
370
    50
100
AcDbLine
 10
-54.000006
 20
-9.635301
 30
0.0
 11
-55.60422
 21
-9.257839
 31
0.0
  0
LINE
  5
556
100
AcDbEntity
  8
1
370
    50
100
AcDbLine
 10
-55.850028
 20
-9.452522
 30
0.0
 11
-55.850028
 21
-9.600002
 31
0.0
  0
ARC
  5
557
100
AcDbEntity
  8
1
370
    50
100
AcDbCircle
 10
-55.650028
 20
-9.452522
 30
0.0
 40
0.2
100
AcDbArc
 50
76.75948
 51
180.0
  0
LINE
  5
558
100
AcDbEntity
  8
1
370
    50
100
AcDbLine
 10
-54.000006
 20
-18.36474
 30
0.0
 11
-55.60422
 21
-18.742202
 31
0.0
  0
LINE
  5
559
100
AcDbEntity
  8
1
370
    50
100
AcDbLine
 10
-55.850028
 20
-18.547519
 30
0.0
 11
-55.850028
 21
-18.40004
 31
0.0
  0
ARC
  5
55A
100
AcDbEntity
  8
1
370
    50
100
AcDbCircle
 10
-55.650028
 20
-18.547519
 30
0.0
 40
0.2
100
AcDbArc
 50
180.0
 51
283.24052
  0
LINE
  5
55B
100
AcDbEntity
  8
1
370
    50
100
AcDbLine
 10
-64.150028
 20
-9.600002
 30
0.0
 11
-60.000028
 21
-9.600002
 31
0.0
  0
LINE
  5
55C
100
AcDbEntity
  8
1
370
    50
100
AcDbLine
 10
-64.150028
 20
-18.40004
 30
0.0
 11
-60.000028
 21
-18.40004
 31
0.0
  0
LINE
  5
55D
100
AcDbEntity
  8
1
370
    50
100
AcDbLine
 10
-66.000006
 20
-9.635291
 30
0.0
 11
-64.395836
 21
-9.257839
 31
0.0
  0
LINE
  5
55E
100
AcDbEntity
  8
1
370
    50
100
AcDbLine
 10
-64.150028
 20
-9.452522
 30
0.0
 11
-64.150028
 21
-9.600002
 31
0.0
  0
ARC
  5
55F
100
AcDbEntity
  8
1
370
    50
100
AcDbCircle
 10
-64.350028
 20
-9.452522
 30
0.0
 40
0.2
100
AcDbArc
 50
0.0
 51
103.24052
  0
LINE
  5
560
100
AcDbEntity
  8
1
370
    50
100
AcDbLine
 10
-66.000006
 20
-18.364751
 30
0.0
 11
-64.395836
 21
-18.742202
 31
0.0
  0
LINE
  5
561
100
AcDbEntity
  8
1
370
    50
100
AcDbLine
 10
-64.150028
 20
-18.547519
 30
0.0
 11
-64.150028
 21
-18.40004
 31
0.0
  0
ARC
  5
562
100
AcDbEntity
  8
1
370
    50
100
AcDbCircle
 10
-64.350028
 20
-18.547519
 30
0.0
 40
0.2
100
AcDbArc
 50
256.75948
 51
360.0
  0
ARC
  5
563
100
AcDbEntity
  8
1
370
    50
100
AcDbCircle
 10
-66.750028
 20
-22.366621
 30
0.0
 40
0.5
100
AcDbArc
 50
180.0
 51
231.104129
  0
ARC
  5
564
100
AcDbEntity
  8
1
370
    50
100
AcDbCircle
 10
-292.685673
 20
194.670596
 30
0.0
 40
0.5
100
AcDbArc
 50
130.0
 51
220.0
  0
LINE
  5
565
100
AcDbEntity
  8
1
370
    50
100
AcDbLine
 10
166.424837
 20
-44.672892
 30
0.0
 11
299.1183
 21
-43.514893
 31
0.0
  0
LINE
  5
566
100
AcDbEntity
  8
1
370
    50
100
AcDbLine
 10
166.276486
 20
-27.673539
 30
0.0
 11
298.969949
 21
-26.515541
 31
0.0
  0
ARC
  5
567
100
AcDbEntity
  8
1
370
    50
100
AcDbCircle
 10
215.198059
 20
-35.74693
 30
0.0
 40
50.0
100
AcDbArc
 50
171.199284
 51
189.800716
  0
LINE
  5
568
100
AcDbEntity
  8
1
370
    50
100
AcDbLine
 10
165.997182
 20
-44.135111
 30
0.0
 11
165.856554
 21
-28.020726
 31
0.0
  0
ARC
  5
569
100
AcDbEntity
  8
1
370
    50
100
AcDbCircle
 10
250.196726
 20
-35.441502
 30
0.0
 40
50.0
100
AcDbArc
 50
351.199284
 51
9.800716
  0
LINE
  5
56A
100
AcDbEntity
  8
1
370
    50
100
AcDbLine
 10
299.539193
 20
-43.27789
 30
0.0
 11
299.394914
 21
-26.745162
 31
0.0
  0
ARC
  5
56B
100
AcDbEntity
  8
1
370
    50
100
AcDbCircle
 10
299.113937
 20
-43.014912
 30
0.0
 40
0.5
100
AcDbArc
 50
270.5
 51
351.199284
  0
ARC
  5
56C
100
AcDbEntity
  8
1
370
    50
100
AcDbCircle
 10
298.974312
 20
-27.015522
 30
0.0
 40
0.5
100
AcDbArc
 50
9.800716
 51
90.5
  0
LINE
  5
56D
100
AcDbEntity
  8
1
370
    50
100
AcDbLine
 10
-204.572137
 20
-44.672892
 30
0.0
 11
-337.2656
 21
-43.514893
 31
0.0
  0
LINE
  5
56E
100
AcDbEntity
  8
1
370
    50
100
AcDbLine
 10
-204.423786
 20
-27.673539
 30
0.0
 11
-337.117249
 21
-26.515541
 31
0.0
  0
ARC
  5
56F
100
AcDbEntity
  8
1
370
    50
100
AcDbCircle
 10
-253.345359
 20
-35.74693
 30
0.0
 40
50.0
100
AcDbArc
 50
350.199284
 51
8.800716
  0
LINE
  5
570
100
AcDbEntity
  8
1
370
    50
100
AcDbLine
 10
-204.144482
 20
-44.135111
 30
0.0
 11
-204.003854
 21
-28.020726
 31
0.0
  0
ARC
  5
571
100
AcDbEntity
  8
1
370
    50
100
AcDbCircle
 10
-288.344026
 20
-35.441502
 30
0.0
 40
50.0
100
AcDbArc
 50
170.199284
 51
188.800716
  0
LINE
  5
572
100
AcDbEntity
  8
1
370
    50
100
AcDbLine
 10
-337.688529
 20
-43.511202
 30
0.0
 11
-337.540178
 21
-26.51185
 31
0.0
  0
ARC
  5
573
100
AcDbEntity
  8
1
370
    50
100
AcDbCircle
 10
-337.261237
 20
-43.014912
 30
0.0
 40
0.5
100
AcDbArc
 50
188.800716
 51
269.5
  0
ARC
  5
574
100
AcDbEntity
  8
1
370
    50
100
AcDbCircle
 10
-337.121612
 20
-27.015522
 30
0.0
 40
0.5
100
AcDbArc
 50
89.5
 51
170.199284
  0
LINE
  5
575
100
AcDbEntity
  8
1
370
    50
100
AcDbLine
 10
18.5
 20
128.300143
 30
0.0
 11
18.5
 21
260.998659
 31
0.0
  0
ARC
  5
576
100
AcDbEntity
  8
1
370
    50
100
AcDbCircle
 10
10.0
 20
177.149401
 30
0.0
 40
50.0
100
AcDbArc
 50
260.699284
 51
279.300716
  0
ARC
  5
577
100
AcDbEntity
  8
1
370
    50
100
AcDbCircle
 10
2.0
 20
128.300143
 30
0.0
 40
0.5
100
AcDbArc
 50
180.0
 51
260.699284
  0
ARC
  5
578
100
AcDbEntity
  8
1
370
    50
100
AcDbCircle
 10
18.0
 20
128.300143
 30
0.0
 40
0.5
100
AcDbArc
 50
279.300716
 51
360.0
  0
LINE
  5
579
100
AcDbEntity
  8
1
370
    18
100
AcDbLine
 10
1.919192
 20
127.877198
 30
0.0
 11
18.15649
 21
127.877198
 31
0.0
  0
ARC
  5
57A
100
AcDbEntity
  8
1
370
    50
100
AcDbCircle
 10
10.0
 20
212.149401
 30
0.0
 40
50.0
100
AcDbArc
 50
80.699284
 51
99.300716
  0
LINE
  5
57B
100
AcDbEntity
  8
1
370
    18
100
AcDbLine
 10
1.919192
 20
261.421604
 30
0.0
 11
18.080808
 21
261.421604
 31
0.0
  0
ARC
  5
57C
100
AcDbEntity
  8
1
370
    50
100
AcDbCircle
 10
2.0
 20
260.998659
 30
0.0
 40
0.5
100
AcDbArc
 50
99.300716
 51
180.0
  0
ARC
  5
57D
100
AcDbEntity
  8
1
370
    50
100
AcDbCircle
 10
18.0
 20
260.998659
 30
0.0
 40
0.5
100
AcDbArc
 50
0.0
 51
80.699284
  0
LINE
  5
57E
100
AcDbEntity
  8
1
370
    50
100
AcDbLine
 10
1.0
 20
136.649401
 30
0.0
 11
-26.442284
 21
136.649401
 31
0.0
  0
LINE
  5
57F
100
AcDbEntity
  8
1
370
    50
100
AcDbLine
 10
1.0
 20
159.649401
 30
0.0
 11
-26.442388
 21
159.649401
 31
0.0
  0
LINE
  5
580
100
AcDbEntity
  8
1
370
    18
100
AcDbLine
 10
10.0
 20
155.895367
 30
0.0
 11
-22.000028
 21
155.895367
 31
0.0
  0
LINE
  5
581
100
AcDbEntity
  8
1
370
    18
100
AcDbLine
 10
10.0
 20
140.403434
 30
0.0
 11
-22.000028
 21
140.403434
 31
0.0
  0
LINE
  5
582
100
AcDbEntity
  8
1
370
    50
100
AcDbLine
 10
1.5
 20
128.300143
 30
0.0
 11
1.5
 21
136.149401
 31
0.0
  0
LINE
  5
583
100
AcDbEntity
  8
1
370
    50
100
AcDbLine
 10
1.5
 20
160.149401
 30
0.0
 11
1.5
 21
260.998659
 31
0.0
  0
ARC
  5
584
100
AcDbEntity
  8
1
370
    18
100
AcDbCircle
 10
10.0
 20
167.395367
 30
0.0
 40
11.5
100
AcDbArc
 50
222.342605
 51
270.0
  0
ARC
  5
585
100
AcDbEntity
  8
1
370
    18
100
AcDbCircle
 10
10.0
 20
128.903434
 30
0.0
 40
11.5
100
AcDbArc
 50
90.0
 51
137.657395
  0
ARC
  5
586
100
AcDbEntity
  8
1
370
    50
100
AcDbCircle
 10
1.0
 20
160.149401
 30
0.0
 40
0.5
100
AcDbArc
 50
270.0
 51
0.0
  0
ARC
  5
587
100
AcDbEntity
  8
1
370
    50
100
AcDbCircle
 10
1.0
 20
136.149401
 30
0.0
 40
0.5
100
AcDbArc
 50
360.0
 51
90.0
  0
LINE
  5
588
100
AcDbEntity
  8
1
370
    50
100
AcDbLine
 10
-138.5
 20
128.300143
 30
0.0
 11
-138.5
 21
260.998659
 31
0.0
  0
ARC
  5
589
100
AcDbEntity
  8
1
370
    50
100
AcDbCircle
 10
-130.0
 20
177.149401
 30
0.0
 40
50.0
100
AcDbArc
 50
260.699284
 51
279.300716
  0
ARC
  5
58A
100
AcDbEntity
  8
1
370
    50
100
AcDbCircle
 10
-122.0
 20
128.300143
 30
0.0
 40
0.5
100
AcDbArc
 50
279.300716
 51
360.0
  0
ARC
  5
58B
100
AcDbEntity
  8
1
370
    50
100
AcDbCircle
 10
-138.0
 20
128.300143
 30
0.0
 40
0.5
100
AcDbArc
 50
180.0
 51
260.699284
  0
LINE
  5
58C
100
AcDbEntity
  8
1
370
    18
100
AcDbLine
 10
-121.919192
 20
127.877198
 30
0.0
 11
-138.15649
 21
127.877198
 31
0.0
  0
ARC
  5
58D
100
AcDbEntity
  8
1
370
    50
100
AcDbCircle
 10
-130.0
 20
212.149401
 30
0.0
 40
50.0
100
AcDbArc
 50
80.699284
 51
99.300716
  0
LINE
  5
58E
100
AcDbEntity
  8
1
370
    18
100
AcDbLine
 10
-121.919192
 20
261.421604
 30
0.0
 11
-138.080808
 21
261.421604
 31
0.0
  0
ARC
  5
58F
100
AcDbEntity
  8
1
370
    50
100
AcDbCircle
 10
-122.0
 20
260.998659
 30
0.0
 40
0.5
100
AcDbArc
 50
0.0
 51
80.699284
  0
ARC
  5
590
100
AcDbEntity
  8
1
370
    50
100
AcDbCircle
 10
-138.0
 20
260.998659
 30
0.0
 40
0.5
100
AcDbArc
 50
99.300716
 51
180.0
  0
LINE
  5
591
100
AcDbEntity
  8
1
370
    50
100
AcDbLine
 10
-121.0
 20
136.649401
 30
0.0
 11
-92.621243
 21
136.649401
 31
0.0
  0
LINE
  5
592
100
AcDbEntity
  8
1
370
    50
100
AcDbLine
 10
-121.0
 20
159.649401
 30
0.0
 11
-92.621238
 21
159.649401
 31
0.0
  0
LINE
  5
593
100
AcDbEntity
  8
1
370
    18
100
AcDbLine
 10
-130.0
 20
155.895367
 30
0.0
 11
-95.5
 21
155.895367
 31
0.0
  0
LINE
  5
594
100
AcDbEntity
  8
1
370
    18
100
AcDbLine
 10
-130.0
 20
140.403434
 30
0.0
 11
-95.5
 21
140.403434
 31
0.0
  0
LINE
  5
595
100
AcDbEntity
  8
1
370
    50
100
AcDbLine
 10
-121.5
 20
128.300143
 30
0.0
 11
-121.5
 21
136.149401
 31
0.0
  0
LINE
  5
596
100
AcDbEntity
  8
1
370
    50
100
AcDbLine
 10
-121.5
 20
160.149401
 30
0.0
 11
-121.5
 21
260.998659
 31
0.0
  0
ARC
  5
597
100
AcDbEntity
  8
1
370
    18
100
AcDbCircle
 10
-130.0
 20
167.395367
 30
0.0
 40
11.5
100
AcDbArc
 50
270.0
 51
317.657395
  0
ARC
  5
598
100
AcDbEntity
  8
1
370
    18
100
AcDbCircle
 10
-130.0
 20
128.903434
 30
0.0
 40
11.5
100
AcDbArc
 50
42.342605
 51
90.0
  0
ARC
  5
599
100
AcDbEntity
  8
1
370
    50
100
AcDbCircle
 10
-121.0
 20
160.149401
 30
0.0
 40
0.5
100
AcDbArc
 50
180.0
 51
270.0
  0
ARC
  5
59A
100
AcDbEntity
  8
1
370
    50
100
AcDbCircle
 10
-121.0
 20
136.149401
 30
0.0
 40
0.5
100
AcDbArc
 50
90.0
 51
180.0
  0
LINE
  5
59B
100
AcDbEntity
  8
1
370
    50
100
AcDbLine
 10
-130.0
 20
-44.5
 30
0.0
 11
-95.8
 21
-44.5
 31
0.0
  0
LINE
  5
59C
100
AcDbEntity
  8
1
370
    50
100
AcDbLine
 10
-130.0
 20
-27.5
 30
0.0
 11
-95.8
 21
-27.5
 31
0.0
  0
CIRCLE
  5
59D
100
AcDbEntity
  8
1
370
    50
100
AcDbCircle
 10
-130.0
 20
-36.0
 30
0.0
 40
8.5
  0
LINE
  5
59E
100
AcDbEntity
  8
1
370
    50
100
AcDbLine
 10
-90.5
 20
-47.0
 30
0.0
 11
-90.5
 21
-25.0
 31
0.0
  0
LINE
  5
59F
100
AcDbEntity
  8
1
370
    50
100
AcDbLine
 10
-95.2
 20
-47.5
 30
0.0
 11
-91.0
 21
-47.5
 31
0.0
  0
LINE
  5
5A0
100
AcDbEntity
  8
1
370
    50
100
AcDbLine
 10
-95.2
 20
-24.5
 30
0.0
 11
-91.0
 21
-24.5
 31
0.0
  0
ARC
  5
5A1
100
AcDbEntity
  8
1
370
    50
100
AcDbCircle
 10
-91.0
 20
-47.0
 30
0.0
 40
0.5
100
AcDbArc
 50
270.0
 51
360.0
  0
ARC
  5
5A2
100
AcDbEntity
  8
1
370
    50
100
AcDbCircle
 10
-91.0
 20
-25.0
 30
0.0
 40
0.5
100
AcDbArc
 50
0.0
 51
90.0
  0
LINE
  5
5A3
100
AcDbEntity
  8
1
370
    50
100
AcDbLine
 10
-95.5
 20
-24.8
 30
0.0
 11
-95.5
 21
-27.2
 31
0.0
  0
LINE
  5
5A4
100
AcDbEntity
  8
1
370
    50
100
AcDbLine
 10
-95.5
 20
-44.8
 30
0.0
 11
-95.5
 21
-47.2
 31
0.0
  0
ARC
  5
5A5
100
AcDbEntity
  8
1
370
    50
100
AcDbCircle
 10
-95.8
 20
-44.8
 30
0.0
 40
0.3
100
AcDbArc
 50
360.0
 51
90.0
  0
ARC
  5
5A6
100
AcDbEntity
  8
1
370
    50
100
AcDbCircle
 10
-95.2
 20
-47.2
 30
0.0
 40
0.3
100
AcDbArc
 50
180.0
 51
270.0
  0
ARC
  5
5A7
100
AcDbEntity
  8
1
370
    50
100
AcDbCircle
 10
-95.2
 20
-24.8
 30
0.0
 40
0.3
100
AcDbArc
 50
90.0
 51
180.0
  0
ARC
  5
5A8
100
AcDbEntity
  8
1
370
    50
100
AcDbCircle
 10
-95.8
 20
-27.2
 30
0.0
 40
0.3
100
AcDbArc
 50
270.0
 51
0.0
  0
LINE
  5
5A9
100
AcDbEntity
  8
1
370
    50
100
AcDbLine
 10
10.0
 20
-44.5
 30
0.0
 11
-24.2
 21
-44.5
 31
0.0
  0
LINE
  5
5AA
100
AcDbEntity
  8
1
370
    50
100
AcDbLine
 10
10.0
 20
-27.5
 30
0.0
 11
-24.2
 21
-27.5
 31
0.0
  0
CIRCLE
  5
5AB
100
AcDbEntity
  8
1
370
    50
100
AcDbCircle
 10
10.0
 20
-36.0
 30
0.0
 40
8.5
  0
LINE
  5
5AC
100
AcDbEntity
  8
1
370
    50
100
AcDbLine
 10
-29.5
 20
-47.0
 30
0.0
 11
-29.5
 21
-25.0
 31
0.0
  0
LINE
  5
5AD
100
AcDbEntity
  8
1
370
    50
100
AcDbLine
 10
-24.8
 20
-47.5
 30
0.0
 11
-29.0
 21
-47.5
 31
0.0
  0
LINE
  5
5AE
100
AcDbEntity
  8
1
370
    50
100
AcDbLine
 10
-24.8
 20
-24.5
 30
0.0
 11
-29.0
 21
-24.5
 31
0.0
  0
ARC
  5
5AF
100
AcDbEntity
  8
1
370
    50
100
AcDbCircle
 10
-29.0
 20
-47.0
 30
0.0
 40
0.5
100
AcDbArc
 50
180.0
 51
270.0
  0
ARC
  5
5B0
100
AcDbEntity
  8
1
370
    50
100
AcDbCircle
 10
-29.0
 20
-25.0
 30
0.0
 40
0.5
100
AcDbArc
 50
90.0
 51
180.0
  0
LINE
  5
5B1
100
AcDbEntity
  8
1
370
    50
100
AcDbLine
 10
-24.5
 20
-24.8
 30
0.0
 11
-24.5
 21
-27.2
 31
0.0
  0
LINE
  5
5B2
100
AcDbEntity
  8
1
370
    50
100
AcDbLine
 10
-24.5
 20
-44.8
 30
0.0
 11
-24.5
 21
-47.2
 31
0.0
  0
ARC
  5
5B3
100
AcDbEntity
  8
1
370
    50
100
AcDbCircle
 10
-24.2
 20
-44.8
 30
0.0
 40
0.3
100
AcDbArc
 50
90.0
 51
180.0
  0
ARC
  5
5B4
100
AcDbEntity
  8
1
370
    50
100
AcDbCircle
 10
-24.8
 20
-47.2
 30
0.0
 40
0.3
100
AcDbArc
 50
270.0
 51
360.0
  0
ARC
  5
5B5
100
AcDbEntity
  8
1
370
    50
100
AcDbCircle
 10
-24.8
 20
-24.8
 30
0.0
 40
0.3
100
AcDbArc
 50
0.0
 51
90.0
  0
ARC
  5
5B6
100
AcDbEntity
  8
1
370
    50
100
AcDbCircle
 10
-24.2
 20
-27.2
 30
0.0
 40
0.3
100
AcDbArc
 50
180.0
 51
270.0
  0
LINE
  5
5B7
100
AcDbEntity
  8
1
370
    18
100
AcDbLine
 10
-95.5
 20
140.403434
 30
0.0
 11
-95.5
 21
143.013659
 31
0.0
  0
LINE
  5
5B8
100
AcDbEntity
  8
1
370
    18
100
AcDbLine
 10
-95.5
 20
153.285143
 30
0.0
 11
-95.5
 21
155.895367
 31
0.0
  0
ARC
  5
5B9
100
AcDbEntity
  8
1
370
    50
100
AcDbCircle
 10
166.280849
 20
-28.17352
 30
0.0
 40
0.5
100
AcDbArc
 50
90.5
 51
171.199284
  0
ARC
  5
5BA
100
AcDbEntity
  8
1
370
    50
100
AcDbCircle
 10
166.420473
 20
-44.172911
 30
0.0
 40
0.5
100
AcDbArc
 50
189.800716
 51
270.5
  0
ARC
  5
5BB
100
AcDbEntity
  8
1
370
    50
100
AcDbCircle
 10
-204.428149
 20
-28.17352
 30
0.0
 40
0.5
100
AcDbArc
 50
8.800716
 51
89.5
  0
ARC
  5
5BC
100
AcDbEntity
  8
1
370
    50
100
AcDbCircle
 10
-204.567773
 20
-44.172911
 30
0.0
 40
0.5
100
AcDbArc
 50
269.5
 51
350.199284
  0
DIMENSION
  5
5BD
100
AcDbEntity
  8
2
370
    25
100
AcDbDimension
  2
*D0
 10
278.359039
 20
190.906181
 30
0.0
 11
272.359039
 21
177.406181
 31
0.0
 71
     0
 72
     0
 41
0.0
 42
0.0
  3
Standard
100
AcDbAlignedDimension
 13
255.359039
 23
163.906181
 33
0.0
 14
255.359039
 24
190.906181
 34
0.0
 50
90.0
100
AcDbRotatedDimension
  0
DIMENSION
  5
5BE
100
AcDbEntity
  8
2
370
    25
100
AcDbDimension
  2
*D1
 10
286.359039
 20
202.406181
 30
0.0
 11
280.359039
 21
177.406181
 31
0.0
 71
     0
 72
     0
 41
0.0
 42
0.0
  3
Standard
100
AcDbAlignedDimension
 13
256.883886
 23
152.406181
 33
0.0
 14
256.883886
 24
202.406181
 34
0.0
 50
90.0
100
AcDbRotatedDimension
  0
DIMENSION
  5
5BF
100
AcDbEntity
  8
2
370
    25
100
AcDbDimension
  2
*D2
 10
294.359039
 20
210.406181
 30
0.0
 11
288.359039
 21
177.406181
 31
0.0
 71
     0
 72
     0
 41
0.0
 42
0.0
  3
Standard
100
AcDbAlignedDimension
 13
262.359039
 23
144.406181
 33
0.0
 14
262.359039
 24
210.406181
 34
0.0
 50
90.0
100
AcDbRotatedDimension
  0
DIMENSION
  5
5C0
100
AcDbEntity
  8
2
370
    25
100
AcDbDimension
  2
*D3
 10
345.330943
 20
192.50618
 30
0.0
 11
334.330943
 21
172.40618
 31
0.0
 71
     0
 72
     0
 41
0.0
 42
0.0
  3
Standard
100
AcDbAlignedDimension
 13
317.057732
 23
162.30618
 33
0.0
 14
317.057732
 24
192.50618
 34
0.0
 50
90.0
100
AcDbRotatedDimension
  0
DIMENSION
  5
5C1
100
AcDbEntity
  8
2
370
    25
100
AcDbDimension
  2
*D4
 10
353.330943
 20
210.206301
 30
0.0
 11
342.330943
 21
172.40618
 31
0.0
 71
     0
 72
     0
 41
0.0
 42
0.0
  3
Standard
100
AcDbAlignedDimension
 13
315.657047
 23
144.606059
 33
0.0
 14
315.657047
 24
210.206301
 34
0.0
 50
90.0
100
AcDbRotatedDimension
  0
DIMENSION
  5
5C2
100
AcDbEntity
  8
2
370
    25
100
AcDbDimension
  2
*D5
 10
249.859039
 20
238.406181
 30
0.0
 11
260.359039
 21
241.906181
 31
0.0
 71
     0
 72
     0
 41
0.0
 42
0.0
  3
Standard
100
AcDbAlignedDimension
 13
242.859039
 23
188.206181
 33
0.0
 14
249.859039
 24
215.353597
 34
0.0
100
AcDbRotatedDimension
  0
DIMENSION
  5
5C3
100
AcDbEntity
  8
2
370
    25
100
AcDbDimension
  2
*D6
 10
249.859039
 20
128.406181
 30
0.0
 11
237.359039
 21
130.406181
 31
0.0
 71
     0
 72
     0
 41
0.0
 42
0.0
  3
Standard
100
AcDbAlignedDimension
 13
224.859039
 23
128.406181
 33
0.0
 14
249.859039
 24
142.072301
 34
0.0
100
AcDbRotatedDimension
  0
DIMENSION
  5
5C4
100
AcDbEntity
  8
2
370
    25
100
AcDbDimension
  2
*D7
 10
262.359039
 20
128.406181
 30
0.0
 11
280.359039
 21
131.906181
 31
0.0
 71
     0
 72
     0
 41
0.0
 42
0.0
  3
Standard
100
AcDbAlignedDimension
 13
249.859039
 23
128.406181
 33
0.0
 14
262.359039
 24
128.406181
 34
0.0
100
AcDbRotatedDimension
  0
DIMENSION
  5
5C5
100
AcDbEntity
  8
2
370
    25
100
AcDbDimension
  2
*D8
 10
262.359039
 20
118.406181
 30
0.0
 11
243.609039
 21
120.406181
 31
0.0
 71
     0
 72
     0
 41
0.0
 42
0.0
  3
Standard
100
AcDbAlignedDimension
 13
224.859039
 23
149.406181
 33
0.0
 14
262.359039
 24
144.406181
 34
0.0
100
AcDbRotatedDimension
  0
DIMENSION
  5
5C6
100
AcDbEntity
  8
2
370
    25
100
AcDbDimension
  2
*D9
 10
275.624752
 20
102.883154
 30
0.0
 11
272.124752
 21
111.883154
 31
0.0
 71
     0
 72
     0
 41
0.0
 42
0.0
  3
Standard
100
AcDbAlignedDimension
 13
262.359039
 23
101.883154
 33
0.0
 14
275.624752
 24
102.883154
 34
0.0
 50
90.0
100
AcDbRotatedDimension
  0
DIMENSION
  5
5C7
100
AcDbEntity
  8
2
370
    25
100
AcDbDimension
  2
*D10
 10
275.624752
 20
101.883154
 30
0.0
 11
266.939999
 21
82.435422
 31
0.0
 71
     0
 72
     0
 41
0.0
 42
0.0
  3
Standard
100
AcDbAlignedDimension
 13
259.692632
 23
99.983154
 33
0.0
 14
275.624752
 24
101.883154
 34
0.0
 50
90.0
100
AcDbRotatedDimension
  0
DIMENSION
  5
5C8
100
AcDbEntity
  8
2
370
    25
100
AcDbDimension
  2
*D11
 10
284.959713
 20
102.883154
 30
0.0
 11
278.959713
 21
97.883154
 31
0.0
 71
     0
 72
     0
 41
0.0
 42
0.0
  3
Standard
100
AcDbAlignedDimension
 13
256.979724
 23
92.883154
 33
0.0
 14
262.359039
 24
102.883154
 34
0.0
 50
90.0
100
AcDbRotatedDimension
  0
DIMENSION
  5
5C9
100
AcDbEntity
  8
2
370
    25
100
AcDbDimension
  2
*D12
 10
259.159039
 20
71.275968
 30
0.0
 11
250.109039
 21
74.775968
 31
0.0
 71
     0
 72
     0
 41
0.0
 42
0.0
  3
Standard
100
AcDbAlignedDimension
 13
241.059039
 23
99.983154
 33
0.0
 14
259.159039
 24
99.983154
 34
0.0
100
AcDbRotatedDimension
  0
TEXT
  5
5CA
100
AcDbEntity
  8
2
370
    25
100
AcDbText
 10
252.859039
 20
231.406181
 30
0.0
 40
5.0
  1
－
 72
     5
 11
256.859039
 21
231.406181
 31
0.0
100
AcDbText
  0
DIMENSION
  5
5CB
100
AcDbEntity
  8
2
370
    25
100
AcDbDimension
  2
*D13
 10
244.859039
 20
230.406181
 30
0.0
 11
260.359039
 21
233.906181
 31
0.0
 71
     0
 72
     0
 41
0.0
 42
0.0
  3
Standard
100
AcDbAlignedDimension
 13
242.859039
 23
230.406181
 33
0.0
 14
244.859039
 24
188.206181
 34
0.0
100
AcDbRotatedDimension
  0
TEXT
  5
5CC
100
AcDbEntity
  8
2
370
    25
100
AcDbText
 10
233.609039
 20
119.406181
 30
0.0
 40
5.0
  1
37.5
 41
2.0
 72
     5
 11
251.609039
 21
119.406181
 31
0.0
100
AcDbText
  0
TEXT
  5
5CD
100
AcDbEntity
  8
2
370
    25
100
AcDbText
 10
226.859039
 20
231.406181
 30
0.0
 40
5.0
  1
3
 41
2.0
 72
     5
 11
229.859039
 21
231.406181
 31
0.0
100
AcDbText
  0
TEXT
  5
5CE
100
AcDbEntity
  8
2
370
    25
100
AcDbText
 10
221.859039
 20
231.406181
 30
0.0
 40
5.0
  1
＋
 72
     5
 11
225.859039
 21
231.406181
 31
0.0
100
AcDbText
  0
DIMENSION
  5
5CF
100
AcDbEntity
  8
2
370
    25
100
AcDbDimension
  2
*D14
 10
242.859039
 20
230.406181
 30
0.0
 11
237.359039
 21
131.906181
 31
0.0
 71
     0
 72
     0
 41
0.0
 42
0.0
  3
Standard
100
AcDbAlignedDimension
 13
239.859039
 23
188.206181
 33
0.0
 14
242.859039
 24
230.406181
 34
0.0
100
AcDbRotatedDimension
  0
TEXT
  5
5D0
100
AcDbEntity
  8
2
370
    25
100
AcDbText
 10
220.538276
 20
249.166876
 30
0.0
 40
5.0
  1
（調整範囲５ｍｍ）
 72
     5
 11
264.538276
 21
249.166876
 31
0.0
100
AcDbText
  0
DIMENSION
  5
5D1
100
AcDbEntity
  8
2
370
    25
100
AcDbDimension
  2
*D15
 10
-182.287483
 20
13.991879
 30
0.0
 11
-188.287483
 21
-11.008121
 31
0.0
 71
     0
 72
     0
 41
0.0
 42
0.0
  3
Standard
100
AcDbAlignedDimension
 13
-182.287483
 23
-36.008121
 33
0.0
 14
-210.642728
 24
13.991879
 34
0.0
 50
90.0
100
AcDbRotatedDimension
  0
TEXT
  5
5D2
100
AcDbEntity
  8
2
370
    25
100
AcDbText
 10
-230.142728
 20
76.025428
 30
0.0
 40
5.0
  1
４７
 72
     5
 11
-221.142728
 21
76.025428
 31
0.0
100
AcDbText
  0
DIMENSION
  5
5D3
100
AcDbEntity
  8
2
370
    25
100
AcDbDimension
  2
*D16
 10
-201.542728
 20
75.025428
 30
0.0
 11
-225.142728
 21
77.025428
 31
0.0
 71
     0
 72
     0
 41
0.0
 42
0.0
  3
Standard
100
AcDbAlignedDimension
 13
-248.742728
 23
32.491879
 33
0.0
 14
-201.542728
 24
32.491879
 34
0.0
100
AcDbRotatedDimension
  0
TEXT
  5
5D4
100
AcDbEntity
  8
2
370
    25
100
AcDbText
 10
-173.137871
 20
5.041879
 30
0.0
 40
5.0
  1
９２
 50
90.0
 72
     5
 11
-173.137871
 21
14.041879
 31
0.0
100
AcDbText
  0
DIMENSION
  5
5D5
100
AcDbEntity
  8
2
370
    25
100
AcDbDimension
  2
*D17
 10
-172.137871
 20
56.091879
 30
0.0
 11
-174.637871
 21
10.041879
 31
0.0
 71
     0
 72
     0
 41
0.0
 42
0.0
  3
Standard
100
AcDbAlignedDimension
 13
-172.137871
 23
-36.008121
 33
0.0
 14
-172.137871
 24
56.091879
 34
0.0
 50
90.0
100
AcDbRotatedDimension
  0
TEXT
  5
5D6
100
AcDbEntity
  8
2
370
    25
100
AcDbText
 10
-173.137871
 20
-60.058121
 30
0.0
 40
5.0
  1
３８
 50
90.0
 72
     5
 11
-173.137871
 21
-51.058121
 31
0.0
100
AcDbText
  0
DIMENSION
  5
5D7
100
AcDbEntity
  8
2
370
    25
100
AcDbDimension
  2
*D18
 10
-172.137871
 20
-36.008121
 30
0.0
 11
-174.637871
 21
-55.058121
 31
0.0
 71
     0
 72
     0
 41
0.0
 42
0.0
  3
Standard
100
AcDbAlignedDimension
 13
-172.137871
 23
-74.108121
 33
0.0
 14
-196.142728
 24
-36.008121
 34
0.0
 50
90.0
100
AcDbRotatedDimension
  0
TEXT
  5
5D8
100
AcDbEntity
  8
2
370
    25
100
AcDbText
 10
-163.008553
 20
-16.508121
 30
0.0
 40
5.0
  1
１３０
 50
90.0
 72
     5
 11
-163.008553
 21
-2.508121
 31
0.0
100
AcDbText
  0
DIMENSION
  5
5D9
100
AcDbEntity
  8
2
370
    25
100
AcDbDimension
  2
*D19
 10
-162.008553
 20
56.091879
 30
0.0
 11
-164.508553
 21
-9.008121
 31
0.0
 71
     0
 72
     0
 41
0.0
 42
0.0
  3
Standard
100
AcDbAlignedDimension
 13
-225.142728
 23
-74.108121
 33
0.0
 14
-225.142728
 24
56.091879
 34
0.0
 50
90.0
100
AcDbRotatedDimension
  0
DIMENSION
  5
5DA
100
AcDbEntity
  8
2
370
    25
100
AcDbDimension
  2
*D20
 10
-125.944779
 20
1.537686
 30
0.0
 11
-134.444779
 21
11.491879
 31
0.0
 70
     1
 71
     0
 72
     0
 41
0.0
 42
0.0
  3
Standard
100
AcDbAlignedDimension
 13
-90.142728
 23
26.446073
 33
0.0
 14
-90.142728
 24
1.537686
 34
0.0
 50
90.0
  0
DIMENSION
  5
5DB
100
AcDbEntity
  8
2
370
    25
100
AcDbDimension
  2
*D21
 10
-8.015854
 20
26.341879
 30
0.0
 11
-21.515854
 21
6.491879
 31
0.0
 71
     0
 72
     0
 41
0.0
 42
0.0
  3
Standard
100
AcDbAlignedDimension
 13
-29.932597
 23
1.641879
 33
0.0
 14
-29.932597
 24
26.341879
 34
0.0
 50
90.0
100
AcDbRotatedDimension
  0
DIMENSION
  5
5DC
100
AcDbEntity
  8
2
370
    25
100
AcDbDimension
  2
*D22
 10
-293.185673
 20
215.09198
 30
0.0
 11
-268.985673
 21
218.59198
 31
0.0
 70
     1
 71
     0
 72
     0
 41
0.0
 42
0.0
 51
270.0
  3
Standard
100
AcDbAlignedDimension
 13
-244.785673
 23
200.799589
 33
0.0
 14
-293.185673
 24
194.670596
 34
0.0
 50
180.0
  0
DIMENSION
  5
5DD
100
AcDbEntity
  8
2
370
    25
100
AcDbDimension
  2
*D23
 10
-231.963791
 20
204.570596
 30
0.0
 11
-242.963791
 21
189.370596
 31
0.0
 70
     1
 71
     0
 72
     0
 41
0.0
 42
0.0
 51
270.0
  3
Standard
100
AcDbAlignedDimension
 13
-256.285673
 23
184.170596
 33
0.0
 14
-256.285673
 24
204.570596
 34
0.0
 50
90.0
  0
DIMENSION
  5
5DE
100
AcDbEntity
  8
2
370
    25
100
AcDbDimension
  2
*D24
 10
-231.963791
 20
167.85752
 30
0.0
 11
-240.463791
 21
148.05752
 31
0.0
 70
     1
 71
     0
 72
     0
 41
0.0
 42
0.0
 51
270.0
  3
Standard
100
AcDbAlignedDimension
 13
-244.785673
 23
166.05752
 33
0.0
 14
-244.785673
 24
167.85752
 34
0.0
 50
90.0
  0
DIMENSION
  5
5DF
100
AcDbEntity
  8
2
370
    25
100
AcDbDimension
  2
*D25
 10
331.251343
 20
21.9977
 30
0.0
 11
325.251343
 21
-7.0023
 31
0.0
 71
     0
 72
     0
 41
0.0
 42
0.0
  3
Standard
100
AcDbAlignedDimension
 13
214.485596
 23
-36.0023
 33
0.0
 14
331.251343
 24
21.9977
 34
0.0
 50
90.0
100
AcDbRotatedDimension
  0
DIMENSION
  5
5E0
100
AcDbEntity
  8
2
370
    25
100
AcDbDimension
  2
*D26
 10
331.251343
 20
-36.0023
 30
0.0
 11
325.251343
 21
-44.0023
 31
0.0
 71
     0
 72
     0
 41
0.0
 42
0.0
  3
Standard
100
AcDbAlignedDimension
 13
331.251343
 23
-52.0023
 33
0.0
 14
331.251343
 24
-36.0023
 34
0.0
 50
90.0
100
AcDbRotatedDimension
  0
DIMENSION
  5
5E1
100
AcDbEntity
  8
2
370
    25
100
AcDbDimension
  2
*D27
 10
341.465698
 20
21.9977
 30
0.0
 11
335.465698
 21
-15.0023
 31
0.0
 71
     0
 72
     0
 41
0.0
 42
0.0
  3
Standard
100
AcDbAlignedDimension
 13
205.118263
 23
-52.0023
 33
0.0
 14
205.118269
 24
21.9977
 34
0.0
 50
90.0
100
AcDbRotatedDimension
  0
DIMENSION
  5
5E2
100
AcDbEntity
  8
2
370
    25
100
AcDbDimension
  2
*D28
 10
341.465698
 20
-52.0023
 30
0.0
 11
335.465698
 21
-66.0023
 31
0.0
 71
     0
 72
     0
 41
0.0
 42
0.0
  3
Standard
100
AcDbAlignedDimension
 13
136.318269
 23
-80.0023
 33
0.0
 14
341.465698
 24
-52.0023
 34
0.0
 50
90.0
100
AcDbRotatedDimension
  0
DIMENSION
  5
5E3
100
AcDbEntity
  8
2
370
    25
100
AcDbDimension
  2
*D29
 10
165.440614
 20
-73.031652
 30
0.0
 11
232.929317
 21
-71.486282
 31
0.0
 70
     1
 71
     0
 72
     0
 41
0.0
 42
0.0
  3
Standard
100
AcDbAlignedDimension
 13
300.113922
 23
-35.007475
 33
0.0
 14
165.119063
 24
-36.185557
 34
0.0
 50
0.5
  0
TEXT
  5
5E4
100
AcDbEntity
  8
2
370
    25
100
AcDbText
 10
140.711237
 20
-93.9688
 30
0.0
 40
5.0
  1
バックセット５１
 72
     5
 11
179.711237
 21
-93.9688
 31
0.0
100
AcDbText
  0
DIMENSION
  5
5E5
100
AcDbEntity
  8
2
370
    25
100
AcDbDimension
  2
*D30
 10
186.211237
 20
-94.9688
 30
0.0
 11
160.711237
 21
-92.9688
 31
0.0
 71
     0
 72
     0
 41
0.0
 42
0.0
  3
Standard
100
AcDbAlignedDimension
 13
135.211237
 23
-79.9688
 33
0.0
 14
186.211237
 24
-64.9688
 34
0.0
100
AcDbRotatedDimension
  0
DIMENSION
  5
5E6
100
AcDbEntity
  8
2
370
    25
100
AcDbDimension
  2
*D31
 10
-18.01123
 20
163.145201
 30
0.0
 11
-24.01123
 21
172.145201
 31
0.0
 71
     0
 72
     0
 41
0.0
 42
0.0
  3
Standard
100
AcDbAlignedDimension
 13
-40.0
 23
133.145201
 33
0.0
 14
-40.0
 24
163.145201
 34
0.0
 50
90.0
100
AcDbRotatedDimension
  0
DIMENSION
  5
5E7
100
AcDbEntity
  8
2
370
    25
100
AcDbDimension
  2
*D32
 10
-74.043159
 20
160.145201
 30
0.0
 11
-80.043159
 21
178.179043
 31
0.0
 70
     1
 71
     0
 72
     0
 41
0.0
 42
0.0
 51
270.0
  3
Standard
100
AcDbAlignedDimension
 13
-74.043159
 23
166.145201
 33
0.0
 14
-74.043159
 24
160.145201
 34
0.0
 50
270.0
  0
DIMENSION
  5
5E8
100
AcDbEntity
  8
2
370
    25
100
AcDbDimension
  2
*D33
 10
-51.8
 20
188.645201
 30
0.0
 11
-60.0
 21
192.145201
 31
0.0
 71
     0
 72
     0
 41
0.0
 42
0.0
  3
Standard
100
AcDbAlignedDimension
 13
-68.2
 23
167.445201
 33
0.0
 14
-51.8
 24
167.445201
 34
0.0
100
AcDbRotatedDimension
  0
DIMENSION
  5
5E9
100
AcDbEntity
  8
2
370
    25
100
AcDbDimension
  2
*D34
 10
-50.8
 20
198.617596
 30
0.0
 11
-60.0
 21
202.117596
 31
0.0
 71
     0
 72
     0
 41
0.0
 42
0.0
  3
Standard
100
AcDbAlignedDimension
 13
-69.2
 23
155.795201
 33
0.0
 14
-50.8
 24
155.795201
 34
0.0
100
AcDbRotatedDimension
  0
DIMENSION
  5
5EA
100
AcDbEntity
  8
2
370
    25
100
AcDbDimension
  2
*D35
 10
-53.999978
 20
-46.947384
 30
0.0
 11
-59.999978
 21
-43.447384
 31
0.0
 71
     0
 72
     0
 41
0.0
 42
0.0
  3
Standard
100
AcDbAlignedDimension
 13
-65.999978
 23
-21.483317
 33
0.0
 14
-53.999978
 24
-21.483317
 34
0.0
100
AcDbRotatedDimension
  0
DIMENSION
  5
5EB
100
AcDbEntity
  8
2
370
    25
100
AcDbDimension
  2
*D36
 10
84.860535
 20
-24.0023
 30
0.0
 11
76.360535
 21
-16.5023
 31
0.0
 70
     1
 71
     0
 72
     0
 41
0.0
 42
0.0
  3
Standard
100
AcDbAlignedDimension
 13
128.153078
 23
-4.0023
 33
0.0
 14
128.153078
 24
-24.0023
 34
0.0
 50
90.0
  0
DIMENSION
  5
5EC
100
AcDbEntity
  8
2
370
    25
100
AcDbDimension
  2
*D37
 10
94.938293
 20
-14.0023
 30
0.0
 11
88.938293
 21
-47.0023
 31
0.0
 71
     0
 72
     0
 41
0.0
 42
0.0
  3
Standard
100
AcDbAlignedDimension
 13
135.118263
 23
-80.0023
 33
0.0
 14
120.983211
 24
-14.0023
 34
0.0
 50
90.0
100
AcDbRotatedDimension
  0
DIMENSION
  5
5ED
100
AcDbEntity
  8
2
370
    25
100
AcDbDimension
  2
*D38
 10
65.092651
 20
49.9977
 30
0.0
 11
56.592651
 21
-17.5023
 31
0.0
 71
     0
 72
     0
 41
0.0
 42
0.0
  3
Standard
100
AcDbAlignedDimension
 13
135.118263
 23
-80.0023
 33
0.0
 14
135.118263
 24
49.9977
 34
0.0
 50
90.0
100
AcDbRotatedDimension
  0
DIMENSION
  5
5EE
100
AcDbEntity
  8
2
370
    25
100
AcDbDimension
  2
*D39
 10
75.187897
 20
41.9977
 30
0.0
 11
66.687897
 21
-17.5023
 31
0.0
 71
     0
 72
     0
 41
0.0
 42
0.0
  3
Standard
100
AcDbAlignedDimension
 13
129.328007
 23
-72.0023
 33
0.0
 14
129.328007
 24
41.9977
 34
0.0
 50
90.0
100
AcDbRotatedDimension
  0
DIMENSION
  5
5EF
100
AcDbEntity
  8
2
370
    25
100
AcDbDimension
  2
*D40
 10
75.187897
 20
49.9977
 30
0.0
 11
71.687897
 21
58.9977
 31
0.0
 71
     0
 72
     0
 41
0.0
 42
0.0
  3
Standard
100
AcDbAlignedDimension
 13
129.328007
 23
41.9977
 33
0.0
 14
135.118263
 24
49.9977
 34
0.0
 50
90.0
100
AcDbRotatedDimension
  0
DIMENSION
  5
5F0
100
AcDbEntity
  8
2
370
    25
100
AcDbDimension
  2
*D41
 10
75.187897
 20
-72.0023
 30
0.0
 11
71.687897
 21
-84.0023
 31
0.0
 71
     0
 72
     0
 41
0.0
 42
0.0
  3
Standard
100
AcDbAlignedDimension
 13
135.118263
 23
-80.0023
 33
0.0
 14
129.328007
 24
-72.0023
 34
0.0
 50
90.0
100
AcDbRotatedDimension
  0
DIMENSION
  5
5F1
100
AcDbEntity
  8
2
370
    25
100
AcDbDimension
  2
*D42
 10
135.118263
 20
15.9977
 30
0.0
 11
110.618276
 21
19.4977
 31
0.0
 71
     0
 72
     0
 41
0.0
 42
0.0
  3
Standard
100
AcDbAlignedDimension
 13
124.618276
 23
-5.450749
 33
0.0
 14
135.118263
 24
15.9977
 34
0.0
100
AcDbRotatedDimension
  0
DIMENSION
  5
5F2
100
AcDbEntity
  8
2
370
    25
100
AcDbDimension
  2
*D43
 10
105.403679
 20
-14.0023
 30
0.0
 11
99.403679
 21
-45.0023
 31
0.0
 71
     0
 72
     0
 41
0.0
 42
0.0
  3
Standard
100
AcDbAlignedDimension
 13
157.118263
 23
-36.0023
 33
0.0
 14
120.983211
 24
-14.0023
 34
0.0
 50
90.0
100
AcDbRotatedDimension
  0
DIMENSION
  5
5F3
100
AcDbEntity
  8
2
370
    25
100
AcDbDimension
  2
*D44
 10
-80.000065
 20
-88.142822
 30
0.0
 11
-85.000065
 21
-84.642822
 31
0.0
 71
     0
 72
     0
 41
0.0
 42
0.0
  3
Standard
100
AcDbAlignedDimension
 13
-90.000065
 23
-72.152496
 33
0.0
 14
-80.000065
 24
-73.757093
 34
0.0
100
AcDbRotatedDimension
  0
DIMENSION
  5
5F4
100
AcDbEntity
  8
2
370
    25
100
AcDbDimension
  2
*D45
 10
-30.000065
 20
-86.67569
 30
0.0
 11
-35.000065
 21
-83.17569
 31
0.0
 71
     0
 72
     0
 41
0.0
 42
0.0
  3
Standard
100
AcDbAlignedDimension
 13
-40.000065
 23
-73.757093
 33
0.0
 14
-30.000065
 24
-72.152496
 34
0.0
100
AcDbRotatedDimension
  0
DIMENSION
  5
5F5
100
AcDbEntity
  8
2
370
    25
100
AcDbDimension
  2
*D46
 10
-80.000065
 20
-102.566956
 30
0.0
 11
-109.250032
 21
-99.066956
 31
0.0
 71
     0
 72
     0
 41
0.0
 42
0.0
  3
Standard
100
AcDbAlignedDimension
 13
-138.5
 23
-36.000021
 33
0.0
 14
-80.000065
 24
-73.757093
 34
0.0
100
AcDbRotatedDimension
  0
DIMENSION
  5
5F6
100
AcDbEntity
  8
2
370
    25
100
AcDbDimension
  2
*D47
 10
18.5
 20
-101.966713
 30
0.0
 11
-10.750032
 21
-98.466713
 31
0.0
 71
     0
 72
     0
 41
0.0
 42
0.0
  3
Standard
100
AcDbAlignedDimension
 13
-40.000065
 23
-73.757093
 33
0.0
 14
18.5
 24
-36.000021
 34
0.0
100
AcDbRotatedDimension
  0
DIMENSION
  5
5F7
100
AcDbEntity
  8
2
370
    25
100
AcDbDimension
  2
*D48
 10
-22.000028
 20
68.483444
 30
0.0
 11
-31.000028
 21
71.983444
 31
0.0
 71
     0
 72
     0
 41
0.0
 42
0.0
  3
Standard
100
AcDbAlignedDimension
 13
-40.000028
 23
56.099979
 33
0.0
 14
-22.000028
 24
23.409551
 34
0.0
100
AcDbRotatedDimension
  0
DIMENSION
  5
5F8
100
AcDbEntity
  8
2
370
    25
100
AcDbDimension
  2
*D49
 10
-80.000028
 20
68.594452
 30
0.0
 11
-95.500028
 21
72.094452
 31
0.0
 71
     0
 72
     0
 41
0.0
 42
0.0
  3
Standard
100
AcDbAlignedDimension
 13
-111.000028
 23
13.999979
 33
0.0
 14
-80.000028
 24
56.099979
 34
0.0
100
AcDbRotatedDimension
  0
LINE
  5
5F9
100
AcDbEntity
  8
2
370
    25
100
AcDbLine
 10
135.211237
 20
-80.9688
 30
0.0
 11
135.211237
 21
-107.639706
 31
0.0
  0
LINE
  5
5FA
100
AcDbEntity
  8
2
370
    25
100
AcDbLine
 10
135.211237
 20
-105.639706
 30
0.0
 11
139.07494
 21
-106.674982
 31
0.0
  0
LINE
  5
5FB
100
AcDbEntity
  8
2
370
    25
100
AcDbLine
 10
135.211237
 20
-105.639706
 30
0.0
 11
139.07494
 21
-104.60443
 31
0.0
  0
LINE
  5
5FC
100
AcDbEntity
  8
2
370
    25
100
AcDbLine
 10
135.211237
 20
-105.639706
 30
0.0
 11
207.511237
 21
-105.639706
 31
0.0
  0
LINE
  5
5FD
100
AcDbEntity
  8
2
370
    25
100
AcDbLine
 10
207.511237
 20
-105.639706
 30
0.0
 11
203.647533
 21
-104.60443
 31
0.0
  0
LINE
  5
5FE
100
AcDbEntity
  8
2
370
    25
100
AcDbLine
 10
207.511237
 20
-105.639706
 30
0.0
 11
203.647533
 21
-106.674982
 31
0.0
  0
LINE
  5
5FF
100
AcDbEntity
  8
2
370
    25
100
AcDbLine
 10
207.511237
 20
-51.9688
 30
0.0
 11
207.511237
 21
-107.639706
 31
0.0
  0
TEXT
  5
600
100
AcDbEntity
  8
2
370
    18
100
AcDbText
 10
161.361237
 20
-104.639706
 30
0.0
 40
5.0
  1
７２．３
 72
     5
 11
180.361237
 21
-104.639706
 31
0.0
100
AcDbText
  0
LINE
  5
601
100
AcDbEntity
  8
2
370
    25
100
AcDbLine
 10
-72.5
 20
-81.814667
 30
0.0
 11
-72.5
 21
-104.870442
 31
0.0
  0
LINE
  5
602
100
AcDbEntity
  8
2
370
    25
100
AcDbLine
 10
-72.5
 20
-102.870442
 30
0.0
 11
-68.636297
 21
-103.905718
 31
0.0
  0
LINE
  5
603
100
AcDbEntity
  8
2
370
    25
100
AcDbLine
 10
-72.5
 20
-102.870442
 30
0.0
 11
-68.636297
 21
-101.835166
 31
0.0
  0
LINE
  5
604
100
AcDbEntity
  8
2
370
    25
100
AcDbLine
 10
-72.5
 20
-102.870442
 30
0.0
 11
-47.5
 21
-102.870442
 31
0.0
  0
LINE
  5
605
100
AcDbEntity
  8
2
370
    25
100
AcDbLine
 10
-47.5
 20
-102.870442
 30
0.0
 11
-51.363703
 21
-101.835166
 31
0.0
  0
LINE
  5
606
100
AcDbEntity
  8
2
370
    25
100
AcDbLine
 10
-47.5
 20
-102.870442
 30
0.0
 11
-51.363703
 21
-103.905718
 31
0.0
  0
LINE
  5
607
100
AcDbEntity
  8
2
370
    25
100
AcDbLine
 10
-47.5
 20
-81.895493
 30
0.0
 11
-47.5
 21
-104.870442
 31
0.0
  0
TEXT
  5
608
100
AcDbEntity
  8
2
370
    25
100
AcDbText
 10
-65.0
 20
-101.870442
 30
0.0
 40
5.0
  1
25
 41
2.0
 72
     5
 11
-57.0
 21
-101.870442
 31
0.0
100
AcDbText
  0
LINE
  5
609
100
AcDbEntity
  8
2
370
    25
100
AcDbLine
 10
31.374988
 20
-36.008121
 30
0.0
 11
41.949328
 21
-36.008121
 31
0.0
  0
LINE
  5
60A
100
AcDbEntity
  8
2
370
    25
100
AcDbLine
 10
39.949328
 20
-36.008121
 30
0.0
 11
40.984605
 21
-32.144417
 31
0.0
  0
LINE
  5
60B
100
AcDbEntity
  8
2
370
    25
100
AcDbLine
 10
39.949328
 20
-36.008121
 30
0.0
 11
38.914052
 21
-32.144417
 31
0.0
  0
LINE
  5
60C
100
AcDbEntity
  8
2
370
    25
100
AcDbLine
 10
39.949328
 20
-36.008121
 30
0.0
 11
39.949328
 21
49.991879
 31
0.0
  0
LINE
  5
60D
100
AcDbEntity
  8
2
370
    25
100
AcDbLine
 10
39.949328
 20
49.991879
 30
0.0
 11
38.914052
 21
46.128176
 31
0.0
  0
LINE
  5
60E
100
AcDbEntity
  8
2
370
    25
100
AcDbLine
 10
39.949328
 20
49.991879
 30
0.0
 11
40.984605
 21
46.128176
 31
0.0
  0
LINE
  5
60F
100
AcDbEntity
  8
2
370
    25
100
AcDbLine
 10
-30.137449
 20
49.991879
 30
0.0
 11
41.949328
 21
49.991879
 31
0.0
  0
TEXT
  5
610
100
AcDbEntity
  8
2
370
    18
100
AcDbText
 10
38.949328
 20
1.991879
 30
0.0
 40
5.0
  1
８６
 50
90.0
 72
     5
 11
38.949328
 21
10.991879
 31
0.0
100
AcDbText
  0
LWPOLYLINE
  5
611
100
AcDbEntity
  8
2
370
    25
100
AcDbPolyline
 90
        2
 70
     0
 10
321.594412
 20
184.986701
 10
324.720166
 20
240.071563
  0
LINE
  5
615
100
AcDbEntity
  8
2
370
    25
100
AcDbLine
 10
321.561704
 20
184.410278
 30
0.0
 11
322.560098
 21
184.353624
 31
0.0
  0
LINE
  5
616
100
AcDbEntity
  8
2
370
    25
100
AcDbLine
 10
322.560098
 20
184.353624
 30
0.0
 11
321.65983
 21
186.139547
 31
0.0
  0
LINE
  5
617
100
AcDbEntity
  8
2
370
    25
100
AcDbLine
 10
321.65983
 20
186.139547
 30
0.0
 11
320.56331
 21
184.466931
 31
0.0
  0
LINE
  5
618
100
AcDbEntity
  8
2
370
    25
100
AcDbLine
 10
320.56331
 20
184.466931
 30
0.0
 11
321.561704
 21
184.410278
 31
0.0
  0
LWPOLYLINE
  5
619
100
AcDbEntity
  8
2
370
    25
100
AcDbPolyline
 90
        2
 70
     0
 10
331.02202
 20
201.905699
 10
338.572845
 20
239.284916
  0
LINE
  5
61D
100
AcDbEntity
  8
2
370
    25
100
AcDbLine
 10
330.907701
 20
201.339779
 30
0.0
 11
331.887901
 21
201.141773
 31
0.0
  0
LINE
  5
61E
100
AcDbEntity
  8
2
370
    25
100
AcDbLine
 10
331.887901
 20
201.141773
 30
0.0
 11
331.250658
 21
203.037537
 31
0.0
  0
LINE
  5
61F
100
AcDbEntity
  8
2
370
    25
100
AcDbLine
 10
331.250658
 20
203.037537
 30
0.0
 11
329.9275
 21
201.537786
 31
0.0
  0
LINE
  5
620
100
AcDbEntity
  8
2
370
    25
100
AcDbLine
 10
329.9275
 20
201.537786
 30
0.0
 11
330.907701
 21
201.339779
 31
0.0
  0
CIRCLE
  5
621
100
AcDbEntity
  8
2
370
    25
100
AcDbCircle
 10
-1.329313
 20
108.172688
 30
0.0
 40
5.0
  0
LWPOLYLINE
  5
622
100
AcDbEntity
  8
2
370
    25
100
AcDbPolyline
 90
        2
 70
     0
 10
-32.236844
 20
130.699094
 10
-5.292859
 20
111.082057
  0
LINE
  5
626
100
AcDbEntity
  8
2
370
    25
100
AcDbLine
 10
-32.703592
 20
131.038917
 30
0.0
 11
-33.292184
 21
130.230487
 31
0.0
  0
LINE
  5
627
100
AcDbEntity
  8
2
370
    25
100
AcDbLine
 10
-33.292184
 20
130.230487
 30
0.0
 11
-31.303349
 21
130.019446
 31
0.0
  0
LINE
  5
628
100
AcDbEntity
  8
2
370
    25
100
AcDbLine
 10
-31.303349
 20
130.019446
 30
0.0
 11
-32.115
 21
131.847348
 31
0.0
  0
LINE
  5
629
100
AcDbEntity
  8
2
370
    25
100
AcDbLine
 10
-32.115
 20
131.847348
 30
0.0
 11
-32.703592
 21
131.038917
 31
0.0
  0
TEXT
  5
62A
100
AcDbEntity
  8
2
370
    25
100
AcDbText
 10
-3.829313
 20
105.672688
 30
0.0
 40
5.0
  1
４
 72
     5
 11
0.170687
 21
105.672688
 31
0.0
100
AcDbText
  0
CIRCLE
  5
62B
100
AcDbEntity
  8
2
370
    25
100
AcDbCircle
 10
-330.04294
 20
162.338225
 30
0.0
 40
5.0
  0
LWPOLYLINE
  5
62C
100
AcDbEntity
  8
2
370
    18
100
AcDbPolyline
 90
        2
 70
     0
 10
-284.922666
 20
192.236816
 10
-325.888408
 20
165.455194
  0
LINE
  5
630
100
AcDbEntity
  8
2
370
    25
100
AcDbLine
 10
-284.439422
 20
192.552741
 30
0.0
 11
-284.986618
 21
193.389745
 31
0.0
  0
LINE
  5
631
100
AcDbEntity
  8
2
370
    25
100
AcDbLine
 10
-284.986618
 20
193.389745
 30
0.0
 11
-285.889155
 21
191.604968
 31
0.0
  0
LINE
  5
632
100
AcDbEntity
  8
2
370
    25
100
AcDbLine
 10
-285.889155
 20
191.604968
 30
0.0
 11
-283.892225
 21
191.715737
 31
0.0
  0
LINE
  5
633
100
AcDbEntity
  8
2
370
    25
100
AcDbLine
 10
-283.892225
 20
191.715737
 30
0.0
 11
-284.439422
 21
192.552741
 31
0.0
  0
TEXT
  5
634
100
AcDbEntity
  8
2
370
    18
100
AcDbText
 10
-332.54294
 20
159.838225
 30
0.0
 40
5.0
  1
５
 72
     5
 11
-328.54294
 21
159.838225
 31
0.0
100
AcDbText
  0
CIRCLE
  5
635
100
AcDbEntity
  8
2
370
    25
100
AcDbCircle
 10
209.869629
 20
244.530777
 30
0.0
 40
5.0
  0
TEXT
  5
636
100
AcDbEntity
  8
2
370
    25
100
AcDbText
 10
205.702129
 20
242.030777
 30
0.0
 40
5.0
  1
１
 72
     5
 11
208.035629
 21
242.030777
 31
0.0
100
AcDbText
  0
TEXT
  5
637
100
AcDbEntity
  8
2
370
    25
100
AcDbText
 10
209.035629
 20
242.030777
 30
0.0
 40
5.0
  1
０
 72
     5
 11
211.369129
 21
242.030777
 31
0.0
100
AcDbText
  0
CIRCLE
  5
638
100
AcDbEntity
  8
2
370
    25
100
AcDbCircle
 10
324.841675
 20
244.999405
 30
0.0
 40
5.0
  0
TEXT
  5
639
100
AcDbEntity
  8
2
370
    25
100
AcDbText
 10
320.674175
 20
242.499405
 30
0.0
 40
5.0
  1
１
 72
     5
 11
323.007675
 21
242.499405
 31
0.0
100
AcDbText
  0
TEXT
  5
63A
100
AcDbEntity
  8
2
370
    25
100
AcDbText
 10
324.007675
 20
242.499405
 30
0.0
 40
5.0
  1
１
 72
     5
 11
326.341175
 21
242.499405
 31
0.0
100
AcDbText
  0
CIRCLE
  5
63B
100
AcDbEntity
  8
2
370
    25
100
AcDbCircle
 10
339.677856
 20
244.218353
 30
0.0
 40
5.0
  0
TEXT
  5
63C
100
AcDbEntity
  8
2
370
    25
100
AcDbText
 10
335.510356
 20
241.718353
 30
0.0
 40
5.0
  1
１
 72
     5
 11
337.843856
 21
241.718353
 31
0.0
100
AcDbText
  0
TEXT
  5
63D
100
AcDbEntity
  8
2
370
    25
100
AcDbText
 10
338.843856
 20
241.718353
 30
0.0
 40
5.0
  1
２
 72
     5
 11
341.177356
 21
241.718353
 31
0.0
100
AcDbText
  0
TEXT
  5
63E
100
AcDbEntity
  8
2
370
    25
100
AcDbText
 10
-80.0
 20
69.407631
 30
0.0
 40
5.0
  1
ドア厚２８～
 72
     5
 11
-51.0
 21
69.407631
 31
0.0
100
AcDbText
  0
DIMENSION
  5
63F
100
AcDbEntity
  8
2
370
    25
100
AcDbDimension
  2
*D50
 10
-40.0
 20
68.407631
 30
0.0
 11
-45.0
 21
71.907631
 31
0.0
 71
     0
 72
     0
 41
0.0
 42
0.0
  3
Standard
100
AcDbAlignedDimension
 13
-80.0
 23
38.500001
 33
0.0
 14
-40.0
 24
38.500001
 34
0.0
100
AcDbRotatedDimension
  0
DIMENSION
  5
640
100
AcDbEntity
  8
2
370
    25
100
AcDbDimension
  2
*D51
 10
319.051758
 20
14.0312
 30
0.0
 11
313.051758
 21
-10.9688
 31
0.0
 71
     0
 72
     0
 41
0.0
 42
0.0
  3
Standard
100
AcDbAlignedDimension
 13
223.118263
 23
-35.9688
 33
0.0
 14
204.718263
 24
14.0312
 34
0.0
 50
90.0
100
AcDbRotatedDimension
  0
LWPOLYLINE
  5
641
100
AcDbEntity
  8
2
370
    25
100
AcDbPolyline
 90
        2
 70
     0
 10
146.251277
 20
43.95124
 10
151.273841
 20
73.838357
  0
LINE
  5
645
100
AcDbEntity
  8
2
370
    25
100
AcDbLine
 10
146.155595
 20
43.381874
 30
0.0
 11
147.141766
 21
43.216147
 31
0.0
  0
LINE
  5
646
100
AcDbEntity
  8
2
370
    25
100
AcDbLine
 10
147.141766
 20
43.216147
 30
0.0
 11
146.442643
 21
45.089973
 31
0.0
  0
LINE
  5
647
100
AcDbEntity
  8
2
370
    25
100
AcDbLine
 10
146.442643
 20
45.089973
 30
0.0
 11
145.169423
 21
43.547601
 31
0.0
  0
LINE
  5
648
100
AcDbEntity
  8
2
370
    25
100
AcDbLine
 10
145.169423
 20
43.547601
 30
0.0
 11
146.155595
 21
43.381874
 31
0.0
  0
LWPOLYLINE
  5
649
100
AcDbEntity
  8
2
370
    25
100
AcDbPolyline
 90
        2
 70
     0
 10
152.398163
 20
20.70124
 10
161.392001
 20
74.219701
  0
LINE
  5
64D
100
AcDbEntity
  8
2
370
    25
100
AcDbLine
 10
152.302481
 20
20.131874
 30
0.0
 11
153.288652
 21
19.966147
 31
0.0
  0
LINE
  5
64E
100
AcDbEntity
  8
2
370
    25
100
AcDbLine
 10
153.288652
 20
19.966147
 30
0.0
 11
152.589529
 21
21.839973
 31
0.0
  0
LINE
  5
64F
100
AcDbEntity
  8
2
370
    25
100
AcDbLine
 10
152.589529
 20
21.839973
 30
0.0
 11
151.316309
 21
20.297601
 31
0.0
  0
LINE
  5
650
100
AcDbEntity
  8
2
370
    25
100
AcDbLine
 10
151.316309
 20
20.297601
 30
0.0
 11
152.302481
 21
20.131874
 31
0.0
  0
LWPOLYLINE
  5
651
100
AcDbEntity
  8
2
370
    25
100
AcDbPolyline
 90
        2
 70
     0
 10
231.78833
 20
198.111542
 10
212.592407
 20
239.933105
  0
LINE
  5
655
100
AcDbEntity
  8
2
370
    25
100
AcDbLine
 10
232.029173
 20
197.586825
 30
0.0
 11
232.93801
 21
198.003977
 31
0.0
  0
LINE
  5
656
100
AcDbEntity
  8
2
370
    25
100
AcDbLine
 10
232.93801
 20
198.003977
 30
0.0
 11
231.306644
 21
199.160976
 31
0.0
  0
LINE
  5
657
100
AcDbEntity
  8
2
370
    25
100
AcDbLine
 10
231.306644
 20
199.160976
 30
0.0
 11
231.120336
 21
197.169672
 31
0.0
  0
LINE
  5
658
100
AcDbEntity
  8
2
370
    25
100
AcDbLine
 10
231.120336
 20
197.169672
 30
0.0
 11
232.029173
 21
197.586825
 31
0.0
  0
CIRCLE
  5
659
100
AcDbEntity
  8
2
370
    25
100
AcDbCircle
 10
152.188747
 20
78.813505
 30
0.0
 40
5.0
  0
CIRCLE
  5
65A
100
AcDbEntity
  8
2
370
    25
100
AcDbCircle
 10
162.829591
 20
79.029691
 30
0.0
 40
5.0
  0
LWPOLYLINE
  5
65B
100
AcDbEntity
  8
2
370
    25
100
AcDbPolyline
 90
        2
 70
     0
 10
135.340574
 20
49.81963
 10
111.165671
 20
74.386302
  0
LINE
  5
65F
100
AcDbEntity
  8
2
370
    25
100
AcDbLine
 10
135.745528
 20
49.408114
 30
0.0
 11
136.458295
 21
50.109515
 31
0.0
  0
LINE
  5
660
100
AcDbEntity
  8
2
370
    25
100
AcDbLine
 10
136.458295
 20
50.109515
 30
0.0
 11
134.530666
 21
50.642663
 31
0.0
  0
LINE
  5
661
100
AcDbEntity
  8
2
370
    25
100
AcDbLine
 10
134.530666
 20
50.642663
 30
0.0
 11
135.032761
 21
48.706713
 31
0.0
  0
LINE
  5
662
100
AcDbEntity
  8
2
370
    25
100
AcDbLine
 10
135.032761
 20
48.706713
 30
0.0
 11
135.745528
 21
49.408114
 31
0.0
  0
CIRCLE
  5
663
100
AcDbEntity
  8
2
370
    25
100
AcDbCircle
 10
108.25809
 20
78.324911
 30
0.0
 40
5.0
  0
TEXT
  5
664
100
AcDbEntity
  8
2
370
    25
100
AcDbText
 10
105.75809
 20
75.824911
 30
0.0
 40
5.0
  1
８
 72
     5
 11
109.75809
 21
75.824911
 31
0.0
100
AcDbText
  0
TEXT
  5
665
100
AcDbEntity
  8
2
370
    25
100
AcDbText
 10
149.688747
 20
76.313505
 30
0.0
 40
5.0
  1
９
 72
     5
 11
153.688747
 21
76.313505
 31
0.0
100
AcDbText
  0
TEXT
  5
666
100
AcDbEntity
  8
2
370
    25
100
AcDbText
 10
160.329591
 20
76.529691
 30
0.0
 40
5.0
  1
７
 72
     5
 11
164.329591
 21
76.529691
 31
0.0
100
AcDbText
  0
LINE
  5
667
100
AcDbEntity
  8
2
370
    18
100
AcDbLine
 10
135.218269
 20
59.530365
 30
0.0
 11
131.354565
 21
60.565641
 31
0.0
  0
LINE
  5
668
100
AcDbEntity
  8
2
370
    18
100
AcDbLine
 10
135.218269
 20
59.530365
 30
0.0
 11
131.354565
 21
58.495089
 31
0.0
  0
LINE
  5
669
100
AcDbEntity
  8
2
370
    18
100
AcDbLine
 10
127.871765
 20
59.530365
 30
0.0
 11
146.331665
 21
59.530365
 31
0.0
  0
LINE
  5
66A
100
AcDbEntity
  8
2
370
    18
100
AcDbLine
 10
139.218269
 20
59.530365
 30
0.0
 11
143.081972
 21
58.495089
 31
0.0
  0
LINE
  5
66B
100
AcDbEntity
  8
2
370
    18
100
AcDbLine
 10
139.218269
 20
59.530365
 30
0.0
 11
143.081972
 21
60.565641
 31
0.0
  0
LINE
  5
66C
100
AcDbEntity
  8
2
370
    18
100
AcDbLine
 10
139.218269
 20
40.9
 30
0.0
 11
139.218269
 21
61.530365
 31
0.0
  0
TEXT
  5
66D
100
AcDbEntity
  8
2
370
    18
100
AcDbText
 10
126.218269
 20
60.530365
 30
0.0
 40
5.0
  1
４
 72
     5
 11
130.218269
 21
60.530365
 31
0.0
100
AcDbText
  0
LINE
  5
66E
100
AcDbEntity
  8
2
370
    18
100
AcDbLine
 10
135.218269
 20
40.9
 30
0.0
 11
135.218269
 21
61.530365
 31
0.0
  0
CIRCLE
  5
66F
100
AcDbEntity
  8
2
370
    25
100
AcDbCircle
 10
4.624301
 20
5.822371
 30
0.0
 40
5.0
  0
TEXT
  5
670
100
AcDbEntity
  8
2
370
    25
100
AcDbText
 10
2.124301
 20
3.322371
 30
0.0
 40
5.0
  1
2
 72
     5
 11
6.124301
 21
3.322371
 31
0.0
100
AcDbText
  0
CIRCLE
  5
671
100
AcDbEntity
  8
2
370
    25
100
AcDbCircle
 10
4.494113
 20
-12.83078
 30
0.0
 40
5.0
  0
TEXT
  5
672
100
AcDbEntity
  8
2
370
    25
100
AcDbText
 10
1.994113
 20
-15.33078
 30
0.0
 40
5.0
  1
１
 72
     5
 11
5.994113
 21
-15.33078
 31
0.0
100
AcDbText
  0
LWPOLYLINE
  5
673
100
AcDbEntity
  8
2
370
    25
100
AcDbPolyline
 90
        2
 70
     0
 10
-34.28627
 20
-21.952342
 10
0.235389
 20
4.036836
  0
LINE
  5
677
100
AcDbEntity
  8
2
370
    25
100
AcDbLine
 10
-34.747521
 20
-22.299589
 30
0.0
 11
-34.146071
 21
-23.0985
 31
0.0
  0
LINE
  5
678
100
AcDbEntity
  8
2
370
    25
100
AcDbLine
 10
-34.146071
 20
-23.0985
 30
0.0
 11
-33.363767
 21
-21.257848
 31
0.0
  0
LINE
  5
679
100
AcDbEntity
  8
2
370
    25
100
AcDbLine
 10
-33.363767
 20
-21.257848
 30
0.0
 11
-35.34897
 21
-21.500678
 31
0.0
  0
LINE
  5
67A
100
AcDbEntity
  8
2
370
    25
100
AcDbLine
 10
-35.34897
 20
-21.500678
 30
0.0
 11
-34.747521
 21
-22.299589
 31
0.0
  0
LWPOLYLINE
  5
67B
100
AcDbEntity
  8
2
370
    25
100
AcDbPolyline
 90
        2
 70
     0
 10
-22.275236
 20
-32.605361
 10
0.195853
 20
-15.688296
  0
LINE
  5
67F
100
AcDbEntity
  8
2
370
    25
100
AcDbLine
 10
-22.736487
 20
-32.952608
 30
0.0
 11
-22.135037
 21
-33.751519
 31
0.0
  0
LINE
  5
680
100
AcDbEntity
  8
2
370
    25
100
AcDbLine
 10
-22.135037
 20
-33.751519
 30
0.0
 11
-21.352733
 21
-31.910867
 31
0.0
  0
LINE
  5
681
100
AcDbEntity
  8
2
370
    25
100
AcDbLine
 10
-21.352733
 20
-31.910867
 30
0.0
 11
-23.337936
 21
-32.153697
 31
0.0
  0
LINE
  5
682
100
AcDbEntity
  8
2
370
    25
100
AcDbLine
 10
-23.337936
 20
-32.153697
 30
0.0
 11
-22.736487
 21
-32.952608
 31
0.0
  0
CIRCLE
  5
683
100
AcDbEntity
  8
2
370
    25
100
AcDbCircle
 10
4.624301
 20
80.322371
 30
0.0
 40
5.0
  0
LWPOLYLINE
  5
684
100
AcDbEntity
  8
2
370
    25
100
AcDbPolyline
 90
        2
 70
     0
 10
-34.28627
 20
52.547658
 10
0.235389
 20
78.536836
  0
LINE
  5
688
100
AcDbEntity
  8
2
370
    25
100
AcDbLine
 10
-34.747521
 20
52.200411
 30
0.0
 11
-34.146071
 21
51.4015
 31
0.0
  0
LINE
  5
689
100
AcDbEntity
  8
2
370
    25
100
AcDbLine
 10
-34.146071
 20
51.4015
 30
0.0
 11
-33.363767
 21
53.242152
 31
0.0
  0
LINE
  5
68A
100
AcDbEntity
  8
2
370
    25
100
AcDbLine
 10
-33.363767
 20
53.242152
 30
0.0
 11
-35.34897
 21
52.999322
 31
0.0
  0
LINE
  5
68B
100
AcDbEntity
  8
2
370
    25
100
AcDbLine
 10
-35.34897
 20
52.999322
 30
0.0
 11
-34.747521
 21
52.200411
 31
0.0
  0
TEXT
  5
68C
100
AcDbEntity
  8
2
370
    25
100
AcDbText
 10
2.124301
 20
77.822371
 30
0.0
 40
5.0
  1
５
 72
     5
 11
6.124301
 21
77.822371
 31
0.0
100
AcDbText
  0
CIRCLE
  5
68D
100
AcDbEntity
  8
2
370
    25
100
AcDbCircle
 10
-130.444151
 20
-59.297535
 30
0.0
 40
5.0
  0
LWPOLYLINE
  5
68E
100
AcDbEntity
  8
2
370
    25
100
AcDbPolyline
 90
        2
 70
     0
 10
-101.828124
 20
-39.033047
 10
-126.206279
 20
-56.781986
  0
LINE
  5
692
100
AcDbEntity
  8
2
370
    25
100
AcDbLine
 10
-101.361376
 20
-38.693223
 30
0.0
 11
-101.949968
 21
-37.884793
 31
0.0
  0
LINE
  5
693
100
AcDbEntity
  8
2
370
    25
100
AcDbLine
 10
-101.949968
 20
-37.884793
 30
0.0
 11
-102.761619
 21
-39.712694
 31
0.0
  0
LINE
  5
694
100
AcDbEntity
  8
2
370
    25
100
AcDbLine
 10
-102.761619
 20
-39.712694
 30
0.0
 11
-100.772784
 21
-39.501654
 31
0.0
  0
LINE
  5
695
100
AcDbEntity
  8
2
370
    25
100
AcDbLine
 10
-100.772784
 20
-39.501654
 30
0.0
 11
-101.361376
 21
-38.693223
 31
0.0
  0
TEXT
  5
696
100
AcDbEntity
  8
2
370
    25
100
AcDbText
 10
-132.944151
 20
-61.797535
 30
0.0
 40
5.0
  1
３
 72
     5
 11
-128.944151
 21
-61.797535
 31
0.0
100
AcDbText
  0
LINE
  5
697
100
AcDbEntity
  8
3
370
   100
100
AcDbLine
 10
-380.0
 20
276.0
 30
0.0
 11
-380.0
 21
-276.0
 31
0.0
  0
LINE
  5
698
100
AcDbEntity
  8
3
370
   100
100
AcDbLine
 10
400.0
 20
276.0
 30
0.0
 11
400.0
 21
-276.0
 31
0.0
  0
LINE
  5
699
100
AcDbEntity
  8
3
370
   100
100
AcDbLine
 10
-380.0
 20
276.0
 30
0.0
 11
400.0
 21
276.0
 31
0.0
  0
LINE
  5
69A
100
AcDbEntity
  8
3
370
   100
100
AcDbLine
 10
-380.0
 20
-276.0
 30
0.0
 11
400.0
 21
-276.0
 31
0.0
  0
LINE
  5
69B
100
AcDbEntity
  8
3
370
    50
100
AcDbLine
 10
-380.0
 20
-216.0
 30
0.0
 11
400.0
 21
-216.0
 31
0.0
  0
LINE
  5
69C
100
AcDbEntity
  8
3
370
    25
100
AcDbLine
 10
20.0
 20
-225.999897
 30
0.0
 11
216.001054
 21
-225.999729
 31
0.0
  0
LINE
  5
69D
100
AcDbEntity
  8
3
370
   100
100
AcDbLine
 10
-380.6
 20
276.6
 30
0.0
 11
400.6
 21
276.6
 31
0.0
  0
LINE
  5
69E
100
AcDbEntity
  8
3
370
   100
100
AcDbLine
 10
400.6
 20
276.6
 30
0.0
 11
400.6
 21
-276.6
 31
0.0
  0
LINE
  5
69F
100
AcDbEntity
  8
3
370
   100
100
AcDbLine
 10
400.6
 20
-276.6
 30
0.0
 11
-380.6
 21
-276.6
 31
0.0
  0
LINE
  5
6A0
100
AcDbEntity
  8
3
370
   100
100
AcDbLine
 10
-380.6
 20
-276.6
 30
0.0
 11
-380.6
 21
276.6
 31
0.0
  0
LINE
  5
6A1
100
AcDbEntity
  8
3
370
    25
100
AcDbLine
 10
216.001054
 20
-225.999729
 30
0.0
 11
216.001054
 21
-216.0
 31
0.0
  0
LINE
  5
6A2
100
AcDbEntity
  8
3
370
    25
100
AcDbLine
 10
180.0
 20
-259.999729
 30
0.0
 11
216.001054
 21
-259.999729
 31
0.0
  0
LINE
  5
6A3
100
AcDbEntity
  8
3
370
    25
100
AcDbLine
 10
216.001054
 20
-259.999729
 30
0.0
 11
216.001054
 21
-250.0
 31
0.0
  0
LINE
  5
6A4
100
AcDbEntity
  8
3
370
    50
100
AcDbLine
 10
20.0
 20
-216.0
 30
0.0
 11
20.0
 21
-276.0
 31
0.0
  0
TEXT
  5
6A5
100
AcDbEntity
  8
3
370
   100
100
AcDbText
 10
44.0
 20
-271.0
 30
0.0
 40
16.0
  1
（株）川口技研
 72
     5
 11
152.8
 21
-271.0
 31
0.0
100
AcDbText
  0
TEXT
  5
6A6
100
AcDbEntity
  8
3
370
    25
100
AcDbText
 10
183.600527
 20
-224.59988
 30
0.0
 40
7.2
  1
図面名称
 72
     5
 11
210.960527
 21
-224.59988
 31
0.0
100
AcDbText
  0
TEXT
  5
6A7
100
AcDbEntity
  8
3
370
    25
100
AcDbText
 10
183.600527
 20
-258.599849
 30
0.0
 40
7.2
  1
図面番号
 72
     5
 11
210.960527
 21
-258.599849
 31
0.0
100
AcDbText
  0
TEXT
  5
6A8
100
AcDbEntity
  8
3
370
    25
100
AcDbText
 10
32.266667
 20
-224.599983
 30
0.0
 40
7.2
  1
図　　法
 72
     5
 11
59.626667
 21
-224.599983
 31
0.0
100
AcDbText
  0
TEXT
  5
6A9
100
AcDbEntity
  8
3
370
    25
100
AcDbText
 10
85.6
 20
-224.599949
 30
0.0
 40
7.2
  1
単　　位
 72
     5
 11
112.96
 21
-224.599949
 31
0.0
100
AcDbText
  0
TEXT
  5
6AA
100
AcDbEntity
  8
3
370
    25
100
AcDbText
 10
138.933333
 20
-224.599914
 30
0.0
 40
7.2
  1
尺　　度
 72
     5
 11
166.293333
 21
-224.599914
 31
0.0
100
AcDbText
  0
TEXT
  5
6AB
100
AcDbEntity
  8
3
370
    25
100
AcDbText
 10
92.0
 20
-241.999914
 30
0.0
 40
8.0
  1
ｍｍ
 72
     5
 11
106.4
 21
-241.999914
 31
0.0
100
AcDbText
  0
TEXT
  5
6AC
100
AcDbEntity
  8
3
370
    25
100
AcDbText
 10
141.333333
 20
-241.999914
 30
0.0
 40
8.0
  1
１／２
 72
     5
 11
163.733333
 21
-241.999914
 31
0.0
100
AcDbText
  0
TEXT
  5
6AD
100
AcDbEntity
  8
3
370
    25
100
AcDbText
 10
34.666667
 20
-241.999914
 30
0.0
 40
8.0
  1
３角法
 72
     5
 11
57.066667
 21
-241.999914
 31
0.0
100
AcDbText
  0
LINE
  5
6AE
100
AcDbEntity
  8
3
370
    50
100
AcDbLine
 10
180.0
 20
-276.0
 30
0.0
 11
180.0
 21
-216.0
 31
0.0
  0
LINE
  5
6AF
100
AcDbEntity
  8
3
370
    50
100
AcDbLine
 10
20.0
 20
-250.0
 30
0.0
 11
180.0
 21
-250.0
 31
0.0
  0
LINE
  5
6B0
100
AcDbEntity
  8
3
370
    50
100
AcDbLine
 10
180.0
 20
-250.0
 30
0.0
 11
400.0
 21
-250.0
 31
0.0
  0
LINE
  5
6B1
100
AcDbEntity
  8
3
370
    50
100
AcDbLine
 10
73.333333
 20
-250.0
 30
0.0
 11
73.333333
 21
-216.0
 31
0.0
  0
LINE
  5
6B2
100
AcDbEntity
  8
3
370
    50
100
AcDbLine
 10
126.666667
 20
-250.0
 30
0.0
 11
126.666667
 21
-216.0
 31
0.0
  0
TEXT
  5
6B3
100
AcDbEntity
  8
3
370
   100
100
AcDbText
 10
248.842911
 20
-269.090942
 30
0.0
 40
12.0
  1
ＤＺ－１９９４－００
 72
     5
 11
366.442911
 21
-269.090942
 31
0.0
100
AcDbText
  0
TEXT
  5
6B4
100
AcDbEntity
  8
3
370
    50
100
AcDbText
 10
236.79686
 20
-237.638
 30
0.0
 40
9.0
  1
ＬＶＳ－６５Ａ－５Ｋ１３　外観図
 41
0.9
 72
     5
 11
364.77686
 21
-237.638
 31
0.0
100
AcDbText
  0
LINE
  5
6B5
100
AcDbEntity
  8
3
370
    50
100
AcDbLine
 10
180.0
 20
-216.0
 30
0.0
 11
400.0
 21
-216.0
 31
0.0
  0
LINE
  5
6B6
100
AcDbEntity
  8
3
370
    50
100
AcDbLine
 10
180.0
 20
-132.0
 30
0.0
 11
180.0
 21
-216.0
 31
0.0
  0
LINE
  5
6B7
100
AcDbEntity
  8
3
370
    50
100
AcDbLine
 10
380.0
 20
-132.0
 30
0.0
 11
380.0
 21
-216.0
 31
0.0
  0
TEXT
  5
6B8
100
AcDbEntity
  8
3
370
    25
100
AcDbText
 10
182.8
 20
-212.6
 30
0.0
 40
7.2
  1
品番
 72
     5
 11
195.76
 21
-212.6
 31
0.0
100
AcDbText
  0
TEXT
  5
6B9
100
AcDbEntity
  8
3
370
    25
100
AcDbText
 10
234.8
 20
-212.6
 30
0.0
 40
7.2
  1
品　　　　　名
 72
     5
 11
283.76
 21
-212.6
 31
0.0
100
AcDbText
  0
TEXT
  5
6BA
100
AcDbEntity
  8
3
370
    25
100
AcDbText
 10
382.8
 20
-212.6
 30
0.0
 40
7.2
  1
員数
 72
     5
 11
395.76
 21
-212.6
 31
0.0
100
AcDbText
  0
LINE
  5
6BB
100
AcDbEntity
  8
3
370
    50
100
AcDbLine
 10
-260.0
 20
-188.0
 30
0.0
 11
400.0
 21
-188.0
 31
0.0
  0
LINE
  5
6BC
100
AcDbEntity
  8
3
370
    50
100
AcDbLine
 10
-40.0
 20
-160.0
 30
0.0
 11
400.0
 21
-160.0
 31
0.0
  0
LINE
  5
6BD
100
AcDbEntity
  8
3
370
    50
100
AcDbLine
 10
-40.0
 20
-146.0
 30
0.0
 11
400.0
 21
-146.0
 31
0.0
  0
LINE
  5
6BE
100
AcDbEntity
  8
3
370
    50
100
AcDbLine
 10
-40.0
 20
-132.0
 30
0.0
 11
400.0
 21
-132.0
 31
0.0
  0
TEXT
  5
6BF
100
AcDbEntity
  8
3
370
    25
100
AcDbText
 10
186.0
 20
-199.0
 30
0.0
 40
8.0
  1
１
 72
     5
 11
192.4
 21
-199.0
 31
0.0
100
AcDbText
  0
TEXT
  5
6C0
100
AcDbEntity
  8
3
370
    25
100
AcDbText
 10
386.0
 20
-199.0
 30
0.0
 40
8.0
  1
１
 72
     5
 11
392.4
 21
-199.0
 31
0.0
100
AcDbText
  0
LINE
  5
6C1
100
AcDbEntity
  8
3
370
    50
100
AcDbLine
 10
320.0
 20
-216.0
 30
0.0
 11
320.0
 21
-132.0
 31
0.0
  0
LINE
  5
6C2
100
AcDbEntity
  8
3
370
    50
100
AcDbLine
 10
200.0
 20
-216.0
 30
0.0
 11
200.0
 21
-132.0
 31
0.0
  0
TEXT
  5
6C3
100
AcDbEntity
  8
3
370
    25
100
AcDbText
 10
339.2
 20
-212.6
 30
0.0
 40
7.2
  1
寸　法
 72
     5
 11
359.36
 21
-212.6
 31
0.0
100
AcDbText
  0
TEXT
  5
6C4
100
AcDbEntity
  8
3
370
    25
100
AcDbText
 10
205.301895
 20
-198.974701
 30
0.0
 40
6.4
  1
レバ－ハンドル　Ｎｏ．６５Ａ
 72
     5
 11
293.621896
 21
-198.974701
 31
0.0
100
AcDbText
  0
TEXT
  5
6C5
100
AcDbEntity
  8
3
370
    25
100
AcDbText
 10
325.301895
 20
-156.974701
 30
0.0
 40
6.4
  1
バインド　Ｍ４×２５
 41
0.8
 72
     5
 11
375.477896
 21
-156.974701
 31
0.0
100
AcDbText
  0
TEXT
  5
6C6
100
AcDbEntity
  8
3
370
    25
100
AcDbText
 10
325.301895
 20
-142.974701
 30
0.0
 40
6.4
  1
丸木ネジ３．５×１６
 41
0.8
 72
     5
 11
375.477896
 21
-142.974701
 31
0.0
100
AcDbText
  0
LINE
  5
6C7
100
AcDbEntity
  8
3
370
    50
100
AcDbLine
 10
-260.0
 20
-202.0
 30
0.0
 11
400.0
 21
-202.0
 31
0.0
  0
LINE
  5
6C8
100
AcDbEntity
  8
3
370
    50
100
AcDbLine
 10
-260.0
 20
-174.0
 30
0.0
 11
400.0
 21
-174.0
 31
0.0
  0
TEXT
  5
6C9
100
AcDbEntity
  8
3
370
    25
100
AcDbText
 10
386.0
 20
-185.0
 30
0.0
 40
8.0
  1
１
 72
     5
 11
392.4
 21
-185.0
 31
0.0
100
AcDbText
  0
TEXT
  5
6CA
100
AcDbEntity
  8
3
370
    25
100
AcDbText
 10
186.0
 20
-185.0
 30
0.0
 40
8.0
  1
２
 72
     5
 11
192.4
 21
-185.0
 31
0.0
100
AcDbText
  0
TEXT
  5
6CB
100
AcDbEntity
  8
3
370
    25
100
AcDbText
 10
186.0
 20
-157.0
 30
0.0
 40
8.0
  1
４
 72
     5
 11
192.4
 21
-157.0
 31
0.0
100
AcDbText
  0
TEXT
  5
6CC
100
AcDbEntity
  8
3
370
    25
100
AcDbText
 10
186.0
 20
-143.0
 30
0.0
 40
8.0
  1
５
 72
     5
 11
192.4
 21
-143.0
 31
0.0
100
AcDbText
  0
TEXT
  5
6CD
100
AcDbEntity
  8
3
370
    25
100
AcDbText
 10
205.301895
 20
-184.974701
 30
0.0
 40
6.4
  1
Ｋ１３型座　シリンダー錠
 72
     5
 11
280.821896
 21
-184.974701
 31
0.0
100
AcDbText
  0
TEXT
  5
6CE
100
AcDbEntity
  8
3
370
    25
100
AcDbText
 10
166.0
 20
-185.0
 30
0.0
 40
8.0
  1
１
 72
     5
 11
172.4
 21
-185.0
 31
0.0
100
AcDbText
  0
LINE
  5
6CF
100
AcDbEntity
  8
3
370
    50
100
AcDbLine
 10
160.0
 20
-132.0
 30
0.0
 11
160.0
 21
-216.0
 31
0.0
  0
LINE
  5
6D0
100
AcDbEntity
  8
3
370
    50
100
AcDbLine
 10
100.0
 20
-216.0
 30
0.0
 11
100.0
 21
-132.0
 31
0.0
  0
LINE
  5
6D1
100
AcDbEntity
  8
3
370
    50
100
AcDbLine
 10
-20.0
 20
-216.0
 30
0.0
 11
-20.0
 21
-132.0
 31
0.0
  0
LINE
  5
6D2
100
AcDbEntity
  8
3
370
    50
100
AcDbLine
 10
-40.0
 20
-132.0
 30
0.0
 11
-40.0
 21
-216.0
 31
0.0
  0
TEXT
  5
6D3
100
AcDbEntity
  8
3
370
    25
100
AcDbText
 10
-34.0
 20
-199.0
 30
0.0
 40
8.0
  1
６
 72
     5
 11
-27.6
 21
-199.0
 31
0.0
100
AcDbText
  0
TEXT
  5
6D4
100
AcDbEntity
  8
3
370
    25
100
AcDbText
 10
-34.0
 20
-185.0
 30
0.0
 40
8.0
  1
７
 72
     5
 11
-27.6
 21
-185.0
 31
0.0
100
AcDbText
  0
TEXT
  5
6D5
100
AcDbEntity
  8
3
370
    25
100
AcDbText
 10
-34.0
 20
-171.0
 30
0.0
 40
8.0
  1
８
 72
     5
 11
-27.6
 21
-171.0
 31
0.0
100
AcDbText
  0
TEXT
  5
6D6
100
AcDbEntity
  8
3
370
    25
100
AcDbText
 10
-34.0
 20
-157.0
 30
0.0
 40
8.0
  1
９
 72
     5
 11
-27.6
 21
-157.0
 31
0.0
100
AcDbText
  0
TEXT
  5
6D7
100
AcDbEntity
  8
3
370
    25
100
AcDbText
 10
-38.0
 20
-143.0
 30
0.0
 40
8.0
  1
１０
 72
     5
 11
-23.6
 21
-143.0
 31
0.0
100
AcDbText
  0
TEXT
  5
6D8
100
AcDbEntity
  8
3
370
    25
100
AcDbText
 10
-37.2
 20
-212.6
 30
0.0
 40
7.2
  1
品番
 72
     5
 11
-24.24
 21
-212.6
 31
0.0
100
AcDbText
  0
TEXT
  5
6D9
100
AcDbEntity
  8
3
370
    25
100
AcDbText
 10
14.8
 20
-212.6
 30
0.0
 40
7.2
  1
品　　　　　名
 72
     5
 11
63.76
 21
-212.6
 31
0.0
100
AcDbText
  0
TEXT
  5
6DA
100
AcDbEntity
  8
3
370
    25
100
AcDbText
 10
162.8
 20
-212.6
 30
0.0
 40
7.2
  1
員数
 72
     5
 11
175.76
 21
-212.6
 31
0.0
100
AcDbText
  0
TEXT
  5
6DB
100
AcDbEntity
  8
3
370
    25
100
AcDbText
 10
119.2
 20
-212.6
 30
0.0
 40
7.2
  1
寸　法
 72
     5
 11
139.36
 21
-212.6
 31
0.0
100
AcDbText
  0
LINE
  5
6DC
100
AcDbEntity
  8
3
370
    50
100
AcDbLine
 10
-60.0
 20
-174.0
 30
0.0
 11
-60.0
 21
-216.0
 31
0.0
  0
LINE
  5
6DD
100
AcDbEntity
  8
3
370
    50
100
AcDbLine
 10
-120.0
 20
-216.0
 30
0.0
 11
-120.0
 21
-174.0
 31
0.0
  0
TEXT
  5
6DE
100
AcDbEntity
  8
3
370
    25
100
AcDbText
 10
-205.2
 20
-212.6
 30
0.0
 40
7.2
  1
品　　　　　名
 72
     5
 11
-156.24
 21
-212.6
 31
0.0
100
AcDbText
  0
TEXT
  5
6DF
100
AcDbEntity
  8
3
370
    25
100
AcDbText
 10
-57.2
 20
-212.6
 30
0.0
 40
7.2
  1
員数
 72
     5
 11
-44.24
 21
-212.6
 31
0.0
100
AcDbText
  0
TEXT
  5
6E0
100
AcDbEntity
  8
3
370
    25
100
AcDbText
 10
-100.8
 20
-212.6
 30
0.0
 40
7.2
  1
寸　法
 72
     5
 11
-80.64
 21
-212.6
 31
0.0
100
AcDbText
  0
LINE
  5
6E1
100
AcDbEntity
  8
3
370
    50
100
AcDbLine
 10
-260.0
 20
-174.0
 30
0.0
 11
-260.0
 21
-216.0
 31
0.0
  0
LINE
  5
6E2
100
AcDbEntity
  8
3
370
    50
100
AcDbLine
 10
-240.0
 20
-174.0
 30
0.0
 11
-240.0
 21
-216.0
 31
0.0
  0
TEXT
  5
6E3
100
AcDbEntity
  8
3
370
    25
100
AcDbText
 10
-256.8
 20
-199.0
 30
0.0
 40
8.0
  1
１１
 72
     5
 11
-242.4
 21
-199.0
 31
0.0
100
AcDbText
  0
TEXT
  5
6E4
100
AcDbEntity
  8
3
370
    25
100
AcDbText
 10
104.101895
 20
-156.974701
 30
0.0
 40
6.4
  1
サラ木ネジ３．５×２２
 41
0.7
 72
     5
 11
152.485896
 21
-156.974701
 31
0.0
100
AcDbText
  0
TEXT
  5
6E5
100
AcDbEntity
  8
3
370
    25
100
AcDbText
 10
166.0
 20
-143.0
 30
0.0
 40
8.0
  1
１
 72
     5
 11
172.4
 21
-143.0
 31
0.0
100
AcDbText
  0
TEXT
  5
6E6
100
AcDbEntity
  8
3
370
    25
100
AcDbText
 10
-114.698105
 20
-184.974701
 30
0.0
 40
6.4
  1
サラ木ネジ３．５×２２
 41
0.7
 72
     5
 11
-66.314104
 21
-184.974701
 31
0.0
100
AcDbText
  0
TEXT
  5
6E7
100
AcDbEntity
  8
3
370
    25
100
AcDbText
 10
-234.698105
 20
-184.974701
 30
0.0
 40
6.4
  1
ストライク取付木ネジ
 72
     5
 11
-171.978104
 21
-184.974701
 31
0.0
100
AcDbText
  0
TEXT
  5
6E8
100
AcDbEntity
  8
3
370
    25
100
AcDbText
 10
-54.0
 20
-185.0
 30
0.0
 40
8.0
  1
２
 72
     5
 11
-47.6
 21
-185.0
 31
0.0
100
AcDbText
  0
TEXT
  5
6E9
100
AcDbEntity
  8
3
370
    25
100
AcDbText
 10
-256.8
 20
-185.0
 30
0.0
 40
8.0
  1
１２
 72
     5
 11
-242.4
 21
-185.0
 31
0.0
100
AcDbText
  0
TEXT
  5
6EA
100
AcDbEntity
  8
3
370
    25
100
AcDbText
 10
-234.698105
 20
-198.974701
 30
0.0
 40
6.4
  1
受箱
 72
     5
 11
-223.178105
 21
-198.974701
 31
0.0
100
AcDbText
  0
TEXT
  5
6EB
100
AcDbEntity
  8
3
370
    25
100
AcDbText
 10
-54.0
 20
-199.0
 30
0.0
 40
8.0
  1
１
 72
     5
 11
-47.6
 21
-199.0
 31
0.0
100
AcDbText
  0
TEXT
  5
6EC
100
AcDbEntity
  8
3
370
    25
100
AcDbText
 10
-14.698105
 20
-142.974701
 30
0.0
 40
6.4
  1
調整ストライク　Ｓ－２５
 72
     5
 11
60.821896
 21
-142.974701
 31
0.0
100
AcDbText
  0
TEXT
  5
6ED
100
AcDbEntity
  8
3
370
    25
100
AcDbText
 10
-14.698105
 20
-156.974701
 30
0.0
 40
6.4
  1
錠取付木ネジ
 72
     5
 11
22.421896
 21
-156.974701
 31
0.0
100
AcDbText
  0
TEXT
  5
6EE
100
AcDbEntity
  8
3
370
    25
100
AcDbText
 10
166.0
 20
-157.0
 30
0.0
 40
8.0
  1
２
 72
     5
 11
172.4
 21
-157.0
 31
0.0
100
AcDbText
  0
TEXT
  5
6EF
100
AcDbEntity
  8
3
370
    25
100
AcDbText
 10
-14.698105
 20
-170.974701
 30
0.0
 40
6.4
  1
フロントプレ－ト
 72
     5
 11
35.221896
 21
-170.974701
 31
0.0
100
AcDbText
  0
TEXT
  5
6F0
100
AcDbEntity
  8
3
370
    25
100
AcDbText
 10
166.0
 20
-171.0
 30
0.0
 40
8.0
  1
１
 72
     5
 11
172.4
 21
-171.0
 31
0.0
100
AcDbText
  0
TEXT
  5
6F1
100
AcDbEntity
  8
3
370
    25
100
AcDbText
 10
-14.698105
 20
-198.974701
 30
0.0
 40
6.4
  1
キ－
 72
     5
 11
-3.178105
 21
-198.974701
 31
0.0
100
AcDbText
  0
TEXT
  5
6F2
100
AcDbEntity
  8
3
370
    25
100
AcDbText
 10
166.0
 20
-199.0
 30
0.0
 40
8.0
  1
３
 72
     5
 11
172.4
 21
-199.0
 31
0.0
100
AcDbText
  0
TEXT
  5
6F3
100
AcDbEntity
  8
3
370
    25
100
AcDbText
 10
205.301895
 20
-142.974701
 30
0.0
 40
6.4
  1
座取付木ネジ
 72
     5
 11
242.421896
 21
-142.974701
 31
0.0
100
AcDbText
  0
TEXT
  5
6F4
100
AcDbEntity
  8
3
370
    25
100
AcDbText
 10
386.0
 20
-143.0
 30
0.0
 40
8.0
  1
２
 72
     5
 11
392.4
 21
-143.0
 31
0.0
100
AcDbText
  0
TEXT
  5
6F5
100
AcDbEntity
  8
3
370
    25
100
AcDbText
 10
205.301895
 20
-156.974701
 30
0.0
 40
6.4
  1
座呼込ネジ
 72
     5
 11
236.021896
 21
-156.974701
 31
0.0
100
AcDbText
  0
TEXT
  5
6F6
100
AcDbEntity
  8
3
370
    25
100
AcDbText
 10
386.0
 20
-157.0
 30
0.0
 40
8.0
  1
２
 72
     5
 11
392.4
 21
-157.0
 31
0.0
100
AcDbText
  0
TEXT
  5
6F7
100
AcDbEntity
  8
3
370
    25
100
AcDbText
 10
186.0
 20
-171.0
 30
0.0
 40
8.0
  1
３
 72
     5
 11
192.4
 21
-171.0
 31
0.0
100
AcDbText
  0
TEXT
  5
6F8
100
AcDbEntity
  8
3
370
    25
100
AcDbText
 10
386.0
 20
-171.0
 30
0.0
 40
8.0
  1
１
 72
     5
 11
392.4
 21
-171.0
 31
0.0
100
AcDbText
  0
TEXT
  5
6F9
100
AcDbEntity
  8
3
370
    25
100
AcDbText
 10
205.301895
 20
-170.974701
 30
0.0
 40
6.4
  1
ハンドル止メネジ
 72
     5
 11
255.221896
 21
-170.974701
 31
0.0
100
AcDbText
  0
TEXT
  5
6FA
100
AcDbEntity
  8
3
370
    25
100
AcDbText
 10
325.301895
 20
-170.974701
 30
0.0
 40
6.4
  1
Ｓ．Ｓ．Ｍ６×１０
 41
0.8
 72
     5
 11
370.357896
 21
-170.974701
 31
0.0
100
AcDbText
  0
TEXT
  5
6FB
100
AcDbEntity
  8
3
370
    25
100
AcDbText
 10
186.0
 20
-171.0
 30
0.0
 40
8.0
  1
３
 72
     5
 11
192.4
 21
-171.0
 31
0.0
100
AcDbText
  0
TEXT
  5
6FC
100
AcDbEntity
  8
3
370
    25
100
AcDbText
 10
386.0
 20
-171.0
 30
0.0
 40
8.0
  1
１
 72
     5
 11
392.4
 21
-171.0
 31
0.0
100
AcDbText
  0
TEXT
  5
6FD
100
AcDbEntity
  8
3
370
    25
100
AcDbText
 10
205.301895
 20
-170.974701
 30
0.0
 40
6.4
  1
ハンドル止メネジ
 72
     5
 11
255.221896
 21
-170.974701
 31
0.0
100
AcDbText
  0
TEXT
  5
6FE
100
AcDbEntity
  8
3
370
    25
100
AcDbText
 10
325.301895
 20
-170.974701
 30
0.0
 40
6.4
  1
Ｓ．Ｓ．Ｍ６×１０
 41
0.8
 72
     5
 11
370.357896
 21
-170.974701
 31
0.0
100
AcDbText
  0
TEXT
  5
6FF
100
AcDbEntity
  8
3
370
    25
100
AcDbText
 10
-14.698105
 20
-184.974701
 30
0.0
 40
6.4
  1
ＬＶＳ－３－５１　ケ－スロック
 72
     5
 11
80.021897
 21
-184.974701
 31
0.0
100
AcDbText
  0
ENDSEC
  0
SECTION
  2
OBJECTS
  0
DICTIONARY
  5
8EF
100
AcDbDictionary
280
     0
281
     1
  3
ACAD_GROUP
350
8F0
  3
ACAD_MLINESTYLE
350
8F1
  0
DICTIONARY
  5
8F0
102
{ACAD_REACTORS
330
8EF
102
}
100
AcDbDictionary
280
     0
281
     1
  0
DICTIONARY
  5
8F1
102
{ACAD_REACTORS
330
8EF
102
}
100
AcDbDictionary
280
     0
281
     1
  3
Standard
350
8F2
  0
MLINESTYLE
  5
8F2
102
{ACAD_REACTORS
330
8F1
102
}
100
AcDbMlineStyle
  2
Standard
 70
     0
  3

 62
     0
 51
90.0
 52
90.0
 71
     2
 49
0.5
 62
   256
  6
ByLayer
 49
-0.5
 62
   256
  6
ByLayer
  0
ENDSEC
  0
EOF
