  0
SECTION
  2
HEADER
  9
$ACADVER
  1
AC1015
  9
$ACADMAINTVER
 70
     6
  9
$DWGCODEPAGE
  3
ANSI_932
  9
$INSBASE
 10
0.0
 20
0.0
 30
0.0
  9
$EXTMIN
 10
-420.0
 20
-297.0
 30
1.000000E+20
  9
$EXTMAX
 10
420.0
 20
297.0
 30
-1.000000E+20
  9
$LIMMIN
 10
-420.0
 20
-297.0
  9
$LIMMAX
 10
420.0
 20
297.0
  9
$ORTHOMODE
 70
     0
  9
$REGENMODE
 70
     1
  9
$FILLMODE
 70
     1
  9
$QTEXTMODE
 70
     0
  9
$MIRRTEXT
 70
     1
  9
$LTSCALE
 40
1.0
  9
$ATTMODE
 70
     1
  9
$TEXTSIZE
 40
0.2
  9
$TRACEWID
 40
0.05
  9
$TEXTSTYLE
  7
STANDARD
  9
$CLAYER
  8
0
  9
$CELTYPE
  6
CONTINUOUS
  9
$CECOLOR
 62
   256
  9
$CELTSCALE
 40
1.0
  9
$DISPSILH
 70
     0
  9
$DIMSCALE
 40
2.0
  9
$DIMASZ
 40
2.0
  9
$DIMEXO
 40
0.5
  9
$DIMDLI
 40
0.38
  9
$DIMRND
 40
0.0
  9
$DIMDLE
 40
0.0
  9
$DIMEXE
 40
2.0
  9
$DIMTP
 40
0.0
  9
$DIMTM
 40
0.0
  9
$DIMTXT
 40
2.5
  9
$DIMCEN
 40
0.09
  9
$DIMTSZ
 40
0.0
  9
$DIMTOL
 70
     0
  9
$DIMLIM
 70
     0
  9
$DIMTIH
 70
     0
  9
$DIMTOH
 70
     0
  9
$DIMSE1
 70
     0
  9
$DIMSE2
 70
     0
  9
$DIMTAD
 70
     1
  9
$DIMZIN
 70
     0
  9
$DIMBLK
  1

  9
$DIMASO
 70
     1
  9
$DIMSHO
 70
     1
  9
$DIMPOST
  1

  9
$DIMAPOST
  1

  9
$DIMALT
 70
     0
  9
$DIMALTD
 70
     2
  9
$DIMALTF
 40
25.4
  9
$DIMLFAC
 40
1.0
  9
$DIMTOFL
 70
     0
  9
$DIMTVP
 40
0.0
  9
$DIMTIX
 70
     0
  9
$DIMSOXD
 70
     0
  9
$DIMSAH
 70
     0
  9
$DIMBLK1
  1

  9
$DIMBLK2
  1

  9
$DIMSTYLE
  2
Standard
  9
$DIMCLRD
 70
     0
  9
$DIMCLRE
 70
     0
  9
$DIMCLRT
 70
     0
  9
$DIMTFAC
 40
1.0
  9
$DIMGAP
 40
0.5
  9
$DIMJUST
 70
     0
  9
$DIMSD1
 70
     0
  9
$DIMSD2
 70
     0
  9
$DIMTOLJ
 70
     1
  9
$DIMTZIN
 70
     0
  9
$DIMALTZ
 70
     0
  9
$DIMALTTZ
 70
     0
  9
$DIMUPT
 70
     0
  9
$DIMDEC
 70
     2
  9
$DIMTDEC
 70
     4
  9
$DIMALTU
 70
     2
  9
$DIMALTTD
 70
     2
  9
$DIMTXSTY
  7
STANDARD
  9
$DIMAUNIT
 70
     0
  9
$DIMADEC
 70
     2
  9
$DIMALTRND
 40
0.0
  9
$DIMAZIN
 70
     0
  9
$DIMDSEP
 70
     0
  9
$DIMATFIT
 70
     3
  9
$DIMFRAC
 70
     0
  9
$DIMLDRBLK
  1

  9
$DIMLUNIT
 70
     2
  9
$DIMLWD
 70
     0
  9
$DIMLWE
 70
     0
  9
$DIMTMOVE
 70
     0
  9
$LUNITS
 70
     2
  9
$LUPREC
 70
     4
  9
$SKETCHINC
 40
0.1
  9
$FILLETRAD
 40
0.0
  9
$AUNITS
 70
     0
  9
$AUPREC
 70
     0
  9
$MENU
  1
acad
  9
$ELEVATION
 40
0.0
  9
$PELEVATION
 40
0.0
  9
$THICKNESS
 40
0.0
  9
$LIMCHECK
 70
     0
  9
$CHAMFERA
 40
0.0
  9
$CHAMFERB
 40
0.0
  9
$CHAMFERC
 40
0.0
  9
$CHAMFERD
 40
0.0
  9
$SKPOLY
 70
     0
  9
$TDCREATE
 40
2457354.000000000
  9
$TDUCREATE
 40
0.000000000
  9
$TDUPDATE
 40
0.000000000
  9
$TDUUPDATE
 40
2447892.625000000
  9
$TDINDWG
 40
0.0000000000
  9
$TDUSRTIMER
 40
0.0000000000
  9
$USRTIMER
 70
     1
  9
$ANGBASE
 50
0.0
  9
$ANGDIR
 70
     0
  9
$PDMODE
 70
     0
  9
$PDSIZE
 40
0.0
  9
$PLINEWID
 40
0.0
  9
$SPLFRAME
 70
     0
  9
$SPLINETYPE
 70
     6
  9
$SPLINESEGS
 70
     8
  9
$HANDSEED
  5
760
  9
$SURFTAB1
 70
     6
  9
$SURFTAB2
 70
     6
  9
$SURFTYPE
 70
     6
  9
$SURFU
 70
     6
  9
$SURFV
 70
     6
  9
$UCSBASE
  2

  9
$UCSNAME
  2

  9
$UCSORG
 10
0.0
 20
0.0
 30
0.0
  9
$UCSXDIR
 10
1.0
 20
0.0
 30
0.0
  9
$UCSYDIR
 10
0.0
 20
1.0
 30
0.0
  9
$UCSORTHOREF
  2

  9
$UCSORTHOVIEW
 70
     0
  9
$UCSORGTOP
 10
0.0
 20
0.0
 30
0.0
  9
$UCSORGBOTTOM
 10
0.0
 20
0.0
 30
0.0
  9
$UCSORGLEFT
 10
0.0
 20
0.0
 30
0.0
  9
$UCSORGRIGHT
 10
0.0
 20
0.0
 30
0.0
  9
$UCSORGFRONT
 10
0.0
 20
0.0
 30
0.0
  9
$UCSORGBACK
 10
0.0
 20
0.0
 30
0.0
  9
$PUCSBASE
  2

  9
$PUCSNAME
  2

  9
$PUCSORG
 10
0.0
 20
0.0
 30
0.0
  9
$PUCSXDIR
 10
1.0
 20
0.0
 30
0.0
  9
$PUCSYDIR
 10
0.0
 20
1.0
 30
0.0
  9
$PUCSORTHOREF
  2

  9
$PUCSORTHOVIEW
 70
     0
  9
$PUCSORGTOP
 10
0.0
 20
0.0
 30
0.0
  9
$PUCSORGBOTTOM
 10
0.0
 20
0.0
 30
0.0
  9
$PUCSORGLEFT
 10
0.0
 20
0.0
 30
0.0
  9
$PUCSORGRIGHT
 10
0.0
 20
0.0
 30
0.0
  9
$PUCSORGFRONT
 10
0.0
 20
0.0
 30
0.0
  9
$PUCSORGBACK
 10
0.0
 20
0.0
 30
0.0
  9
$USERI1
 70
     0
  9
$USERI2
 70
     0
  9
$USERI3
 70
     0
  9
$USERI4
 70
     0
  9
$USERI5
 70
     0
  9
$USERR1
 40
0.0
  9
$USERR2
 40
0.0
  9
$USERR3
 40
0.0
  9
$USERR4
 40
0.0
  9
$USERR5
 40
0.0
  9
$WORLDVIEW
 70
     1
  9
$SHADEDGE
 70
     3
  9
$SHADEDIF
 70
    70
  9
$TILEMODE
 70
     1
  9
$MAXACTVP
 70
    16
  9
$PINSBASE
 10
0.0
 20
0.0
 30
0.0
  9
$PLIMCHECK
 70
     0
  9
$PEXTMIN
 10
1.000000E+20
 20
1.000000E+20
 30
1.000000E+20
  9
$PEXTMAX
 10
-1.000000E+20
 20
-1.000000E+20
 30
-1.000000E+20
  9
$PLIMMIN
 10
0.0
 20
0.0
  9
$PLIMMAX
 10
12.0
 20
9.0
  9
$UNITMODE
 70
     0
  9
$VISRETAIN
 70
     0
  9
$PLINEGEN
 70
     1
  9
$PSLTSCALE
 70
     0
  9
$TREEDEPTH
 70
  3020
  9
$CMLSTYLE
  2
Standard
  9
$CMLJUST
 70
     0
  9
$CMLSCALE
 40
1.0
  9
$PROXYGRAPHICS
 70
     0
  9
$MEASUREMENT
 70
     0
  9
$CELWEIGHT
370
     0
  9
$ENDCAPS
280
     0
  9
$JOINSTYLE
280
     0
  9
$LWDISPLAY
290
     0
  9
$INSUNITS
 70
     0
  9
$HYPERLINKBASE
  1

  9
$STYLESHEET
  1

  9
$XEDIT
290
     1
  9
$CEPSNTYPE
380
     0
  9
$PSTYLEMODE
290
     1
  9
$FINGERPRINTGUID
  2

  9
$VERSIONGUID
  2

  9
$EXTNAMES
290
     1
  9
$PSVPSCALE
 40
0.0
  0
ENDSEC
  0
SECTION
  2
CLASSES
  0
CLASS
  1
LWPOLYLINE
  2
AcDbPolyline
  3
AutoCAD 2000
 90
        0
280
     0
281
     1
  0
CLASS
  1
IMAGE
  2
AcDbRasterImage
  3
ISM
 90
      127
280
     0
281
     1
  0
CLASS
  1
OLE2FRAME
  2
AcDbOle2Frame
  3
AutoCAD 2000
 90
        0
280
     0
281
     1
  0
CLASS
  1
HATCH
  2
AcDbHatch
  3
AutoCAD 2000
 90
        0
280
     0
281
     1
  0
CLASS
  1
DICTIONARYVAR
  2
AcDbDictionaryVar
  3
AutoCAD 2000
 90
        0
280
     0
281
     0
  0
CLASS
  1
RASTERVARIABLES
  2
AcDbRasterVariables
  3
ISM
 90
        0
280
     0
281
     0
  0
CLASS
  1
IMAGEDEF
  2
AcDbRasterImageDef
  3
ISM
 90
        0
280
     0
281
     0
  0
CLASS
  1
IMAGEDEF_REACTOR
  2
AcDbRasterImageDefReactor
  3
ISM
 90
        1
280
     0
281
     0
  0
CLASS
  1
IDBUFFER
  2
AcDbIdBuffer
  3
AutoCAD 2000
 90
        0
280
     0
281
     0
  0
CLASS
  1
SPATIAL_FILTER
  2
AcDbSpatialFilter
  3
AutoCAD 2000
 90
        0
280
     0
281
     0
  0
CLASS
  1
XRECORD
  2
AcDbXrecord
  3
AutoCAD 2000
 90
        0
280
     0
281
     0
  0
CLASS
  1
SORTENTSTABLE
  2
AcDbSortentsTable
  3
AutoCAD 2000
 90
        0
280
     0
281
     0
  0
CLASS
  1
LAYER_INDEX
  2
AcDbLayerIndex
  3
AutoCAD 2000
 90
        0
280
     0
281
     0
  0
CLASS
  1
SPATIAL_INDEX
  2
AcDbSpatialIndex
  3
AutoCAD 2000
 90
        0
280
     0
281
     0
  0
CLASS
  1
OBJECT_PTR
  2
CAseDLPNTableRecord
  3
"ASE-LPNTableRecord"
 90
        1
280
     0
281
     0
  0
CLASS
  1
LAYOUT
  2
AcDbLayout
  3
AutoCAD 2000
 90
        0
280
     0
281
     0
  0
CLASS
  1
PLOTSETTINGS
  2
AcDbPlotSettings
  3
AutoCAD 2000
 90
        0
280
     0
281
     0
  0
CLASS
  1
ACDBDICTIONARYWDFLT
  2
AcDbDictionaryWithDefault
  3
AutoCAD 2000
 90
        0
280
     0
281
     0
  0
CLASS
  1
ACDBPLACEHOLDER
  2
AcDbPlaceHolder
  3
AutoCAD 2000
 90
        0
280
     0
281
     0
  0
CLASS
  1
VBA_PROJECT
  2
AcDbVbaProject
  3
acadvba
 90
        0
280
     0
281
     0
  0
CLASS
  1
WIPEOUT
  2
AcDbWipeout
  3
WipeOut|AutoCAD Express Tool|expresstools@autodesk.com
 90
      127
280
     0
281
     1
  0
CLASS
  1
WIPEOUTVARIABLES
  2
AcDbWipeoutVariables
  3
WipeOut|AutoCAD Express Tool|expresstools@autodesk.com
 90
        0
280
     0
281
     0
  0
CLASS
  1
RTEXT
  2
RText
  3
RText|AutoCAD Express Tool|expresstools@autodesk.com
 90
        0
280
     0
281
     1
  0
CLASS
  1
ARCALIGNEDTEXT
  2
AcDbArcAlignedText
  3
ATEXT|AutoCAD Express Tool|expresstools@autodesk.com
 90
        0
280
     0
281
     1
  0
ENDSEC
  0
SECTION
  2
TABLES
  0
TABLE
  2
VPORT
  5
6
100
AcDbSymbolTable
 70
     1
  0
VPORT
  5
1A
100
AcDbSymbolTableRecord
100
AcDbViewportTableRecord
  2
*ACTIVE
 70
     0
 10
0.0
 20
0.0
 11
1.0
 21
1.0
 12
0.0
 22
0.0
 13
0.0
 23
0.0
 14
1.0
 24
1.0
 15
0.0
 25
0.0
 16
0.0
 26
0.0
 36
1.0
 17
0.0
 27
0.0
 37
0.0
 40
594.0
 41
1.414141
 42
50.0
 43
0.0
 44
0.0
 50
0.0
 51
0.0
 71
     0
 72
   500
 73
     1
 74
     1
 75
     0
 76
     0
 77
     0
 78
     0
281
     0
 65
     0
110
0.0
120
0.0
130
0.0
111
1.0
121
0.0
131
0.0
112
0.0
122
1.0
132
0.0
345
0
346
0
 79
     0
146
0.0
  0
ENDTAB
  0
TABLE
  2
LTYPE
  5
3
100
AcDbSymbolTable
 70
     9
  0
LTYPE
  5
C
100
AcDbSymbolTableRecord
100
AcDbLinetypeTableRecord
  2
ByBlock
 70
    64
  3

 72
    65
 73
     0
 40
0.0
  0
LTYPE
  5
D
100
AcDbSymbolTableRecord
100
AcDbLinetypeTableRecord
  2
ByLayer
 70
    64
  3

 72
    65
 73
     0
 40
0.0
  0
LTYPE
  5
E
100
AcDbSymbolTableRecord
100
AcDbLinetypeTableRecord
  2
CONTINUOUS
 70
     0
  3
Solid line
 72
    65
 73
     0
 40
0.0
  0
LTYPE
  5
F
100
AcDbSymbolTableRecord
100
AcDbLinetypeTableRecord
  2
DASHED
 70
     0
  3
__ __ __ __ __ __ __ __ __ __ __ __ __ __ __
 72
    65
 73
     2
 40
2.0
 49
1.2
 74
     0
 49
-0.8
 74
     0
  0
LTYPE
  5
10
100
AcDbSymbolTableRecord
100
AcDbLinetypeTableRecord
  2
CENTER
 70
     0
  3
____ _ ____ _ ____ _ ____ _ ____ _ ____ _ ____
 72
    65
 73
     4
 40
12.0
 49
9.0
 74
     0
 49
-1.0
 74
     0
 49
1.0
 74
     0
 49
-1.0
 74
     0
  0
LTYPE
  5
11
100
AcDbSymbolTableRecord
100
AcDbLinetypeTableRecord
  2
HIDDEN
 70
     0
  3
_ _ _ _ _ _ _ _ _ _ _ _ _ _ _ _ _ _ _ _ _ _ _
 72
    65
 73
     2
 40
3.2
 49
1.3
 74
     0
 49
-1.9
 74
     0
  0
LTYPE
  5
12
100
AcDbSymbolTableRecord
100
AcDbLinetypeTableRecord
  2
PHANTOM
 70
     0
  3
_____ _ _ _____ _ _ _____ _ _ _____ _ _ _____
 72
    65
 73
     6
 40
12.5
 49
9.0
 74
     0
 49
-1.0
 74
     0
 49
0.5
 74
     0
 49
-0.5
 74
     0
 49
0.5
 74
     0
 49
-1.0
 74
     0
  0
LTYPE
  5
13
100
AcDbSymbolTableRecord
100
AcDbLinetypeTableRecord
  2
DOT
 70
     0
  3
...............................................
 72
    65
 73
     2
 40
1.0
 49
0.5
 74
     0
 49
-0.5
 74
     0
  0
LTYPE
  5
14
100
AcDbSymbolTableRecord
100
AcDbLinetypeTableRecord
  2
DASHDOT
 70
     0
  3
__ . __ . __ . __ . __ . __ . __ . __ . __ . __
 72
    65
 73
     4
 40
8.0
 49
5.0
 74
     0
 49
-1.0
 74
     0
 49
1.0
 74
     0
 49
-1.0
 74
     0
  0
ENDTAB
  0
TABLE
  2
LAYER
  5
1
100
AcDbSymbolTable
 70
     5
  0
LAYER
  5
15
100
AcDbSymbolTableRecord
100
AcDbLayerTableRecord
  2
0
 70
     0
 62
     8
  6
CONTINUOUS
290
     1
370
    -3
390
0
  0
LAYER
  5
16
100
AcDbSymbolTableRecord
100
AcDbLayerTableRecord
  2
1
 70
     0
 62
     2
  6
CONTINUOUS
290
     1
370
    -3
390
0
  0
LAYER
  5
17
100
AcDbSymbolTableRecord
100
AcDbLayerTableRecord
  2
2
 70
     0
 62
     3
  6
CONTINUOUS
290
     1
370
    -3
390
0
  0
LAYER
  5
18
100
AcDbSymbolTableRecord
100
AcDbLayerTableRecord
  2
3
 70
     0
 62
     4
  6
CONTINUOUS
290
     1
370
    -3
390
0
  0
LAYER
  5
19
100
AcDbSymbolTableRecord
100
AcDbLayerTableRecord
  2
4
 70
     0
 62
     1
  6
CONTINUOUS
290
     1
370
    -3
390
0
  0
ENDTAB
  0
TABLE
  2
STYLE
  5
2
100
AcDbSymbolTable
 70
     1
  0
STYLE
  5
1C
100
AcDbSymbolTableRecord
100
AcDbTextStyleTableRecord
  2
STANDARD
 70
    64
 40
0.0
 41
1.0
 50
0.0
 71
     0
 42
1.0
  3
txt
  4
BIGFONT
  0
ENDTAB
  0
TABLE
  2
VIEW
  5
4
100
AcDbSymbolTable
 70
     0
  0
ENDTAB
  0
TABLE
  2
UCS
  5
5
100
AcDbSymbolTable
 70
     0
  0
ENDTAB
  0
TABLE
  2
APPID
  5
7
100
AcDbSymbolTable
 70
     1
  0
APPID
  5
1B
100
AcDbSymbolTableRecord
100
AcDbRegAppTableRecord
  2
ACAD
 70
     0
  0
ENDTAB
  0
TABLE
  2
DIMSTYLE
  5
8
100
AcDbSymbolTable
 70
     1
100
AcDbDimStyleTable
 71
     0
  0
DIMSTYLE
105
56
100
AcDbSymbolTableRecord
100
AcDbDimStyleTableRecord
  2
Standard
 70
     0
  3

  4

 40
2.0
 41
2.0
 42
0.5
 43
0.38
 44
2.0
 45
0.0
 46
0.0
 47
0.0
 48
0.0
 71
     0
 72
     0
 73
     0
 74
     0
 75
     0
 76
     0
 77
     1
 78
     0
 79
     0
140
2.5
141
0.09
142
0.0
143
25.4
144
1.0
145
0.0
146
1.0
147
0.5
148
0.0
170
     0
171
     2
172
     0
173
     0
174
     0
175
     0
176
     0
177
     0
178
     0
179
     0
271
     2
272
     4
273
     2
274
     2
275
     0
276
     0
277
     2
278
    46
279
     0
280
     0
281
     0
282
     0
283
     1
284
     0
285
     0
286
     0
288
     0
289
     3
340
1C
341
0
342
0
343
0
344
0
371
    -2
372
    -2
  0
ENDTAB
  0
TABLE
  2
BLOCK_RECORD
  5
51
100
AcDbSymbolTable
 70
    50
  0
BLOCK_RECORD
  5
4F
100
AcDbSymbolTableRecord
100
AcDbBlockTableRecord
  2
*Model_Space
340
0
  0
BLOCK_RECORD
  5
50
100
AcDbSymbolTableRecord
100
AcDbBlockTableRecord
  2
*Paper_Space
340
0
  0
BLOCK_RECORD
  5
1D
100
AcDbSymbolTableRecord
100
AcDbBlockTableRecord
  2
*D0
340
0
  0
BLOCK_RECORD
  5
1E
100
AcDbSymbolTableRecord
100
AcDbBlockTableRecord
  2
*D1
340
0
  0
BLOCK_RECORD
  5
1F
100
AcDbSymbolTableRecord
100
AcDbBlockTableRecord
  2
*D2
340
0
  0
BLOCK_RECORD
  5
20
100
AcDbSymbolTableRecord
100
AcDbBlockTableRecord
  2
*D3
340
0
  0
BLOCK_RECORD
  5
21
100
AcDbSymbolTableRecord
100
AcDbBlockTableRecord
  2
*D4
340
0
  0
BLOCK_RECORD
  5
22
100
AcDbSymbolTableRecord
100
AcDbBlockTableRecord
  2
*D5
340
0
  0
BLOCK_RECORD
  5
23
100
AcDbSymbolTableRecord
100
AcDbBlockTableRecord
  2
*D6
340
0
  0
BLOCK_RECORD
  5
24
100
AcDbSymbolTableRecord
100
AcDbBlockTableRecord
  2
*D7
340
0
  0
BLOCK_RECORD
  5
25
100
AcDbSymbolTableRecord
100
AcDbBlockTableRecord
  2
*D8
340
0
  0
BLOCK_RECORD
  5
26
100
AcDbSymbolTableRecord
100
AcDbBlockTableRecord
  2
*D9
340
0
  0
BLOCK_RECORD
  5
27
100
AcDbSymbolTableRecord
100
AcDbBlockTableRecord
  2
*D10
340
0
  0
BLOCK_RECORD
  5
28
100
AcDbSymbolTableRecord
100
AcDbBlockTableRecord
  2
*D11
340
0
  0
BLOCK_RECORD
  5
29
100
AcDbSymbolTableRecord
100
AcDbBlockTableRecord
  2
*D12
340
0
  0
BLOCK_RECORD
  5
2A
100
AcDbSymbolTableRecord
100
AcDbBlockTableRecord
  2
*D13
340
0
  0
BLOCK_RECORD
  5
2B
100
AcDbSymbolTableRecord
100
AcDbBlockTableRecord
  2
*D14
340
0
  0
BLOCK_RECORD
  5
2C
100
AcDbSymbolTableRecord
100
AcDbBlockTableRecord
  2
*D15
340
0
  0
BLOCK_RECORD
  5
2D
100
AcDbSymbolTableRecord
100
AcDbBlockTableRecord
  2
*D16
340
0
  0
BLOCK_RECORD
  5
2E
100
AcDbSymbolTableRecord
100
AcDbBlockTableRecord
  2
*D17
340
0
  0
BLOCK_RECORD
  5
2F
100
AcDbSymbolTableRecord
100
AcDbBlockTableRecord
  2
*D18
340
0
  0
BLOCK_RECORD
  5
30
100
AcDbSymbolTableRecord
100
AcDbBlockTableRecord
  2
*D19
340
0
  0
BLOCK_RECORD
  5
31
100
AcDbSymbolTableRecord
100
AcDbBlockTableRecord
  2
*D20
340
0
  0
BLOCK_RECORD
  5
32
100
AcDbSymbolTableRecord
100
AcDbBlockTableRecord
  2
*D21
340
0
  0
BLOCK_RECORD
  5
33
100
AcDbSymbolTableRecord
100
AcDbBlockTableRecord
  2
*D22
340
0
  0
BLOCK_RECORD
  5
34
100
AcDbSymbolTableRecord
100
AcDbBlockTableRecord
  2
*D23
340
0
  0
BLOCK_RECORD
  5
35
100
AcDbSymbolTableRecord
100
AcDbBlockTableRecord
  2
*D24
340
0
  0
BLOCK_RECORD
  5
36
100
AcDbSymbolTableRecord
100
AcDbBlockTableRecord
  2
*D25
340
0
  0
BLOCK_RECORD
  5
37
100
AcDbSymbolTableRecord
100
AcDbBlockTableRecord
  2
*D26
340
0
  0
BLOCK_RECORD
  5
38
100
AcDbSymbolTableRecord
100
AcDbBlockTableRecord
  2
*D27
340
0
  0
BLOCK_RECORD
  5
39
100
AcDbSymbolTableRecord
100
AcDbBlockTableRecord
  2
*D28
340
0
  0
BLOCK_RECORD
  5
3A
100
AcDbSymbolTableRecord
100
AcDbBlockTableRecord
  2
*D29
340
0
  0
BLOCK_RECORD
  5
3B
100
AcDbSymbolTableRecord
100
AcDbBlockTableRecord
  2
*D30
340
0
  0
BLOCK_RECORD
  5
3C
100
AcDbSymbolTableRecord
100
AcDbBlockTableRecord
  2
*D31
340
0
  0
BLOCK_RECORD
  5
3D
100
AcDbSymbolTableRecord
100
AcDbBlockTableRecord
  2
*D32
340
0
  0
BLOCK_RECORD
  5
3E
100
AcDbSymbolTableRecord
100
AcDbBlockTableRecord
  2
*D33
340
0
  0
BLOCK_RECORD
  5
3F
100
AcDbSymbolTableRecord
100
AcDbBlockTableRecord
  2
*D34
340
0
  0
BLOCK_RECORD
  5
40
100
AcDbSymbolTableRecord
100
AcDbBlockTableRecord
  2
*D35
340
0
  0
BLOCK_RECORD
  5
41
100
AcDbSymbolTableRecord
100
AcDbBlockTableRecord
  2
*D36
340
0
  0
BLOCK_RECORD
  5
42
100
AcDbSymbolTableRecord
100
AcDbBlockTableRecord
  2
*D37
340
0
  0
BLOCK_RECORD
  5
43
100
AcDbSymbolTableRecord
100
AcDbBlockTableRecord
  2
*D38
340
0
  0
BLOCK_RECORD
  5
44
100
AcDbSymbolTableRecord
100
AcDbBlockTableRecord
  2
*D39
340
0
  0
BLOCK_RECORD
  5
45
100
AcDbSymbolTableRecord
100
AcDbBlockTableRecord
  2
*D40
340
0
  0
BLOCK_RECORD
  5
46
100
AcDbSymbolTableRecord
100
AcDbBlockTableRecord
  2
*D41
340
0
  0
BLOCK_RECORD
  5
47
100
AcDbSymbolTableRecord
100
AcDbBlockTableRecord
  2
*D42
340
0
  0
BLOCK_RECORD
  5
48
100
AcDbSymbolTableRecord
100
AcDbBlockTableRecord
  2
*D43
340
0
  0
BLOCK_RECORD
  5
49
100
AcDbSymbolTableRecord
100
AcDbBlockTableRecord
  2
*D44
340
0
  0
BLOCK_RECORD
  5
4A
100
AcDbSymbolTableRecord
100
AcDbBlockTableRecord
  2
*D45
340
0
  0
BLOCK_RECORD
  5
4B
100
AcDbSymbolTableRecord
100
AcDbBlockTableRecord
  2
*D46
340
0
  0
BLOCK_RECORD
  5
4C
100
AcDbSymbolTableRecord
100
AcDbBlockTableRecord
  2
*D47
340
0
  0
BLOCK_RECORD
  5
4D
100
AcDbSymbolTableRecord
100
AcDbBlockTableRecord
  2
*D48
340
0
  0
BLOCK_RECORD
  5
4E
100
AcDbSymbolTableRecord
100
AcDbBlockTableRecord
  2
*D49
340
0
  0
ENDTAB
  0
ENDSEC
  0
SECTION
  2
BLOCKS
  0
BLOCK
  5
52
100
AcDbEntity
  8
0
390
0
100
AcDbBlockBegin
  2
*Model_Space
 70
     0
 10
0.0
 20
0.0
 30
0.0
  3
*Model_Space
  1

  0
ENDBLK
  5
53
100
AcDbEntity
  8
0
390
0
100
AcDbBlockEnd
  0
BLOCK
  5
54
100
AcDbEntity
 67
     1
  8
0
390
0
100
AcDbBlockBegin
  2
*Paper_Space
 70
     0
 10
0.0
 20
0.0
 30
0.0
  3
*Paper_Space
  1

  0
ENDBLK
  5
55
100
AcDbEntity
 67
     1
  8
0
390
0
100
AcDbBlockEnd
  0
BLOCK
  5
573
100
AcDbEntity
  8
2
100
AcDbBlockBegin
  2
*D0
 70
     1
 10
0.0
 20
0.0
 30
0.0
  3
*D0
  1

  0
TEXT
  5
574
100
AcDbEntity
  8
2
370
    25
100
AcDbText
 10
-69.290843
 20
82.719687
 30
0.0
 40
5.0
  1
%%c36
 50
90.0
 41
2.0
 72
     5
 11
-69.290843
 21
95.719687
 31
0.0
100
AcDbText
  0
LINE
  5
575
100
AcDbEntity
  8
2
370
    25
100
AcDbLine
 10
-85.999998
 20
108.148259
 30
0.0
 11
-66.290843
 21
108.148259
 31
0.0
  0
LINE
  5
576
100
AcDbEntity
  8
2
370
    25
100
AcDbLine
 10
-68.290843
 20
108.148259
 30
0.0
 11
-69.326119
 21
104.284555
 31
0.0
  0
LINE
  5
577
100
AcDbEntity
  8
2
370
    25
100
AcDbLine
 10
-68.290843
 20
108.148259
 30
0.0
 11
-67.255567
 21
104.284555
 31
0.0
  0
LINE
  5
578
100
AcDbEntity
  8
2
370
    25
100
AcDbLine
 10
-68.290843
 20
108.148259
 30
0.0
 11
-68.290843
 21
72.291116
 31
0.0
  0
LINE
  5
579
100
AcDbEntity
  8
2
370
    25
100
AcDbLine
 10
-68.290843
 20
72.291116
 30
0.0
 11
-67.255567
 21
76.154819
 31
0.0
  0
LINE
  5
57A
100
AcDbEntity
  8
2
370
    25
100
AcDbLine
 10
-68.290843
 20
72.291116
 30
0.0
 11
-69.326119
 21
76.154819
 31
0.0
  0
LINE
  5
57B
100
AcDbEntity
  8
2
370
    25
100
AcDbLine
 10
-85.999998
 20
72.291116
 30
0.0
 11
-66.290843
 21
72.291116
 31
0.0
  0
ENDBLK
  5
57C
100
AcDbEntity
  8
2
100
AcDbBlockEnd
  0
BLOCK
  5
57D
100
AcDbEntity
  8
2
100
AcDbBlockBegin
  2
*D1
 70
     1
 10
0.0
 20
0.0
 30
0.0
  3
*D1
  1

  0
TEXT
  5
57E
100
AcDbEntity
  8
2
370
    25
100
AcDbText
 10
-176.999998
 20
113.591263
 30
0.0
 40
5.0
  1
28
 41
2.0
 72
     5
 11
-168.999998
 21
113.591263
 31
0.0
100
AcDbText
  0
LINE
  5
57F
100
AcDbEntity
  8
2
370
    25
100
AcDbLine
 10
-136.999998
 20
105.172202
 30
0.0
 11
-136.999998
 21
114.591263
 31
0.0
  0
LINE
  5
580
100
AcDbEntity
  8
2
370
    25
100
AcDbLine
 10
-136.999998
 20
112.591263
 30
0.0
 11
-133.136295
 21
111.555987
 31
0.0
  0
LINE
  5
581
100
AcDbEntity
  8
2
370
    25
100
AcDbLine
 10
-136.999998
 20
112.591263
 30
0.0
 11
-133.136295
 21
113.626539
 31
0.0
  0
LINE
  5
582
100
AcDbEntity
  8
2
370
    25
100
AcDbLine
 10
-126.999998
 20
112.591263
 30
0.0
 11
-178.999998
 21
112.591263
 31
0.0
  0
LINE
  5
583
100
AcDbEntity
  8
2
370
    25
100
AcDbLine
 10
-164.999998
 20
112.591263
 30
0.0
 11
-168.863702
 21
113.626539
 31
0.0
  0
LINE
  5
584
100
AcDbEntity
  8
2
370
    25
100
AcDbLine
 10
-164.999998
 20
112.591263
 30
0.0
 11
-168.863702
 21
111.555987
 31
0.0
  0
LINE
  5
585
100
AcDbEntity
  8
2
370
    25
100
AcDbLine
 10
-164.999998
 20
85.719687
 30
0.0
 11
-164.999998
 21
114.591263
 31
0.0
  0
ENDBLK
  5
586
100
AcDbEntity
  8
2
100
AcDbBlockEnd
  0
BLOCK
  5
587
100
AcDbEntity
  8
2
100
AcDbBlockBegin
  2
*D2
 70
     1
 10
0.0
 20
0.0
 30
0.0
  3
*D2
  1

  0
TEXT
  5
588
100
AcDbEntity
  8
2
370
    25
100
AcDbText
 10
-181.768542
 20
77.219687
 30
0.0
 40
5.0
  1
%%c20
 50
90.0
 41
2.0
 72
     5
 11
-181.768542
 21
90.219687
 31
0.0
100
AcDbText
  0
LINE
  5
589
100
AcDbEntity
  8
2
370
    25
100
AcDbLine
 10
-148.999998
 20
94.719687
 30
0.0
 11
-182.768542
 21
94.719687
 31
0.0
  0
LINE
  5
58A
100
AcDbEntity
  8
2
370
    25
100
AcDbLine
 10
-180.768542
 20
94.719687
 30
0.0
 11
-181.803818
 21
90.855984
 31
0.0
  0
LINE
  5
58B
100
AcDbEntity
  8
2
370
    25
100
AcDbLine
 10
-180.768542
 20
94.719687
 30
0.0
 11
-179.733266
 21
90.855984
 31
0.0
  0
LINE
  5
58C
100
AcDbEntity
  8
2
370
    25
100
AcDbLine
 10
-180.768542
 20
94.719687
 30
0.0
 11
-180.768542
 21
74.719687
 31
0.0
  0
LINE
  5
58D
100
AcDbEntity
  8
2
370
    25
100
AcDbLine
 10
-180.768542
 20
74.719687
 30
0.0
 11
-179.733266
 21
78.58339
 31
0.0
  0
LINE
  5
58E
100
AcDbEntity
  8
2
370
    25
100
AcDbLine
 10
-180.768542
 20
74.719687
 30
0.0
 11
-181.803818
 21
78.58339
 31
0.0
  0
LINE
  5
58F
100
AcDbEntity
  8
2
370
    25
100
AcDbLine
 10
-148.999998
 20
74.719687
 30
0.0
 11
-182.768542
 21
74.719687
 31
0.0
  0
ENDBLK
  5
590
100
AcDbEntity
  8
2
100
AcDbBlockEnd
  0
BLOCK
  5
591
100
AcDbEntity
  8
2
100
AcDbBlockBegin
  2
*D3
 70
     1
 10
0.0
 20
0.0
 30
0.0
  3
*D3
  1

  0
TEXT
  5
592
100
AcDbEntity
  8
2
370
    25
100
AcDbText
 10
-78.199998
 20
113.504288
 30
0.0
 40
5.0
  1
16.8
 41
2.0
 72
     5
 11
-60.199998
 21
113.504288
 31
0.0
100
AcDbText
  0
LINE
  5
593
100
AcDbEntity
  8
2
370
    25
100
AcDbLine
 10
-80.199998
 20
85.719687
 30
0.0
 11
-80.199998
 21
114.504288
 31
0.0
  0
LINE
  5
594
100
AcDbEntity
  8
2
370
    25
100
AcDbLine
 10
-80.199998
 20
112.504288
 30
0.0
 11
-76.336295
 21
111.469012
 31
0.0
  0
LINE
  5
595
100
AcDbEntity
  8
2
370
    25
100
AcDbLine
 10
-80.199998
 20
112.504288
 30
0.0
 11
-76.336295
 21
113.539564
 31
0.0
  0
LINE
  5
596
100
AcDbEntity
  8
2
370
    25
100
AcDbLine
 10
-56.199998
 20
112.504288
 30
0.0
 11
-106.999998
 21
112.504288
 31
0.0
  0
LINE
  5
597
100
AcDbEntity
  8
2
370
    25
100
AcDbLine
 10
-96.999998
 20
112.504288
 30
0.0
 11
-100.863702
 21
113.539564
 31
0.0
  0
LINE
  5
598
100
AcDbEntity
  8
2
370
    25
100
AcDbLine
 10
-96.999998
 20
112.504288
 30
0.0
 11
-100.863702
 21
111.469012
 31
0.0
  0
LINE
  5
599
100
AcDbEntity
  8
2
370
    25
100
AcDbLine
 10
-96.999998
 20
57.658049
 30
0.0
 11
-96.999998
 21
114.504288
 31
0.0
  0
ENDBLK
  5
59A
100
AcDbEntity
  8
2
100
AcDbBlockEnd
  0
BLOCK
  5
59B
100
AcDbEntity
  8
2
100
AcDbBlockBegin
  2
*D4
 70
     1
 10
0.0
 20
0.0
 30
0.0
  3
*D4
  1

  0
TEXT
  5
59C
100
AcDbEntity
  8
2
370
    25
100
AcDbText
 10
-217.975038
 20
54.719676
 30
0.0
 40
5.0
  1
50
 50
90.0
 41
2.0
 72
     5
 11
-217.975038
 21
62.719676
 31
0.0
100
AcDbText
  0
LINE
  5
59D
100
AcDbEntity
  8
2
370
    25
100
AcDbLine
 10
-225.618236
 20
34.719676
 30
0.0
 11
-214.975038
 21
34.719676
 31
0.0
  0
LINE
  5
59E
100
AcDbEntity
  8
2
370
    25
100
AcDbLine
 10
-216.975038
 20
34.719676
 30
0.0
 11
-215.939762
 21
38.583379
 31
0.0
  0
LINE
  5
59F
100
AcDbEntity
  8
2
370
    25
100
AcDbLine
 10
-216.975038
 20
34.719676
 30
0.0
 11
-218.010314
 21
38.583379
 31
0.0
  0
LINE
  5
5A0
100
AcDbEntity
  8
2
370
    25
100
AcDbLine
 10
-216.975038
 20
34.719676
 30
0.0
 11
-216.975038
 21
84.719676
 31
0.0
  0
LINE
  5
5A1
100
AcDbEntity
  8
2
370
    25
100
AcDbLine
 10
-216.975038
 20
84.719676
 30
0.0
 11
-218.010314
 21
80.855972
 31
0.0
  0
LINE
  5
5A2
100
AcDbEntity
  8
2
370
    25
100
AcDbLine
 10
-216.975038
 20
84.719676
 30
0.0
 11
-215.939762
 21
80.855972
 31
0.0
  0
LINE
  5
5A3
100
AcDbEntity
  8
2
370
    25
100
AcDbLine
 10
-238.999976
 20
84.719676
 30
0.0
 11
-214.975038
 21
84.719676
 31
0.0
  0
ENDBLK
  5
5A4
100
AcDbEntity
  8
2
100
AcDbBlockEnd
  0
BLOCK
  5
5A5
100
AcDbEntity
  8
2
100
AcDbBlockBegin
  2
*D5
 70
     1
 10
0.0
 20
0.0
 30
0.0
  3
*D5
  1

  0
TEXT
  5
5A6
100
AcDbEntity
  8
2
370
    25
100
AcDbText
 10
-209.312197
 20
16.219676
 30
0.0
 40
5.0
  1
27
 50
90.0
 41
2.0
 72
     5
 11
-209.312197
 21
24.219676
 31
0.0
100
AcDbText
  0
LINE
  5
5A7
100
AcDbEntity
  8
2
370
    25
100
AcDbLine
 10
-247.749976
 20
7.719676
 30
0.0
 11
-206.312196
 21
7.719676
 31
0.0
  0
LINE
  5
5A8
100
AcDbEntity
  8
2
370
    25
100
AcDbLine
 10
-208.312196
 20
7.719676
 30
0.0
 11
-207.27692
 21
11.583379
 31
0.0
  0
LINE
  5
5A9
100
AcDbEntity
  8
2
370
    25
100
AcDbLine
 10
-208.312196
 20
7.719676
 30
0.0
 11
-209.347473
 21
11.583379
 31
0.0
  0
LINE
  5
5AA
100
AcDbEntity
  8
2
370
    25
100
AcDbLine
 10
-208.312196
 20
7.719676
 30
0.0
 11
-208.312196
 21
34.719676
 31
0.0
  0
LINE
  5
5AB
100
AcDbEntity
  8
2
370
    25
100
AcDbLine
 10
-208.312196
 20
34.719676
 30
0.0
 11
-209.347473
 21
30.855972
 31
0.0
  0
LINE
  5
5AC
100
AcDbEntity
  8
2
370
    25
100
AcDbLine
 10
-208.312196
 20
34.719676
 30
0.0
 11
-207.27692
 21
30.855972
 31
0.0
  0
LINE
  5
5AD
100
AcDbEntity
  8
2
370
    25
100
AcDbLine
 10
-225.618236
 20
34.719676
 30
0.0
 11
-206.312196
 21
34.719676
 31
0.0
  0
ENDBLK
  5
5AE
100
AcDbEntity
  8
2
100
AcDbBlockEnd
  0
BLOCK
  5
5AF
100
AcDbEntity
  8
2
100
AcDbBlockBegin
  2
*D6
 70
     1
 10
0.0
 20
0.0
 30
0.0
  3
*D6
  1

  0
TEXT
  5
5B0
100
AcDbEntity
  8
2
370
    25
100
AcDbText
 10
-209.312196
 20
72.219676
 30
0.0
 40
5.0
  1
85
 50
90.0
 41
2.0
 72
     5
 11
-209.312196
 21
80.219676
 31
0.0
100
AcDbText
  0
LINE
  5
5B1
100
AcDbEntity
  8
2
370
    25
100
AcDbLine
 10
-225.618236
 20
34.719676
 30
0.0
 11
-206.312196
 21
34.719676
 31
0.0
  0
LINE
  5
5B2
100
AcDbEntity
  8
2
370
    25
100
AcDbLine
 10
-208.312196
 20
34.719676
 30
0.0
 11
-207.27692
 21
38.583379
 31
0.0
  0
LINE
  5
5B3
100
AcDbEntity
  8
2
370
    25
100
AcDbLine
 10
-208.312196
 20
34.719676
 30
0.0
 11
-209.347473
 21
38.583379
 31
0.0
  0
LINE
  5
5B4
100
AcDbEntity
  8
2
370
    25
100
AcDbLine
 10
-208.312196
 20
34.719676
 30
0.0
 11
-208.312196
 21
119.719676
 31
0.0
  0
LINE
  5
5B5
100
AcDbEntity
  8
2
370
    25
100
AcDbLine
 10
-208.312196
 20
119.719676
 30
0.0
 11
-209.347473
 21
115.855972
 31
0.0
  0
LINE
  5
5B6
100
AcDbEntity
  8
2
370
    25
100
AcDbLine
 10
-208.312196
 20
119.719676
 30
0.0
 11
-207.27692
 21
115.855972
 31
0.0
  0
LINE
  5
5B7
100
AcDbEntity
  8
2
370
    25
100
AcDbLine
 10
-247.749976
 20
119.719676
 30
0.0
 11
-206.312196
 21
119.719676
 31
0.0
  0
ENDBLK
  5
5B8
100
AcDbEntity
  8
2
100
AcDbBlockEnd
  0
BLOCK
  5
5B9
100
AcDbEntity
  8
2
100
AcDbBlockBegin
  2
*D7
 70
     1
 10
0.0
 20
0.0
 30
0.0
  3
*D7
  1

  0
TEXT
  5
5BA
100
AcDbEntity
  8
2
370
    25
100
AcDbText
 10
321.388214
 20
188.445381
 30
0.0
 40
5.0
  1
27
 50
90.0
 41
2.0
 72
     5
 11
321.388214
 21
196.445381
 31
0.0
100
AcDbText
  0
LINE
  5
5BB
100
AcDbEntity
  8
2
370
    25
100
AcDbLine
 10
300.388214
 20
179.945381
 30
0.0
 11
324.388214
 21
179.945381
 31
0.0
  0
LINE
  5
5BC
100
AcDbEntity
  8
2
370
    25
100
AcDbLine
 10
322.388214
 20
179.945381
 30
0.0
 11
323.42349
 21
183.809084
 31
0.0
  0
LINE
  5
5BD
100
AcDbEntity
  8
2
370
    25
100
AcDbLine
 10
322.388214
 20
179.945381
 30
0.0
 11
321.352938
 21
183.809084
 31
0.0
  0
LINE
  5
5BE
100
AcDbEntity
  8
2
370
    25
100
AcDbLine
 10
322.388214
 20
179.945381
 30
0.0
 11
322.388214
 21
206.945381
 31
0.0
  0
LINE
  5
5BF
100
AcDbEntity
  8
2
370
    25
100
AcDbLine
 10
322.388214
 20
206.945381
 30
0.0
 11
321.352938
 21
203.081678
 31
0.0
  0
LINE
  5
5C0
100
AcDbEntity
  8
2
370
    25
100
AcDbLine
 10
322.388214
 20
206.945381
 30
0.0
 11
323.42349
 21
203.081678
 31
0.0
  0
LINE
  5
5C1
100
AcDbEntity
  8
2
370
    25
100
AcDbLine
 10
300.388214
 20
206.945381
 30
0.0
 11
324.388214
 21
206.945381
 31
0.0
  0
ENDBLK
  5
5C2
100
AcDbEntity
  8
2
100
AcDbBlockEnd
  0
BLOCK
  5
5C3
100
AcDbEntity
  8
2
100
AcDbBlockBegin
  2
*D8
 70
     1
 10
0.0
 20
0.0
 30
0.0
  3
*D8
  1

  0
TEXT
  5
5C4
100
AcDbEntity
  8
2
370
    25
100
AcDbText
 10
329.388214
 20
188.445381
 30
0.0
 40
5.0
  1
50
 50
90.0
 41
2.0
 72
     5
 11
329.388214
 21
196.445381
 31
0.0
100
AcDbText
  0
LINE
  5
5C5
100
AcDbEntity
  8
2
370
    25
100
AcDbLine
 10
301.913061
 20
168.445381
 30
0.0
 11
332.388214
 21
168.445381
 31
0.0
  0
LINE
  5
5C6
100
AcDbEntity
  8
2
370
    25
100
AcDbLine
 10
330.388214
 20
168.445381
 30
0.0
 11
331.42349
 21
172.309084
 31
0.0
  0
LINE
  5
5C7
100
AcDbEntity
  8
2
370
    25
100
AcDbLine
 10
330.388214
 20
168.445381
 30
0.0
 11
329.352938
 21
172.309084
 31
0.0
  0
LINE
  5
5C8
100
AcDbEntity
  8
2
370
    25
100
AcDbLine
 10
330.388214
 20
168.445381
 30
0.0
 11
330.388214
 21
218.445381
 31
0.0
  0
LINE
  5
5C9
100
AcDbEntity
  8
2
370
    25
100
AcDbLine
 10
330.388214
 20
218.445381
 30
0.0
 11
329.352938
 21
214.581678
 31
0.0
  0
LINE
  5
5CA
100
AcDbEntity
  8
2
370
    25
100
AcDbLine
 10
330.388214
 20
218.445381
 30
0.0
 11
331.42349
 21
214.581678
 31
0.0
  0
LINE
  5
5CB
100
AcDbEntity
  8
2
370
    25
100
AcDbLine
 10
301.913061
 20
218.445381
 30
0.0
 11
332.388214
 21
218.445381
 31
0.0
  0
ENDBLK
  5
5CC
100
AcDbEntity
  8
2
100
AcDbBlockEnd
  0
BLOCK
  5
5CD
100
AcDbEntity
  8
2
100
AcDbBlockBegin
  2
*D9
 70
     1
 10
0.0
 20
0.0
 30
0.0
  3
*D9
  1

  0
TEXT
  5
5CE
100
AcDbEntity
  8
2
370
    25
100
AcDbText
 10
337.388214
 20
188.445381
 30
0.0
 40
5.0
  1
66
 50
90.0
 41
2.0
 72
     5
 11
337.388214
 21
196.445381
 31
0.0
100
AcDbText
  0
LINE
  5
5CF
100
AcDbEntity
  8
2
370
    25
100
AcDbLine
 10
307.388214
 20
160.445381
 30
0.0
 11
340.388214
 21
160.445381
 31
0.0
  0
LINE
  5
5D0
100
AcDbEntity
  8
2
370
    25
100
AcDbLine
 10
338.388214
 20
160.445381
 30
0.0
 11
339.42349
 21
164.309084
 31
0.0
  0
LINE
  5
5D1
100
AcDbEntity
  8
2
370
    25
100
AcDbLine
 10
338.388214
 20
160.445381
 30
0.0
 11
337.352938
 21
164.309084
 31
0.0
  0
LINE
  5
5D2
100
AcDbEntity
  8
2
370
    25
100
AcDbLine
 10
338.388214
 20
160.445381
 30
0.0
 11
338.388214
 21
226.445381
 31
0.0
  0
LINE
  5
5D3
100
AcDbEntity
  8
2
370
    25
100
AcDbLine
 10
338.388214
 20
226.445381
 30
0.0
 11
337.352938
 21
222.581678
 31
0.0
  0
LINE
  5
5D4
100
AcDbEntity
  8
2
370
    25
100
AcDbLine
 10
338.388214
 20
226.445381
 30
0.0
 11
339.42349
 21
222.581678
 31
0.0
  0
LINE
  5
5D5
100
AcDbEntity
  8
2
370
    25
100
AcDbLine
 10
307.388214
 20
226.445381
 30
0.0
 11
340.388214
 21
226.445381
 31
0.0
  0
ENDBLK
  5
5D6
100
AcDbEntity
  8
2
100
AcDbBlockEnd
  0
BLOCK
  5
5D7
100
AcDbEntity
  8
2
100
AcDbBlockBegin
  2
*D10
 70
     1
 10
0.0
 20
0.0
 30
0.0
  3
*D10
  1

  0
TEXT
  5
5D8
100
AcDbEntity
  8
2
370
    25
100
AcDbText
 10
382.360118
 20
183.44538
 30
0.0
 40
5.0
  1
30.2
 50
90.0
 41
2.0
 72
     5
 11
382.360118
 21
201.44538
 31
0.0
100
AcDbText
  0
LINE
  5
5D9
100
AcDbEntity
  8
2
370
    25
100
AcDbLine
 10
356.086907
 20
178.34538
 30
0.0
 11
385.360118
 21
178.34538
 31
0.0
  0
LINE
  5
5DA
100
AcDbEntity
  8
2
370
    25
100
AcDbLine
 10
383.360118
 20
178.34538
 30
0.0
 11
384.395394
 21
182.209083
 31
0.0
  0
LINE
  5
5DB
100
AcDbEntity
  8
2
370
    25
100
AcDbLine
 10
383.360118
 20
178.34538
 30
0.0
 11
382.324842
 21
182.209083
 31
0.0
  0
LINE
  5
5DC
100
AcDbEntity
  8
2
370
    25
100
AcDbLine
 10
383.360118
 20
178.34538
 30
0.0
 11
383.360118
 21
208.54538
 31
0.0
  0
LINE
  5
5DD
100
AcDbEntity
  8
2
370
    25
100
AcDbLine
 10
383.360118
 20
208.54538
 30
0.0
 11
382.324842
 21
204.681676
 31
0.0
  0
LINE
  5
5DE
100
AcDbEntity
  8
2
370
    25
100
AcDbLine
 10
383.360118
 20
208.54538
 30
0.0
 11
384.395394
 21
204.681676
 31
0.0
  0
LINE
  5
5DF
100
AcDbEntity
  8
2
370
    25
100
AcDbLine
 10
356.086907
 20
208.54538
 30
0.0
 11
385.360118
 21
208.54538
 31
0.0
  0
ENDBLK
  5
5E0
100
AcDbEntity
  8
2
100
AcDbBlockEnd
  0
BLOCK
  5
5E1
100
AcDbEntity
  8
2
100
AcDbBlockBegin
  2
*D11
 70
     1
 10
0.0
 20
0.0
 30
0.0
  3
*D11
  1

  0
TEXT
  5
5E2
100
AcDbEntity
  8
2
370
    25
100
AcDbText
 10
390.360118
 20
183.44538
 30
0.0
 40
5.0
  1
65.6
 50
90.0
 41
2.0
 72
     5
 11
390.360118
 21
201.44538
 31
0.0
100
AcDbText
  0
LINE
  5
5E3
100
AcDbEntity
  8
2
370
    25
100
AcDbLine
 10
354.686222
 20
160.645259
 30
0.0
 11
393.360118
 21
160.645259
 31
0.0
  0
LINE
  5
5E4
100
AcDbEntity
  8
2
370
    25
100
AcDbLine
 10
391.360118
 20
160.645259
 30
0.0
 11
392.395394
 21
164.508962
 31
0.0
  0
LINE
  5
5E5
100
AcDbEntity
  8
2
370
    25
100
AcDbLine
 10
391.360118
 20
160.645259
 30
0.0
 11
390.324842
 21
164.508962
 31
0.0
  0
LINE
  5
5E6
100
AcDbEntity
  8
2
370
    25
100
AcDbLine
 10
391.360118
 20
160.645259
 30
0.0
 11
391.360118
 21
226.245501
 31
0.0
  0
LINE
  5
5E7
100
AcDbEntity
  8
2
370
    25
100
AcDbLine
 10
391.360118
 20
226.245501
 30
0.0
 11
390.324842
 21
222.381797
 31
0.0
  0
LINE
  5
5E8
100
AcDbEntity
  8
2
370
    25
100
AcDbLine
 10
391.360118
 20
226.245501
 30
0.0
 11
392.395394
 21
222.381797
 31
0.0
  0
LINE
  5
5E9
100
AcDbEntity
  8
2
370
    25
100
AcDbLine
 10
354.686222
 20
226.245501
 30
0.0
 11
393.360118
 21
226.245501
 31
0.0
  0
ENDBLK
  5
5EA
100
AcDbEntity
  8
2
100
AcDbBlockEnd
  0
BLOCK
  5
5EB
100
AcDbEntity
  8
2
100
AcDbBlockBegin
  2
*D12
 70
     1
 10
0.0
 20
0.0
 30
0.0
  3
*D12
  1

  0
TEXT
  5
5EC
100
AcDbEntity
  8
2
370
    25
100
AcDbText
 10
301.888214
 20
255.445381
 30
0.0
 40
5.0
  1
7
 41
2.0
 72
     5
 11
304.888214
 21
255.445381
 31
0.0
100
AcDbText
  0
LINE
  5
5ED
100
AcDbEntity
  8
2
370
    25
100
AcDbLine
 10
286.888214
 20
205.245381
 30
0.0
 11
286.888214
 21
256.445381
 31
0.0
  0
LINE
  5
5EE
100
AcDbEntity
  8
2
370
    25
100
AcDbLine
 10
286.888214
 20
254.445381
 30
0.0
 11
283.024511
 21
255.480657
 31
0.0
  0
LINE
  5
5EF
100
AcDbEntity
  8
2
370
    25
100
AcDbLine
 10
286.888214
 20
254.445381
 30
0.0
 11
283.024511
 21
253.410105
 31
0.0
  0
LINE
  5
5F0
100
AcDbEntity
  8
2
370
    25
100
AcDbLine
 10
276.888214
 20
254.445381
 30
0.0
 11
308.888214
 21
254.445381
 31
0.0
  0
LINE
  5
5F1
100
AcDbEntity
  8
2
370
    25
100
AcDbLine
 10
293.888214
 20
254.445381
 30
0.0
 11
297.751917
 21
253.410105
 31
0.0
  0
LINE
  5
5F2
100
AcDbEntity
  8
2
370
    25
100
AcDbLine
 10
293.888214
 20
254.445381
 30
0.0
 11
297.751917
 21
255.480657
 31
0.0
  0
LINE
  5
5F3
100
AcDbEntity
  8
2
370
    25
100
AcDbLine
 10
293.888214
 20
232.392797
 30
0.0
 11
293.888214
 21
256.445381
 31
0.0
  0
ENDBLK
  5
5F4
100
AcDbEntity
  8
2
100
AcDbBlockEnd
  0
BLOCK
  5
5F5
100
AcDbEntity
  8
2
100
AcDbBlockBegin
  2
*D13
 70
     1
 10
0.0
 20
0.0
 30
0.0
  3
*D13
  1

  0
TEXT
  5
5F6
100
AcDbEntity
  8
2
370
    25
100
AcDbText
 10
276.388214
 20
145.445381
 30
0.0
 40
5.0
  1
25
 41
2.0
 72
     5
 11
284.388214
 21
145.445381
 31
0.0
100
AcDbText
  0
LINE
  5
5F7
100
AcDbEntity
  8
2
370
    25
100
AcDbLine
 10
268.888214
 20
144.445381
 30
0.0
 11
272.751917
 21
143.410105
 31
0.0
  0
LINE
  5
5F8
100
AcDbEntity
  8
2
370
    25
100
AcDbLine
 10
268.888214
 20
144.445381
 30
0.0
 11
272.751917
 21
145.480657
 31
0.0
  0
LINE
  5
5F9
100
AcDbEntity
  8
2
370
    25
100
AcDbLine
 10
268.888214
 20
144.445381
 30
0.0
 11
293.888214
 21
144.445381
 31
0.0
  0
LINE
  5
5FA
100
AcDbEntity
  8
2
370
    25
100
AcDbLine
 10
293.888214
 20
144.445381
 30
0.0
 11
290.024511
 21
145.480657
 31
0.0
  0
LINE
  5
5FB
100
AcDbEntity
  8
2
370
    25
100
AcDbLine
 10
293.888214
 20
144.445381
 30
0.0
 11
290.024511
 21
143.410105
 31
0.0
  0
LINE
  5
5FC
100
AcDbEntity
  8
2
370
    25
100
AcDbLine
 10
293.888214
 20
157.111501
 30
0.0
 11
293.888214
 21
142.445381
 31
0.0
  0
ENDBLK
  5
5FD
100
AcDbEntity
  8
2
100
AcDbBlockEnd
  0
BLOCK
  5
5FE
100
AcDbEntity
  8
2
100
AcDbBlockBegin
  2
*D14
 70
     1
 10
0.0
 20
0.0
 30
0.0
  3
*D14
  1

  0
TEXT
  5
5FF
100
AcDbEntity
  8
2
370
    25
100
AcDbText
 10
314.388214
 20
145.445381
 30
0.0
 40
5.0
  1
12.5
 41
2.0
 72
     5
 11
332.388214
 21
145.445381
 31
0.0
100
AcDbText
  0
LINE
  5
600
100
AcDbEntity
  8
2
370
    25
100
AcDbLine
 10
293.888214
 20
144.445381
 30
0.0
 11
290.024511
 21
145.480657
 31
0.0
  0
LINE
  5
601
100
AcDbEntity
  8
2
370
    25
100
AcDbLine
 10
293.888214
 20
144.445381
 30
0.0
 11
290.024511
 21
143.410105
 31
0.0
  0
LINE
  5
602
100
AcDbEntity
  8
2
370
    25
100
AcDbLine
 10
283.888214
 20
144.445381
 30
0.0
 11
336.388214
 21
144.445381
 31
0.0
  0
LINE
  5
603
100
AcDbEntity
  8
2
370
    25
100
AcDbLine
 10
306.388214
 20
144.445381
 30
0.0
 11
310.251917
 21
143.410105
 31
0.0
  0
LINE
  5
604
100
AcDbEntity
  8
2
370
    25
100
AcDbLine
 10
306.388214
 20
144.445381
 30
0.0
 11
310.251917
 21
145.480657
 31
0.0
  0
ENDBLK
  5
605
100
AcDbEntity
  8
2
100
AcDbBlockEnd
  0
BLOCK
  5
606
100
AcDbEntity
  8
2
100
AcDbBlockBegin
  2
*D15
 70
     1
 10
0.0
 20
0.0
 30
0.0
  3
*D15
  1

  0
TEXT
  5
607
100
AcDbEntity
  8
2
370
    25
100
AcDbText
 10
277.638214
 20
135.445381
 30
0.0
 40
5.0
  1
37.5
 41
2.0
 72
     5
 11
295.638214
 21
135.445381
 31
0.0
100
AcDbText
  0
LINE
  5
608
100
AcDbEntity
  8
2
370
    25
100
AcDbLine
 10
268.888214
 20
164.445381
 30
0.0
 11
268.888214
 21
132.445381
 31
0.0
  0
LINE
  5
609
100
AcDbEntity
  8
2
370
    25
100
AcDbLine
 10
268.888214
 20
134.445381
 30
0.0
 11
272.751917
 21
133.410105
 31
0.0
  0
LINE
  5
60A
100
AcDbEntity
  8
2
370
    25
100
AcDbLine
 10
268.888214
 20
134.445381
 30
0.0
 11
272.751917
 21
135.480657
 31
0.0
  0
LINE
  5
60B
100
AcDbEntity
  8
2
370
    25
100
AcDbLine
 10
268.888214
 20
134.445381
 30
0.0
 11
306.388214
 21
134.445381
 31
0.0
  0
LINE
  5
60C
100
AcDbEntity
  8
2
370
    25
100
AcDbLine
 10
306.388214
 20
134.445381
 30
0.0
 11
302.524511
 21
135.480657
 31
0.0
  0
LINE
  5
60D
100
AcDbEntity
  8
2
370
    25
100
AcDbLine
 10
306.388214
 20
134.445381
 30
0.0
 11
302.524511
 21
133.410105
 31
0.0
  0
LINE
  5
60E
100
AcDbEntity
  8
2
370
    25
100
AcDbLine
 10
306.388214
 20
159.445381
 30
0.0
 11
306.388214
 21
132.445381
 31
0.0
  0
ENDBLK
  5
60F
100
AcDbEntity
  8
2
100
AcDbBlockEnd
  0
BLOCK
  5
610
100
AcDbEntity
  8
2
100
AcDbBlockBegin
  2
*D16
 70
     1
 10
0.0
 20
0.0
 30
0.0
  3
*D16
  1

  0
TEXT
  5
611
100
AcDbEntity
  8
2
370
    25
100
AcDbText
 10
318.653927
 20
127.922353
 30
0.0
 40
5.0
  1
1
 50
90.0
 41
2.0
 72
     5
 11
318.653927
 21
130.922353
 31
0.0
100
AcDbText
  0
LINE
  5
612
100
AcDbEntity
  8
2
370
    25
100
AcDbLine
 10
307.388214
 20
122.922353
 30
0.0
 11
321.653927
 21
122.922353
 31
0.0
  0
LINE
  5
613
100
AcDbEntity
  8
2
370
    25
100
AcDbLine
 10
319.653927
 20
122.922353
 30
0.0
 11
319.653927
 21
134.922353
 31
0.0
  0
LINE
  5
614
100
AcDbEntity
  8
2
370
    25
100
AcDbLine
 10
319.653927
 20
123.922353
 30
0.0
 11
320.689203
 21
127.786057
 31
0.0
  0
LINE
  5
615
100
AcDbEntity
  8
2
370
    25
100
AcDbLine
 10
319.653927
 20
123.922353
 30
0.0
 11
318.618651
 21
127.786057
 31
0.0
  0
CIRCLE
  5
616
100
AcDbEntity
  8
2
370
    25
100
AcDbCircle
 10
319.653927
 20
122.922353
 30
0.0
 40
1.0
  0
CIRCLE
  5
617
100
AcDbEntity
  8
2
370
    25
100
AcDbCircle
 10
319.653927
 20
122.922353
 30
0.0
 40
0.6
  0
ENDBLK
  5
618
100
AcDbEntity
  8
2
100
AcDbBlockEnd
  0
BLOCK
  5
619
100
AcDbEntity
  8
2
100
AcDbBlockBegin
  2
*D17
 70
     1
 10
0.0
 20
0.0
 30
0.0
  3
*D17
  1

  0
TEXT
  5
61A
100
AcDbEntity
  8
2
370
    25
100
AcDbText
 10
318.469173
 20
98.474622
 30
0.0
 40
5.0
  1
1.9
 50
90.0
 41
2.0
 72
     5
 11
318.469173
 21
111.474622
 31
0.0
100
AcDbText
  0
LINE
  5
61B
100
AcDbEntity
  8
2
370
    25
100
AcDbLine
 10
304.721807
 20
121.022353
 30
0.0
 11
321.653927
 21
121.022353
 31
0.0
  0
LINE
  5
61C
100
AcDbEntity
  8
2
370
    25
100
AcDbLine
 10
319.653927
 20
121.022353
 30
0.0
 11
318.618651
 21
117.15865
 31
0.0
  0
LINE
  5
61D
100
AcDbEntity
  8
2
370
    25
100
AcDbLine
 10
319.653927
 20
121.022353
 30
0.0
 11
320.689203
 21
117.15865
 31
0.0
  0
LINE
  5
61E
100
AcDbEntity
  8
2
370
    25
100
AcDbLine
 10
319.653927
 20
100.022353
 30
0.0
 11
319.653927
 21
122.922353
 31
0.0
  0
CIRCLE
  5
61F
100
AcDbEntity
  8
2
370
    25
100
AcDbCircle
 10
319.653927
 20
122.922353
 30
0.0
 40
1.0
  0
CIRCLE
  5
620
100
AcDbEntity
  8
2
370
    25
100
AcDbCircle
 10
319.653927
 20
122.922353
 30
0.0
 40
0.6
  0
ENDBLK
  5
621
100
AcDbEntity
  8
2
100
AcDbBlockEnd
  0
BLOCK
  5
622
100
AcDbEntity
  8
2
100
AcDbBlockBegin
  2
*D18
 70
     1
 10
0.0
 20
0.0
 30
0.0
  3
*D18
  1

  0
TEXT
  5
623
100
AcDbEntity
  8
2
370
    25
100
AcDbText
 10
327.988888
 20
113.922353
 30
0.0
 40
5.0
  1
10
 50
90.0
 41
2.0
 72
     5
 11
327.988888
 21
121.922353
 31
0.0
100
AcDbText
  0
LINE
  5
624
100
AcDbEntity
  8
2
370
    25
100
AcDbLine
 10
302.008899
 20
113.922353
 30
0.0
 11
330.988888
 21
113.922353
 31
0.0
  0
LINE
  5
625
100
AcDbEntity
  8
2
370
    25
100
AcDbLine
 10
328.988888
 20
113.922353
 30
0.0
 11
330.024164
 21
117.786057
 31
0.0
  0
LINE
  5
626
100
AcDbEntity
  8
2
370
    25
100
AcDbLine
 10
328.988888
 20
113.922353
 30
0.0
 11
327.953612
 21
117.786057
 31
0.0
  0
LINE
  5
627
100
AcDbEntity
  8
2
370
    25
100
AcDbLine
 10
328.988888
 20
113.922353
 30
0.0
 11
328.988888
 21
123.922353
 31
0.0
  0
LINE
  5
628
100
AcDbEntity
  8
2
370
    25
100
AcDbLine
 10
328.988888
 20
123.922353
 30
0.0
 11
327.953612
 21
120.05865
 31
0.0
  0
LINE
  5
629
100
AcDbEntity
  8
2
370
    25
100
AcDbLine
 10
328.988888
 20
123.922353
 30
0.0
 11
330.024164
 21
120.05865
 31
0.0
  0
LINE
  5
62A
100
AcDbEntity
  8
2
370
    25
100
AcDbLine
 10
307.388214
 20
123.922353
 30
0.0
 11
330.988888
 21
123.922353
 31
0.0
  0
ENDBLK
  5
62B
100
AcDbEntity
  8
2
100
AcDbBlockEnd
  0
BLOCK
  5
62C
100
AcDbEntity
  8
2
100
AcDbBlockBegin
  2
*D19
 70
     1
 10
0.0
 20
0.0
 30
0.0
  3
*D19
  1

  0
TEXT
  5
62D
100
AcDbEntity
  8
2
370
    25
100
AcDbText
 10
284.138214
 20
93.315168
 30
0.0
 40
5.0
  1
18.1
 41
2.0
 72
     5
 11
302.138214
 21
93.315168
 31
0.0
100
AcDbText
  0
LINE
  5
62E
100
AcDbEntity
  8
2
370
    25
100
AcDbLine
 10
285.088214
 20
120.022353
 30
0.0
 11
285.088214
 21
90.315168
 31
0.0
  0
LINE
  5
62F
100
AcDbEntity
  8
2
370
    25
100
AcDbLine
 10
285.088214
 20
92.315168
 30
0.0
 11
288.951917
 21
91.279891
 31
0.0
  0
LINE
  5
630
100
AcDbEntity
  8
2
370
    25
100
AcDbLine
 10
285.088214
 20
92.315168
 30
0.0
 11
288.951917
 21
93.350444
 31
0.0
  0
LINE
  5
631
100
AcDbEntity
  8
2
370
    25
100
AcDbLine
 10
285.088214
 20
92.315168
 30
0.0
 11
303.188214
 21
92.315168
 31
0.0
  0
LINE
  5
632
100
AcDbEntity
  8
2
370
    25
100
AcDbLine
 10
303.188214
 20
92.315168
 30
0.0
 11
299.324511
 21
93.350444
 31
0.0
  0
LINE
  5
633
100
AcDbEntity
  8
2
370
    25
100
AcDbLine
 10
303.188214
 20
92.315168
 30
0.0
 11
299.324511
 21
91.279891
 31
0.0
  0
LINE
  5
634
100
AcDbEntity
  8
2
370
    25
100
AcDbLine
 10
303.188214
 20
120.022353
 30
0.0
 11
303.188214
 21
90.315168
 31
0.0
  0
ENDBLK
  5
635
100
AcDbEntity
  8
2
100
AcDbBlockEnd
  0
BLOCK
  5
636
100
AcDbEntity
  8
2
100
AcDbBlockBegin
  2
*D20
 70
     1
 10
0.0
 20
0.0
 30
0.0
  3
*D20
  1

  0
TEXT
  5
637
100
AcDbEntity
  8
2
370
    25
100
AcDbText
 10
301.888214
 20
247.445381
 30
0.0
 40
5.0
  1
2
 41
2.0
 72
     5
 11
304.888214
 21
247.445381
 31
0.0
100
AcDbText
  0
LINE
  5
638
100
AcDbEntity
  8
2
370
    25
100
AcDbLine
 10
286.888214
 20
246.445381
 30
0.0
 11
308.888214
 21
246.445381
 31
0.0
  0
LINE
  5
639
100
AcDbEntity
  8
2
370
    25
100
AcDbLine
 10
288.888214
 20
246.445381
 30
0.0
 11
292.751917
 21
245.410105
 31
0.0
  0
LINE
  5
63A
100
AcDbEntity
  8
2
370
    25
100
AcDbLine
 10
288.888214
 20
246.445381
 30
0.0
 11
292.751917
 21
247.480657
 31
0.0
  0
LINE
  5
63B
100
AcDbEntity
  8
2
370
    25
100
AcDbLine
 10
288.888214
 20
205.245381
 30
0.0
 11
288.888214
 21
248.445381
 31
0.0
  0
CIRCLE
  5
63C
100
AcDbEntity
  8
2
370
    25
100
AcDbCircle
 10
286.888214
 20
246.445381
 30
0.0
 40
1.0
  0
CIRCLE
  5
63D
100
AcDbEntity
  8
2
370
    25
100
AcDbCircle
 10
286.888214
 20
246.445381
 30
0.0
 40
0.6
  0
ENDBLK
  5
63E
100
AcDbEntity
  8
2
100
AcDbBlockEnd
  0
BLOCK
  5
63F
100
AcDbEntity
  8
2
100
AcDbBlockBegin
  2
*D21
 70
     1
 10
0.0
 20
0.0
 30
0.0
  3
*D21
  1

  0
TEXT
  5
640
100
AcDbEntity
  8
2
370
    25
100
AcDbText
 10
270.888214
 20
247.445381
 30
0.0
 40
5.0
  1
3
 41
2.0
 72
     5
 11
273.888214
 21
247.445381
 31
0.0
100
AcDbText
  0
LINE
  5
641
100
AcDbEntity
  8
2
370
    25
100
AcDbLine
 10
283.888214
 20
205.245381
 30
0.0
 11
283.888214
 21
248.445381
 31
0.0
  0
LINE
  5
642
100
AcDbEntity
  8
2
370
    25
100
AcDbLine
 10
283.888214
 20
246.445381
 30
0.0
 11
280.024511
 21
247.480657
 31
0.0
  0
LINE
  5
643
100
AcDbEntity
  8
2
370
    25
100
AcDbLine
 10
283.888214
 20
246.445381
 30
0.0
 11
280.024511
 21
245.410105
 31
0.0
  0
LINE
  5
644
100
AcDbEntity
  8
2
370
    25
100
AcDbLine
 10
263.888214
 20
246.445381
 30
0.0
 11
286.888214
 21
246.445381
 31
0.0
  0
CIRCLE
  5
645
100
AcDbEntity
  8
2
370
    25
100
AcDbCircle
 10
286.888214
 20
246.445381
 30
0.0
 40
1.0
  0
CIRCLE
  5
646
100
AcDbEntity
  8
2
370
    25
100
AcDbCircle
 10
286.888214
 20
246.445381
 30
0.0
 40
0.6
  0
ENDBLK
  5
647
100
AcDbEntity
  8
2
100
AcDbBlockEnd
  0
BLOCK
  5
648
100
AcDbEntity
  8
2
100
AcDbBlockBegin
  2
*D22
 70
     1
 10
0.0
 20
0.0
 30
0.0
  3
*D22
  1

  0
TEXT
  5
649
100
AcDbEntity
  8
2
370
    18
100
AcDbText
 10
-291.147156
 20
207.5952
 30
0.0
 40
5.0
  1
20.5
 50
90.0
 41
2.0
 72
     5
 11
-291.147156
 21
225.5952
 31
0.0
100
AcDbText
  0
LINE
  5
64A
100
AcDbEntity
  8
2
370
    25
100
AcDbLine
 10
-315.034009
 20
207.3452
 30
0.0
 11
-288.147156
 21
207.3452
 31
0.0
  0
LINE
  5
64B
100
AcDbEntity
  8
2
370
    25
100
AcDbLine
 10
-290.147156
 20
207.3452
 30
0.0
 11
-289.11188
 21
211.208903
 31
0.0
  0
LINE
  5
64C
100
AcDbEntity
  8
2
370
    25
100
AcDbLine
 10
-290.147156
 20
207.3452
 30
0.0
 11
-291.182432
 21
211.208903
 31
0.0
  0
LINE
  5
64D
100
AcDbEntity
  8
2
370
    25
100
AcDbLine
 10
-290.147156
 20
207.3452
 30
0.0
 11
-290.147156
 21
227.8452
 31
0.0
  0
LINE
  5
64E
100
AcDbEntity
  8
2
370
    25
100
AcDbLine
 10
-290.147156
 20
227.8452
 30
0.0
 11
-291.182432
 21
223.981497
 31
0.0
  0
LINE
  5
64F
100
AcDbEntity
  8
2
370
    25
100
AcDbLine
 10
-290.147156
 20
227.8452
 30
0.0
 11
-289.11188
 21
223.981497
 31
0.0
  0
LINE
  5
650
100
AcDbEntity
  8
2
370
    25
100
AcDbLine
 10
-315.034009
 20
227.8452
 30
0.0
 11
-288.147156
 21
227.8452
 31
0.0
  0
ENDBLK
  5
651
100
AcDbEntity
  8
2
100
AcDbBlockEnd
  0
BLOCK
  5
652
100
AcDbEntity
  8
2
100
AcDbBlockBegin
  2
*D23
 70
     1
 10
0.0
 20
0.0
 30
0.0
  3
*D23
  1

  0
TEXT
  5
653
100
AcDbEntity
  8
2
370
    18
100
AcDbText
 10
-338.034009
 20
255.75235
 30
0.0
 40
5.0
  1
48.5
 41
2.0
 72
     5
 11
-320.034009
 21
255.75235
 31
0.0
100
AcDbText
  0
LINE
  5
654
100
AcDbEntity
  8
2
370
    25
100
AcDbLine
 10
-303.784009
 20
212.526172
 30
0.0
 11
-303.784009
 21
256.75235
 31
0.0
  0
LINE
  5
655
100
AcDbEntity
  8
2
370
    25
100
AcDbLine
 10
-303.784009
 20
254.75235
 30
0.0
 11
-307.647712
 21
255.787626
 31
0.0
  0
LINE
  5
656
100
AcDbEntity
  8
2
370
    25
100
AcDbLine
 10
-303.784009
 20
254.75235
 30
0.0
 11
-307.647712
 21
253.717074
 31
0.0
  0
LINE
  5
657
100
AcDbEntity
  8
2
370
    25
100
AcDbLine
 10
-303.784009
 20
254.75235
 30
0.0
 11
-352.284009
 21
254.75235
 31
0.0
  0
LINE
  5
658
100
AcDbEntity
  8
2
370
    25
100
AcDbLine
 10
-352.284009
 20
254.75235
 30
0.0
 11
-348.420306
 21
253.717074
 31
0.0
  0
LINE
  5
659
100
AcDbEntity
  8
2
370
    25
100
AcDbLine
 10
-352.284009
 20
254.75235
 30
0.0
 11
-348.420306
 21
255.787626
 31
0.0
  0
LINE
  5
65A
100
AcDbEntity
  8
2
370
    25
100
AcDbLine
 10
-352.284009
 20
219.481609
 30
0.0
 11
-352.284009
 21
256.75235
 31
0.0
  0
ENDBLK
  5
65B
100
AcDbEntity
  8
2
100
AcDbBlockEnd
  0
BLOCK
  5
65C
100
AcDbEntity
  8
2
100
AcDbBlockBegin
  2
*D24
 70
     1
 10
0.0
 20
0.0
 30
0.0
  3
*D24
  1

  0
TEXT
  5
65D
100
AcDbEntity
  8
2
370
    18
100
AcDbText
 10
-291.598938
 20
175.886947
 30
0.0
 40
5.0
  1
2
 50
90.0
 41
2.0
 72
     5
 11
-291.598938
 21
178.886947
 31
0.0
100
AcDbText
  0
LINE
  5
65E
100
AcDbEntity
  8
2
370
    25
100
AcDbLine
 10
-302.784009
 20
171.886947
 30
0.0
 11
-288.598938
 21
171.886947
 31
0.0
  0
LINE
  5
65F
100
AcDbEntity
  8
2
370
    25
100
AcDbLine
 10
-290.598938
 20
171.886947
 30
0.0
 11
-291.634214
 21
168.023244
 31
0.0
  0
LINE
  5
660
100
AcDbEntity
  8
2
370
    25
100
AcDbLine
 10
-290.598938
 20
171.886947
 30
0.0
 11
-289.563662
 21
168.023244
 31
0.0
  0
LINE
  5
661
100
AcDbEntity
  8
2
370
    25
100
AcDbLine
 10
-290.598938
 20
161.886947
 30
0.0
 11
-290.598938
 21
182.886947
 31
0.0
  0
LINE
  5
662
100
AcDbEntity
  8
2
370
    25
100
AcDbLine
 10
-290.598938
 20
173.886947
 30
0.0
 11
-289.563662
 21
177.750651
 31
0.0
  0
LINE
  5
663
100
AcDbEntity
  8
2
370
    25
100
AcDbLine
 10
-290.598938
 20
173.886947
 30
0.0
 11
-291.634214
 21
177.750651
 31
0.0
  0
LINE
  5
664
100
AcDbEntity
  8
2
370
    25
100
AcDbLine
 10
-302.784009
 20
173.886947
 30
0.0
 11
-288.598938
 21
173.886947
 31
0.0
  0
ENDBLK
  5
665
100
AcDbEntity
  8
2
100
AcDbBlockEnd
  0
BLOCK
  5
666
100
AcDbEntity
  8
2
100
AcDbBlockBegin
  2
*D25
 70
     1
 10
0.0
 20
0.0
 30
0.0
  3
*D25
  1

  0
TEXT
  5
667
100
AcDbEntity
  8
2
370
    18
100
AcDbText
 10
-320.283404
 20
244.677338
 30
0.0
 40
5.0
  1
23
 41
2.0
 72
     5
 11
-312.283404
 21
244.677338
 31
0.0
100
AcDbText
  0
LINE
  5
668
100
AcDbEntity
  8
2
370
    25
100
AcDbLine
 10
-303.784009
 20
212.526172
 30
0.0
 11
-303.784009
 21
245.677338
 31
0.0
  0
LINE
  5
669
100
AcDbEntity
  8
2
370
    25
100
AcDbLine
 10
-303.784009
 20
243.677338
 30
0.0
 11
-307.647712
 21
244.712614
 31
0.0
  0
LINE
  5
66A
100
AcDbEntity
  8
2
370
    25
100
AcDbLine
 10
-303.784009
 20
243.677338
 30
0.0
 11
-307.647712
 21
242.642061
 31
0.0
  0
LINE
  5
66B
100
AcDbEntity
  8
2
370
    25
100
AcDbLine
 10
-303.784009
 20
243.677338
 30
0.0
 11
-326.782799
 21
243.677338
 31
0.0
  0
LINE
  5
66C
100
AcDbEntity
  8
2
370
    25
100
AcDbLine
 10
-326.782799
 20
243.677338
 30
0.0
 11
-322.919096
 21
242.642061
 31
0.0
  0
LINE
  5
66D
100
AcDbEntity
  8
2
370
    25
100
AcDbLine
 10
-326.782799
 20
243.677338
 30
0.0
 11
-322.919096
 21
244.712614
 31
0.0
  0
LINE
  5
66E
100
AcDbEntity
  8
2
370
    25
100
AcDbLine
 10
-326.782799
 20
211.607135
 30
0.0
 11
-326.782799
 21
245.677338
 31
0.0
  0
ENDBLK
  5
66F
100
AcDbEntity
  8
2
100
AcDbBlockEnd
  0
BLOCK
  5
670
100
AcDbEntity
  8
2
100
AcDbBlockBegin
  2
*D26
 70
     1
 10
0.0
 20
0.0
 30
0.0
  3
*D26
  1

  0
TEXT
  5
671
100
AcDbEntity
  8
2
370
    25
100
AcDbText
 10
8.938293
 20
18.7
 30
0.0
 40
5.0
  1
66
 50
90.0
 41
2.0
 72
     5
 11
8.938293
 21
26.7
 31
0.0
100
AcDbText
  0
LINE
  5
672
100
AcDbEntity
  8
2
370
    25
100
AcDbLine
 10
49.118263
 20
-9.3
 30
0.0
 11
7.938293
 21
-9.3
 31
0.0
  0
LINE
  5
673
100
AcDbEntity
  8
2
370
    25
100
AcDbLine
 10
9.938293
 20
-9.3
 30
0.0
 11
10.97357
 21
-5.436297
 31
0.0
  0
LINE
  5
674
100
AcDbEntity
  8
2
370
    25
100
AcDbLine
 10
9.938293
 20
-9.3
 30
0.0
 11
8.903017
 21
-5.436297
 31
0.0
  0
LINE
  5
675
100
AcDbEntity
  8
2
370
    25
100
AcDbLine
 10
9.938293
 20
-9.3
 30
0.0
 11
9.938293
 21
56.7
 31
0.0
  0
LINE
  5
676
100
AcDbEntity
  8
2
370
    25
100
AcDbLine
 10
9.938293
 20
56.7
 30
0.0
 11
8.903017
 21
52.836297
 31
0.0
  0
LINE
  5
677
100
AcDbEntity
  8
2
370
    25
100
AcDbLine
 10
9.938293
 20
56.7
 30
0.0
 11
10.97357
 21
52.836297
 31
0.0
  0
LINE
  5
678
100
AcDbEntity
  8
2
370
    25
100
AcDbLine
 10
34.983211
 20
56.7
 30
0.0
 11
7.938293
 21
56.7
 31
0.0
  0
ENDBLK
  5
679
100
AcDbEntity
  8
2
100
AcDbBlockEnd
  0
BLOCK
  5
67A
100
AcDbEntity
  8
2
100
AcDbBlockBegin
  2
*D27
 70
     1
 10
0.0
 20
0.0
 30
0.0
  3
*D27
  1

  0
TEXT
  5
67B
100
AcDbEntity
  8
2
370
    25
100
AcDbText
 10
15.618276
 20
87.7
 30
0.0
 40
5.0
  1
10.5
 41
2.0
 72
     5
 11
33.618276
 21
87.7
 31
0.0
100
AcDbText
  0
LINE
  5
67C
100
AcDbEntity
  8
2
370
    25
100
AcDbLine
 10
39.618276
 20
66.251551
 30
0.0
 11
39.618276
 21
88.7
 31
0.0
  0
LINE
  5
67D
100
AcDbEntity
  8
2
370
    25
100
AcDbLine
 10
39.618276
 20
86.7
 30
0.0
 11
35.754573
 21
87.735276
 31
0.0
  0
LINE
  5
67E
100
AcDbEntity
  8
2
370
    25
100
AcDbLine
 10
39.618276
 20
86.7
 30
0.0
 11
35.754573
 21
85.664724
 31
0.0
  0
LINE
  5
67F
100
AcDbEntity
  8
2
370
    25
100
AcDbLine
 10
13.618276
 20
86.7
 30
0.0
 11
60.118263
 21
86.7
 31
0.0
  0
LINE
  5
680
100
AcDbEntity
  8
2
370
    25
100
AcDbLine
 10
50.118263
 20
86.7
 30
0.0
 11
53.981967
 21
85.664724
 31
0.0
  0
LINE
  5
681
100
AcDbEntity
  8
2
370
    25
100
AcDbLine
 10
50.118263
 20
86.7
 30
0.0
 11
53.981967
 21
87.735276
 31
0.0
  0
ENDBLK
  5
682
100
AcDbEntity
  8
2
100
AcDbBlockEnd
  0
BLOCK
  5
683
100
AcDbEntity
  8
2
100
AcDbBlockBegin
  2
*D28
 70
     1
 10
0.0
 20
0.0
 30
0.0
  3
*D28
  1

  0
TEXT
  5
684
100
AcDbEntity
  8
2
370
    25
100
AcDbText
 10
19.403679
 20
20.7
 30
0.0
 40
5.0
  1
22
 50
90.0
 41
2.0
 72
     5
 11
19.403679
 21
28.7
 31
0.0
100
AcDbText
  0
LINE
  5
685
100
AcDbEntity
  8
2
370
    25
100
AcDbLine
 10
71.118263
 20
34.7
 30
0.0
 11
18.403679
 21
34.7
 31
0.0
  0
LINE
  5
686
100
AcDbEntity
  8
2
370
    25
100
AcDbLine
 10
20.403679
 20
34.7
 30
0.0
 11
19.368403
 21
30.836297
 31
0.0
  0
LINE
  5
687
100
AcDbEntity
  8
2
370
    25
100
AcDbLine
 10
20.403679
 20
34.7
 30
0.0
 11
21.438955
 21
30.836297
 31
0.0
  0
LINE
  5
688
100
AcDbEntity
  8
2
370
    25
100
AcDbLine
 10
20.403679
 20
18.7
 30
0.0
 11
20.403679
 21
66.7
 31
0.0
  0
LINE
  5
689
100
AcDbEntity
  8
2
370
    25
100
AcDbLine
 10
20.403679
 20
56.7
 30
0.0
 11
21.438955
 21
60.563703
 31
0.0
  0
LINE
  5
68A
100
AcDbEntity
  8
2
370
    25
100
AcDbLine
 10
20.403679
 20
56.7
 30
0.0
 11
19.368403
 21
60.563703
 31
0.0
  0
LINE
  5
68B
100
AcDbEntity
  8
2
370
    25
100
AcDbLine
 10
34.983211
 20
56.7
 30
0.0
 11
18.403679
 21
56.7
 31
0.0
  0
ENDBLK
  5
68C
100
AcDbEntity
  8
2
100
AcDbBlockEnd
  0
BLOCK
  5
68D
100
AcDbEntity
  8
2
100
AcDbBlockBegin
  2
*D29
 70
     1
 10
0.0
 20
0.0
 30
0.0
  3
*D29
  1

  0
TEXT
  5
68E
100
AcDbEntity
  8
2
370
    25
100
AcDbText
 10
140.319603
 20
-0.805798
 30
0.0
 40
5.0
  1
１３５
 50
0.5
 72
     5
 11
154.31907
 21
-0.683627
 31
0.0
100
AcDbText
  0
LINE
  5
68F
100
AcDbEntity
  8
2
370
    25
100
AcDbLine
 10
215.012649
 20
34.694863
 30
0.0
 11
215.342927
 21
-3.151194
 31
0.0
  0
LINE
  5
690
100
AcDbEntity
  8
2
370
    25
100
AcDbLine
 10
215.325473
 20
-1.15127
 30
0.0
 11
211.452883
 21
-0.14975
 31
0.0
  0
LINE
  5
691
100
AcDbEntity
  8
2
370
    25
100
AcDbLine
 10
215.325473
 20
-1.15127
 30
0.0
 11
211.470952
 21
-2.220224
 31
0.0
  0
LINE
  5
692
100
AcDbEntity
  8
2
370
    25
100
AcDbLine
 10
215.325473
 20
-1.15127
 30
0.0
 11
80.330614
 21
-2.329352
 31
0.0
  0
LINE
  5
693
100
AcDbEntity
  8
2
370
    25
100
AcDbLine
 10
80.330614
 20
-2.329352
 30
0.0
 11
84.203204
 21
-3.330872
 31
0.0
  0
LINE
  5
694
100
AcDbEntity
  8
2
370
    25
100
AcDbLine
 10
80.330614
 20
-2.329352
 30
0.0
 11
84.185136
 21
-1.260399
 31
0.0
  0
LINE
  5
695
100
AcDbEntity
  8
2
370
    25
100
AcDbLine
 10
80.017789
 20
33.516781
 30
0.0
 11
80.348067
 21
-4.329276
 31
0.0
  0
ENDBLK
  5
696
100
AcDbEntity
  8
2
100
AcDbBlockEnd
  0
BLOCK
  5
697
100
AcDbEntity
  8
2
100
AcDbBlockBegin
  2
*D30
 70
     1
 10
0.0
 20
0.0
 30
0.0
  3
*D30
  1

  0
TEXT
  5
698
100
AcDbEntity
  8
2
370
    25
100
AcDbText
 10
-1.139465
 20
49.2
 30
0.0
 40
5.0
  1
%%c20
 50
90.0
 41
2.0
 72
     5
 11
-1.139465
 21
62.2
 31
0.0
100
AcDbText
  0
LINE
  5
699
100
AcDbEntity
  8
2
370
    25
100
AcDbLine
 10
42.153078
 20
66.7
 30
0.0
 11
-2.139465
 21
66.7
 31
0.0
  0
LINE
  5
69A
100
AcDbEntity
  8
2
370
    25
100
AcDbLine
 10
-0.139465
 20
66.7
 30
0.0
 11
-1.174742
 21
62.836297
 31
0.0
  0
LINE
  5
69B
100
AcDbEntity
  8
2
370
    25
100
AcDbLine
 10
-0.139465
 20
66.7
 30
0.0
 11
0.895811
 21
62.836297
 31
0.0
  0
LINE
  5
69C
100
AcDbEntity
  8
2
370
    25
100
AcDbLine
 10
-0.139465
 20
66.7
 30
0.0
 11
-0.139465
 21
46.7
 31
0.0
  0
LINE
  5
69D
100
AcDbEntity
  8
2
370
    25
100
AcDbLine
 10
-0.139465
 20
46.7
 30
0.0
 11
0.895811
 21
50.563703
 31
0.0
  0
LINE
  5
69E
100
AcDbEntity
  8
2
370
    25
100
AcDbLine
 10
-0.139465
 20
46.7
 30
0.0
 11
-1.174742
 21
50.563703
 31
0.0
  0
LINE
  5
69F
100
AcDbEntity
  8
2
370
    25
100
AcDbLine
 10
42.153078
 20
46.7
 30
0.0
 11
-2.139465
 21
46.7
 31
0.0
  0
ENDBLK
  5
6A0
100
AcDbEntity
  8
2
100
AcDbBlockEnd
  0
BLOCK
  5
6A1
100
AcDbEntity
  8
2
100
AcDbBlockBegin
  2
*D31
 70
     1
 10
0.0
 20
0.0
 30
0.0
  3
*D31
  1

  0
TEXT
  5
6A2
100
AcDbEntity
  8
2
370
    25
100
AcDbText
 10
8.938293
 20
18.7
 30
0.0
 40
5.0
  1
66
 50
90.0
 41
2.0
 72
     5
 11
8.938293
 21
26.7
 31
0.0
100
AcDbText
  0
LINE
  5
6A3
100
AcDbEntity
  8
2
370
    25
100
AcDbLine
 10
49.118263
 20
-9.3
 30
0.0
 11
7.938293
 21
-9.3
 31
0.0
  0
LINE
  5
6A4
100
AcDbEntity
  8
2
370
    25
100
AcDbLine
 10
9.938293
 20
-9.3
 30
0.0
 11
10.97357
 21
-5.436297
 31
0.0
  0
LINE
  5
6A5
100
AcDbEntity
  8
2
370
    25
100
AcDbLine
 10
9.938293
 20
-9.3
 30
0.0
 11
8.903017
 21
-5.436297
 31
0.0
  0
LINE
  5
6A6
100
AcDbEntity
  8
2
370
    25
100
AcDbLine
 10
9.938293
 20
-9.3
 30
0.0
 11
9.938293
 21
56.7
 31
0.0
  0
LINE
  5
6A7
100
AcDbEntity
  8
2
370
    25
100
AcDbLine
 10
9.938293
 20
56.7
 30
0.0
 11
8.903017
 21
52.836297
 31
0.0
  0
LINE
  5
6A8
100
AcDbEntity
  8
2
370
    25
100
AcDbLine
 10
9.938293
 20
56.7
 30
0.0
 11
10.97357
 21
52.836297
 31
0.0
  0
LINE
  5
6A9
100
AcDbEntity
  8
2
370
    25
100
AcDbLine
 10
34.983211
 20
56.7
 30
0.0
 11
7.938293
 21
56.7
 31
0.0
  0
ENDBLK
  5
6AA
100
AcDbEntity
  8
2
100
AcDbBlockEnd
  0
BLOCK
  5
6AB
100
AcDbEntity
  8
2
100
AcDbBlockBegin
  2
*D32
 70
     1
 10
0.0
 20
0.0
 30
0.0
  3
*D32
  1

  0
TEXT
  5
6AC
100
AcDbEntity
  8
2
370
    25
100
AcDbText
 10
-20.907349
 20
48.2
 30
0.0
 40
5.0
  1
130
 50
90.0
 41
2.0
 72
     5
 11
-20.907349
 21
61.2
 31
0.0
100
AcDbText
  0
LINE
  5
6AD
100
AcDbEntity
  8
2
370
    25
100
AcDbLine
 10
49.118263
 20
-9.3
 30
0.0
 11
-21.907349
 21
-9.3
 31
0.0
  0
LINE
  5
6AE
100
AcDbEntity
  8
2
370
    25
100
AcDbLine
 10
-19.907349
 20
-9.3
 30
0.0
 11
-18.872072
 21
-5.436297
 31
0.0
  0
LINE
  5
6AF
100
AcDbEntity
  8
2
370
    25
100
AcDbLine
 10
-19.907349
 20
-9.3
 30
0.0
 11
-20.942625
 21
-5.436297
 31
0.0
  0
LINE
  5
6B0
100
AcDbEntity
  8
2
370
    25
100
AcDbLine
 10
-19.907349
 20
-9.3
 30
0.0
 11
-19.907349
 21
120.7
 31
0.0
  0
LINE
  5
6B1
100
AcDbEntity
  8
2
370
    25
100
AcDbLine
 10
-19.907349
 20
120.7
 30
0.0
 11
-20.942625
 21
116.836297
 31
0.0
  0
LINE
  5
6B2
100
AcDbEntity
  8
2
370
    25
100
AcDbLine
 10
-19.907349
 20
120.7
 30
0.0
 11
-18.872072
 21
116.836297
 31
0.0
  0
LINE
  5
6B3
100
AcDbEntity
  8
2
370
    25
100
AcDbLine
 10
49.118263
 20
120.7
 30
0.0
 11
-21.907349
 21
120.7
 31
0.0
  0
ENDBLK
  5
6B4
100
AcDbEntity
  8
2
100
AcDbBlockEnd
  0
BLOCK
  5
6B5
100
AcDbEntity
  8
2
100
AcDbBlockBegin
  2
*D33
 70
     1
 10
0.0
 20
0.0
 30
0.0
  3
*D33
  1

  0
TEXT
  5
6B6
100
AcDbEntity
  8
2
370
    25
100
AcDbText
 10
-10.812103
 20
48.2
 30
0.0
 40
5.0
  1
114
 50
90.0
 41
2.0
 72
     5
 11
-10.812103
 21
61.2
 31
0.0
100
AcDbText
  0
LINE
  5
6B7
100
AcDbEntity
  8
2
370
    25
100
AcDbLine
 10
43.328007
 20
-1.3
 30
0.0
 11
-11.812103
 21
-1.3
 31
0.0
  0
LINE
  5
6B8
100
AcDbEntity
  8
2
370
    25
100
AcDbLine
 10
-9.812103
 20
-1.3
 30
0.0
 11
-8.776827
 21
2.563703
 31
0.0
  0
LINE
  5
6B9
100
AcDbEntity
  8
2
370
    25
100
AcDbLine
 10
-9.812103
 20
-1.3
 30
0.0
 11
-10.847379
 21
2.563703
 31
0.0
  0
LINE
  5
6BA
100
AcDbEntity
  8
2
370
    25
100
AcDbLine
 10
-9.812103
 20
-1.3
 30
0.0
 11
-9.812103
 21
112.7
 31
0.0
  0
LINE
  5
6BB
100
AcDbEntity
  8
2
370
    25
100
AcDbLine
 10
-9.812103
 20
112.7
 30
0.0
 11
-10.847379
 21
108.836297
 31
0.0
  0
LINE
  5
6BC
100
AcDbEntity
  8
2
370
    25
100
AcDbLine
 10
-9.812103
 20
112.7
 30
0.0
 11
-8.776827
 21
108.836297
 31
0.0
  0
LINE
  5
6BD
100
AcDbEntity
  8
2
370
    25
100
AcDbLine
 10
43.328007
 20
112.7
 30
0.0
 11
-11.812103
 21
112.7
 31
0.0
  0
ENDBLK
  5
6BE
100
AcDbEntity
  8
2
100
AcDbBlockEnd
  0
BLOCK
  5
6BF
100
AcDbEntity
  8
2
100
AcDbBlockBegin
  2
*D34
 70
     1
 10
0.0
 20
0.0
 30
0.0
  3
*D34
  1

  0
TEXT
  5
6C0
100
AcDbEntity
  8
2
370
    25
100
AcDbText
 10
-10.812103
 20
124.7
 30
0.0
 40
5.0
  1
8
 50
90.0
 41
2.0
 72
     5
 11
-10.812103
 21
127.7
 31
0.0
100
AcDbText
  0
LINE
  5
6C1
100
AcDbEntity
  8
2
370
    25
100
AcDbLine
 10
43.328007
 20
112.7
 30
0.0
 11
-11.812103
 21
112.7
 31
0.0
  0
LINE
  5
6C2
100
AcDbEntity
  8
2
370
    25
100
AcDbLine
 10
-9.812103
 20
112.7
 30
0.0
 11
-10.847379
 21
108.836297
 31
0.0
  0
LINE
  5
6C3
100
AcDbEntity
  8
2
370
    25
100
AcDbLine
 10
-9.812103
 20
112.7
 30
0.0
 11
-8.776827
 21
108.836297
 31
0.0
  0
LINE
  5
6C4
100
AcDbEntity
  8
2
370
    25
100
AcDbLine
 10
-9.812103
 20
102.7
 30
0.0
 11
-9.812103
 21
131.7
 31
0.0
  0
LINE
  5
6C5
100
AcDbEntity
  8
2
370
    25
100
AcDbLine
 10
-9.812103
 20
120.7
 30
0.0
 11
-8.776827
 21
124.563703
 31
0.0
  0
LINE
  5
6C6
100
AcDbEntity
  8
2
370
    25
100
AcDbLine
 10
-9.812103
 20
120.7
 30
0.0
 11
-10.847379
 21
124.563703
 31
0.0
  0
LINE
  5
6C7
100
AcDbEntity
  8
2
370
    25
100
AcDbLine
 10
49.118263
 20
120.7
 30
0.0
 11
-11.812103
 21
120.7
 31
0.0
  0
ENDBLK
  5
6C8
100
AcDbEntity
  8
2
100
AcDbBlockEnd
  0
BLOCK
  5
6C9
100
AcDbEntity
  8
2
100
AcDbBlockBegin
  2
*D35
 70
     1
 10
0.0
 20
0.0
 30
0.0
  3
*D35
  1

  0
TEXT
  5
6CA
100
AcDbEntity
  8
2
370
    25
100
AcDbText
 10
-10.812103
 20
-18.3
 30
0.0
 40
5.0
  1
8
 50
90.0
 41
2.0
 72
     5
 11
-10.812103
 21
-15.3
 31
0.0
100
AcDbText
  0
LINE
  5
6CB
100
AcDbEntity
  8
2
370
    25
100
AcDbLine
 10
49.118263
 20
-9.3
 30
0.0
 11
-11.812103
 21
-9.3
 31
0.0
  0
LINE
  5
6CC
100
AcDbEntity
  8
2
370
    25
100
AcDbLine
 10
-9.812103
 20
-9.3
 30
0.0
 11
-10.847379
 21
-13.163703
 31
0.0
  0
LINE
  5
6CD
100
AcDbEntity
  8
2
370
    25
100
AcDbLine
 10
-9.812103
 20
-9.3
 30
0.0
 11
-8.776827
 21
-13.163703
 31
0.0
  0
LINE
  5
6CE
100
AcDbEntity
  8
2
370
    25
100
AcDbLine
 10
-9.812103
 20
-20.3
 30
0.0
 11
-9.812103
 21
8.7
 31
0.0
  0
LINE
  5
6CF
100
AcDbEntity
  8
2
370
    25
100
AcDbLine
 10
-9.812103
 20
-1.3
 30
0.0
 11
-8.776827
 21
2.563703
 31
0.0
  0
LINE
  5
6D0
100
AcDbEntity
  8
2
370
    25
100
AcDbLine
 10
-9.812103
 20
-1.3
 30
0.0
 11
-10.847379
 21
2.563703
 31
0.0
  0
LINE
  5
6D1
100
AcDbEntity
  8
2
370
    25
100
AcDbLine
 10
43.328007
 20
-1.3
 30
0.0
 11
-11.812103
 21
-1.3
 31
0.0
  0
ENDBLK
  5
6D2
100
AcDbEntity
  8
2
100
AcDbBlockEnd
  0
BLOCK
  5
6D3
100
AcDbEntity
  8
2
100
AcDbBlockBegin
  2
*D36
 70
     1
 10
0.0
 20
0.0
 30
0.0
  3
*D36
  1

  0
TEXT
  5
6D4
100
AcDbEntity
  8
2
370
    25
100
AcDbText
 10
15.618276
 20
87.7
 30
0.0
 40
5.0
  1
10.5
 41
2.0
 72
     5
 11
33.618276
 21
87.7
 31
0.0
100
AcDbText
  0
LINE
  5
6D5
100
AcDbEntity
  8
2
370
    25
100
AcDbLine
 10
39.618276
 20
66.251551
 30
0.0
 11
39.618276
 21
88.7
 31
0.0
  0
LINE
  5
6D6
100
AcDbEntity
  8
2
370
    25
100
AcDbLine
 10
39.618276
 20
86.7
 30
0.0
 11
35.754573
 21
87.735276
 31
0.0
  0
LINE
  5
6D7
100
AcDbEntity
  8
2
370
    25
100
AcDbLine
 10
39.618276
 20
86.7
 30
0.0
 11
35.754573
 21
85.664724
 31
0.0
  0
LINE
  5
6D8
100
AcDbEntity
  8
2
370
    25
100
AcDbLine
 10
13.618276
 20
86.7
 30
0.0
 11
60.118263
 21
86.7
 31
0.0
  0
LINE
  5
6D9
100
AcDbEntity
  8
2
370
    25
100
AcDbLine
 10
50.118263
 20
86.7
 30
0.0
 11
53.981967
 21
85.664724
 31
0.0
  0
LINE
  5
6DA
100
AcDbEntity
  8
2
370
    25
100
AcDbLine
 10
50.118263
 20
86.7
 30
0.0
 11
53.981967
 21
87.735276
 31
0.0
  0
ENDBLK
  5
6DB
100
AcDbEntity
  8
2
100
AcDbBlockEnd
  0
BLOCK
  5
6DC
100
AcDbEntity
  8
2
100
AcDbBlockBegin
  2
*D37
 70
     1
 10
0.0
 20
0.0
 30
0.0
  3
*D37
  1

  0
TEXT
  5
6DD
100
AcDbEntity
  8
2
370
    25
100
AcDbText
 10
19.403679
 20
20.7
 30
0.0
 40
5.0
  1
22
 50
90.0
 41
2.0
 72
     5
 11
19.403679
 21
28.7
 31
0.0
100
AcDbText
  0
LINE
  5
6DE
100
AcDbEntity
  8
2
370
    25
100
AcDbLine
 10
71.118263
 20
34.7
 30
0.0
 11
18.403679
 21
34.7
 31
0.0
  0
LINE
  5
6DF
100
AcDbEntity
  8
2
370
    25
100
AcDbLine
 10
20.403679
 20
34.7
 30
0.0
 11
19.368403
 21
30.836297
 31
0.0
  0
LINE
  5
6E0
100
AcDbEntity
  8
2
370
    25
100
AcDbLine
 10
20.403679
 20
34.7
 30
0.0
 11
21.438955
 21
30.836297
 31
0.0
  0
LINE
  5
6E1
100
AcDbEntity
  8
2
370
    25
100
AcDbLine
 10
20.403679
 20
18.7
 30
0.0
 11
20.403679
 21
66.7
 31
0.0
  0
LINE
  5
6E2
100
AcDbEntity
  8
2
370
    25
100
AcDbLine
 10
20.403679
 20
56.7
 30
0.0
 11
21.438955
 21
60.563703
 31
0.0
  0
LINE
  5
6E3
100
AcDbEntity
  8
2
370
    25
100
AcDbLine
 10
20.403679
 20
56.7
 30
0.0
 11
19.368403
 21
60.563703
 31
0.0
  0
LINE
  5
6E4
100
AcDbEntity
  8
2
370
    25
100
AcDbLine
 10
34.983211
 20
56.7
 30
0.0
 11
18.403679
 21
56.7
 31
0.0
  0
ENDBLK
  5
6E5
100
AcDbEntity
  8
2
100
AcDbBlockEnd
  0
BLOCK
  5
6E6
100
AcDbEntity
  8
2
100
AcDbBlockBegin
  2
*D38
 70
     1
 10
0.0
 20
0.0
 30
0.0
  3
*D38
  1

  0
TEXT
  5
6E7
100
AcDbEntity
  8
2
370
    25
100
AcDbText
 10
-121.999998
 20
-94.918945
 30
0.0
 40
5.0
  1
２５
 72
     5
 11
-112.999998
 21
-94.918945
 31
0.0
100
AcDbText
  0
LINE
  5
6E8
100
AcDbEntity
  8
2
370
    25
100
AcDbLine
 10
-129.499998
 20
-10.306513
 30
0.0
 11
-129.499998
 21
-97.918945
 31
0.0
  0
LINE
  5
6E9
100
AcDbEntity
  8
2
370
    25
100
AcDbLine
 10
-129.499998
 20
-95.918945
 30
0.0
 11
-125.636295
 21
-96.954221
 31
0.0
  0
LINE
  5
6EA
100
AcDbEntity
  8
2
370
    25
100
AcDbLine
 10
-129.499998
 20
-95.918945
 30
0.0
 11
-125.636295
 21
-94.883669
 31
0.0
  0
LINE
  5
6EB
100
AcDbEntity
  8
2
370
    25
100
AcDbLine
 10
-129.499998
 20
-95.918945
 30
0.0
 11
-104.499998
 21
-95.918945
 31
0.0
  0
LINE
  5
6EC
100
AcDbEntity
  8
2
370
    25
100
AcDbLine
 10
-104.499998
 20
-95.918945
 30
0.0
 11
-108.363702
 21
-94.883669
 31
0.0
  0
LINE
  5
6ED
100
AcDbEntity
  8
2
370
    25
100
AcDbLine
 10
-104.499998
 20
-95.918945
 30
0.0
 11
-108.363702
 21
-96.954221
 31
0.0
  0
LINE
  5
6EE
100
AcDbEntity
  8
2
370
    25
100
AcDbLine
 10
-104.499998
 20
-10.306513
 30
0.0
 11
-104.499998
 21
-97.918945
 31
0.0
  0
ENDBLK
  5
6EF
100
AcDbEntity
  8
2
100
AcDbBlockEnd
  0
BLOCK
  5
6F0
100
AcDbEntity
  8
2
100
AcDbBlockBegin
  2
*D39
 70
     1
 10
0.0
 20
0.0
 30
0.0
  3
*D39
  1

  0
TEXT
  5
6F1
100
AcDbEntity
  8
2
370
    25
100
AcDbText
 10
-121.999977
 20
21.811367
 30
0.0
 40
5.0
  1
１２
 72
     5
 11
-112.999977
 21
21.811367
 31
0.0
100
AcDbText
  0
LINE
  5
6F2
100
AcDbEntity
  8
2
370
    25
100
AcDbLine
 10
-122.999977
 20
48.210168
 30
0.0
 11
-122.999977
 21
18.811367
 31
0.0
  0
LINE
  5
6F3
100
AcDbEntity
  8
2
370
    25
100
AcDbLine
 10
-122.999977
 20
20.811367
 30
0.0
 11
-119.136273
 21
19.776091
 31
0.0
  0
LINE
  5
6F4
100
AcDbEntity
  8
2
370
    25
100
AcDbLine
 10
-122.999977
 20
20.811367
 30
0.0
 11
-119.136273
 21
21.846643
 31
0.0
  0
LINE
  5
6F5
100
AcDbEntity
  8
2
370
    25
100
AcDbLine
 10
-122.999977
 20
20.811367
 30
0.0
 11
-110.999977
 21
20.811367
 31
0.0
  0
LINE
  5
6F6
100
AcDbEntity
  8
2
370
    25
100
AcDbLine
 10
-110.999977
 20
20.811367
 30
0.0
 11
-114.86368
 21
21.846643
 31
0.0
  0
LINE
  5
6F7
100
AcDbEntity
  8
2
370
    25
100
AcDbLine
 10
-110.999977
 20
20.811367
 30
0.0
 11
-114.86368
 21
19.776091
 31
0.0
  0
LINE
  5
6F8
100
AcDbEntity
  8
2
370
    25
100
AcDbLine
 10
-110.999977
 20
48.210168
 30
0.0
 11
-110.999977
 21
18.811367
 31
0.0
  0
ENDBLK
  5
6F9
100
AcDbEntity
  8
2
100
AcDbBlockEnd
  0
BLOCK
  5
6FA
100
AcDbEntity
  8
2
100
AcDbBlockBegin
  2
*D40
 70
     1
 10
0.0
 20
0.0
 30
0.0
  3
*D40
  1

  0
TEXT
  5
6FB
100
AcDbEntity
  8
2
370
    25
100
AcDbText
 10
43.000046
 20
-91.661812
 30
0.0
 40
5.0
  1
４
 72
     5
 11
47.000046
 21
-91.661812
 31
0.0
100
AcDbText
  0
LINE
  5
6FC
100
AcDbEntity
  8
2
370
    25
100
AcDbLine
 10
50.000046
 20
-10.306513
 30
0.0
 11
50.000046
 21
-94.661812
 31
0.0
  0
LINE
  5
6FD
100
AcDbEntity
  8
2
370
    25
100
AcDbLine
 10
50.000046
 20
-92.661812
 30
0.0
 11
46.136342
 21
-91.626536
 31
0.0
  0
LINE
  5
6FE
100
AcDbEntity
  8
2
370
    25
100
AcDbLine
 10
50.000046
 20
-92.661812
 30
0.0
 11
46.136342
 21
-93.697088
 31
0.0
  0
LINE
  5
6FF
100
AcDbEntity
  8
2
370
    25
100
AcDbLine
 10
41.000046
 20
-92.661812
 30
0.0
 11
64.000046
 21
-92.661812
 31
0.0
  0
LINE
  5
700
100
AcDbEntity
  8
2
370
    25
100
AcDbLine
 10
54.000046
 20
-92.661812
 30
0.0
 11
57.863749
 21
-93.697088
 31
0.0
  0
LINE
  5
701
100
AcDbEntity
  8
2
370
    25
100
AcDbLine
 10
54.000046
 20
-92.661812
 30
0.0
 11
57.863749
 21
-91.626536
 31
0.0
  0
LINE
  5
702
100
AcDbEntity
  8
2
370
    25
100
AcDbLine
 10
54.000046
 20
-10.206513
 30
0.0
 11
54.000046
 21
-94.661812
 31
0.0
  0
ENDBLK
  5
703
100
AcDbEntity
  8
2
100
AcDbBlockEnd
  0
BLOCK
  5
704
100
AcDbEntity
  8
2
100
AcDbBlockBegin
  2
*D41
 70
     1
 10
0.0
 20
0.0
 30
0.0
  3
*D41
  1

  0
TEXT
  5
705
100
AcDbEntity
  8
2
370
    25
100
AcDbText
 10
257.627686
 20
57.193487
 30
0.0
 40
5.0
  1
２６５
 50
90.0
 72
     5
 11
257.627686
 21
71.193487
 31
0.0
100
AcDbText
  0
LINE
  5
706
100
AcDbEntity
  8
2
370
    25
100
AcDbLine
 10
126.000046
 20
-67.806513
 30
0.0
 11
260.627686
 21
-67.806513
 31
0.0
  0
LINE
  5
707
100
AcDbEntity
  8
2
370
    25
100
AcDbLine
 10
258.627686
 20
-67.806513
 30
0.0
 11
259.662962
 21
-63.94281
 31
0.0
  0
LINE
  5
708
100
AcDbEntity
  8
2
370
    25
100
AcDbLine
 10
258.627686
 20
-67.806513
 30
0.0
 11
257.592409
 21
-63.94281
 31
0.0
  0
LINE
  5
709
100
AcDbEntity
  8
2
370
    25
100
AcDbLine
 10
258.627686
 20
-67.806513
 30
0.0
 11
258.627686
 21
197.193487
 31
0.0
  0
LINE
  5
70A
100
AcDbEntity
  8
2
370
    25
100
AcDbLine
 10
258.627686
 20
197.193487
 30
0.0
 11
257.592409
 21
193.329784
 31
0.0
  0
LINE
  5
70B
100
AcDbEntity
  8
2
370
    25
100
AcDbLine
 10
258.627686
 20
197.193487
 30
0.0
 11
259.662962
 21
193.329784
 31
0.0
  0
LINE
  5
70C
100
AcDbEntity
  8
2
370
    25
100
AcDbLine
 10
126.000046
 20
197.193487
 30
0.0
 11
260.627686
 21
197.193487
 31
0.0
  0
ENDBLK
  5
70D
100
AcDbEntity
  8
2
100
AcDbBlockEnd
  0
BLOCK
  5
70E
100
AcDbEntity
  8
2
100
AcDbBlockBegin
  2
*D42
 70
     1
 10
0.0
 20
0.0
 30
0.0
  3
*D42
  1

  0
TEXT
  5
70F
100
AcDbEntity
  8
2
370
    25
100
AcDbText
 10
96.000046
 20
215.536957
 30
0.0
 40
5.0
  1
５２
 72
     5
 11
105.000046
 21
215.536957
 31
0.0
100
AcDbText
  0
LINE
  5
710
100
AcDbEntity
  8
2
370
    25
100
AcDbLine
 10
75.000046
 20
196.193487
 30
0.0
 11
75.000046
 21
216.536957
 31
0.0
  0
LINE
  5
711
100
AcDbEntity
  8
2
370
    25
100
AcDbLine
 10
75.000046
 20
214.536957
 30
0.0
 11
78.863749
 21
213.501681
 31
0.0
  0
LINE
  5
712
100
AcDbEntity
  8
2
370
    25
100
AcDbLine
 10
75.000046
 20
214.536957
 30
0.0
 11
78.863749
 21
215.572233
 31
0.0
  0
LINE
  5
713
100
AcDbEntity
  8
2
370
    25
100
AcDbLine
 10
75.000046
 20
214.536957
 30
0.0
 11
127.000046
 21
214.536957
 31
0.0
  0
LINE
  5
714
100
AcDbEntity
  8
2
370
    25
100
AcDbLine
 10
127.000046
 20
214.536957
 30
0.0
 11
123.136342
 21
215.572233
 31
0.0
  0
LINE
  5
715
100
AcDbEntity
  8
2
370
    25
100
AcDbLine
 10
127.000046
 20
214.536957
 30
0.0
 11
123.136342
 21
213.501681
 31
0.0
  0
LINE
  5
716
100
AcDbEntity
  8
2
370
    25
100
AcDbLine
 10
127.000046
 20
196.193487
 30
0.0
 11
127.000046
 21
216.536957
 31
0.0
  0
ENDBLK
  5
717
100
AcDbEntity
  8
2
100
AcDbBlockEnd
  0
BLOCK
  5
718
100
AcDbEntity
  8
2
100
AcDbBlockBegin
  2
*D43
 70
     1
 10
0.0
 20
0.0
 30
0.0
  3
*D43
  1

  0
TEXT
  5
719
100
AcDbEntity
  8
2
370
    25
100
AcDbText
 10
-176.249996
 20
-114.054202
 30
0.0
 40
5.0
  1
５８．５
 72
     5
 11
-157.249996
 21
-114.054202
 31
0.0
100
AcDbText
  0
LINE
  5
71A
100
AcDbEntity
  8
2
370
    25
100
AcDbLine
 10
-195.499997
 20
33.693474
 30
0.0
 11
-195.499997
 21
-117.054202
 31
0.0
  0
LINE
  5
71B
100
AcDbEntity
  8
2
370
    25
100
AcDbLine
 10
-195.499997
 20
-115.054202
 30
0.0
 11
-191.636293
 21
-116.089478
 31
0.0
  0
LINE
  5
71C
100
AcDbEntity
  8
2
370
    25
100
AcDbLine
 10
-195.499997
 20
-115.054202
 30
0.0
 11
-191.636293
 21
-114.018926
 31
0.0
  0
LINE
  5
71D
100
AcDbEntity
  8
2
370
    25
100
AcDbLine
 10
-195.499997
 20
-115.054202
 30
0.0
 11
-136.999995
 21
-115.054202
 31
0.0
  0
LINE
  5
71E
100
AcDbEntity
  8
2
370
    25
100
AcDbLine
 10
-136.999995
 20
-115.054202
 30
0.0
 11
-140.863698
 21
-114.018926
 31
0.0
  0
LINE
  5
71F
100
AcDbEntity
  8
2
370
    25
100
AcDbLine
 10
-136.999995
 20
-115.054202
 30
0.0
 11
-140.863698
 21
-116.089478
 31
0.0
  0
LINE
  5
720
100
AcDbEntity
  8
2
370
    25
100
AcDbLine
 10
-136.999995
 20
-68.806539
 30
0.0
 11
-136.999995
 21
-117.054202
 31
0.0
  0
ENDBLK
  5
721
100
AcDbEntity
  8
2
100
AcDbBlockEnd
  0
BLOCK
  5
722
100
AcDbEntity
  8
2
100
AcDbBlockBegin
  2
*D44
 70
     1
 10
0.0
 20
0.0
 30
0.0
  3
*D44
  1

  0
TEXT
  5
723
100
AcDbEntity
  8
2
370
    25
100
AcDbText
 10
-77.749996
 20
-113.910297
 30
0.0
 40
5.0
  1
５８．５
 72
     5
 11
-58.749996
 21
-113.910297
 31
0.0
100
AcDbText
  0
LINE
  5
724
100
AcDbEntity
  8
2
370
    25
100
AcDbLine
 10
-96.999995
 20
-68.806539
 30
0.0
 11
-96.999995
 21
-116.910297
 31
0.0
  0
LINE
  5
725
100
AcDbEntity
  8
2
370
    25
100
AcDbLine
 10
-96.999995
 20
-114.910297
 30
0.0
 11
-93.136291
 21
-115.945573
 31
0.0
  0
LINE
  5
726
100
AcDbEntity
  8
2
370
    25
100
AcDbLine
 10
-96.999995
 20
-114.910297
 30
0.0
 11
-93.136291
 21
-113.87502
 31
0.0
  0
LINE
  5
727
100
AcDbEntity
  8
2
370
    25
100
AcDbLine
 10
-96.999995
 20
-114.910297
 30
0.0
 11
-38.499997
 21
-114.910297
 31
0.0
  0
LINE
  5
728
100
AcDbEntity
  8
2
370
    25
100
AcDbLine
 10
-38.499997
 20
-114.910297
 30
0.0
 11
-42.3637
 21
-113.87502
 31
0.0
  0
LINE
  5
729
100
AcDbEntity
  8
2
370
    25
100
AcDbLine
 10
-38.499997
 20
-114.910297
 30
0.0
 11
-42.3637
 21
-115.945573
 31
0.0
  0
LINE
  5
72A
100
AcDbEntity
  8
2
370
    25
100
AcDbLine
 10
-38.499997
 20
33.693474
 30
0.0
 11
-38.499997
 21
-116.910297
 31
0.0
  0
ENDBLK
  5
72B
100
AcDbEntity
  8
2
100
AcDbBlockEnd
  0
BLOCK
  5
72C
100
AcDbEntity
  8
2
100
AcDbBlockBegin
  2
*D45
 70
     1
 10
0.0
 20
0.0
 30
0.0
  3
*D45
  1

  0
TEXT
  5
72D
100
AcDbEntity
  8
2
370
    25
100
AcDbText
 10
247.740479
 20
103.443487
 30
0.0
 40
5.0
  1
１６２．５
 50
90.0
 72
     5
 11
247.740479
 21
127.443487
 31
0.0
100
AcDbText
  0
LINE
  5
72E
100
AcDbEntity
  8
2
370
    25
100
AcDbLine
 10
133.872219
 20
34.693487
 30
0.0
 11
250.740479
 21
34.693487
 31
0.0
  0
LINE
  5
72F
100
AcDbEntity
  8
2
370
    25
100
AcDbLine
 10
248.740479
 20
34.693487
 30
0.0
 11
249.775755
 21
38.55719
 31
0.0
  0
LINE
  5
730
100
AcDbEntity
  8
2
370
    25
100
AcDbLine
 10
248.740479
 20
34.693487
 30
0.0
 11
247.705202
 21
38.55719
 31
0.0
  0
LINE
  5
731
100
AcDbEntity
  8
2
370
    25
100
AcDbLine
 10
248.740479
 20
34.693487
 30
0.0
 11
248.740479
 21
197.193487
 31
0.0
  0
LINE
  5
732
100
AcDbEntity
  8
2
370
    25
100
AcDbLine
 10
248.740479
 20
197.193487
 30
0.0
 11
247.705202
 21
193.329784
 31
0.0
  0
LINE
  5
733
100
AcDbEntity
  8
2
370
    25
100
AcDbLine
 10
248.740479
 20
197.193487
 30
0.0
 11
249.775755
 21
193.329784
 31
0.0
  0
LINE
  5
734
100
AcDbEntity
  8
2
370
    25
100
AcDbLine
 10
126.000046
 20
197.193487
 30
0.0
 11
250.740479
 21
197.193487
 31
0.0
  0
ENDBLK
  5
735
100
AcDbEntity
  8
2
100
AcDbBlockEnd
  0
BLOCK
  5
736
100
AcDbEntity
  8
2
100
AcDbBlockBegin
  2
*D46
 70
     1
 10
0.0
 20
0.0
 30
0.0
  3
*D46
  1

  0
TEXT
  5
737
100
AcDbEntity
  8
2
370
    25
100
AcDbText
 10
247.740479
 20
-29.056513
 30
0.0
 40
5.0
  1
１０２．５
 50
90.0
 72
     5
 11
247.740479
 21
-5.056513
 31
0.0
100
AcDbText
  0
LINE
  5
738
100
AcDbEntity
  8
2
370
    25
100
AcDbLine
 10
126.000046
 20
-67.806513
 30
0.0
 11
250.740479
 21
-67.806513
 31
0.0
  0
LINE
  5
739
100
AcDbEntity
  8
2
370
    25
100
AcDbLine
 10
248.740479
 20
-67.806513
 30
0.0
 11
249.775755
 21
-63.94281
 31
0.0
  0
LINE
  5
73A
100
AcDbEntity
  8
2
370
    25
100
AcDbLine
 10
248.740479
 20
-67.806513
 30
0.0
 11
247.705202
 21
-63.94281
 31
0.0
  0
LINE
  5
73B
100
AcDbEntity
  8
2
370
    25
100
AcDbLine
 10
248.740479
 20
-67.806513
 30
0.0
 11
248.740479
 21
34.693487
 31
0.0
  0
LINE
  5
73C
100
AcDbEntity
  8
2
370
    25
100
AcDbLine
 10
248.740479
 20
34.693487
 30
0.0
 11
247.705202
 21
30.829784
 31
0.0
  0
LINE
  5
73D
100
AcDbEntity
  8
2
370
    25
100
AcDbLine
 10
248.740479
 20
34.693487
 30
0.0
 11
249.775755
 21
30.829784
 31
0.0
  0
ENDBLK
  5
73E
100
AcDbEntity
  8
2
100
AcDbBlockEnd
  0
BLOCK
  5
73F
100
AcDbEntity
  8
2
100
AcDbBlockBegin
  2
*D47
 70
     1
 10
0.0
 20
0.0
 30
0.0
  3
*D47
  1

  0
TEXT
  5
740
100
AcDbEntity
  8
2
370
    25
100
AcDbText
 10
-106.351193
 20
-114.144542
 30
0.0
 40
5.0
  1
40
 41
2.0
 72
     5
 11
-98.351193
 21
-114.144542
 31
0.0
100
AcDbText
  0
LINE
  5
741
100
AcDbEntity
  8
2
370
    25
100
AcDbLine
 10
-136.999997
 20
-115.000026
 30
0.0
 11
-133.136293
 21
-116.035302
 31
0.0
  0
LINE
  5
742
100
AcDbEntity
  8
2
370
    25
100
AcDbLine
 10
-136.999997
 20
-115.000026
 30
0.0
 11
-133.136293
 21
-113.96475
 31
0.0
  0
LINE
  5
743
100
AcDbEntity
  8
2
370
    25
100
AcDbLine
 10
-136.999997
 20
-115.000026
 30
0.0
 11
-96.999997
 21
-115.000026
 31
0.0
  0
LINE
  5
744
100
AcDbEntity
  8
2
370
    25
100
AcDbLine
 10
-96.999997
 20
-115.000026
 30
0.0
 11
-100.8637
 21
-113.96475
 31
0.0
  0
LINE
  5
745
100
AcDbEntity
  8
2
370
    25
100
AcDbLine
 10
-96.999997
 20
-115.000026
 30
0.0
 11
-100.8637
 21
-116.035302
 31
0.0
  0
ENDBLK
  5
746
100
AcDbEntity
  8
2
100
AcDbBlockEnd
  0
BLOCK
  5
747
100
AcDbEntity
  8
2
100
AcDbBlockBegin
  2
*D48
 70
     1
 10
0.0
 20
0.0
 30
0.0
  3
*D48
  1

  0
TEXT
  5
748
100
AcDbEntity
  8
2
370
    25
100
AcDbText
 10
218.169556
 20
52.443487
 30
0.0
 40
5.0
  1
５５．５
 50
90.0
 72
     5
 11
218.169556
 21
71.443487
 31
0.0
100
AcDbText
  0
LINE
  5
749
100
AcDbEntity
  8
2
370
    25
100
AcDbLine
 10
133.872219
 20
34.693487
 30
0.0
 11
221.169556
 21
34.693487
 31
0.0
  0
LINE
  5
74A
100
AcDbEntity
  8
2
370
    25
100
AcDbLine
 10
219.169556
 20
34.693487
 30
0.0
 11
220.204832
 21
38.55719
 31
0.0
  0
LINE
  5
74B
100
AcDbEntity
  8
2
370
    25
100
AcDbLine
 10
219.169556
 20
34.693487
 30
0.0
 11
218.134279
 21
38.55719
 31
0.0
  0
LINE
  5
74C
100
AcDbEntity
  8
2
370
    25
100
AcDbLine
 10
219.169556
 20
34.693487
 30
0.0
 11
219.169556
 21
90.193487
 31
0.0
  0
LINE
  5
74D
100
AcDbEntity
  8
2
370
    25
100
AcDbLine
 10
219.169556
 20
90.193487
 30
0.0
 11
218.134279
 21
86.329784
 31
0.0
  0
LINE
  5
74E
100
AcDbEntity
  8
2
370
    25
100
AcDbLine
 10
219.169556
 20
90.193487
 30
0.0
 11
220.204832
 21
86.329784
 31
0.0
  0
LINE
  5
74F
100
AcDbEntity
  8
2
370
    25
100
AcDbLine
 10
133.872219
 20
90.193487
 30
0.0
 11
221.169556
 21
90.193487
 31
0.0
  0
ENDBLK
  5
750
100
AcDbEntity
  8
2
100
AcDbBlockEnd
  0
BLOCK
  5
751
100
AcDbEntity
  8
2
100
AcDbBlockBegin
  2
*D49
 70
     1
 10
0.0
 20
0.0
 30
0.0
  3
*D49
  1

  0
TEXT
  5
752
100
AcDbEntity
  8
2
370
    25
100
AcDbText
 10
205.67749
 20
67.693487
 30
0.0
 40
5.0
  1
５．５
 50
90.0
 72
     5
 11
205.67749
 21
81.693487
 31
0.0
100
AcDbText
  0
LINE
  5
753
100
AcDbEntity
  8
2
370
    25
100
AcDbLine
 10
112.900046
 20
84.693487
 30
0.0
 11
208.67749
 21
84.693487
 31
0.0
  0
LINE
  5
754
100
AcDbEntity
  8
2
370
    25
100
AcDbLine
 10
206.67749
 20
84.693487
 30
0.0
 11
205.642214
 21
80.829784
 31
0.0
  0
LINE
  5
755
100
AcDbEntity
  8
2
370
    25
100
AcDbLine
 10
206.67749
 20
84.693487
 30
0.0
 11
207.712766
 21
80.829784
 31
0.0
  0
LINE
  5
756
100
AcDbEntity
  8
2
370
    25
100
AcDbLine
 10
206.67749
 20
65.693487
 30
0.0
 11
206.67749
 21
100.193487
 31
0.0
  0
LINE
  5
757
100
AcDbEntity
  8
2
370
    25
100
AcDbLine
 10
206.67749
 20
90.193487
 30
0.0
 11
207.712766
 21
94.05719
 31
0.0
  0
LINE
  5
758
100
AcDbEntity
  8
2
370
    25
100
AcDbLine
 10
206.67749
 20
90.193487
 30
0.0
 11
205.642214
 21
94.05719
 31
0.0
  0
LINE
  5
759
100
AcDbEntity
  8
2
370
    25
100
AcDbLine
 10
133.872219
 20
90.193487
 30
0.0
 11
208.67749
 21
90.193487
 31
0.0
  0
ENDBLK
  5
75A
100
AcDbEntity
  8
2
100
AcDbBlockEnd
  0
ENDSEC
  0
SECTION
  2
ENTITIES
  0
LINE
  5
57
100
AcDbEntity
  8
1
370
    25
  6
CENTER
100
AcDbLine
 10
-167.941797
 20
84.693487
 30
0.0
 11
-129.886072
 21
84.693487
 31
0.0
  0
LINE
  5
58
100
AcDbEntity
  8
1
370
    25
  6
CENTER
100
AcDbLine
 10
-248.749976
 20
119.693476
 30
0.0
 11
-263.249976
 21
119.693476
 31
0.0
  0
LINE
  5
59
100
AcDbEntity
  8
1
370
    25
  6
CENTER
100
AcDbLine
 10
-248.749976
 20
7.693476
 30
0.0
 11
-263.249976
 21
7.693476
 31
0.0
  0
LINE
  5
5A
100
AcDbEntity
  8
1
370
    25
  6
CENTER
100
AcDbLine
 10
-239.999976
 20
84.693476
 30
0.0
 11
-271.999976
 21
84.693476
 31
0.0
  0
LINE
  5
5B
100
AcDbEntity
  8
1
370
    25
  6
CENTER
100
AcDbLine
 10
-78.094676
 20
84.693487
 30
0.0
 11
-146.938841
 21
84.693487
 31
0.0
  0
LINE
  5
5C
100
AcDbEntity
  8
1
370
    25
  6
CENTER
100
AcDbLine
 10
-90.482066
 20
119.693487
 30
0.0
 11
-145.46046
 21
119.693487
 31
0.0
  0
LINE
  5
5D
100
AcDbEntity
  8
1
370
    25
  6
CENTER
100
AcDbLine
 10
-90.482066
 20
7.693487
 30
0.0
 11
-145.46046
 21
7.693487
 31
0.0
  0
LINE
  5
5E
100
AcDbEntity
  8
1
370
    25
  6
CENTER
100
AcDbLine
 10
-83.572886
 20
34.693487
 30
0.0
 11
-201.549866
 21
34.693487
 31
0.0
  0
LINE
  5
5F
100
AcDbEntity
  8
1
370
    25
  6
CENTER
100
AcDbLine
 10
-29.555786
 20
34.693487
 30
0.0
 11
-101.243529
 21
34.693487
 31
0.0
  0
LINE
  5
60
100
AcDbEntity
  8
1
370
    18
  6
CENTER
100
AcDbLine
 10
69.127872
 20
90.193487
 30
0.0
 11
132.872219
 21
90.193487
 31
0.0
  0
LINE
  5
61
100
AcDbEntity
  8
1
370
    18
  6
CENTER
100
AcDbLine
 10
90.100046
 20
84.693487
 30
0.0
 11
111.900046
 21
84.693487
 31
0.0
  0
LINE
  5
62
100
AcDbEntity
  8
1
370
    25
  6
CENTER
100
AcDbLine
 10
-255.999976
 20
203.152746
 30
0.0
 11
-255.999976
 21
-73.445681
 31
0.0
  0
LINE
  5
63
100
AcDbEntity
  8
1
370
    25
  6
CENTER
100
AcDbLine
 10
-285.381717
 20
34.693476
 30
0.0
 11
-226.449646
 21
34.693476
 31
0.0
  0
LINE
  5
64
100
AcDbEntity
  8
1
370
    50
100
AcDbLine
 10
-229.999976
 20
195.193476
 30
0.0
 11
-229.999976
 21
-65.806524
 31
0.0
  0
LINE
  5
65
100
AcDbEntity
  8
1
370
    25
100
AcDbLine
 10
-232.308676
 20
192.884794
 30
0.0
 11
-232.308676
 21
-63.497842
 31
0.0
  0
LINE
  5
66
100
AcDbEntity
  8
1
370
    50
100
AcDbLine
 10
-279.999976
 20
197.193476
 30
0.0
 11
-231.999976
 21
197.193476
 31
0.0
  0
LINE
  5
67
100
AcDbEntity
  8
1
370
    25
100
AcDbLine
 10
-234.308676
 20
194.884794
 30
0.0
 11
-277.691276
 21
194.884794
 31
0.0
  0
LINE
  5
68
100
AcDbEntity
  8
1
370
    25
100
AcDbLine
 10
-234.308676
 20
-65.497842
 30
0.0
 11
-277.691276
 21
-65.497842
 31
0.0
  0
LINE
  5
69
100
AcDbEntity
  8
1
370
    50
100
AcDbLine
 10
-231.999976
 20
-67.806524
 30
0.0
 11
-279.999976
 21
-67.806524
 31
0.0
  0
ARC
  5
6A
100
AcDbEntity
  8
1
370
    25
100
AcDbCircle
 10
-277.691276
 20
192.884794
 30
0.0
 40
2.0
100
AcDbArc
 50
90.0
 51
180.0
  0
ARC
  5
6B
100
AcDbEntity
  8
1
370
    25
100
AcDbCircle
 10
-234.308676
 20
192.884794
 30
0.0
 40
2.0
100
AcDbArc
 50
0.0
 51
90.0
  0
ARC
  5
6C
100
AcDbEntity
  8
1
370
    50
100
AcDbCircle
 10
-231.999976
 20
195.193476
 30
0.0
 40
2.0
100
AcDbArc
 50
0.0
 51
90.0
  0
ARC
  5
6D
100
AcDbEntity
  8
1
370
    50
100
AcDbCircle
 10
-279.999976
 20
195.193476
 30
0.0
 40
2.0
100
AcDbArc
 50
90.0
 51
180.0
  0
ARC
  5
6E
100
AcDbEntity
  8
1
370
    25
100
AcDbCircle
 10
-277.691276
 20
-63.497842
 30
0.0
 40
2.0
100
AcDbArc
 50
180.0
 51
270.0
  0
ARC
  5
6F
100
AcDbEntity
  8
1
370
    25
100
AcDbCircle
 10
-234.308676
 20
-63.497842
 30
0.0
 40
2.0
100
AcDbArc
 50
270.0
 51
360.0
  0
ARC
  5
70
100
AcDbEntity
  8
1
370
    50
100
AcDbCircle
 10
-231.999976
 20
-65.806524
 30
0.0
 40
2.0
100
AcDbArc
 50
270.0
 51
360.0
  0
ARC
  5
71
100
AcDbEntity
  8
1
370
    50
100
AcDbCircle
 10
-279.999976
 20
-65.806524
 30
0.0
 40
2.0
100
AcDbArc
 50
180.0
 51
270.0
  0
LINE
  5
72
100
AcDbEntity
  8
1
370
    25
100
AcDbLine
 10
-232.468408
 20
194.725063
 30
0.0
 11
-230.835856
 21
196.357602
 31
0.0
  0
LINE
  5
73
100
AcDbEntity
  8
1
370
    25
100
AcDbLine
 10
-279.531545
 20
194.725063
 30
0.0
 11
-281.164097
 21
196.357602
 31
0.0
  0
LINE
  5
74
100
AcDbEntity
  8
1
370
    25
100
AcDbLine
 10
-232.468408
 20
-65.338112
 30
0.0
 11
-230.835856
 21
-66.970651
 31
0.0
  0
LINE
  5
75
100
AcDbEntity
  8
1
370
    25
100
AcDbLine
 10
-279.531545
 20
-65.338112
 30
0.0
 11
-281.164097
 21
-66.970651
 31
0.0
  0
LINE
  5
76
100
AcDbEntity
  8
1
370
    25
  6
CENTER
100
AcDbLine
 10
101.000046
 20
203.152758
 30
0.0
 11
101.000046
 21
-73.445669
 31
0.0
  0
LINE
  5
77
100
AcDbEntity
  8
1
370
    25
  6
CENTER
100
AcDbLine
 10
71.618305
 20
34.693487
 30
0.0
 11
132.872219
 21
34.693487
 31
0.0
  0
LINE
  5
78
100
AcDbEntity
  8
1
370
    50
100
AcDbLine
 10
75.000046
 20
195.193487
 30
0.0
 11
75.000046
 21
-65.806513
 31
0.0
  0
LINE
  5
79
100
AcDbEntity
  8
1
370
    25
100
AcDbLine
 10
77.308746
 20
192.884805
 30
0.0
 11
77.308746
 21
-63.497831
 31
0.0
  0
LINE
  5
7A
100
AcDbEntity
  8
1
370
    50
100
AcDbLine
 10
77.000046
 20
197.193487
 30
0.0
 11
125.000046
 21
197.193487
 31
0.0
  0
LINE
  5
7B
100
AcDbEntity
  8
1
370
    25
100
AcDbLine
 10
122.691346
 20
194.884805
 30
0.0
 11
79.308746
 21
194.884805
 31
0.0
  0
LINE
  5
7C
100
AcDbEntity
  8
1
370
    25
100
AcDbLine
 10
122.691346
 20
-65.497831
 30
0.0
 11
79.308746
 21
-65.497831
 31
0.0
  0
LINE
  5
7D
100
AcDbEntity
  8
1
370
    50
100
AcDbLine
 10
125.000046
 20
-67.806513
 30
0.0
 11
77.000046
 21
-67.806513
 31
0.0
  0
ARC
  5
7E
100
AcDbEntity
  8
1
370
    25
100
AcDbCircle
 10
79.308746
 20
192.884805
 30
0.0
 40
2.0
100
AcDbArc
 50
90.0
 51
180.0
  0
ARC
  5
7F
100
AcDbEntity
  8
1
370
    25
100
AcDbCircle
 10
122.691346
 20
192.884805
 30
0.0
 40
2.0
100
AcDbArc
 50
0.0
 51
90.0
  0
ARC
  5
80
100
AcDbEntity
  8
1
370
    50
100
AcDbCircle
 10
125.000046
 20
195.193487
 30
0.0
 40
2.0
100
AcDbArc
 50
0.0
 51
90.0
  0
ARC
  5
81
100
AcDbEntity
  8
1
370
    50
100
AcDbCircle
 10
77.000046
 20
195.193487
 30
0.0
 40
2.0
100
AcDbArc
 50
90.0
 51
180.0
  0
ARC
  5
82
100
AcDbEntity
  8
1
370
    25
100
AcDbCircle
 10
79.308746
 20
-63.497831
 30
0.0
 40
2.0
100
AcDbArc
 50
180.0
 51
270.0
  0
ARC
  5
83
100
AcDbEntity
  8
1
370
    25
100
AcDbCircle
 10
122.691346
 20
-63.497831
 30
0.0
 40
2.0
100
AcDbArc
 50
270.0
 51
360.0
  0
ARC
  5
84
100
AcDbEntity
  8
1
370
    50
100
AcDbCircle
 10
125.000046
 20
-65.806513
 30
0.0
 40
2.0
100
AcDbArc
 50
270.0
 51
360.0
  0
ARC
  5
85
100
AcDbEntity
  8
1
370
    50
100
AcDbCircle
 10
77.000046
 20
-65.806513
 30
0.0
 40
2.0
100
AcDbArc
 50
180.0
 51
270.0
  0
LINE
  5
86
100
AcDbEntity
  8
1
370
    25
100
AcDbLine
 10
124.531614
 20
194.725075
 30
0.0
 11
126.164166
 21
196.357614
 31
0.0
  0
LINE
  5
87
100
AcDbEntity
  8
1
370
    25
100
AcDbLine
 10
77.468477
 20
194.725075
 30
0.0
 11
75.835925
 21
196.357614
 31
0.0
  0
LINE
  5
88
100
AcDbEntity
  8
1
370
    25
100
AcDbLine
 10
124.531614
 20
-65.338101
 30
0.0
 11
126.164166
 21
-66.97064
 31
0.0
  0
LINE
  5
89
100
AcDbEntity
  8
1
370
    25
100
AcDbLine
 10
77.468477
 20
-65.338101
 30
0.0
 11
75.835925
 21
-66.97064
 31
0.0
  0
LINE
  5
8A
100
AcDbEntity
  8
1
370
    50
100
AcDbLine
 10
-136.999998
 20
197.193487
 30
0.0
 11
-136.999998
 21
-67.806513
 31
0.0
  0
LINE
  5
8B
100
AcDbEntity
  8
1
370
    50
100
AcDbLine
 10
-146.999998
 20
193.691651
 30
0.0
 11
-146.999998
 21
-64.304677
 31
0.0
  0
LINE
  5
8C
100
AcDbEntity
  8
1
370
    50
100
AcDbLine
 10
-136.999998
 20
197.193487
 30
0.0
 11
-145.837425
 21
195.153206
 31
0.0
  0
ARC
  5
8D
100
AcDbEntity
  8
1
370
    50
100
AcDbCircle
 10
-145.499998
 20
193.691651
 30
0.0
 40
1.5
100
AcDbArc
 50
103.0
 51
180.0
  0
LINE
  5
8E
100
AcDbEntity
  8
1
370
    50
100
AcDbLine
 10
-136.999998
 20
-67.806513
 30
0.0
 11
-145.837425
 21
-65.766232
 31
0.0
  0
ARC
  5
8F
100
AcDbEntity
  8
1
370
    50
100
AcDbCircle
 10
-145.499998
 20
-64.304677
 30
0.0
 40
1.5
100
AcDbArc
 50
180.0
 51
257.0
  0
LINE
  5
90
100
AcDbEntity
  8
1
370
    25
  6
CENTER
100
AcDbLine
 10
-150.427111
 20
34.693487
 30
0.0
 11
-132.756468
 21
34.693487
 31
0.0
  0
LINE
  5
91
100
AcDbEntity
  8
1
370
    50
100
AcDbLine
 10
-96.999998
 20
197.193487
 30
0.0
 11
-96.999998
 21
-67.806513
 31
0.0
  0
LINE
  5
92
100
AcDbEntity
  8
1
370
    50
100
AcDbLine
 10
-86.999998
 20
193.691651
 30
0.0
 11
-86.999998
 21
-64.304677
 31
0.0
  0
LINE
  5
93
100
AcDbEntity
  8
1
370
    50
100
AcDbLine
 10
-96.999998
 20
197.193487
 30
0.0
 11
-88.162572
 21
195.153206
 31
0.0
  0
ARC
  5
94
100
AcDbEntity
  8
1
370
    50
100
AcDbCircle
 10
-88.499998
 20
193.691651
 30
0.0
 40
1.5
100
AcDbArc
 50
360.0
 51
77.0
  0
LINE
  5
95
100
AcDbEntity
  8
1
370
    50
100
AcDbLine
 10
-96.999998
 20
-67.806513
 30
0.0
 11
-88.162572
 21
-65.766232
 31
0.0
  0
ARC
  5
96
100
AcDbEntity
  8
1
370
    50
100
AcDbCircle
 10
-88.499998
 20
-64.304677
 30
0.0
 40
1.5
100
AcDbArc
 50
283.0
 51
360.0
  0
LINE
  5
97
100
AcDbEntity
  8
1
370
    25
  6
CENTER
100
AcDbLine
 10
-83.572886
 20
34.693487
 30
0.0
 11
-101.243529
 21
34.693487
 31
0.0
  0
CIRCLE
  5
98
100
AcDbEntity
  8
1
370
    50
100
AcDbCircle
 10
101.000046
 20
90.193487
 30
0.0
 40
17.5
  0
CIRCLE
  5
99
100
AcDbEntity
  8
1
370
    50
100
AcDbCircle
 10
101.000046
 20
90.193487
 30
0.0
 40
18.0
  0
LINE
  5
9A
100
AcDbEntity
  8
1
370
    50
100
AcDbLine
 10
-83.446732
 20
107.741351
 30
0.0
 11
-86.999998
 21
108.122059
 31
0.0
  0
LINE
  5
9B
100
AcDbEntity
  8
1
370
    50
100
AcDbLine
 10
-86.999998
 20
72.264916
 30
0.0
 11
-83.446732
 21
72.645623
 31
0.0
  0
ARC
  5
9C
100
AcDbEntity
  8
1
370
    50
100
AcDbCircle
 10
-83.499998
 20
107.244197
 30
0.0
 40
0.5
100
AcDbArc
 50
0.0
 51
83.884496
  0
ARC
  5
9D
100
AcDbEntity
  8
1
370
    50
100
AcDbCircle
 10
-83.499998
 20
73.142777
 30
0.0
 40
0.5
100
AcDbArc
 50
276.115504
 51
360.0
  0
LINE
  5
9E
100
AcDbEntity
  8
1
370
    50
100
AcDbLine
 10
-82.999998
 20
107.244197
 30
0.0
 11
-82.999998
 21
73.142777
 31
0.0
  0
LINE
  5
9F
100
AcDbEntity
  8
1
370
    25
  6
CENTER
100
AcDbLine
 10
-76.349864
 20
90.193463
 30
0.0
 11
-95.92158
 21
90.193463
 31
0.0
  0
LINE
  5
A0
100
AcDbEntity
  8
1
370
    50
100
AcDbLine
 10
-147.999998
 20
94.178565
 30
0.0
 11
-147.999998
 21
75.208409
 31
0.0
  0
LINE
  5
A1
100
AcDbEntity
  8
1
370
    50
100
AcDbLine
 10
-147.999998
 20
92.193487
 30
0.0
 11
-146.999998
 21
92.193487
 31
0.0
  0
LINE
  5
A2
100
AcDbEntity
  8
1
370
    50
100
AcDbLine
 10
-146.999998
 20
77.193487
 30
0.0
 11
-147.999998
 21
77.193487
 31
0.0
  0
LINE
  5
A3
100
AcDbEntity
  8
1
370
    50
100
AcDbLine
 10
-161.069536
 20
94.309089
 30
0.0
 11
-148.514698
 21
94.678349
 31
0.0
  0
LINE
  5
A4
100
AcDbEntity
  8
1
370
    50
100
AcDbLine
 10
-161.069536
 20
75.077885
 30
0.0
 11
-148.514698
 21
74.708625
 31
0.0
  0
ARC
  5
A5
100
AcDbEntity
  8
1
370
    50
100
AcDbCircle
 10
-148.499998
 20
94.178565
 30
0.0
 40
0.5
100
AcDbArc
 50
360.0
 51
91.684684
  0
ARC
  5
A6
100
AcDbEntity
  8
1
370
    50
100
AcDbCircle
 10
-148.499998
 20
75.208409
 30
0.0
 40
0.5
100
AcDbArc
 50
268.315316
 51
360.0
  0
LINE
  5
A7
100
AcDbEntity
  8
1
370
    25
100
AcDbLine
 10
-151.299998
 20
92.928253
 30
0.0
 11
-151.299998
 21
76.108833
 31
0.0
  0
ARC
  5
A8
100
AcDbEntity
  8
1
370
    50
100
AcDbCircle
 10
-139.999998
 20
84.693487
 30
0.0
 40
25.0
100
AcDbArc
 50
162.496256
 51
197.503744
  0
ARC
  5
A9
100
AcDbEntity
  8
1
370
    50
100
AcDbCircle
 10
-160.981339
 20
91.310386
 30
0.0
 40
3.0
100
AcDbArc
 50
91.684684
 51
162.496256
  0
ARC
  5
AA
100
AcDbEntity
  8
1
370
    50
100
AcDbCircle
 10
-160.981339
 20
78.076589
 30
0.0
 40
3.0
100
AcDbArc
 50
197.503744
 51
268.315316
  0
LINE
  5
AB
100
AcDbEntity
  8
1
370
    50
100
AcDbLine
 10
-133.999998
 20
89.293487
 30
0.0
 11
-133.999998
 21
80.093487
 31
0.0
  0
LINE
  5
AC
100
AcDbEntity
  8
1
370
    50
100
AcDbLine
 10
-134.499998
 20
89.793487
 30
0.0
 11
-133.999998
 21
89.293487
 31
0.0
  0
LINE
  5
AD
100
AcDbEntity
  8
1
370
    50
100
AcDbLine
 10
-133.999998
 20
80.093487
 30
0.0
 11
-134.499998
 21
79.593487
 31
0.0
  0
LINE
  5
AE
100
AcDbEntity
  8
1
370
    50
100
AcDbLine
 10
-136.999998
 20
89.793487
 30
0.0
 11
-134.499998
 21
89.793487
 31
0.0
  0
LINE
  5
AF
100
AcDbEntity
  8
1
370
    50
100
AcDbLine
 10
-136.999998
 20
79.593487
 30
0.0
 11
-134.499998
 21
79.593487
 31
0.0
  0
LINE
  5
B0
100
AcDbEntity
  8
1
370
    50
100
AcDbLine
 10
-134.499998
 20
89.793487
 30
0.0
 11
-134.499998
 21
79.593487
 31
0.0
  0
CIRCLE
  5
B1
100
AcDbEntity
  8
1
370
    50
100
AcDbCircle
 10
-255.999976
 20
84.693476
 30
0.0
 40
10.0
  0
LINE
  5
B2
100
AcDbEntity
  8
1
370
    50
100
AcDbLine
 10
-253.749976
 20
93.086181
 30
0.0
 11
-253.749976
 21
76.30077
 31
0.0
  0
LINE
  5
B3
100
AcDbEntity
  8
1
370
    50
100
AcDbLine
 10
-258.249976
 20
93.086181
 30
0.0
 11
-258.249976
 21
76.30077
 31
0.0
  0
LINE
  5
B4
100
AcDbEntity
  8
1
370
    25
100
AcDbLine
 10
-259.999976
 20
93.31032
 30
0.0
 11
-259.999976
 21
76.076632
 31
0.0
  0
LINE
  5
B5
100
AcDbEntity
  8
1
370
    25
100
AcDbLine
 10
-251.999976
 20
93.31032
 30
0.0
 11
-251.999976
 21
76.076632
 31
0.0
  0
ARC
  5
B6
100
AcDbEntity
  8
1
370
    25
100
AcDbCircle
 10
-255.999976
 20
84.693476
 30
0.0
 40
9.5
100
AcDbArc
 50
259.439171
 51
281.259189
  0
ARC
  5
B7
100
AcDbEntity
  8
1
370
    25
100
AcDbCircle
 10
-255.999976
 20
84.693476
 30
0.0
 40
9.5
100
AcDbArc
 50
78.186583
 51
100.512748
  0
ARC
  5
B8
100
AcDbEntity
  8
1
370
    50
100
AcDbCircle
 10
-259.249976
 20
93.086181
 30
0.0
 40
1.0
100
AcDbArc
 50
0.0
 51
111.168449
  0
ARC
  5
B9
100
AcDbEntity
  8
1
370
    50
100
AcDbCircle
 10
-252.749976
 20
93.086181
 30
0.0
 40
1.0
100
AcDbArc
 50
68.831551
 51
180.0
  0
ARC
  5
BA
100
AcDbEntity
  8
1
370
    50
100
AcDbCircle
 10
-259.249976
 20
76.30077
 30
0.0
 40
1.0
100
AcDbArc
 50
248.831551
 51
360.0
  0
ARC
  5
BB
100
AcDbEntity
  8
1
370
    50
100
AcDbCircle
 10
-252.749976
 20
76.30077
 30
0.0
 40
1.0
100
AcDbArc
 50
180.0
 51
291.168449
  0
LINE
  5
BC
100
AcDbEntity
  8
1
370
    50
100
AcDbLine
 10
102.150046
 20
79.943487
 30
0.0
 11
99.850046
 21
79.943487
 31
0.0
  0
LINE
  5
BD
100
AcDbEntity
  8
1
370
    50
100
AcDbLine
 10
102.150046
 20
89.443487
 30
0.0
 11
99.850046
 21
89.443487
 31
0.0
  0
LINE
  5
BE
100
AcDbEntity
  8
1
370
    50
100
AcDbLine
 10
99.850046
 20
79.943487
 30
0.0
 11
99.850046
 21
89.443487
 31
0.0
  0
LINE
  5
BF
100
AcDbEntity
  8
1
370
    50
100
AcDbLine
 10
102.150046
 20
79.943487
 30
0.0
 11
102.150046
 21
89.443487
 31
0.0
  0
LINE
  5
C0
100
AcDbEntity
  8
1
370
    50
100
AcDbLine
 10
101.150046
 20
81.443487
 30
0.0
 11
99.850046
 21
81.443487
 31
0.0
  0
LINE
  5
C1
100
AcDbEntity
  8
1
370
    50
100
AcDbLine
 10
102.150046
 20
82.943487
 30
0.0
 11
101.150046
 21
82.943487
 31
0.0
  0
LINE
  5
C2
100
AcDbEntity
  8
1
370
    50
100
AcDbLine
 10
102.150046
 20
87.943487
 30
0.0
 11
100.850046
 21
87.943487
 31
0.0
  0
LINE
  5
C3
100
AcDbEntity
  8
1
370
    50
100
AcDbLine
 10
100.850046
 20
86.443487
 30
0.0
 11
99.850046
 21
86.443487
 31
0.0
  0
LINE
  5
C4
100
AcDbEntity
  8
1
370
    50
100
AcDbLine
 10
101.150046
 20
82.943487
 30
0.0
 11
101.150046
 21
81.443487
 31
0.0
  0
LINE
  5
C5
100
AcDbEntity
  8
1
370
    50
100
AcDbLine
 10
100.850046
 20
86.443487
 30
0.0
 11
100.850046
 21
87.943487
 31
0.0
  0
LINE
  5
C6
100
AcDbEntity
  8
1
370
    50
100
AcDbLine
 10
101.000046
 20
84.443487
 30
0.0
 11
102.150046
 21
84.443487
 31
0.0
  0
LINE
  5
C7
100
AcDbEntity
  8
1
370
    50
100
AcDbLine
 10
101.000046
 20
84.943487
 30
0.0
 11
102.150046
 21
84.943487
 31
0.0
  0
ARC
  5
C8
100
AcDbEntity
  8
1
370
    50
100
AcDbCircle
 10
101.000046
 20
84.943487
 30
0.0
 40
4.0
100
AcDbArc
 50
286.708344
 51
73.291656
  0
ARC
  5
C9
100
AcDbEntity
  8
1
370
    50
100
AcDbCircle
 10
101.000046
 20
84.943487
 30
0.0
 40
4.0
100
AcDbArc
 50
106.708344
 51
253.291656
  0
LINE
  5
CA
100
AcDbEntity
  8
1
370
    50
100
AcDbLine
 10
101.000046
 20
84.443487
 30
0.0
 11
101.000046
 21
84.943487
 31
0.0
  0
CIRCLE
  5
CB
100
AcDbEntity
  8
1
370
    50
100
AcDbCircle
 10
101.000046
 20
84.693487
 30
0.0
 40
7.9
  0
LINE
  5
CC
100
AcDbEntity
  8
1
370
    50
100
AcDbLine
 10
-80.699998
 20
92.693487
 30
0.0
 11
-80.999998
 21
92.693487
 31
0.0
  0
LINE
  5
CD
100
AcDbEntity
  8
1
370
    50
100
AcDbLine
 10
-80.699998
 20
76.693487
 30
0.0
 11
-80.999998
 21
76.693487
 31
0.0
  0
LINE
  5
CE
100
AcDbEntity
  8
1
370
    50
100
AcDbLine
 10
-80.699998
 20
76.693487
 30
0.0
 11
-80.699998
 21
92.693487
 31
0.0
  0
ARC
  5
CF
100
AcDbEntity
  8
1
370
    50
100
AcDbCircle
 10
-144.449998
 20
84.693487
 30
0.0
 40
64.25
100
AcDbArc
 50
352.847331
 51
7.152669
  0
LINE
  5
D0
100
AcDbEntity
  8
1
370
    50
100
AcDbLine
 10
-133.999998
 20
87.521914
 30
0.0
 11
-129.499998
 21
87.521914
 31
0.0
  0
LINE
  5
D1
100
AcDbEntity
  8
1
370
    50
100
AcDbLine
 10
-104.499998
 20
87.521914
 30
0.0
 11
-101.599998
 21
87.521914
 31
0.0
  0
LINE
  5
D2
100
AcDbEntity
  8
1
370
    50
100
AcDbLine
 10
-133.999998
 20
83.279274
 30
0.0
 11
-129.499998
 21
83.279274
 31
0.0
  0
LINE
  5
D3
100
AcDbEntity
  8
1
370
    50
100
AcDbLine
 10
-104.499998
 20
83.279274
 30
0.0
 11
-101.599998
 21
83.279274
 31
0.0
  0
LINE
  5
D4
100
AcDbEntity
  8
1
370
    50
100
AcDbLine
 10
-133.999998
 20
81.86506
 30
0.0
 11
-129.499998
 21
81.86506
 31
0.0
  0
LINE
  5
D5
100
AcDbEntity
  8
1
370
    50
100
AcDbLine
 10
-104.499998
 20
81.86506
 30
0.0
 11
-101.599998
 21
81.86506
 31
0.0
  0
LINE
  5
D6
100
AcDbEntity
  8
1
370
    50
100
AcDbLine
 10
-136.999998
 20
121.693487
 30
0.0
 11
-123.499998
 21
121.693487
 31
0.0
  0
LINE
  5
D7
100
AcDbEntity
  8
1
370
    50
100
AcDbLine
 10
-136.999998
 20
117.693487
 30
0.0
 11
-129.499998
 21
117.693487
 31
0.0
  0
LINE
  5
D8
100
AcDbEntity
  8
1
370
    25
100
AcDbLine
 10
-123.499998
 20
121.465987
 30
0.0
 11
-136.999998
 21
121.465987
 31
0.0
  0
LINE
  5
D9
100
AcDbEntity
  8
1
370
    25
100
AcDbLine
 10
-129.499998
 20
117.920987
 30
0.0
 11
-136.999998
 21
117.920987
 31
0.0
  0
LINE
  5
DA
100
AcDbEntity
  8
1
370
    25
100
AcDbLine
 10
-255.999976
 20
121.893476
 30
0.0
 11
-255.499976
 21
121.893476
 31
0.0
  0
ARC
  5
DB
100
AcDbEntity
  8
1
370
    25
100
AcDbCircle
 10
-253.799976
 20
121.893476
 30
0.0
 40
1.7
100
AcDbArc
 50
180.0
 51
270.0
  0
LINE
  5
DC
100
AcDbEntity
  8
1
370
    25
100
AcDbLine
 10
-253.799976
 20
120.193476
 30
0.0
 11
-253.799976
 21
119.693476
 31
0.0
  0
LINE
  5
DD
100
AcDbEntity
  8
1
370
    25
100
AcDbLine
 10
-255.999976
 20
117.493476
 30
0.0
 11
-255.499976
 21
117.493476
 31
0.0
  0
ARC
  5
DE
100
AcDbEntity
  8
1
370
    25
100
AcDbCircle
 10
-253.799976
 20
117.493476
 30
0.0
 40
1.7
100
AcDbArc
 50
90.0
 51
180.0
  0
LINE
  5
DF
100
AcDbEntity
  8
1
370
    25
100
AcDbLine
 10
-253.799976
 20
119.193476
 30
0.0
 11
-253.799976
 21
119.693476
 31
0.0
  0
LINE
  5
E0
100
AcDbEntity
  8
1
370
    25
100
AcDbLine
 10
-255.999976
 20
121.893476
 30
0.0
 11
-256.499976
 21
121.893476
 31
0.0
  0
ARC
  5
E1
100
AcDbEntity
  8
1
370
    25
100
AcDbCircle
 10
-258.199976
 20
121.893476
 30
0.0
 40
1.7
100
AcDbArc
 50
270.0
 51
360.0
  0
LINE
  5
E2
100
AcDbEntity
  8
1
370
    25
100
AcDbLine
 10
-258.199976
 20
120.193476
 30
0.0
 11
-258.199976
 21
119.693476
 31
0.0
  0
LINE
  5
E3
100
AcDbEntity
  8
1
370
    25
100
AcDbLine
 10
-255.999976
 20
117.493476
 30
0.0
 11
-256.499976
 21
117.493476
 31
0.0
  0
ARC
  5
E4
100
AcDbEntity
  8
1
370
    25
100
AcDbCircle
 10
-258.199976
 20
117.493476
 30
0.0
 40
1.7
100
AcDbArc
 50
0.0
 51
90.0
  0
LINE
  5
E5
100
AcDbEntity
  8
1
370
    25
100
AcDbLine
 10
-258.199976
 20
119.193476
 30
0.0
 11
-258.199976
 21
119.693476
 31
0.0
  0
CIRCLE
  5
E6
100
AcDbEntity
  8
1
370
    50
100
AcDbCircle
 10
-255.999976
 20
119.693476
 30
0.0
 40
4.0
  0
LINE
  5
E7
100
AcDbEntity
  8
1
370
    25
100
AcDbLine
 10
-255.999976
 20
9.893476
 30
0.0
 11
-255.499976
 21
9.893476
 31
0.0
  0
ARC
  5
E8
100
AcDbEntity
  8
1
370
    25
100
AcDbCircle
 10
-253.799976
 20
9.893476
 30
0.0
 40
1.7
100
AcDbArc
 50
180.0
 51
270.0
  0
LINE
  5
E9
100
AcDbEntity
  8
1
370
    25
100
AcDbLine
 10
-253.799976
 20
8.193476
 30
0.0
 11
-253.799976
 21
7.693476
 31
0.0
  0
LINE
  5
EA
100
AcDbEntity
  8
1
370
    25
100
AcDbLine
 10
-255.999976
 20
5.493476
 30
0.0
 11
-255.499976
 21
5.493476
 31
0.0
  0
ARC
  5
EB
100
AcDbEntity
  8
1
370
    25
100
AcDbCircle
 10
-253.799976
 20
5.493476
 30
0.0
 40
1.7
100
AcDbArc
 50
90.0
 51
180.0
  0
LINE
  5
EC
100
AcDbEntity
  8
1
370
    25
100
AcDbLine
 10
-253.799976
 20
7.193476
 30
0.0
 11
-253.799976
 21
7.693476
 31
0.0
  0
LINE
  5
ED
100
AcDbEntity
  8
1
370
    25
100
AcDbLine
 10
-255.999976
 20
9.893476
 30
0.0
 11
-256.499976
 21
9.893476
 31
0.0
  0
ARC
  5
EE
100
AcDbEntity
  8
1
370
    25
100
AcDbCircle
 10
-258.199976
 20
9.893476
 30
0.0
 40
1.7
100
AcDbArc
 50
270.0
 51
360.0
  0
LINE
  5
EF
100
AcDbEntity
  8
1
370
    25
100
AcDbLine
 10
-258.199976
 20
8.193476
 30
0.0
 11
-258.199976
 21
7.693476
 31
0.0
  0
LINE
  5
F0
100
AcDbEntity
  8
1
370
    25
100
AcDbLine
 10
-255.999976
 20
5.493476
 30
0.0
 11
-256.499976
 21
5.493476
 31
0.0
  0
ARC
  5
F1
100
AcDbEntity
  8
1
370
    25
100
AcDbCircle
 10
-258.199976
 20
5.493476
 30
0.0
 40
1.7
100
AcDbArc
 50
0.0
 51
90.0
  0
LINE
  5
F2
100
AcDbEntity
  8
1
370
    25
100
AcDbLine
 10
-258.199976
 20
7.193476
 30
0.0
 11
-258.199976
 21
7.693476
 31
0.0
  0
CIRCLE
  5
F3
100
AcDbEntity
  8
1
370
    50
100
AcDbCircle
 10
-255.999976
 20
7.693476
 30
0.0
 40
4.0
  0
ARC
  5
F4
100
AcDbEntity
  8
1
370
    50
100
AcDbCircle
 10
-86.999998
 20
44.443487
 30
0.0
 40
0.5
100
AcDbArc
 50
0.0
 51
90.0
  0
LINE
  5
F5
100
AcDbEntity
  8
1
370
    50
100
AcDbLine
 10
-86.499998
 20
24.943487
 30
0.0
 11
-86.499998
 21
44.443487
 31
0.0
  0
ARC
  5
F6
100
AcDbEntity
  8
1
370
    50
100
AcDbCircle
 10
-86.999998
 20
24.943487
 30
0.0
 40
0.5
100
AcDbArc
 50
270.0
 51
360.0
  0
LINE
  5
F7
100
AcDbEntity
  8
1
370
    50
100
AcDbLine
 10
-101.499998
 20
92.093487
 30
0.0
 11
-101.499998
 21
77.293487
 31
0.0
  0
LINE
  5
F8
100
AcDbEntity
  8
1
370
    50
100
AcDbLine
 10
-96.999998
 20
76.293487
 30
0.0
 11
-100.499998
 21
76.293487
 31
0.0
  0
LINE
  5
F9
100
AcDbEntity
  8
1
370
    50
100
AcDbLine
 10
-100.499998
 20
93.093487
 30
0.0
 11
-96.999998
 21
93.093487
 31
0.0
  0
ARC
  5
FA
100
AcDbEntity
  8
1
370
    50
100
AcDbCircle
 10
-100.499998
 20
92.093487
 30
0.0
 40
1.0
100
AcDbArc
 50
90.0
 51
180.0
  0
ARC
  5
FB
100
AcDbEntity
  8
1
370
    50
100
AcDbCircle
 10
-100.499998
 20
77.293487
 30
0.0
 40
1.0
100
AcDbArc
 50
180.0
 51
270.0
  0
LINE
  5
FC
100
AcDbEntity
  8
1
370
    50
100
AcDbLine
 10
-136.999998
 20
9.693487
 30
0.0
 11
-129.499998
 21
9.693487
 31
0.0
  0
LINE
  5
FD
100
AcDbEntity
  8
1
370
    50
100
AcDbLine
 10
-136.999998
 20
5.693487
 30
0.0
 11
-129.499998
 21
5.693487
 31
0.0
  0
LINE
  5
FE
100
AcDbEntity
  8
1
370
    25
100
AcDbLine
 10
-129.499998
 20
9.465987
 30
0.0
 11
-136.999998
 21
9.465987
 31
0.0
  0
LINE
  5
FF
100
AcDbEntity
  8
1
370
    25
100
AcDbLine
 10
-129.499998
 20
5.920987
 30
0.0
 11
-136.999998
 21
5.920987
 31
0.0
  0
ARC
  5
100
100
AcDbEntity
  8
1
370
    50
100
AcDbCircle
 10
-146.999998
 20
44.443487
 30
0.0
 40
0.5
100
AcDbArc
 50
90.0
 51
180.0
  0
LINE
  5
101
100
AcDbEntity
  8
1
370
    50
100
AcDbLine
 10
-147.499998
 20
24.943487
 30
0.0
 11
-147.499998
 21
44.443487
 31
0.0
  0
ARC
  5
102
100
AcDbEntity
  8
1
370
    50
100
AcDbCircle
 10
-146.999998
 20
24.943487
 30
0.0
 40
0.5
100
AcDbArc
 50
180.0
 51
270.0
  0
LINE
  5
103
100
AcDbEntity
  8
1
370
    50
100
AcDbLine
 10
-96.999998
 20
122.693487
 30
0.0
 11
-122.633973
 21
122.693487
 31
0.0
  0
LINE
  5
104
100
AcDbEntity
  8
1
370
    50
100
AcDbLine
 10
-96.999998
 20
116.693487
 30
0.0
 11
-104.499998
 21
116.693487
 31
0.0
  0
LINE
  5
105
100
AcDbEntity
  8
1
370
    50
100
AcDbLine
 10
-96.999998
 20
37.693487
 30
0.0
 11
-104.499998
 21
37.693487
 31
0.0
  0
LINE
  5
106
100
AcDbEntity
  8
1
370
    50
100
AcDbLine
 10
-96.999998
 20
31.693487
 30
0.0
 11
-104.499998
 21
31.693487
 31
0.0
  0
LINE
  5
107
100
AcDbEntity
  8
1
370
    50
100
AcDbLine
 10
-123.499998
 20
120.693487
 30
0.0
 11
-123.499998
 21
122.193487
 31
0.0
  0
LINE
  5
108
100
AcDbEntity
  8
1
370
    50
100
AcDbLine
 10
-123.499998
 20
122.193487
 30
0.0
 11
-122.633973
 21
122.693487
 31
0.0
  0
LINE
  5
109
100
AcDbEntity
  8
1
370
    50
100
AcDbLine
 10
-122.633973
 20
122.693487
 30
0.0
 11
-122.633973
 21
120.693487
 31
0.0
  0
LINE
  5
10A
100
AcDbEntity
  8
1
370
    50
100
AcDbLine
 10
-96.999998
 20
10.693487
 30
0.0
 11
-104.499998
 21
10.693487
 31
0.0
  0
LINE
  5
10B
100
AcDbEntity
  8
1
370
    50
100
AcDbLine
 10
-96.999998
 20
4.693487
 30
0.0
 11
-104.499998
 21
4.693487
 31
0.0
  0
LINE
  5
10C
100
AcDbEntity
  8
1
370
    50
100
AcDbLine
 10
54.000046
 20
120.593487
 30
0.0
 11
52.800046
 21
120.593487
 31
0.0
  0
LINE
  5
10D
100
AcDbEntity
  8
1
370
    50
100
AcDbLine
 10
52.800046
 20
-9.206513
 30
0.0
 11
54.000046
 21
-9.206513
 31
0.0
  0
LINE
  5
10E
100
AcDbEntity
  8
1
370
    50
100
AcDbLine
 10
52.400046
 20
-4.531149
 30
0.0
 11
53.600046
 21
-4.531149
 31
0.0
  0
LINE
  5
10F
100
AcDbEntity
  8
1
370
    50
100
AcDbLine
 10
52.400046
 20
115.918123
 30
0.0
 11
53.600046
 21
115.918123
 31
0.0
  0
LINE
  5
110
100
AcDbEntity
  8
1
370
    50
100
AcDbLine
 10
52.400046
 20
93.193487
 30
0.0
 11
53.600046
 21
93.193487
 31
0.0
  0
LINE
  5
111
100
AcDbEntity
  8
1
370
    50
100
AcDbLine
 10
52.400046
 20
18.193487
 30
0.0
 11
53.600046
 21
18.193487
 31
0.0
  0
LINE
  5
112
100
AcDbEntity
  8
1
370
    50
100
AcDbLine
 10
52.400046
 20
93.193487
 30
0.0
 11
52.400046
 21
95.193487
 31
0.0
  0
LINE
  5
113
100
AcDbEntity
  8
1
370
    50
100
AcDbLine
 10
53.600046
 20
-4.531149
 30
0.0
 11
53.600046
 21
18.193487
 31
0.0
  0
LINE
  5
114
100
AcDbEntity
  8
1
370
    50
100
AcDbLine
 10
53.600046
 20
93.193487
 30
0.0
 11
53.600046
 21
115.918123
 31
0.0
  0
LINE
  5
115
100
AcDbEntity
  8
1
370
    50
100
AcDbLine
 10
56.000046
 20
18.293487
 30
0.0
 11
66.600046
 21
18.293487
 31
0.0
  0
ARC
  5
116
100
AcDbEntity
  8
1
370
    50
100
AcDbCircle
 10
66.600046
 20
18.693487
 30
0.0
 40
0.4
100
AcDbArc
 50
270.0
 51
360.0
  0
LINE
  5
117
100
AcDbEntity
  8
1
370
    50
100
AcDbLine
 10
56.000046
 20
93.093487
 30
0.0
 11
66.600046
 21
93.093487
 31
0.0
  0
ARC
  5
118
100
AcDbEntity
  8
1
370
    50
100
AcDbCircle
 10
66.600046
 20
92.693487
 30
0.0
 40
0.4
100
AcDbArc
 50
0.0
 51
90.0
  0
ARC
  5
119
100
AcDbEntity
  8
1
370
    50
100
AcDbCircle
 10
54.200046
 20
92.893487
 30
0.0
 40
0.2
100
AcDbArc
 50
180.0
 51
270.0
  0
ARC
  5
11A
100
AcDbEntity
  8
1
370
    50
100
AcDbCircle
 10
54.200046
 20
18.493487
 30
0.0
 40
0.2
100
AcDbArc
 50
90.0
 51
180.0
  0
LINE
  5
11B
100
AcDbEntity
  8
1
370
    50
100
AcDbLine
 10
54.000046
 20
-9.206513
 30
0.0
 11
54.000046
 21
18.493487
 31
0.0
  0
ARC
  5
11C
100
AcDbEntity
  8
1
370
    50
100
AcDbCircle
 10
49.800046
 20
117.414786
 30
0.0
 40
3.0
100
AcDbArc
 50
330.073565
 51
360.0
  0
ARC
  5
11D
100
AcDbEntity
  8
1
370
    50
100
AcDbCircle
 10
51.000046
 20
117.414786
 30
0.0
 40
3.0
100
AcDbArc
 50
330.073565
 51
360.0
  0
LINE
  5
11E
100
AcDbEntity
  8
1
370
    50
100
AcDbLine
 10
52.800046
 20
92.693487
 30
0.0
 11
52.800046
 21
93.193487
 31
0.0
  0
LINE
  5
11F
100
AcDbEntity
  8
1
370
    50
100
AcDbLine
 10
52.800046
 20
117.414786
 30
0.0
 11
52.800046
 21
120.593487
 31
0.0
  0
ARC
  5
120
100
AcDbEntity
  8
1
370
    50
100
AcDbCircle
 10
49.800046
 20
-6.027812
 30
0.0
 40
3.0
100
AcDbArc
 50
0.0
 51
29.926435
  0
ARC
  5
121
100
AcDbEntity
  8
1
370
    50
100
AcDbCircle
 10
51.000046
 20
-6.027812
 30
0.0
 40
3.0
100
AcDbArc
 50
0.0
 51
29.926435
  0
LINE
  5
122
100
AcDbEntity
  8
1
370
    50
100
AcDbLine
 10
52.800046
 20
-9.206513
 30
0.0
 11
52.800046
 21
-6.027812
 31
0.0
  0
LINE
  5
123
100
AcDbEntity
  8
1
370
    50
100
AcDbLine
 10
52.800046
 20
18.193487
 30
0.0
 11
52.800046
 21
18.693487
 31
0.0
  0
LINE
  5
124
100
AcDbEntity
  8
1
370
    50
100
AcDbLine
 10
56.000046
 20
92.693487
 30
0.0
 11
56.000046
 21
93.093487
 31
0.0
  0
LINE
  5
125
100
AcDbEntity
  8
1
370
    50
100
AcDbLine
 10
56.000046
 20
18.293487
 30
0.0
 11
56.000046
 21
18.693487
 31
0.0
  0
LINE
  5
126
100
AcDbEntity
  8
1
370
    50
100
AcDbLine
 10
52.400046
 20
16.193487
 30
0.0
 11
52.400046
 21
18.193487
 31
0.0
  0
LINE
  5
127
100
AcDbEntity
  8
1
370
    50
100
AcDbLine
 10
72.500046
 20
92.693487
 30
0.0
 11
75.000046
 21
92.693487
 31
0.0
  0
LINE
  5
128
100
AcDbEntity
  8
1
370
    50
100
AcDbLine
 10
72.500046
 20
18.693487
 30
0.0
 11
75.000046
 21
18.693487
 31
0.0
  0
LINE
  5
129
100
AcDbEntity
  8
1
370
    25
100
AcDbLine
 10
52.900046
 20
84.193487
 30
0.0
 11
57.300046
 21
84.193487
 31
0.0
  0
LINE
  5
12A
100
AcDbEntity
  8
1
370
    25
100
AcDbLine
 10
52.900046
 20
79.693487
 30
0.0
 11
57.300046
 21
79.693487
 31
0.0
  0
LINE
  5
12B
100
AcDbEntity
  8
1
370
    25
100
AcDbLine
 10
58.300046
 20
80.693487
 30
0.0
 11
58.300046
 21
83.193487
 31
0.0
  0
ARC
  5
12C
100
AcDbEntity
  8
1
370
    25
100
AcDbCircle
 10
57.300046
 20
83.193487
 30
0.0
 40
1.0
100
AcDbArc
 50
0.0
 51
90.0
  0
ARC
  5
12D
100
AcDbEntity
  8
1
370
    25
100
AcDbCircle
 10
57.300046
 20
80.693487
 30
0.0
 40
1.0
100
AcDbArc
 50
270.0
 51
360.0
  0
LINE
  5
12E
100
AcDbEntity
  8
1
370
    25
100
AcDbLine
 10
52.900046
 20
31.693487
 30
0.0
 11
57.300046
 21
31.693487
 31
0.0
  0
LINE
  5
12F
100
AcDbEntity
  8
1
370
    25
100
AcDbLine
 10
52.900046
 20
27.193487
 30
0.0
 11
57.300046
 21
27.193487
 31
0.0
  0
LINE
  5
130
100
AcDbEntity
  8
1
370
    25
100
AcDbLine
 10
58.300046
 20
28.193487
 30
0.0
 11
58.300046
 21
30.693487
 31
0.0
  0
ARC
  5
131
100
AcDbEntity
  8
1
370
    25
100
AcDbCircle
 10
57.300046
 20
30.693487
 30
0.0
 40
1.0
100
AcDbArc
 50
0.0
 51
90.0
  0
ARC
  5
132
100
AcDbEntity
  8
1
370
    25
100
AcDbCircle
 10
57.300046
 20
28.193487
 30
0.0
 40
1.0
100
AcDbArc
 50
270.0
 51
360.0
  0
LINE
  5
133
100
AcDbEntity
  8
1
370
    50
100
AcDbLine
 10
54.100046
 20
41.093487
 30
0.0
 11
54.100046
 21
72.293487
 31
0.0
  0
LINE
  5
134
100
AcDbEntity
  8
1
370
    50
100
AcDbLine
 10
54.000046
 20
92.893487
 30
0.0
 11
54.000046
 21
120.593487
 31
0.0
  0
LINE
  5
135
100
AcDbEntity
  8
1
370
    50
100
AcDbLine
 10
52.900046
 20
41.093487
 30
0.0
 11
52.900046
 21
72.293487
 31
0.0
  0
LINE
  5
136
100
AcDbEntity
  8
1
370
    50
100
AcDbLine
 10
52.800046
 20
120.593487
 30
0.0
 11
51.600046
 21
120.593487
 31
0.0
  0
LINE
  5
137
100
AcDbEntity
  8
1
370
    50
100
AcDbLine
 10
52.400046
 20
117.02921
 30
0.0
 11
52.400046
 21
95.193487
 31
0.0
  0
LINE
  5
138
100
AcDbEntity
  8
1
370
    50
100
AcDbLine
 10
52.400046
 20
95.193487
 30
0.0
 11
51.200046
 21
95.193487
 31
0.0
  0
LINE
  5
139
100
AcDbEntity
  8
1
370
    50
100
AcDbLine
 10
51.200046
 20
117.02921
 30
0.0
 11
52.400046
 21
117.02921
 31
0.0
  0
LINE
  5
13A
100
AcDbEntity
  8
1
370
    50
100
AcDbLine
 10
51.600046
 20
118.525873
 30
0.0
 11
51.600046
 21
120.593487
 31
0.0
  0
ARC
  5
13B
100
AcDbEntity
  8
1
370
    50
100
AcDbCircle
 10
48.600046
 20
118.525873
 30
0.0
 40
3.0
100
AcDbArc
 50
330.073565
 51
360.0
  0
ARC
  5
13C
100
AcDbEntity
  8
1
370
    50
100
AcDbCircle
 10
49.800046
 20
118.525873
 30
0.0
 40
3.0
100
AcDbArc
 50
330.073565
 51
360.0
  0
LINE
  5
13D
100
AcDbEntity
  8
1
370
    50
100
AcDbLine
 10
52.800046
 20
-9.206513
 30
0.0
 11
51.600046
 21
-9.206513
 31
0.0
  0
LINE
  5
13E
100
AcDbEntity
  8
1
370
    50
100
AcDbLine
 10
52.400046
 20
-5.642236
 30
0.0
 11
52.400046
 21
16.193487
 31
0.0
  0
LINE
  5
13F
100
AcDbEntity
  8
1
370
    50
100
AcDbLine
 10
52.400046
 20
16.193487
 30
0.0
 11
51.200046
 21
16.193487
 31
0.0
  0
LINE
  5
140
100
AcDbEntity
  8
1
370
    50
100
AcDbLine
 10
51.200046
 20
-5.642236
 30
0.0
 11
52.400046
 21
-5.642236
 31
0.0
  0
LINE
  5
141
100
AcDbEntity
  8
1
370
    50
100
AcDbLine
 10
51.600046
 20
-7.138899
 30
0.0
 11
51.600046
 21
-9.206513
 31
0.0
  0
ARC
  5
142
100
AcDbEntity
  8
1
370
    50
100
AcDbCircle
 10
48.600046
 20
-7.138899
 30
0.0
 40
3.0
100
AcDbArc
 50
0.0
 51
29.926435
  0
ARC
  5
143
100
AcDbEntity
  8
1
370
    50
100
AcDbCircle
 10
49.800046
 20
-7.138899
 30
0.0
 40
3.0
100
AcDbArc
 50
0.0
 51
29.926435
  0
LINE
  5
144
100
AcDbEntity
  8
1
370
    50
100
AcDbLine
 10
72.500046
 20
18.693487
 30
0.0
 11
72.500046
 21
19.693487
 31
0.0
  0
LINE
  5
145
100
AcDbEntity
  8
1
370
    50
100
AcDbLine
 10
72.500046
 20
91.693487
 30
0.0
 11
72.500046
 21
92.693487
 31
0.0
  0
LINE
  5
146
100
AcDbEntity
  8
1
370
    50
100
AcDbLine
 10
73.000046
 20
20.193487
 30
0.0
 11
75.000046
 21
20.193487
 31
0.0
  0
LINE
  5
147
100
AcDbEntity
  8
1
370
    50
100
AcDbLine
 10
73.000046
 20
91.193487
 30
0.0
 11
75.000046
 21
91.193487
 31
0.0
  0
LINE
  5
148
100
AcDbEntity
  8
1
370
    50
100
AcDbLine
 10
52.800046
 20
92.693487
 30
0.0
 11
72.500046
 21
92.693487
 31
0.0
  0
LINE
  5
149
100
AcDbEntity
  8
1
370
    50
100
AcDbLine
 10
52.800046
 20
18.693487
 30
0.0
 11
72.500046
 21
18.693487
 31
0.0
  0
LINE
  5
14A
100
AcDbEntity
  8
1
370
    50
100
AcDbLine
 10
75.000046
 20
30.293487
 30
0.0
 11
66.500046
 21
30.293487
 31
0.0
  0
LINE
  5
14B
100
AcDbEntity
  8
1
370
    50
100
AcDbLine
 10
66.000046
 20
30.793487
 30
0.0
 11
66.000046
 21
31.393487
 31
0.0
  0
LINE
  5
14C
100
AcDbEntity
  8
1
370
    50
100
AcDbLine
 10
70.000046
 20
32.393487
 30
0.0
 11
70.000046
 21
31.893487
 31
0.0
  0
LINE
  5
14D
100
AcDbEntity
  8
1
370
    50
100
AcDbLine
 10
72.000046
 20
32.393487
 30
0.0
 11
72.000046
 21
31.893487
 31
0.0
  0
ARC
  5
14E
100
AcDbEntity
  8
1
370
    50
100
AcDbCircle
 10
71.000046
 20
32.393487
 30
0.0
 40
1.0
100
AcDbArc
 50
0.0
 51
180.0
  0
LINE
  5
14F
100
AcDbEntity
  8
1
370
    50
100
AcDbLine
 10
66.500046
 20
31.893487
 30
0.0
 11
70.000046
 21
31.893487
 31
0.0
  0
LINE
  5
150
100
AcDbEntity
  8
1
370
    50
100
AcDbLine
 10
72.000046
 20
31.893487
 30
0.0
 11
75.000046
 21
31.893487
 31
0.0
  0
LINE
  5
151
100
AcDbEntity
  8
1
370
    50
100
AcDbLine
 10
62.000046
 20
69.493487
 30
0.0
 11
62.000046
 21
70.293487
 31
0.0
  0
LINE
  5
152
100
AcDbEntity
  8
1
370
    50
100
AcDbLine
 10
68.000046
 20
69.493487
 30
0.0
 11
68.000046
 21
70.293487
 31
0.0
  0
LINE
  5
153
100
AcDbEntity
  8
1
370
    50
100
AcDbLine
 10
67.500046
 20
70.793487
 30
0.0
 11
62.500046
 21
70.793487
 31
0.0
  0
LINE
  5
154
100
AcDbEntity
  8
1
370
    50
100
AcDbLine
 10
67.500046
 20
68.993487
 30
0.0
 11
62.500046
 21
68.993487
 31
0.0
  0
CIRCLE
  5
155
100
AcDbEntity
  8
1
370
    50
100
AcDbCircle
 10
69.000046
 20
80.693487
 30
0.0
 40
2.1
  0
LINE
  5
156
100
AcDbEntity
  8
1
370
    50
100
AcDbLine
 10
51.600046
 20
72.293487
 30
0.0
 11
54.400046
 21
72.293487
 31
0.0
  0
LINE
  5
157
100
AcDbEntity
  8
1
370
    50
100
AcDbLine
 10
51.600046
 20
41.093487
 30
0.0
 11
54.400046
 21
41.093487
 31
0.0
  0
LINE
  5
158
100
AcDbEntity
  8
1
370
    50
100
AcDbLine
 10
55.400046
 20
65.693487
 30
0.0
 11
57.000046
 21
65.693487
 31
0.0
  0
LINE
  5
159
100
AcDbEntity
  8
1
370
    50
100
AcDbLine
 10
55.400046
 20
47.693487
 30
0.0
 11
57.000046
 21
47.693487
 31
0.0
  0
LINE
  5
15A
100
AcDbEntity
  8
1
370
    50
100
AcDbLine
 10
54.400046
 20
41.093487
 30
0.0
 11
54.400046
 21
46.693487
 31
0.0
  0
LINE
  5
15B
100
AcDbEntity
  8
1
370
    50
100
AcDbLine
 10
54.400046
 20
66.693487
 30
0.0
 11
54.400046
 21
72.293487
 31
0.0
  0
ARC
  5
15C
100
AcDbEntity
  8
1
370
    50
100
AcDbCircle
 10
55.400046
 20
66.693487
 30
0.0
 40
1.0
100
AcDbArc
 50
180.0
 51
270.0
  0
ARC
  5
15D
100
AcDbEntity
  8
1
370
    50
100
AcDbCircle
 10
55.400046
 20
46.693487
 30
0.0
 40
1.0
100
AcDbArc
 50
90.0
 51
180.0
  0
LINE
  5
15E
100
AcDbEntity
  8
1
370
    50
100
AcDbLine
 10
59.900046
 20
44.693487
 30
0.0
 11
59.900046
 21
63.693487
 31
0.0
  0
ARC
  5
15F
100
AcDbEntity
  8
1
370
    50
100
AcDbCircle
 10
62.500046
 20
63.693487
 30
0.0
 40
2.6
100
AcDbArc
 50
90.0
 51
180.0
  0
LINE
  5
160
100
AcDbEntity
  8
1
370
    50
100
AcDbLine
 10
66.583966
 20
66.293487
 30
0.0
 11
62.500046
 21
66.293487
 31
0.0
  0
ARC
  5
161
100
AcDbEntity
  8
1
370
    50
100
AcDbCircle
 10
66.583966
 20
63.693487
 30
0.0
 40
2.6
100
AcDbArc
 50
9.594068
 51
90.0
  0
ARC
  5
162
100
AcDbEntity
  8
1
370
    50
100
AcDbCircle
 10
72.500046
 20
64.693487
 30
0.0
 40
3.4
100
AcDbArc
 50
189.594068
 51
270.0
  0
LINE
  5
163
100
AcDbEntity
  8
1
370
    50
100
AcDbLine
 10
75.000046
 20
61.293487
 30
0.0
 11
72.500046
 21
61.293487
 31
0.0
  0
LINE
  5
164
100
AcDbEntity
  8
1
370
    50
100
AcDbLine
 10
75.000046
 20
52.093487
 30
0.0
 11
72.500046
 21
52.093487
 31
0.0
  0
ARC
  5
165
100
AcDbEntity
  8
1
370
    50
100
AcDbCircle
 10
72.500046
 20
48.693487
 30
0.0
 40
3.4
100
AcDbArc
 50
90.0
 51
180.0
  0
LINE
  5
166
100
AcDbEntity
  8
1
370
    50
100
AcDbLine
 10
69.100046
 20
44.693487
 30
0.0
 11
69.100046
 21
48.693487
 31
0.0
  0
ARC
  5
167
100
AcDbEntity
  8
1
370
    50
100
AcDbCircle
 10
66.500046
 20
44.693487
 30
0.0
 40
2.6
100
AcDbArc
 50
270.0
 51
360.0
  0
LINE
  5
168
100
AcDbEntity
  8
1
370
    50
100
AcDbLine
 10
66.500046
 20
42.093487
 30
0.0
 11
62.500046
 21
42.093487
 31
0.0
  0
ARC
  5
169
100
AcDbEntity
  8
1
370
    50
100
AcDbCircle
 10
62.500046
 20
44.693487
 30
0.0
 40
2.6
100
AcDbArc
 50
180.0
 51
270.0
  0
LINE
  5
16A
100
AcDbEntity
  8
1
370
    50
100
AcDbLine
 10
53.800046
 20
78.243487
 30
0.0
 11
51.600046
 21
78.243487
 31
0.0
  0
LINE
  5
16B
100
AcDbEntity
  8
1
370
    50
100
AcDbLine
 10
53.800046
 20
85.643487
 30
0.0
 11
51.600046
 21
85.643487
 31
0.0
  0
LINE
  5
16C
100
AcDbEntity
  8
1
370
    50
100
AcDbLine
 10
52.800046
 20
25.743487
 30
0.0
 11
52.800046
 21
33.143487
 31
0.0
  0
LINE
  5
16D
100
AcDbEntity
  8
1
370
    50
100
AcDbLine
 10
52.800046
 20
78.243487
 30
0.0
 11
52.800046
 21
85.643487
 31
0.0
  0
LINE
  5
16E
100
AcDbEntity
  8
1
370
    50
100
AcDbLine
 10
59.300046
 20
27.443487
 30
0.0
 11
59.300046
 21
31.443487
 31
0.0
  0
LINE
  5
16F
100
AcDbEntity
  8
1
370
    18
  6
CENTER
100
AcDbLine
 10
48.735707
 20
81.943487
 30
0.0
 11
61.581508
 21
81.943487
 31
0.0
  0
LINE
  5
170
100
AcDbEntity
  8
1
370
    50
100
AcDbLine
 10
54.800046
 20
84.443487
 30
0.0
 11
58.800046
 21
84.443487
 31
0.0
  0
LINE
  5
171
100
AcDbEntity
  8
1
370
    50
100
AcDbLine
 10
54.800046
 20
79.443487
 30
0.0
 11
58.800046
 21
79.443487
 31
0.0
  0
LINE
  5
172
100
AcDbEntity
  8
1
370
    50
100
AcDbLine
 10
59.300046
 20
79.943487
 30
0.0
 11
59.300046
 21
83.943487
 31
0.0
  0
ARC
  5
173
100
AcDbEntity
  8
1
370
    50
100
AcDbCircle
 10
53.800046
 20
84.643487
 30
0.0
 40
1.0
100
AcDbArc
 50
0.0
 51
90.0
  0
ARC
  5
174
100
AcDbEntity
  8
1
370
    50
100
AcDbCircle
 10
53.800046
 20
79.243487
 30
0.0
 40
1.0
100
AcDbArc
 50
270.0
 51
0.0
  0
ARC
  5
175
100
AcDbEntity
  8
1
370
    50
100
AcDbCircle
 10
58.800046
 20
83.943487
 30
0.0
 40
0.5
100
AcDbArc
 50
360.0
 51
90.0
  0
ARC
  5
176
100
AcDbEntity
  8
1
370
    50
100
AcDbCircle
 10
58.800046
 20
79.943487
 30
0.0
 40
0.5
100
AcDbArc
 50
270.0
 51
360.0
  0
LINE
  5
177
100
AcDbEntity
  8
1
370
    50
100
AcDbLine
 10
58.800046
 20
31.943487
 30
0.0
 11
54.800046
 21
31.943487
 31
0.0
  0
LINE
  5
178
100
AcDbEntity
  8
1
370
    50
100
AcDbLine
 10
54.800046
 20
26.943487
 30
0.0
 11
58.800046
 21
26.943487
 31
0.0
  0
ARC
  5
179
100
AcDbEntity
  8
1
370
    50
100
AcDbCircle
 10
53.800046
 20
32.143487
 30
0.0
 40
1.0
100
AcDbArc
 50
360.0
 51
90.0
  0
ARC
  5
17A
100
AcDbEntity
  8
1
370
    50
100
AcDbCircle
 10
53.800046
 20
26.743487
 30
0.0
 40
1.0
100
AcDbArc
 50
270.0
 51
360.0
  0
ARC
  5
17B
100
AcDbEntity
  8
1
370
    50
100
AcDbCircle
 10
58.800046
 20
31.443487
 30
0.0
 40
0.5
100
AcDbArc
 50
0.0
 51
90.0
  0
ARC
  5
17C
100
AcDbEntity
  8
1
370
    50
100
AcDbCircle
 10
58.800046
 20
27.443487
 30
0.0
 40
0.5
100
AcDbArc
 50
270.0
 51
360.0
  0
LINE
  5
17D
100
AcDbEntity
  8
1
370
    50
100
AcDbLine
 10
53.800046
 20
33.143487
 30
0.0
 11
51.600046
 21
33.143487
 31
0.0
  0
LINE
  5
17E
100
AcDbEntity
  8
1
370
    50
100
AcDbLine
 10
53.800046
 20
25.743487
 30
0.0
 11
51.600046
 21
25.743487
 31
0.0
  0
LINE
  5
17F
100
AcDbEntity
  8
1
370
    50
100
AcDbLine
 10
57.500046
 20
48.193487
 30
0.0
 11
57.500046
 21
65.193487
 31
0.0
  0
LINE
  5
180
100
AcDbEntity
  8
1
370
    18
  6
CENTER
100
AcDbLine
 10
35.864994
 20
56.693487
 30
0.0
 11
64.900046
 21
56.693487
 31
0.0
  0
LINE
  5
181
100
AcDbEntity
  8
1
370
    50
100
AcDbLine
 10
52.800046
 20
92.693487
 30
0.0
 11
52.800046
 21
93.193487
 31
0.0
  0
LINE
  5
182
100
AcDbEntity
  8
1
370
    50
100
AcDbLine
 10
52.800046
 20
117.414786
 30
0.0
 11
52.800046
 21
120.593487
 31
0.0
  0
LINE
  5
183
100
AcDbEntity
  8
1
370
    50
100
AcDbLine
 10
52.800046
 20
-9.206513
 30
0.0
 11
52.800046
 21
-6.027812
 31
0.0
  0
LINE
  5
184
100
AcDbEntity
  8
1
370
    50
100
AcDbLine
 10
52.800046
 20
18.193487
 30
0.0
 11
52.800046
 21
18.693487
 31
0.0
  0
LINE
  5
185
100
AcDbEntity
  8
1
370
    50
100
AcDbLine
 10
54.800046
 20
26.743487
 30
0.0
 11
54.800046
 21
27.193487
 31
0.0
  0
LINE
  5
186
100
AcDbEntity
  8
1
370
    50
100
AcDbLine
 10
54.800046
 20
31.693487
 30
0.0
 11
54.800046
 21
32.143487
 31
0.0
  0
LINE
  5
187
100
AcDbEntity
  8
1
370
    50
100
AcDbLine
 10
54.800046
 20
79.243487
 30
0.0
 11
54.800046
 21
79.693487
 31
0.0
  0
LINE
  5
188
100
AcDbEntity
  8
1
370
    50
100
AcDbLine
 10
54.800046
 20
84.193487
 30
0.0
 11
54.800046
 21
84.643487
 31
0.0
  0
LINE
  5
189
100
AcDbEntity
  8
1
370
    50
100
AcDbLine
 10
51.600046
 20
16.193487
 30
0.0
 11
51.600046
 21
45.451552
 31
0.0
  0
LINE
  5
18A
100
AcDbEntity
  8
1
370
    50
100
AcDbLine
 10
51.600046
 20
67.935423
 30
0.0
 11
51.600046
 21
95.193487
 31
0.0
  0
ARC
  5
18B
100
AcDbEntity
  8
1
370
    50
100
AcDbCircle
 10
62.500046
 20
70.293487
 30
0.0
 40
0.5
100
AcDbArc
 50
90.0
 51
180.0
  0
ARC
  5
18C
100
AcDbEntity
  8
1
370
    50
100
AcDbCircle
 10
62.500046
 20
69.493487
 30
0.0
 40
0.5
100
AcDbArc
 50
180.0
 51
270.0
  0
ARC
  5
18D
100
AcDbEntity
  8
1
370
    50
100
AcDbCircle
 10
67.500046
 20
70.293487
 30
0.0
 40
0.5
100
AcDbArc
 50
0.0
 51
90.0
  0
ARC
  5
18E
100
AcDbEntity
  8
1
370
    50
100
AcDbCircle
 10
67.500046
 20
69.493487
 30
0.0
 40
0.5
100
AcDbArc
 50
270.0
 51
360.0
  0
ARC
  5
18F
100
AcDbEntity
  8
1
370
    50
100
AcDbCircle
 10
66.500046
 20
31.393487
 30
0.0
 40
0.5
100
AcDbArc
 50
90.0
 51
180.0
  0
ARC
  5
190
100
AcDbEntity
  8
1
370
    50
100
AcDbCircle
 10
66.500046
 20
30.793487
 30
0.0
 40
0.5
100
AcDbArc
 50
180.0
 51
270.0
  0
ARC
  5
191
100
AcDbEntity
  8
1
370
    50
100
AcDbCircle
 10
57.000046
 20
65.193487
 30
0.0
 40
0.5
100
AcDbArc
 50
0.0
 51
90.0
  0
ARC
  5
192
100
AcDbEntity
  8
1
370
    50
100
AcDbCircle
 10
57.000046
 20
48.193487
 30
0.0
 40
0.5
100
AcDbArc
 50
270.0
 51
360.0
  0
ARC
  5
193
100
AcDbEntity
  8
1
370
    50
100
AcDbCircle
 10
73.000046
 20
19.693487
 30
0.0
 40
0.5
100
AcDbArc
 50
90.0
 51
180.0
  0
ARC
  5
194
100
AcDbEntity
  8
1
370
    50
100
AcDbCircle
 10
73.000046
 20
91.693487
 30
0.0
 40
0.5
100
AcDbArc
 50
180.0
 51
270.0
  0
LINE
  5
195
100
AcDbEntity
  8
1
370
    50
100
AcDbLine
 10
50.000046
 20
120.693487
 30
0.0
 11
51.200046
 21
120.693487
 31
0.0
  0
LINE
  5
196
100
AcDbEntity
  8
1
370
    50
100
AcDbLine
 10
50.000046
 20
-9.306513
 30
0.0
 11
51.200046
 21
-9.306513
 31
0.0
  0
LINE
  5
197
100
AcDbEntity
  8
1
370
    50
100
AcDbLine
 10
51.200046
 20
-9.306513
 30
0.0
 11
51.200046
 21
120.693487
 31
0.0
  0
LINE
  5
198
100
AcDbEntity
  8
1
370
    18
  6
CENTER
100
AcDbLine
 10
44.209789
 20
112.693487
 30
0.0
 11
73.282439
 21
112.693487
 31
0.0
  0
LINE
  5
199
100
AcDbEntity
  8
1
370
    18
  6
CENTER
100
AcDbLine
 10
44.209789
 20
-1.306513
 30
0.0
 11
73.282439
 21
-1.306513
 31
0.0
  0
LINE
  5
19A
100
AcDbEntity
  8
1
370
    50
100
AcDbLine
 10
51.200046
 20
117.343487
 30
0.0
 11
51.308251
 21
117.235282
 31
0.0
  0
LINE
  5
19B
100
AcDbEntity
  8
1
370
    50
100
AcDbLine
 10
51.200046
 20
-5.956513
 30
0.0
 11
51.308251
 21
-5.848308
 31
0.0
  0
LINE
  5
19C
100
AcDbEntity
  8
1
370
    50
100
AcDbLine
 10
50.000046
 20
68.293487
 30
0.0
 11
50.000046
 21
120.693487
 31
0.0
  0
LINE
  5
19D
100
AcDbEntity
  8
1
370
    50
100
AcDbLine
 10
50.000046
 20
-9.306513
 30
0.0
 11
50.000046
 21
45.093487
 31
0.0
  0
LINE
  5
19E
100
AcDbEntity
  8
1
370
    50
100
AcDbLine
 10
50.000046
 20
46.693487
 30
0.0
 11
50.000046
 21
66.693487
 31
0.0
  0
LINE
  5
19F
100
AcDbEntity
  8
1
370
    25
100
AcDbLine
 10
41.000059
 20
64.693487
 30
0.0
 11
49.500046
 21
64.693487
 31
0.0
  0
LINE
  5
1A0
100
AcDbEntity
  8
1
370
    25
100
AcDbLine
 10
41.000059
 20
48.693487
 30
0.0
 11
49.500046
 21
48.693487
 31
0.0
  0
LINE
  5
1A1
100
AcDbEntity
  8
1
370
    25
100
AcDbLine
 10
41.000059
 20
64.693487
 30
0.0
 11
39.500059
 21
64.979697
 31
0.0
  0
LINE
  5
1A2
100
AcDbEntity
  8
1
370
    25
100
AcDbLine
 10
41.000059
 20
48.693487
 30
0.0
 11
39.500059
 21
48.407277
 31
0.0
  0
LINE
  5
1A3
100
AcDbEntity
  8
1
370
    50
100
AcDbLine
 10
39.500059
 20
48.141936
 30
0.0
 11
39.500059
 21
52.293487
 31
0.0
  0
LINE
  5
1A4
100
AcDbEntity
  8
1
370
    25
100
AcDbLine
 10
41.000059
 20
48.693487
 30
0.0
 11
41.000059
 21
52.293487
 31
0.0
  0
LINE
  5
1A5
100
AcDbEntity
  8
1
370
    25
100
AcDbLine
 10
41.000059
 20
61.093487
 30
0.0
 11
41.000059
 21
64.693487
 31
0.0
  0
ARC
  5
1A6
100
AcDbEntity
  8
1
370
    50
100
AcDbCircle
 10
43.03486
 20
53.188741
 30
0.0
 40
6.495254
100
AcDbArc
 50
262.877226
 51
270.0
  0
ARC
  5
1A7
100
AcDbEntity
  8
1
370
    50
100
AcDbCircle
 10
42.850527
 20
51.713612
 30
0.0
 40
5.008652
100
AcDbArc
 50
254.144152
 51
262.877226
  0
ARC
  5
1A8
100
AcDbEntity
  8
1
370
    50
100
AcDbCircle
 10
42.748546
 20
51.354556
 30
0.0
 40
4.635394
100
AcDbArc
 50
244.981479
 51
254.144152
  0
ARC
  5
1A9
100
AcDbEntity
  8
1
370
    50
100
AcDbCircle
 10
42.546932
 20
50.922556
 30
0.0
 40
4.158664
100
AcDbArc
 50
234.704258
 51
244.981479
  0
ARC
  5
1AA
100
AcDbEntity
  8
1
370
    50
100
AcDbCircle
 10
42.738876
 20
51.193692
 30
0.0
 40
4.490864
100
AcDbArc
 50
224.728879
 51
234.704258
  0
ARC
  5
1AB
100
AcDbEntity
  8
1
370
    50
100
AcDbCircle
 10
39.667526
 20
48.151272
 30
0.0
 40
0.167727
100
AcDbArc
 50
183.190791
 51
224.728879
  0
LINE
  5
1AC
100
AcDbEntity
  8
1
370
    50
100
AcDbLine
 10
43.03486
 20
66.693487
 30
0.0
 11
49.500046
 21
66.693487
 31
0.0
  0
LINE
  5
1AD
100
AcDbEntity
  8
1
370
    50
100
AcDbLine
 10
39.500059
 20
65.245038
 30
0.0
 11
39.500059
 21
61.093487
 31
0.0
  0
ARC
  5
1AE
100
AcDbEntity
  8
1
370
    50
100
AcDbCircle
 10
43.03486
 20
60.198233
 30
0.0
 40
6.495254
100
AcDbArc
 50
90.0
 51
97.122774
  0
ARC
  5
1AF
100
AcDbEntity
  8
1
370
    50
100
AcDbCircle
 10
42.850527
 20
61.673362
 30
0.0
 40
5.008652
100
AcDbArc
 50
97.122774
 51
105.855848
  0
ARC
  5
1B0
100
AcDbEntity
  8
1
370
    50
100
AcDbCircle
 10
42.748546
 20
62.032419
 30
0.0
 40
4.635394
100
AcDbArc
 50
105.855848
 51
115.018521
  0
ARC
  5
1B1
100
AcDbEntity
  8
1
370
    50
100
AcDbCircle
 10
42.546932
 20
62.464418
 30
0.0
 40
4.158664
100
AcDbArc
 50
115.018521
 51
125.295742
  0
ARC
  5
1B2
100
AcDbEntity
  8
1
370
    50
100
AcDbCircle
 10
42.738876
 20
62.193282
 30
0.0
 40
4.490864
100
AcDbArc
 50
125.295742
 51
135.271121
  0
ARC
  5
1B3
100
AcDbEntity
  8
1
370
    50
100
AcDbCircle
 10
39.667526
 20
65.235702
 30
0.0
 40
0.167727
100
AcDbArc
 50
135.271121
 51
176.809209
  0
LINE
  5
1B4
100
AcDbEntity
  8
1
370
    50
100
AcDbLine
 10
43.03486
 20
46.693487
 30
0.0
 11
49.500046
 21
46.693487
 31
0.0
  0
LINE
  5
1B5
100
AcDbEntity
  8
1
370
    50
100
AcDbLine
 10
39.163983
 20
51.893487
 30
0.0
 11
39.163983
 21
61.493487
 31
0.0
  0
LINE
  5
1B6
100
AcDbEntity
  8
1
370
    50
100
AcDbLine
 10
39.163983
 20
52.293487
 30
0.0
 11
49.500046
 21
52.293487
 31
0.0
  0
LINE
  5
1B7
100
AcDbEntity
  8
1
370
    50
100
AcDbLine
 10
39.163983
 20
61.093487
 30
0.0
 11
49.500046
 21
61.093487
 31
0.0
  0
LINE
  5
1B8
100
AcDbEntity
  8
1
370
    50
100
AcDbLine
 10
39.163983
 20
61.493487
 30
0.0
 11
39.500059
 21
61.493487
 31
0.0
  0
LINE
  5
1B9
100
AcDbEntity
  8
1
370
    50
100
AcDbLine
 10
39.163983
 20
51.893487
 30
0.0
 11
39.500059
 21
51.893487
 31
0.0
  0
LINE
  5
1BA
100
AcDbEntity
  8
1
370
    50
100
AcDbLine
 10
49.500046
 20
68.093487
 30
0.0
 11
49.500046
 21
45.293487
 31
0.0
  0
LINE
  5
1BB
100
AcDbEntity
  8
1
370
    25
100
AcDbLine
 10
49.500046
 20
66.507387
 30
0.0
 11
50.000046
 21
66.507387
 31
0.0
  0
LINE
  5
1BC
100
AcDbEntity
  8
1
370
    25
100
AcDbLine
 10
49.500046
 20
67.049987
 30
0.0
 11
50.000046
 21
67.049987
 31
0.0
  0
LINE
  5
1BD
100
AcDbEntity
  8
1
370
    25
100
AcDbLine
 10
49.500046
 20
46.336987
 30
0.0
 11
50.000046
 21
46.336987
 31
0.0
  0
LINE
  5
1BE
100
AcDbEntity
  8
1
370
    25
100
AcDbLine
 10
49.500046
 20
46.879587
 30
0.0
 11
50.000046
 21
46.879587
 31
0.0
  0
LINE
  5
1BF
100
AcDbEntity
  8
1
370
    50
100
AcDbLine
 10
50.000046
 20
45.093487
 30
0.0
 11
50.000046
 21
46.879587
 31
0.0
  0
LINE
  5
1C0
100
AcDbEntity
  8
1
370
    50
100
AcDbLine
 10
50.000046
 20
66.507387
 30
0.0
 11
50.000046
 21
68.293487
 31
0.0
  0
LINE
  5
1C1
100
AcDbEntity
  8
1
370
    25
100
AcDbLine
 10
49.500046
 20
65.293887
 30
0.0
 11
50.000046
 21
65.293887
 31
0.0
  0
LINE
  5
1C2
100
AcDbEntity
  8
1
370
    25
100
AcDbLine
 10
49.500046
 20
48.093087
 30
0.0
 11
50.000046
 21
48.093087
 31
0.0
  0
LINE
  5
1C3
100
AcDbEntity
  8
1
370
    25
100
AcDbLine
 10
55.685446
 20
60.493158
 30
0.0
 11
57.300046
 21
60.493158
 31
0.0
  0
LINE
  5
1C4
100
AcDbEntity
  8
1
370
    25
100
AcDbLine
 10
55.685446
 20
52.893816
 30
0.0
 11
57.300046
 21
52.893816
 31
0.0
  0
LINE
  5
1C5
100
AcDbEntity
  8
1
370
    50
100
AcDbLine
 10
50.000046
 20
45.093487
 30
0.0
 11
49.700046
 21
45.093487
 31
0.0
  0
LINE
  5
1C6
100
AcDbEntity
  8
1
370
    50
100
AcDbLine
 10
50.000046
 20
68.293487
 30
0.0
 11
49.700046
 21
68.293487
 31
0.0
  0
ARC
  5
1C7
100
AcDbEntity
  8
1
370
    50
100
AcDbCircle
 10
49.700046
 20
68.093487
 30
0.0
 40
0.2
100
AcDbArc
 50
90.0
 51
180.0
  0
ARC
  5
1C8
100
AcDbEntity
  8
1
370
    50
100
AcDbCircle
 10
49.700046
 20
45.293487
 30
0.0
 40
0.2
100
AcDbArc
 50
180.0
 51
270.0
  0
LINE
  5
1C9
100
AcDbEntity
  8
1
370
    50
100
AcDbLine
 10
51.200046
 20
67.941874
 30
0.0
 11
52.900046
 21
67.914455
 31
0.0
  0
LINE
  5
1CA
100
AcDbEntity
  8
1
370
    50
100
AcDbLine
 10
54.100046
 20
67.8951
 30
0.0
 11
54.400046
 21
67.890261
 31
0.0
  0
LINE
  5
1CB
100
AcDbEntity
  8
1
370
    25
100
AcDbLine
 10
51.200046
 20
65.167087
 30
0.0
 11
52.900046
 21
65.167087
 31
0.0
  0
LINE
  5
1CC
100
AcDbEntity
  8
1
370
    25
100
AcDbLine
 10
54.100046
 20
65.167087
 30
0.0
 11
57.300046
 21
65.167087
 31
0.0
  0
LINE
  5
1CD
100
AcDbEntity
  8
1
370
    25
100
AcDbLine
 10
51.200046
 20
63.419556
 30
0.0
 11
52.900046
 21
63.419556
 31
0.0
  0
LINE
  5
1CE
100
AcDbEntity
  8
1
370
    25
100
AcDbLine
 10
54.100046
 20
63.419556
 30
0.0
 11
57.300046
 21
63.419556
 31
0.0
  0
LINE
  5
1CF
100
AcDbEntity
  8
1
370
    25
100
AcDbLine
 10
51.200046
 20
49.967418
 30
0.0
 11
52.900046
 21
49.967418
 31
0.0
  0
LINE
  5
1D0
100
AcDbEntity
  8
1
370
    25
100
AcDbLine
 10
54.100046
 20
49.967418
 30
0.0
 11
57.300046
 21
49.967418
 31
0.0
  0
LINE
  5
1D1
100
AcDbEntity
  8
1
370
    25
100
AcDbLine
 10
51.200046
 20
48.219887
 30
0.0
 11
52.900046
 21
48.219887
 31
0.0
  0
LINE
  5
1D2
100
AcDbEntity
  8
1
370
    25
100
AcDbLine
 10
54.100046
 20
48.219887
 30
0.0
 11
57.300046
 21
48.219887
 31
0.0
  0
LINE
  5
1D3
100
AcDbEntity
  8
1
370
    50
100
AcDbLine
 10
51.200046
 20
45.4451
 30
0.0
 11
52.900046
 21
45.472519
 31
0.0
  0
LINE
  5
1D4
100
AcDbEntity
  8
1
370
    50
100
AcDbLine
 10
54.100046
 20
45.491874
 30
0.0
 11
54.400046
 21
45.496713
 31
0.0
  0
ARC
  5
1D5
100
AcDbEntity
  8
1
370
    25
100
AcDbCircle
 10
58.835957
 20
56.693487
 30
0.0
 40
4.935912
100
AcDbArc
 50
129.663953
 51
163.633855
  0
ARC
  5
1D6
100
AcDbEntity
  8
1
370
    25
100
AcDbCircle
 10
58.835957
 20
56.693487
 30
0.0
 40
4.935912
100
AcDbArc
 50
196.366145
 51
230.336047
  0
LINE
  5
1D7
100
AcDbEntity
  8
1
370
    50
100
AcDbLine
 10
56.000046
 20
114.443487
 30
0.0
 11
54.000046
 21
114.443487
 31
0.0
  0
LINE
  5
1D8
100
AcDbEntity
  8
1
370
    50
100
AcDbLine
 10
54.000046
 20
110.943487
 30
0.0
 11
57.071842
 21
110.943487
 31
0.0
  0
LINE
  5
1D9
100
AcDbEntity
  8
1
370
    50
100
AcDbLine
 10
56.000046
 20
114.443487
 30
0.0
 11
57.071842
 21
110.943487
 31
0.0
  0
LINE
  5
1DA
100
AcDbEntity
  8
1
370
    50
100
AcDbLine
 10
56.13402
 20
113.943487
 30
0.0
 11
66.401969
 21
113.943487
 31
0.0
  0
LINE
  5
1DB
100
AcDbEntity
  8
1
370
    50
100
AcDbLine
 10
56.937868
 20
111.443487
 30
0.0
 11
66.401969
 21
111.443487
 31
0.0
  0
LINE
  5
1DC
100
AcDbEntity
  8
1
370
    50
100
AcDbLine
 10
72.000046
 20
112.693487
 30
0.0
 11
66.401969
 21
111.443487
 31
0.0
  0
LINE
  5
1DD
100
AcDbEntity
  8
1
370
    50
100
AcDbLine
 10
72.000046
 20
112.693487
 30
0.0
 11
66.401969
 21
113.943487
 31
0.0
  0
LINE
  5
1DE
100
AcDbEntity
  8
1
370
    50
100
AcDbLine
 10
56.000046
 20
114.443487
 30
0.0
 11
57.071842
 21
110.943487
 31
0.0
  0
LINE
  5
1DF
100
AcDbEntity
  8
1
370
    50
100
AcDbLine
 10
56.000046
 20
114.443487
 30
0.0
 11
57.071842
 21
110.943487
 31
0.0
  0
LINE
  5
1E0
100
AcDbEntity
  8
1
370
    50
100
AcDbLine
 10
56.000046
 20
114.443487
 30
0.0
 11
57.071842
 21
110.943487
 31
0.0
  0
LINE
  5
1E1
100
AcDbEntity
  8
1
370
    50
100
AcDbLine
 10
56.000046
 20
114.443487
 30
0.0
 11
57.071842
 21
110.943487
 31
0.0
  0
LINE
  5
1E2
100
AcDbEntity
  8
1
370
    50
100
AcDbLine
 10
56.000046
 20
114.443487
 30
0.0
 11
57.071842
 21
110.943487
 31
0.0
  0
LINE
  5
1E3
100
AcDbEntity
  8
1
370
    50
100
AcDbLine
 10
56.000046
 20
114.443487
 30
0.0
 11
57.071842
 21
110.943487
 31
0.0
  0
LINE
  5
1E4
100
AcDbEntity
  8
1
370
    25
100
AcDbLine
 10
60.000046
 20
114.443487
 30
0.0
 11
61.071842
 21
110.943487
 31
0.0
  0
LINE
  5
1E5
100
AcDbEntity
  8
1
370
    25
100
AcDbLine
 10
62.000046
 20
114.443487
 30
0.0
 11
63.071842
 21
110.943487
 31
0.0
  0
LINE
  5
1E6
100
AcDbEntity
  8
1
370
    25
100
AcDbLine
 10
64.000046
 20
114.443487
 30
0.0
 11
65.071842
 21
110.943487
 31
0.0
  0
LINE
  5
1E7
100
AcDbEntity
  8
1
370
    25
100
AcDbLine
 10
66.000046
 20
114.443487
 30
0.0
 11
67.031379
 21
111.094499
 31
0.0
  0
LINE
  5
1E8
100
AcDbEntity
  8
1
370
    25
100
AcDbLine
 10
68.118565
 20
114.001165
 30
0.0
 11
68.897404
 21
111.594499
 31
0.0
  0
LINE
  5
1E9
100
AcDbEntity
  8
1
370
    25
100
AcDbLine
 10
70.273266
 20
113.423814
 30
0.0
 11
70.76343
 21
112.094499
 31
0.0
  0
LINE
  5
1EA
100
AcDbEntity
  8
1
370
    25
100
AcDbLine
 10
58.000091
 20
114.443487
 30
0.0
 11
59.071888
 21
110.943487
 31
0.0
  0
LINE
  5
1EB
100
AcDbEntity
  8
1
370
    50
100
AcDbLine
 10
56.000046
 20
0.443487
 30
0.0
 11
54.000046
 21
0.443487
 31
0.0
  0
LINE
  5
1EC
100
AcDbEntity
  8
1
370
    50
100
AcDbLine
 10
54.000046
 20
-3.056513
 30
0.0
 11
57.071842
 21
-3.056513
 31
0.0
  0
LINE
  5
1ED
100
AcDbEntity
  8
1
370
    50
100
AcDbLine
 10
56.000046
 20
0.443487
 30
0.0
 11
57.071842
 21
-3.056513
 31
0.0
  0
LINE
  5
1EE
100
AcDbEntity
  8
1
370
    50
100
AcDbLine
 10
56.13402
 20
-0.056513
 30
0.0
 11
66.401969
 21
-0.056513
 31
0.0
  0
LINE
  5
1EF
100
AcDbEntity
  8
1
370
    50
100
AcDbLine
 10
56.937868
 20
-2.556513
 30
0.0
 11
66.401969
 21
-2.556513
 31
0.0
  0
LINE
  5
1F0
100
AcDbEntity
  8
1
370
    50
100
AcDbLine
 10
72.000046
 20
-1.306513
 30
0.0
 11
66.401969
 21
-2.556513
 31
0.0
  0
LINE
  5
1F1
100
AcDbEntity
  8
1
370
    50
100
AcDbLine
 10
72.000046
 20
-1.306513
 30
0.0
 11
66.401969
 21
-0.056513
 31
0.0
  0
LINE
  5
1F2
100
AcDbEntity
  8
1
370
    50
100
AcDbLine
 10
56.000046
 20
0.443487
 30
0.0
 11
57.071842
 21
-3.056513
 31
0.0
  0
LINE
  5
1F3
100
AcDbEntity
  8
1
370
    50
100
AcDbLine
 10
56.000046
 20
0.443487
 30
0.0
 11
57.071842
 21
-3.056513
 31
0.0
  0
LINE
  5
1F4
100
AcDbEntity
  8
1
370
    50
100
AcDbLine
 10
56.000046
 20
0.443487
 30
0.0
 11
57.071842
 21
-3.056513
 31
0.0
  0
LINE
  5
1F5
100
AcDbEntity
  8
1
370
    50
100
AcDbLine
 10
56.000046
 20
0.443487
 30
0.0
 11
57.071842
 21
-3.056513
 31
0.0
  0
LINE
  5
1F6
100
AcDbEntity
  8
1
370
    50
100
AcDbLine
 10
56.000046
 20
0.443487
 30
0.0
 11
57.071842
 21
-3.056513
 31
0.0
  0
LINE
  5
1F7
100
AcDbEntity
  8
1
370
    50
100
AcDbLine
 10
56.000046
 20
0.443487
 30
0.0
 11
57.071842
 21
-3.056513
 31
0.0
  0
LINE
  5
1F8
100
AcDbEntity
  8
1
370
    25
100
AcDbLine
 10
60.000046
 20
0.443487
 30
0.0
 11
61.071842
 21
-3.056513
 31
0.0
  0
LINE
  5
1F9
100
AcDbEntity
  8
1
370
    25
100
AcDbLine
 10
62.000046
 20
0.443487
 30
0.0
 11
63.071842
 21
-3.056513
 31
0.0
  0
LINE
  5
1FA
100
AcDbEntity
  8
1
370
    25
100
AcDbLine
 10
64.000046
 20
0.443487
 30
0.0
 11
65.071842
 21
-3.056513
 31
0.0
  0
LINE
  5
1FB
100
AcDbEntity
  8
1
370
    25
100
AcDbLine
 10
66.000046
 20
0.443487
 30
0.0
 11
67.031379
 21
-2.905501
 31
0.0
  0
LINE
  5
1FC
100
AcDbEntity
  8
1
370
    25
100
AcDbLine
 10
68.118565
 20
0.001165
 30
0.0
 11
68.897404
 21
-2.405501
 31
0.0
  0
LINE
  5
1FD
100
AcDbEntity
  8
1
370
    25
100
AcDbLine
 10
70.273266
 20
-0.576186
 30
0.0
 11
70.76343
 21
-1.905501
 31
0.0
  0
LINE
  5
1FE
100
AcDbEntity
  8
1
370
    25
100
AcDbLine
 10
58.000091
 20
0.443487
 30
0.0
 11
59.071888
 21
-3.056513
 31
0.0
  0
LINE
  5
1FF
100
AcDbEntity
  8
1
370
    50
100
AcDbLine
 10
-129.499998
 20
120.693487
 30
0.0
 11
-129.499998
 21
-9.306513
 31
0.0
  0
LINE
  5
200
100
AcDbEntity
  8
1
370
    50
100
AcDbLine
 10
-104.499998
 20
120.693487
 30
0.0
 11
-104.499998
 21
-9.306513
 31
0.0
  0
LINE
  5
201
100
AcDbEntity
  8
1
370
    50
100
AcDbLine
 10
-129.499998
 20
-9.306513
 30
0.0
 11
-104.499998
 21
-9.306513
 31
0.0
  0
LINE
  5
202
100
AcDbEntity
  8
1
370
    50
100
AcDbLine
 10
-129.499998
 20
120.693487
 30
0.0
 11
-104.499998
 21
120.693487
 31
0.0
  0
LINE
  5
203
100
AcDbEntity
  8
1
370
    18
  6
CENTER
100
AcDbLine
 10
-124.608084
 20
112.693487
 30
0.0
 11
-109.494711
 21
112.693487
 31
0.0
  0
LINE
  5
204
100
AcDbEntity
  8
1
370
    18
  6
CENTER
100
AcDbLine
 10
-133.479475
 20
56.693487
 30
0.0
 11
-97.942366
 21
56.693487
 31
0.0
  0
LINE
  5
205
100
AcDbEntity
  8
1
370
    18
  6
CENTER
100
AcDbLine
 10
-124.608084
 20
-1.306513
 30
0.0
 11
-109.494711
 21
-1.306513
 31
0.0
  0
LINE
  5
206
100
AcDbEntity
  8
1
370
    50
100
AcDbLine
 10
-124.399998
 20
48.021694
 30
0.0
 11
-124.399998
 21
65.36528
 31
0.0
  0
LINE
  5
207
100
AcDbEntity
  8
1
370
    50
100
AcDbLine
 10
-109.599998
 20
48.021694
 30
0.0
 11
-109.599998
 21
65.36528
 31
0.0
  0
ARC
  5
208
100
AcDbEntity
  8
1
370
    50
100
AcDbCircle
 10
-116.999998
 20
56.693487
 30
0.0
 40
11.4
100
AcDbArc
 50
49.524502
 51
61.18994
  0
ARC
  5
209
100
AcDbEntity
  8
1
370
    50
100
AcDbCircle
 10
-116.999998
 20
56.693487
 30
0.0
 40
11.4
100
AcDbArc
 50
118.81006
 51
130.475498
  0
ARC
  5
20A
100
AcDbEntity
  8
1
370
    50
100
AcDbCircle
 10
-116.999998
 20
56.693487
 30
0.0
 40
11.4
100
AcDbArc
 50
229.524502
 51
241.18994
  0
ARC
  5
20B
100
AcDbEntity
  8
1
370
    50
100
AcDbCircle
 10
-116.999998
 20
56.693487
 30
0.0
 40
11.4
100
AcDbArc
 50
298.81006
 51
310.475498
  0
LINE
  5
20C
100
AcDbEntity
  8
1
370
    25
100
AcDbLine
 10
-122.649998
 20
91.393487
 30
0.0
 11
-121.699998
 21
91.393487
 31
0.0
  0
LINE
  5
20D
100
AcDbEntity
  8
1
370
    25
100
AcDbLine
 10
-118.56229
 20
89.943487
 30
0.0
 11
-118.56229
 21
92.943487
 31
0.0
  0
LINE
  5
20E
100
AcDbEntity
  8
1
370
    25
100
AcDbLine
 10
-115.15129
 20
89.943487
 30
0.0
 11
-115.15129
 21
92.943487
 31
0.0
  0
LINE
  5
20F
100
AcDbEntity
  8
1
370
    25
100
AcDbLine
 10
-115.15129
 20
91.493487
 30
0.0
 11
-114.00129
 21
91.493487
 31
0.0
  0
LINE
  5
210
100
AcDbEntity
  8
1
370
    25
100
AcDbLine
 10
-111.949998
 20
92.943487
 30
0.0
 11
-111.949998
 21
89.943487
 31
0.0
  0
LINE
  5
211
100
AcDbEntity
  8
1
370
    25
100
AcDbLine
 10
-109.849998
 20
92.943487
 30
0.0
 11
-109.849998
 21
89.943487
 31
0.0
  0
LINE
  5
212
100
AcDbEntity
  8
1
370
    25
100
AcDbLine
 10
-120.22329
 20
92.943487
 30
0.0
 11
-120.22329
 21
89.943487
 31
0.0
  0
ARC
  5
213
100
AcDbEntity
  8
1
370
    25
100
AcDbCircle
 10
-122.999998
 20
91.443487
 30
0.0
 40
1.5
100
AcDbArc
 50
90.0
 51
270.0
  0
ARC
  5
214
100
AcDbEntity
  8
1
370
    25
100
AcDbCircle
 10
-122.999998
 20
92.943487
 30
0.0
 40
3.0
100
AcDbArc
 50
270.0
 51
295.679289
  0
LINE
  5
215
100
AcDbEntity
  8
1
370
    25
100
AcDbLine
 10
-121.699998
 20
90.239786
 30
0.0
 11
-121.699998
 21
91.393487
 31
0.0
  0
LINE
  5
216
100
AcDbEntity
  8
1
370
    25
100
AcDbLine
 10
-117.996216
 20
91.652374
 30
0.0
 11
-116.56229
 21
89.943487
 31
0.0
  0
LINE
  5
217
100
AcDbEntity
  8
1
370
    25
100
AcDbLine
 10
-116.56229
 20
92.943487
 30
0.0
 11
-118.56229
 21
91.142679
 31
0.0
  0
LINE
  5
218
100
AcDbEntity
  8
1
370
    25
100
AcDbLine
 10
-115.15129
 20
92.943487
 30
0.0
 11
-113.15129
 21
92.943487
 31
0.0
  0
LINE
  5
219
100
AcDbEntity
  8
1
370
    25
100
AcDbLine
 10
-122.999998
 20
92.943487
 30
0.0
 11
-121.799998
 21
92.943487
 31
0.0
  0
LINE
  5
21A
100
AcDbEntity
  8
1
370
    25
100
AcDbLine
 10
-115.15129
 20
89.943487
 30
0.0
 11
-113.15129
 21
89.943487
 31
0.0
  0
LINE
  5
21B
100
AcDbEntity
  8
1
370
    25
100
AcDbLine
 10
-111.949998
 20
92.943487
 30
0.0
 11
-109.849998
 21
89.943487
 31
0.0
  0
LINE
  5
21C
100
AcDbEntity
  8
1
370
    25
100
AcDbLine
 10
-121.060998
 20
76.443487
 30
0.0
 11
-118.810998
 21
76.443487
 31
0.0
  0
ARC
  5
21D
100
AcDbEntity
  8
1
370
    25
100
AcDbCircle
 10
-113.698707
 20
77.593487
 30
0.0
 40
1.85
100
AcDbArc
 50
53.516263
 51
90.0
  0
LINE
  5
21E
100
AcDbEntity
  8
1
370
    25
100
AcDbLine
 10
-113.698707
 20
79.443487
 30
0.0
 11
-114.082475
 21
79.443487
 31
0.0
  0
ARC
  5
21F
100
AcDbEntity
  8
1
370
    25
100
AcDbCircle
 10
-114.082475
 20
78.727255
 30
0.0
 40
0.716232
100
AcDbArc
 50
90.0
 51
261.246106
  0
ARC
  5
220
100
AcDbEntity
  8
1
370
    25
100
AcDbCircle
 10
-113.314939
 20
77.159719
 30
0.0
 40
0.716232
100
AcDbArc
 50
270.0
 51
81.246106
  0
LINE
  5
221
100
AcDbEntity
  8
1
370
    25
100
AcDbLine
 10
-114.191478
 20
78.019366
 30
0.0
 11
-113.205935
 21
77.867608
 31
0.0
  0
LINE
  5
222
100
AcDbEntity
  8
1
370
    25
100
AcDbLine
 10
-113.698707
 20
76.443487
 30
0.0
 11
-113.314939
 21
76.443487
 31
0.0
  0
ARC
  5
223
100
AcDbEntity
  8
1
370
    25
100
AcDbCircle
 10
-113.698707
 20
78.293487
 30
0.0
 40
1.85
100
AcDbArc
 50
233.516263
 51
270.0
  0
LINE
  5
224
100
AcDbEntity
  8
1
370
    25
100
AcDbLine
 10
-121.060998
 20
79.443487
 30
0.0
 11
-121.060998
 21
76.443487
 31
0.0
  0
LINE
  5
225
100
AcDbEntity
  8
1
370
    25
100
AcDbLine
 10
-116.999998
 20
76.443487
 30
0.0
 11
-115.899998
 21
79.443487
 31
0.0
  0
LINE
  5
226
100
AcDbEntity
  8
1
370
    25
100
AcDbLine
 10
-116.999998
 20
76.443487
 30
0.0
 11
-118.099998
 21
79.443487
 31
0.0
  0
ARC
  5
227
100
AcDbEntity
  8
1
370
    50
100
AcDbCircle
 10
-116.999977
 20
56.693483
 30
0.0
 40
10.0
100
AcDbArc
 50
56.251011
 51
123.748989
  0
ARC
  5
228
100
AcDbEntity
  8
1
370
    50
100
AcDbCircle
 10
-116.999977
 20
56.693483
 30
0.0
 40
10.0
100
AcDbArc
 50
236.251011
 51
303.748989
  0
LINE
  5
229
100
AcDbEntity
  8
1
370
    25
100
AcDbLine
 10
-111.401877
 20
64.693483
 30
0.0
 11
-111.401877
 21
61.152772
 31
0.0
  0
LINE
  5
22A
100
AcDbEntity
  8
1
370
    25
100
AcDbLine
 10
-111.401877
 20
52.234203
 30
0.0
 11
-111.401877
 21
48.693483
 31
0.0
  0
ARC
  5
22B
100
AcDbEntity
  8
1
370
    50
100
AcDbCircle
 10
-111.999977
 20
64.176798
 30
0.0
 40
1.0
100
AcDbArc
 50
0.0
 51
56.251011
  0
ARC
  5
22C
100
AcDbEntity
  8
1
370
    50
100
AcDbCircle
 10
-121.999977
 20
64.176798
 30
0.0
 40
1.0
100
AcDbArc
 50
123.748989
 51
180.0
  0
ARC
  5
22D
100
AcDbEntity
  8
1
370
    50
100
AcDbCircle
 10
-111.999977
 20
49.210168
 30
0.0
 40
1.0
100
AcDbArc
 50
303.748989
 51
360.0
  0
ARC
  5
22E
100
AcDbEntity
  8
1
370
    50
100
AcDbCircle
 10
-121.999977
 20
49.210168
 30
0.0
 40
1.0
100
AcDbArc
 50
180.0
 51
236.251011
  0
LINE
  5
22F
100
AcDbEntity
  8
1
370
    50
100
AcDbLine
 10
-122.999977
 20
61.058217
 30
0.0
 11
-122.999977
 21
64.176798
 31
0.0
  0
LINE
  5
230
100
AcDbEntity
  8
1
370
    50
100
AcDbLine
 10
-122.999977
 20
49.210168
 30
0.0
 11
-122.999977
 21
52.328757
 31
0.0
  0
LINE
  5
231
100
AcDbEntity
  8
1
370
    50
100
AcDbLine
 10
-110.999977
 20
61.058207
 30
0.0
 11
-110.999977
 21
64.176798
 31
0.0
  0
LINE
  5
232
100
AcDbEntity
  8
1
370
    50
100
AcDbLine
 10
-110.999977
 20
49.210168
 30
0.0
 11
-110.999977
 21
52.328767
 31
0.0
  0
LINE
  5
233
100
AcDbEntity
  8
1
370
    50
100
AcDbLine
 10
-112.849998
 20
61.093506
 30
0.0
 11
-116.999998
 21
61.093506
 31
0.0
  0
LINE
  5
234
100
AcDbEntity
  8
1
370
    50
100
AcDbLine
 10
-112.849998
 20
52.293468
 30
0.0
 11
-116.999998
 21
52.293468
 31
0.0
  0
LINE
  5
235
100
AcDbEntity
  8
1
370
    50
100
AcDbLine
 10
-110.999977
 20
61.058207
 30
0.0
 11
-112.60419
 21
61.435669
 31
0.0
  0
LINE
  5
236
100
AcDbEntity
  8
1
370
    50
100
AcDbLine
 10
-112.849998
 20
61.240985
 30
0.0
 11
-112.849998
 21
61.093506
 31
0.0
  0
ARC
  5
237
100
AcDbEntity
  8
1
370
    50
100
AcDbCircle
 10
-112.649998
 20
61.240985
 30
0.0
 40
0.2
100
AcDbArc
 50
76.75948
 51
180.0
  0
LINE
  5
238
100
AcDbEntity
  8
1
370
    50
100
AcDbLine
 10
-110.999977
 20
52.328767
 30
0.0
 11
-112.60419
 21
51.951305
 31
0.0
  0
LINE
  5
239
100
AcDbEntity
  8
1
370
    50
100
AcDbLine
 10
-112.849998
 20
52.145989
 30
0.0
 11
-112.849998
 21
52.293468
 31
0.0
  0
ARC
  5
23A
100
AcDbEntity
  8
1
370
    50
100
AcDbCircle
 10
-112.649998
 20
52.145989
 30
0.0
 40
0.2
100
AcDbArc
 50
180.0
 51
283.24052
  0
LINE
  5
23B
100
AcDbEntity
  8
1
370
    50
100
AcDbLine
 10
-121.149998
 20
61.093506
 30
0.0
 11
-116.999998
 21
61.093506
 31
0.0
  0
LINE
  5
23C
100
AcDbEntity
  8
1
370
    50
100
AcDbLine
 10
-121.149998
 20
52.293468
 30
0.0
 11
-116.999998
 21
52.293468
 31
0.0
  0
LINE
  5
23D
100
AcDbEntity
  8
1
370
    50
100
AcDbLine
 10
-122.999977
 20
61.058217
 30
0.0
 11
-121.395806
 21
61.435669
 31
0.0
  0
LINE
  5
23E
100
AcDbEntity
  8
1
370
    50
100
AcDbLine
 10
-121.149998
 20
61.240985
 30
0.0
 11
-121.149998
 21
61.093506
 31
0.0
  0
ARC
  5
23F
100
AcDbEntity
  8
1
370
    50
100
AcDbCircle
 10
-121.349998
 20
61.240985
 30
0.0
 40
0.2
100
AcDbArc
 50
0.0
 51
103.24052
  0
LINE
  5
240
100
AcDbEntity
  8
1
370
    50
100
AcDbLine
 10
-122.999977
 20
52.328757
 30
0.0
 11
-121.395806
 21
51.951305
 31
0.0
  0
LINE
  5
241
100
AcDbEntity
  8
1
370
    50
100
AcDbLine
 10
-121.149998
 20
52.145989
 30
0.0
 11
-121.149998
 21
52.293468
 31
0.0
  0
ARC
  5
242
100
AcDbEntity
  8
1
370
    50
100
AcDbCircle
 10
-121.349998
 20
52.145989
 30
0.0
 40
0.2
100
AcDbArc
 50
256.75948
 51
360.0
  0
LINE
  5
243
100
AcDbEntity
  8
1
370
    50
100
AcDbLine
 10
-122.999977
 20
61.058217
 30
0.0
 11
-122.999977
 21
52.328757
 31
0.0
  0
LINE
  5
244
100
AcDbEntity
  8
1
370
    50
100
AcDbLine
 10
-110.999977
 20
61.058217
 30
0.0
 11
-110.999977
 21
52.328757
 31
0.0
  0
ARC
  5
245
100
AcDbEntity
  8
1
370
    50
100
AcDbCircle
 10
-116.999998
 20
56.693487
 30
0.0
 40
11.6
100
AcDbArc
 50
243.227412
 51
296.772588
  0
ARC
  5
246
100
AcDbEntity
  8
1
370
    50
100
AcDbCircle
 10
-116.999998
 20
56.693487
 30
0.0
 40
11.6
100
AcDbArc
 50
63.227412
 51
116.772588
  0
LINE
  5
247
100
AcDbEntity
  8
1
370
    50
100
AcDbLine
 10
-122.499998
 20
46.783391
 30
0.0
 11
-122.499998
 21
46.879594
 31
0.0
  0
LINE
  5
248
100
AcDbEntity
  8
1
370
    50
100
AcDbLine
 10
-122.499998
 20
66.50738
 30
0.0
 11
-122.499998
 21
66.603583
 31
0.0
  0
LINE
  5
249
100
AcDbEntity
  8
1
370
    50
100
AcDbLine
 10
-111.499998
 20
46.783391
 30
0.0
 11
-111.499998
 21
46.879594
 31
0.0
  0
LINE
  5
24A
100
AcDbEntity
  8
1
370
    50
100
AcDbLine
 10
-111.499998
 20
66.50738
 30
0.0
 11
-111.499998
 21
66.603583
 31
0.0
  0
ARC
  5
24B
100
AcDbEntity
  8
1
370
    50
100
AcDbCircle
 10
-116.999998
 20
56.693487
 30
0.0
 40
10.15
100
AcDbArc
 50
233.273926
 51
306.726074
  0
ARC
  5
24C
100
AcDbEntity
  8
1
370
    50
100
AcDbCircle
 10
-116.999998
 20
56.693487
 30
0.0
 40
10.15
100
AcDbArc
 50
53.273926
 51
126.726074
  0
LINE
  5
24D
100
AcDbEntity
  8
1
370
    50
100
AcDbLine
 10
-109.749998
 20
48.326887
 30
0.0
 11
-109.749998
 21
65.060087
 31
0.0
  0
LINE
  5
24E
100
AcDbEntity
  8
1
370
    50
100
AcDbLine
 10
-110.849998
 20
48.718526
 30
0.0
 11
-110.849998
 21
64.668448
 31
0.0
  0
ARC
  5
24F
100
AcDbEntity
  8
1
370
    50
100
AcDbCircle
 10
-116.999998
 20
56.693487
 30
0.0
 40
11.25
100
AcDbArc
 50
119.267578
 51
129.93069
  0
ARC
  5
250
100
AcDbEntity
  8
1
370
    50
100
AcDbCircle
 10
-116.999998
 20
56.693487
 30
0.0
 40
11.25
100
AcDbArc
 50
50.06931
 51
60.732422
  0
ARC
  5
251
100
AcDbEntity
  8
1
370
    50
100
AcDbCircle
 10
-116.999998
 20
56.693487
 30
0.0
 40
11.25
100
AcDbArc
 50
230.06931
 51
240.732422
  0
ARC
  5
252
100
AcDbEntity
  8
1
370
    50
100
AcDbCircle
 10
-116.999998
 20
56.693487
 30
0.0
 40
11.25
100
AcDbArc
 50
299.267578
 51
309.93069
  0
ARC
  5
253
100
AcDbEntity
  8
1
370
    50
100
AcDbCircle
 10
-122.949998
 20
64.668448
 30
0.0
 40
0.2
100
AcDbArc
 50
126.726074
 51
180.0
  0
ARC
  5
254
100
AcDbEntity
  8
1
370
    50
100
AcDbCircle
 10
-111.049998
 20
64.668448
 30
0.0
 40
0.2
100
AcDbArc
 50
0.0
 51
53.273926
  0
ARC
  5
255
100
AcDbEntity
  8
1
370
    50
100
AcDbCircle
 10
-111.049998
 20
48.718526
 30
0.0
 40
0.2
100
AcDbArc
 50
306.726074
 51
360.0
  0
ARC
  5
256
100
AcDbEntity
  8
1
370
    50
100
AcDbCircle
 10
-122.949998
 20
48.718526
 30
0.0
 40
0.2
100
AcDbArc
 50
180.0
 51
233.273926
  0
ARC
  5
257
100
AcDbEntity
  8
1
370
    50
100
AcDbCircle
 10
-110.099998
 20
48.450156
 30
0.0
 40
0.5
100
AcDbArc
 50
309.93069
 51
360.0
  0
ARC
  5
258
100
AcDbEntity
  8
1
370
    50
100
AcDbCircle
 10
-110.249998
 20
48.326887
 30
0.0
 40
0.5
100
AcDbArc
 50
308.895871
 51
360.0
  0
ARC
  5
259
100
AcDbEntity
  8
1
370
    50
100
AcDbCircle
 10
-110.099998
 20
64.936818
 30
0.0
 40
0.5
100
AcDbArc
 50
0.0
 51
50.06931
  0
ARC
  5
25A
100
AcDbEntity
  8
1
370
    50
100
AcDbCircle
 10
-123.899998
 20
64.936818
 30
0.0
 40
0.5
100
AcDbArc
 50
129.93069
 51
180.0
  0
ARC
  5
25B
100
AcDbEntity
  8
1
370
    50
100
AcDbCircle
 10
-123.899998
 20
48.450156
 30
0.0
 40
0.5
100
AcDbArc
 50
180.0
 51
230.06931
  0
ARC
  5
25C
100
AcDbEntity
  8
1
370
    50
100
AcDbCircle
 10
-123.749998
 20
48.326887
 30
0.0
 40
0.5
100
AcDbArc
 50
180.0
 51
231.104129
  0
ARC
  5
25D
100
AcDbEntity
  8
1
370
    50
100
AcDbCircle
 10
-123.749998
 20
65.060087
 30
0.0
 40
0.5
100
AcDbArc
 50
128.895871
 51
180.0
  0
ARC
  5
25E
100
AcDbEntity
  8
1
370
    50
100
AcDbCircle
 10
-110.249998
 20
65.060087
 30
0.0
 40
0.5
100
AcDbArc
 50
0.0
 51
51.104129
  0
ARC
  5
25F
100
AcDbEntity
  8
1
370
    50
100
AcDbCircle
 10
-111.999998
 20
66.603583
 30
0.0
 40
0.5
100
AcDbArc
 50
0.0
 51
63.227412
  0
ARC
  5
260
100
AcDbEntity
  8
1
370
    50
100
AcDbCircle
 10
-121.999998
 20
66.603583
 30
0.0
 40
0.5
100
AcDbArc
 50
116.772588
 51
180.0
  0
ARC
  5
261
100
AcDbEntity
  8
1
370
    50
100
AcDbCircle
 10
-121.999998
 20
46.783391
 30
0.0
 40
0.5
100
AcDbArc
 50
180.0
 51
243.227412
  0
ARC
  5
262
100
AcDbEntity
  8
1
370
    50
100
AcDbCircle
 10
-111.999998
 20
46.783391
 30
0.0
 40
0.5
100
AcDbArc
 50
296.772588
 51
360.0
  0
LINE
  5
263
100
AcDbEntity
  8
1
370
    50
100
AcDbLine
 10
-123.149998
 20
48.718526
 30
0.0
 11
-123.149998
 21
64.668448
 31
0.0
  0
LINE
  5
264
100
AcDbEntity
  8
1
370
    50
100
AcDbLine
 10
-124.249998
 20
48.326887
 30
0.0
 11
-124.249998
 21
65.060087
 31
0.0
  0
LINE
  5
265
100
AcDbEntity
  8
1
370
    25
100
AcDbLine
 10
-116.999975
 20
114.893452
 30
0.0
 11
-116.499975
 21
114.893452
 31
0.0
  0
ARC
  5
266
100
AcDbEntity
  8
1
370
    25
100
AcDbCircle
 10
-114.799975
 20
114.893452
 30
0.0
 40
1.7
100
AcDbArc
 50
180.0
 51
270.0
  0
LINE
  5
267
100
AcDbEntity
  8
1
370
    25
100
AcDbLine
 10
-114.799975
 20
113.193452
 30
0.0
 11
-114.799975
 21
112.693452
 31
0.0
  0
LINE
  5
268
100
AcDbEntity
  8
1
370
    25
100
AcDbLine
 10
-116.999975
 20
110.493452
 30
0.0
 11
-116.499975
 21
110.493452
 31
0.0
  0
ARC
  5
269
100
AcDbEntity
  8
1
370
    25
100
AcDbCircle
 10
-114.799975
 20
110.493452
 30
0.0
 40
1.7
100
AcDbArc
 50
90.0
 51
180.0
  0
LINE
  5
26A
100
AcDbEntity
  8
1
370
    25
100
AcDbLine
 10
-114.799975
 20
112.193452
 30
0.0
 11
-114.799975
 21
112.693452
 31
0.0
  0
LINE
  5
26B
100
AcDbEntity
  8
1
370
    25
100
AcDbLine
 10
-116.999975
 20
114.893452
 30
0.0
 11
-117.499975
 21
114.893452
 31
0.0
  0
ARC
  5
26C
100
AcDbEntity
  8
1
370
    25
100
AcDbCircle
 10
-119.199975
 20
114.893452
 30
0.0
 40
1.7
100
AcDbArc
 50
270.0
 51
360.0
  0
LINE
  5
26D
100
AcDbEntity
  8
1
370
    25
100
AcDbLine
 10
-119.199975
 20
113.193452
 30
0.0
 11
-119.199975
 21
112.693452
 31
0.0
  0
LINE
  5
26E
100
AcDbEntity
  8
1
370
    25
100
AcDbLine
 10
-116.999975
 20
110.493452
 30
0.0
 11
-117.499975
 21
110.493452
 31
0.0
  0
ARC
  5
26F
100
AcDbEntity
  8
1
370
    25
100
AcDbCircle
 10
-119.199975
 20
110.493452
 30
0.0
 40
1.7
100
AcDbArc
 50
0.0
 51
90.0
  0
LINE
  5
270
100
AcDbEntity
  8
1
370
    25
100
AcDbLine
 10
-119.199975
 20
112.193452
 30
0.0
 11
-119.199975
 21
112.693452
 31
0.0
  0
LINE
  5
271
100
AcDbEntity
  8
1
370
    25
100
AcDbLine
 10
-116.999975
 20
0.893452
 30
0.0
 11
-116.499975
 21
0.893452
 31
0.0
  0
ARC
  5
272
100
AcDbEntity
  8
1
370
    25
100
AcDbCircle
 10
-114.799975
 20
0.893452
 30
0.0
 40
1.7
100
AcDbArc
 50
180.0
 51
270.0
  0
LINE
  5
273
100
AcDbEntity
  8
1
370
    25
100
AcDbLine
 10
-114.799975
 20
-0.806548
 30
0.0
 11
-114.799975
 21
-1.306548
 31
0.0
  0
LINE
  5
274
100
AcDbEntity
  8
1
370
    25
100
AcDbLine
 10
-116.999975
 20
-3.506548
 30
0.0
 11
-116.499975
 21
-3.506548
 31
0.0
  0
ARC
  5
275
100
AcDbEntity
  8
1
370
    25
100
AcDbCircle
 10
-114.799975
 20
-3.506548
 30
0.0
 40
1.7
100
AcDbArc
 50
90.0
 51
180.0
  0
LINE
  5
276
100
AcDbEntity
  8
1
370
    25
100
AcDbLine
 10
-114.799975
 20
-1.806548
 30
0.0
 11
-114.799975
 21
-1.306548
 31
0.0
  0
LINE
  5
277
100
AcDbEntity
  8
1
370
    25
100
AcDbLine
 10
-116.999975
 20
0.893452
 30
0.0
 11
-117.499975
 21
0.893452
 31
0.0
  0
ARC
  5
278
100
AcDbEntity
  8
1
370
    25
100
AcDbCircle
 10
-119.199975
 20
0.893452
 30
0.0
 40
1.7
100
AcDbArc
 50
270.0
 51
360.0
  0
LINE
  5
279
100
AcDbEntity
  8
1
370
    25
100
AcDbLine
 10
-119.199975
 20
-0.806548
 30
0.0
 11
-119.199975
 21
-1.306548
 31
0.0
  0
LINE
  5
27A
100
AcDbEntity
  8
1
370
    25
100
AcDbLine
 10
-116.999975
 20
-3.506548
 30
0.0
 11
-117.499975
 21
-3.506548
 31
0.0
  0
ARC
  5
27B
100
AcDbEntity
  8
1
370
    25
100
AcDbCircle
 10
-119.199975
 20
-3.506548
 30
0.0
 40
1.7
100
AcDbArc
 50
0.0
 51
90.0
  0
LINE
  5
27C
100
AcDbEntity
  8
1
370
    25
100
AcDbLine
 10
-119.199975
 20
-1.806548
 30
0.0
 11
-119.199975
 21
-1.306548
 31
0.0
  0
CIRCLE
  5
27D
100
AcDbEntity
  8
1
370
    50
100
AcDbCircle
 10
-116.999998
 20
112.693487
 30
0.0
 40
3.5
  0
CIRCLE
  5
27E
100
AcDbEntity
  8
1
370
    50
100
AcDbCircle
 10
-116.999998
 20
-1.306513
 30
0.0
 40
3.5
  0
LINE
  5
27F
100
AcDbEntity
  8
1
370
    25
  6
CENTER
100
AcDbLine
 10
-116.999998
 20
131.402022
 30
0.0
 11
-116.999998
 21
-15.211385
 31
0.0
  0
LINE
  5
280
100
AcDbEntity
  8
1
370
    50
100
AcDbLine
 10
280.588214
 20
196.695381
 30
0.0
 11
280.588214
 21
190.195381
 31
0.0
  0
ARC
  5
281
100
AcDbEntity
  8
1
370
    50
100
AcDbCircle
 10
289.888214
 20
204.245381
 30
0.0
 40
3.0
100
AcDbArc
 50
115.841933
 51
180.0
  0
LINE
  5
282
100
AcDbEntity
  8
1
370
    50
100
AcDbLine
 10
286.888214
 20
196.995381
 30
0.0
 11
280.888214
 21
196.995381
 31
0.0
  0
LINE
  5
283
100
AcDbEntity
  8
1
370
    50
100
AcDbLine
 10
286.888214
 20
204.245381
 30
0.0
 11
286.888214
 21
182.645381
 31
0.0
  0
ARC
  5
284
100
AcDbEntity
  8
1
370
    50
100
AcDbCircle
 10
280.888214
 20
196.695381
 30
0.0
 40
0.3
100
AcDbArc
 50
90.0
 51
180.0
  0
LINE
  5
285
100
AcDbEntity
  8
1
370
    50
100
AcDbLine
 10
284.588214
 20
196.995381
 30
0.0
 11
284.588214
 21
201.445381
 31
0.0
  0
LINE
  5
286
100
AcDbEntity
  8
1
370
    50
100
AcDbLine
 10
285.588214
 20
196.995381
 30
0.0
 11
285.588214
 21
201.445381
 31
0.0
  0
LINE
  5
287
100
AcDbEntity
  8
1
370
    50
100
AcDbLine
 10
283.588214
 20
196.995381
 30
0.0
 11
283.588214
 21
203.445381
 31
0.0
  0
ARC
  5
288
100
AcDbEntity
  8
1
370
    50
100
AcDbCircle
 10
289.888214
 20
182.645381
 30
0.0
 40
3.0
100
AcDbArc
 50
180.0
 51
244.158067
  0
LINE
  5
289
100
AcDbEntity
  8
1
370
    50
100
AcDbLine
 10
286.888214
 20
189.895381
 30
0.0
 11
280.888214
 21
189.895381
 31
0.0
  0
ARC
  5
28A
100
AcDbEntity
  8
1
370
    50
100
AcDbCircle
 10
280.888214
 20
190.195381
 30
0.0
 40
0.3
100
AcDbArc
 50
180.0
 51
270.0
  0
LINE
  5
28B
100
AcDbEntity
  8
1
370
    50
100
AcDbLine
 10
284.588214
 20
189.895381
 30
0.0
 11
284.588214
 21
185.445381
 31
0.0
  0
LINE
  5
28C
100
AcDbEntity
  8
1
370
    50
100
AcDbLine
 10
285.588214
 20
189.895381
 30
0.0
 11
285.588214
 21
185.445381
 31
0.0
  0
LINE
  5
28D
100
AcDbEntity
  8
1
370
    50
100
AcDbLine
 10
283.588214
 20
189.895381
 30
0.0
 11
283.588214
 21
183.445381
 31
0.0
  0
LINE
  5
28E
100
AcDbEntity
  8
1
370
    50
100
AcDbLine
 10
303.188214
 20
121.022353
 30
0.0
 11
303.007681
 21
115.852554
 31
0.0
  0
ARC
  5
28F
100
AcDbEntity
  8
1
370
    50
100
AcDbCircle
 10
301.008899
 20
115.922353
 30
0.0
 40
2.0
100
AcDbArc
 50
270.0
 51
358.0
  0
LINE
  5
290
100
AcDbEntity
  8
1
370
    50
100
AcDbLine
 10
285.088214
 20
121.022353
 30
0.0
 11
285.268747
 21
115.852554
 31
0.0
  0
ARC
  5
291
100
AcDbEntity
  8
1
370
    50
100
AcDbCircle
 10
287.267529
 20
115.922353
 30
0.0
 40
2.0
100
AcDbArc
 50
182.0
 51
270.0
  0
LINE
  5
292
100
AcDbEntity
  8
1
370
    50
100
AcDbLine
 10
287.267529
 20
113.922353
 30
0.0
 11
292.638214
 21
113.922353
 31
0.0
  0
LINE
  5
293
100
AcDbEntity
  8
1
370
    50
100
AcDbLine
 10
295.138214
 20
113.922353
 30
0.0
 11
301.008899
 21
113.922353
 31
0.0
  0
LINE
  5
294
100
AcDbEntity
  8
1
370
    50
100
AcDbLine
 10
351.986907
 20
190.104114
 30
0.0
 11
351.986907
 21
196.786645
 31
0.0
  0
LINE
  5
295
100
AcDbEntity
  8
1
370
    50
100
AcDbLine
 10
362.186907
 20
180.524695
 30
0.0
 11
362.186907
 21
206.366065
 31
0.0
  0
LINE
  5
296
100
AcDbEntity
  8
1
370
    50
100
AcDbLine
 10
352.186907
 20
189.904107
 30
0.0
 11
352.185162
 21
189.904122
 31
0.0
  0
ARC
  5
297
100
AcDbEntity
  8
1
370
    50
100
AcDbCircle
 10
352.186907
 20
190.104114
 30
0.0
 40
0.2
100
AcDbArc
 50
180.0
 51
269.5
  0
LINE
  5
298
100
AcDbEntity
  8
1
370
    50
100
AcDbLine
 10
355.086907
 20
178.34538
 30
0.0
 11
360.256706
 21
178.525913
 31
0.0
  0
ARC
  5
299
100
AcDbEntity
  8
1
370
    50
100
AcDbCircle
 10
360.186907
 20
180.524695
 30
0.0
 40
2.0
100
AcDbArc
 50
272.0
 51
0.0
  0
LINE
  5
29A
100
AcDbEntity
  8
1
370
    50
100
AcDbLine
 10
353.686222
 20
160.645259
 30
0.0
 11
354.673731
 21
160.819383
 31
0.0
  0
ARC
  5
29B
100
AcDbEntity
  8
1
370
    50
100
AcDbCircle
 10
354.586907
 20
161.311787
 30
0.0
 40
0.5
100
AcDbArc
 50
280.0
 51
360.0
  0
LINE
  5
29C
100
AcDbEntity
  8
1
370
    50
100
AcDbLine
 10
353.686222
 20
160.645259
 30
0.0
 11
353.186907
 21
160.671427
 31
0.0
  0
LINE
  5
29D
100
AcDbEntity
  8
1
370
    50
100
AcDbLine
 10
355.086907
 20
161.311787
 30
0.0
 11
355.086907
 21
225.578972
 31
0.0
  0
LINE
  5
29E
100
AcDbEntity
  8
1
370
    50
100
AcDbLine
 10
355.536907
 20
163.503453
 30
0.0
 11
355.536907
 21
173.387305
 31
0.0
  0
LINE
  5
29F
100
AcDbEntity
  8
1
370
    50
100
AcDbLine
 10
355.536907
 20
163.503453
 30
0.0
 11
355.086907
 21
163.479869
 31
0.0
  0
LINE
  5
2A0
100
AcDbEntity
  8
1
370
    50
100
AcDbLine
 10
355.536907
 20
173.387305
 30
0.0
 11
355.086907
 21
173.410889
 31
0.0
  0
LINE
  5
2A1
100
AcDbEntity
  8
1
370
    50
100
AcDbLine
 10
353.186907
 20
160.671427
 30
0.0
 11
353.186907
 21
226.219333
 31
0.0
  0
LINE
  5
2A2
100
AcDbEntity
  8
1
370
    50
100
AcDbLine
 10
304.388214
 20
122.422353
 30
0.0
 11
304.21421
 21
121.435529
 31
0.0
  0
LINE
  5
2A3
100
AcDbEntity
  8
1
370
    50
100
AcDbLine
 10
303.721807
 20
121.022353
 30
0.0
 11
275.754622
 21
121.022353
 31
0.0
  0
LINE
  5
2A4
100
AcDbEntity
  8
1
370
    50
100
AcDbLine
 10
275.088214
 20
122.422353
 30
0.0
 11
275.588214
 21
122.922353
 31
0.0
  0
LINE
  5
2A5
100
AcDbEntity
  8
1
370
    50
100
AcDbLine
 10
275.088214
 20
122.422353
 30
0.0
 11
275.262218
 21
121.435529
 31
0.0
  0
ARC
  5
2A6
100
AcDbEntity
  8
1
370
    50
100
AcDbCircle
 10
275.754622
 20
121.522353
 30
0.0
 40
0.5
100
AcDbArc
 50
190.0
 51
270.0
  0
ARC
  5
2A7
100
AcDbEntity
  8
1
370
    50
100
AcDbCircle
 10
303.721807
 20
121.522353
 30
0.0
 40
0.5
100
AcDbArc
 50
270.0
 51
350.0
  0
LINE
  5
2A8
100
AcDbEntity
  8
1
370
    50
100
AcDbLine
 10
304.388214
 20
122.422353
 30
0.0
 11
304.36201
 21
122.922353
 31
0.0
  0
LINE
  5
2A9
100
AcDbEntity
  8
1
370
    25
100
AcDbLine
 10
301.933979
 20
120.645594
 30
0.0
 11
301.953725
 21
121.022353
 31
0.0
  0
LINE
  5
2AA
100
AcDbEntity
  8
1
370
    25
100
AcDbLine
 10
286.841703
 20
120.659827
 30
0.0
 11
286.822704
 21
121.022353
 31
0.0
  0
LINE
  5
2AB
100
AcDbEntity
  8
1
370
    50
100
AcDbLine
 10
290.638213
 20
121.022353
 30
0.0
 11
290.667859
 21
120.986779
 31
0.0
  0
LINE
  5
2AC
100
AcDbEntity
  8
1
370
    50
100
AcDbLine
 10
291.638213
 20
121.022353
 30
0.0
 11
291.667859
 21
120.986779
 31
0.0
  0
LINE
  5
2AD
100
AcDbEntity
  8
1
370
    50
100
AcDbLine
 10
289.638213
 20
121.022353
 30
0.0
 11
289.667861
 21
120.986777
 31
0.0
  0
LINE
  5
2AE
100
AcDbEntity
  8
1
370
    25
100
AcDbLine
 10
290.888212
 20
120.572355
 30
0.0
 11
290.667859
 21
120.986779
 31
0.0
  0
LINE
  5
2AF
100
AcDbEntity
  8
1
370
    25
100
AcDbLine
 10
290.888212
 20
120.572355
 30
0.0
 11
291.169402
 21
121.022353
 31
0.0
  0
LINE
  5
2B0
100
AcDbEntity
  8
1
370
    25
100
AcDbLine
 10
289.888213
 20
120.572355
 30
0.0
 11
289.667861
 21
120.986777
 31
0.0
  0
LINE
  5
2B1
100
AcDbEntity
  8
1
370
    25
100
AcDbLine
 10
289.888213
 20
120.572355
 30
0.0
 11
290.169403
 21
121.022353
 31
0.0
  0
LINE
  5
2B2
100
AcDbEntity
  8
1
370
    25
100
AcDbLine
 10
291.888212
 20
120.572355
 30
0.0
 11
291.667859
 21
120.986779
 31
0.0
  0
LINE
  5
2B3
100
AcDbEntity
  8
1
370
    25
100
AcDbLine
 10
291.888212
 20
120.572355
 30
0.0
 11
292.138214
 21
120.972442
 31
0.0
  0
LINE
  5
2B4
100
AcDbEntity
  8
1
370
    50
100
AcDbLine
 10
287.638213
 20
121.022353
 30
0.0
 11
287.667859
 21
120.986779
 31
0.0
  0
LINE
  5
2B5
100
AcDbEntity
  8
1
370
    50
100
AcDbLine
 10
288.638213
 20
121.022353
 30
0.0
 11
288.667859
 21
120.986779
 31
0.0
  0
LINE
  5
2B6
100
AcDbEntity
  8
1
370
    25
100
AcDbLine
 10
287.888212
 20
120.572355
 30
0.0
 11
287.667859
 21
120.986779
 31
0.0
  0
LINE
  5
2B7
100
AcDbEntity
  8
1
370
    25
100
AcDbLine
 10
287.888212
 20
120.572355
 30
0.0
 11
288.169402
 21
121.022353
 31
0.0
  0
LINE
  5
2B8
100
AcDbEntity
  8
1
370
    25
100
AcDbLine
 10
286.888213
 20
120.572355
 30
0.0
 11
286.841703
 21
120.659827
 31
0.0
  0
LINE
  5
2B9
100
AcDbEntity
  8
1
370
    25
100
AcDbLine
 10
286.888213
 20
120.572355
 30
0.0
 11
287.169403
 21
121.022353
 31
0.0
  0
LINE
  5
2BA
100
AcDbEntity
  8
1
370
    25
100
AcDbLine
 10
288.888212
 20
120.572355
 30
0.0
 11
288.667859
 21
120.986779
 31
0.0
  0
LINE
  5
2BB
100
AcDbEntity
  8
1
370
    25
100
AcDbLine
 10
288.888212
 20
120.572355
 30
0.0
 11
289.169402
 21
121.022353
 31
0.0
  0
LINE
  5
2BC
100
AcDbEntity
  8
1
370
    50
100
AcDbLine
 10
299.638213
 20
121.022353
 30
0.0
 11
299.667859
 21
120.986779
 31
0.0
  0
LINE
  5
2BD
100
AcDbEntity
  8
1
370
    50
100
AcDbLine
 10
300.638213
 20
121.022353
 30
0.0
 11
300.667859
 21
120.986779
 31
0.0
  0
LINE
  5
2BE
100
AcDbEntity
  8
1
370
    25
100
AcDbLine
 10
299.888212
 20
120.572355
 30
0.0
 11
299.667859
 21
120.986779
 31
0.0
  0
LINE
  5
2BF
100
AcDbEntity
  8
1
370
    25
100
AcDbLine
 10
299.888212
 20
120.572355
 30
0.0
 11
300.169402
 21
121.022353
 31
0.0
  0
LINE
  5
2C0
100
AcDbEntity
  8
1
370
    25
100
AcDbLine
 10
300.888212
 20
120.572355
 30
0.0
 11
300.667859
 21
120.986779
 31
0.0
  0
LINE
  5
2C1
100
AcDbEntity
  8
1
370
    25
100
AcDbLine
 10
300.888212
 20
120.572355
 30
0.0
 11
301.169402
 21
121.022353
 31
0.0
  0
LINE
  5
2C2
100
AcDbEntity
  8
1
370
    50
100
AcDbLine
 10
301.638213
 20
121.022353
 30
0.0
 11
301.667861
 21
120.986777
 31
0.0
  0
LINE
  5
2C3
100
AcDbEntity
  8
1
370
    25
100
AcDbLine
 10
301.888213
 20
120.572355
 30
0.0
 11
301.667861
 21
120.986777
 31
0.0
  0
LINE
  5
2C4
100
AcDbEntity
  8
1
370
    25
100
AcDbLine
 10
301.888214
 20
120.572355
 30
0.0
 11
301.933979
 21
120.645594
 31
0.0
  0
LINE
  5
2C5
100
AcDbEntity
  8
1
370
    50
100
AcDbLine
 10
298.638213
 20
121.022353
 30
0.0
 11
298.667859
 21
120.986779
 31
0.0
  0
LINE
  5
2C6
100
AcDbEntity
  8
1
370
    25
100
AcDbLine
 10
298.888212
 20
120.572355
 30
0.0
 11
298.667859
 21
120.986779
 31
0.0
  0
LINE
  5
2C7
100
AcDbEntity
  8
1
370
    25
100
AcDbLine
 10
298.888212
 20
120.572355
 30
0.0
 11
299.169402
 21
121.022353
 31
0.0
  0
LINE
  5
2C8
100
AcDbEntity
  8
1
370
    50
100
AcDbLine
 10
297.638213
 20
121.022353
 30
0.0
 11
297.667859
 21
120.986779
 31
0.0
  0
LINE
  5
2C9
100
AcDbEntity
  8
1
370
    25
100
AcDbLine
 10
297.888212
 20
120.572355
 30
0.0
 11
297.667859
 21
120.986779
 31
0.0
  0
LINE
  5
2CA
100
AcDbEntity
  8
1
370
    25
100
AcDbLine
 10
297.888212
 20
120.572355
 30
0.0
 11
298.169402
 21
121.022353
 31
0.0
  0
LINE
  5
2CB
100
AcDbEntity
  8
1
370
    50
100
AcDbLine
 10
296.638213
 20
121.022353
 30
0.0
 11
296.667859
 21
120.986779
 31
0.0
  0
LINE
  5
2CC
100
AcDbEntity
  8
1
370
    25
100
AcDbLine
 10
296.888212
 20
120.572355
 30
0.0
 11
296.667859
 21
120.986779
 31
0.0
  0
LINE
  5
2CD
100
AcDbEntity
  8
1
370
    25
100
AcDbLine
 10
296.888212
 20
120.572355
 30
0.0
 11
297.169402
 21
121.022353
 31
0.0
  0
LINE
  5
2CE
100
AcDbEntity
  8
1
370
    50
100
AcDbLine
 10
295.638214
 20
121.022352
 30
0.0
 11
295.667859
 21
120.986779
 31
0.0
  0
LINE
  5
2CF
100
AcDbEntity
  8
1
370
    25
100
AcDbLine
 10
295.888212
 20
120.572355
 30
0.0
 11
295.667859
 21
120.986779
 31
0.0
  0
LINE
  5
2D0
100
AcDbEntity
  8
1
370
    25
100
AcDbLine
 10
295.888212
 20
120.572355
 30
0.0
 11
296.169402
 21
121.022353
 31
0.0
  0
LINE
  5
2D1
100
AcDbEntity
  8
1
370
    50
100
AcDbLine
 10
352.186907
 20
196.986653
 30
0.0
 11
352.185162
 21
196.986638
 31
0.0
  0
ARC
  5
2D2
100
AcDbEntity
  8
1
370
    50
100
AcDbCircle
 10
352.186907
 20
196.786645
 30
0.0
 40
0.2
100
AcDbArc
 50
90.5
 51
180.0
  0
LINE
  5
2D3
100
AcDbEntity
  8
1
370
    50
100
AcDbLine
 10
355.086907
 20
208.54538
 30
0.0
 11
360.256706
 21
208.364846
 31
0.0
  0
ARC
  5
2D4
100
AcDbEntity
  8
1
370
    50
100
AcDbCircle
 10
360.186907
 20
206.366065
 30
0.0
 40
2.0
100
AcDbArc
 50
360.0
 51
88.0
  0
LINE
  5
2D5
100
AcDbEntity
  8
1
370
    50
100
AcDbLine
 10
353.686222
 20
226.245501
 30
0.0
 11
354.673731
 21
226.071376
 31
0.0
  0
ARC
  5
2D6
100
AcDbEntity
  8
1
370
    50
100
AcDbCircle
 10
354.586907
 20
225.578972
 30
0.0
 40
0.5
100
AcDbArc
 50
0.0
 51
80.0
  0
LINE
  5
2D7
100
AcDbEntity
  8
1
370
    50
100
AcDbLine
 10
353.686222
 20
226.245501
 30
0.0
 11
353.186907
 21
226.219333
 31
0.0
  0
LINE
  5
2D8
100
AcDbEntity
  8
1
370
    50
100
AcDbLine
 10
355.536907
 20
223.387307
 30
0.0
 11
355.536907
 21
213.503454
 31
0.0
  0
LINE
  5
2D9
100
AcDbEntity
  8
1
370
    50
100
AcDbLine
 10
355.536907
 20
223.387307
 30
0.0
 11
355.086907
 21
223.41089
 31
0.0
  0
LINE
  5
2DA
100
AcDbEntity
  8
1
370
    50
100
AcDbLine
 10
355.536907
 20
213.503454
 30
0.0
 11
355.086907
 21
213.479871
 31
0.0
  0
LINE
  5
2DB
100
AcDbEntity
  8
1
370
    50
100
AcDbLine
 10
292.638213
 20
121.022353
 30
0.0
 11
292.667859
 21
120.986779
 31
0.0
  0
LINE
  5
2DC
100
AcDbEntity
  8
1
370
    25
100
AcDbLine
 10
292.888212
 20
120.572355
 30
0.0
 11
292.667859
 21
120.986779
 31
0.0
  0
LINE
  5
2DD
100
AcDbEntity
  8
1
370
    25
100
AcDbLine
 10
292.888212
 20
120.572355
 30
0.0
 11
293.138214
 21
120.972442
 31
0.0
  0
LINE
  5
2DE
100
AcDbEntity
  8
1
370
    50
100
AcDbLine
 10
293.638213
 20
121.022353
 30
0.0
 11
293.667859
 21
120.986779
 31
0.0
  0
LINE
  5
2DF
100
AcDbEntity
  8
1
370
    25
100
AcDbLine
 10
293.888212
 20
120.572355
 30
0.0
 11
293.667859
 21
120.986779
 31
0.0
  0
LINE
  5
2E0
100
AcDbEntity
  8
1
370
    25
100
AcDbLine
 10
293.888212
 20
120.572355
 30
0.0
 11
294.138214
 21
120.972442
 31
0.0
  0
LINE
  5
2E1
100
AcDbEntity
  8
1
370
    50
100
AcDbLine
 10
294.638213
 20
121.022353
 30
0.0
 11
294.667859
 21
120.986779
 31
0.0
  0
LINE
  5
2E2
100
AcDbEntity
  8
1
370
    25
100
AcDbLine
 10
294.888212
 20
120.572355
 30
0.0
 11
294.667859
 21
120.986779
 31
0.0
  0
LINE
  5
2E3
100
AcDbEntity
  8
1
370
    25
100
AcDbLine
 10
294.888212
 20
120.572355
 30
0.0
 11
295.138214
 21
120.972442
 31
0.0
  0
LINE
  5
2E4
100
AcDbEntity
  8
1
370
    50
100
AcDbLine
 10
306.388214
 20
226.445381
 30
0.0
 11
273.888214
 21
226.445381
 31
0.0
  0
LINE
  5
2E5
100
AcDbEntity
  8
1
370
    50
100
AcDbLine
 10
306.388214
 20
226.445381
 30
0.0
 11
306.388214
 21
160.445381
 31
0.0
  0
LINE
  5
2E6
100
AcDbEntity
  8
1
370
    50
100
AcDbLine
 10
268.888214
 20
221.445381
 30
0.0
 11
268.888214
 21
165.445381
 31
0.0
  0
ARC
  5
2E7
100
AcDbEntity
  8
1
370
    50
100
AcDbCircle
 10
273.888214
 20
221.445381
 30
0.0
 40
5.0
100
AcDbArc
 50
90.0
 51
180.0
  0
LINE
  5
2E8
100
AcDbEntity
  8
1
370
    50
100
AcDbLine
 10
301.388214
 20
204.945381
 30
0.0
 11
301.388214
 21
181.945381
 31
0.0
  0
LINE
  5
2E9
100
AcDbEntity
  8
1
370
    50
100
AcDbLine
 10
299.388214
 20
206.945381
 30
0.0
 11
285.588214
 21
206.945381
 31
0.0
  0
ARC
  5
2EA
100
AcDbEntity
  8
1
370
    50
100
AcDbCircle
 10
299.388214
 20
204.945381
 30
0.0
 40
2.0
100
AcDbArc
 50
0.0
 51
90.0
  0
LINE
  5
2EB
100
AcDbEntity
  8
1
370
    50
100
AcDbLine
 10
283.288214
 20
197.045381
 30
0.0
 11
277.888214
 21
197.045381
 31
0.0
  0
ARC
  5
2EC
100
AcDbEntity
  8
1
370
    50
100
AcDbCircle
 10
285.588214
 20
204.945381
 30
0.0
 40
2.0
100
AcDbArc
 50
90.0
 51
180.0
  0
LINE
  5
2ED
100
AcDbEntity
  8
1
370
    50
100
AcDbLine
 10
283.588214
 20
203.445381
 30
0.0
 11
283.588214
 21
204.945381
 31
0.0
  0
ARC
  5
2EE
100
AcDbEntity
  8
1
370
    50
100
AcDbCircle
 10
283.288214
 20
197.345381
 30
0.0
 40
0.3
100
AcDbArc
 50
270.0
 51
360.0
  0
LINE
  5
2EF
100
AcDbEntity
  8
1
370
    50
100
AcDbLine
 10
277.588214
 20
196.745381
 30
0.0
 11
277.588214
 21
190.145381
 31
0.0
  0
ARC
  5
2F0
100
AcDbEntity
  8
1
370
    50
100
AcDbCircle
 10
277.888214
 20
196.745381
 30
0.0
 40
0.3
100
AcDbArc
 50
90.0
 51
180.0
  0
LINE
  5
2F1
100
AcDbEntity
  8
1
370
    50
100
AcDbLine
 10
306.388214
 20
160.445381
 30
0.0
 11
273.888214
 21
160.445381
 31
0.0
  0
ARC
  5
2F2
100
AcDbEntity
  8
1
370
    50
100
AcDbCircle
 10
273.888214
 20
165.445381
 30
0.0
 40
5.0
100
AcDbArc
 50
180.0
 51
270.0
  0
LINE
  5
2F3
100
AcDbEntity
  8
1
370
    50
100
AcDbLine
 10
299.388214
 20
179.945381
 30
0.0
 11
285.588214
 21
179.945381
 31
0.0
  0
ARC
  5
2F4
100
AcDbEntity
  8
1
370
    50
100
AcDbCircle
 10
299.388214
 20
181.945381
 30
0.0
 40
2.0
100
AcDbArc
 50
270.0
 51
360.0
  0
LINE
  5
2F5
100
AcDbEntity
  8
1
370
    50
100
AcDbLine
 10
283.288214
 20
189.845381
 30
0.0
 11
277.888214
 21
189.845381
 31
0.0
  0
ARC
  5
2F6
100
AcDbEntity
  8
1
370
    50
100
AcDbCircle
 10
285.588214
 20
181.945381
 30
0.0
 40
2.0
100
AcDbArc
 50
180.0
 51
270.0
  0
LINE
  5
2F7
100
AcDbEntity
  8
1
370
    50
100
AcDbLine
 10
283.588214
 20
183.445381
 30
0.0
 11
283.588214
 21
181.945381
 31
0.0
  0
ARC
  5
2F8
100
AcDbEntity
  8
1
370
    50
100
AcDbCircle
 10
283.288214
 20
189.545381
 30
0.0
 40
0.3
100
AcDbArc
 50
0.0
 51
90.0
  0
ARC
  5
2F9
100
AcDbEntity
  8
1
370
    50
100
AcDbCircle
 10
277.888214
 20
190.145381
 30
0.0
 40
0.3
100
AcDbArc
 50
180.0
 51
270.0
  0
LINE
  5
2FA
100
AcDbEntity
  8
1
370
    50
100
AcDbLine
 10
352.186907
 20
160.44538
 30
0.0
 11
353.186907
 21
160.44538
 31
0.0
  0
ARC
  5
2FB
100
AcDbEntity
  8
1
370
    50
100
AcDbCircle
 10
347.936907
 20
165.44538
 30
0.0
 40
7.25
100
AcDbArc
 50
316.397181
 51
318.707567
  0
LINE
  5
2FC
100
AcDbEntity
  8
1
370
    50
100
AcDbLine
 10
353.186907
 20
160.44538
 30
0.0
 11
353.186907
 21
160.671427
 31
0.0
  0
LINE
  5
2FD
100
AcDbEntity
  8
1
370
    50
100
AcDbLine
 10
352.186907
 20
160.44538
 30
0.0
 11
352.186907
 21
226.44538
 31
0.0
  0
LINE
  5
2FE
100
AcDbEntity
  8
1
370
    25
  6
CENTER
100
AcDbLine
 10
293.888214
 20
231.392797
 30
0.0
 11
293.888214
 21
158.111501
 31
0.0
  0
LINE
  5
2FF
100
AcDbEntity
  8
1
370
    50
100
AcDbLine
 10
271.761006
 20
123.922353
 30
0.0
 11
306.388214
 21
123.922353
 31
0.0
  0
LINE
  5
300
100
AcDbEntity
  8
1
370
    50
100
AcDbLine
 10
306.388214
 20
122.922353
 30
0.0
 11
306.388214
 21
123.922353
 31
0.0
  0
LINE
  5
301
100
AcDbEntity
  8
1
370
    50
100
AcDbLine
 10
268.946793
 20
121.646617
 30
0.0
 11
270.841768
 21
123.541592
 31
0.0
  0
LINE
  5
302
100
AcDbEntity
  8
1
370
    50
100
AcDbLine
 10
269.72461
 20
121.010221
 30
0.0
 11
271.548874
 21
122.834485
 31
0.0
  0
LINE
  5
303
100
AcDbEntity
  8
1
370
    50
100
AcDbLine
 10
269.300346
 20
121.010221
 30
0.0
 11
268.946793
 21
121.363775
 31
0.0
  0
ARC
  5
304
100
AcDbEntity
  8
1
370
    50
100
AcDbCircle
 10
269.512478
 20
121.222353
 30
0.0
 40
0.3
100
AcDbArc
 50
225.0
 51
315.0
  0
ARC
  5
305
100
AcDbEntity
  8
1
370
    50
100
AcDbCircle
 10
269.088214
 20
121.505196
 30
0.0
 40
0.2
100
AcDbArc
 50
135.0
 51
225.0
  0
ARC
  5
306
100
AcDbEntity
  8
1
370
    50
100
AcDbCircle
 10
271.761006
 20
122.622353
 30
0.0
 40
1.3
100
AcDbArc
 50
90.0
 51
135.0
  0
ARC
  5
307
100
AcDbEntity
  8
1
370
    50
100
AcDbCircle
 10
271.761006
 20
122.622353
 30
0.0
 40
0.3
100
AcDbArc
 50
90.0
 51
135.0
  0
LINE
  5
308
100
AcDbEntity
  8
1
370
    50
100
AcDbLine
 10
306.388214
 20
122.922353
 30
0.0
 11
271.761006
 21
122.922353
 31
0.0
  0
LINE
  5
309
100
AcDbEntity
  8
1
370
    50
100
AcDbLine
 10
355.186907
 20
173.405648
 30
0.0
 11
355.186907
 21
178.348872
 31
0.0
  0
LINE
  5
30A
100
AcDbEntity
  8
1
370
    50
100
AcDbLine
 10
352.186907
 20
226.44538
 30
0.0
 11
353.186907
 21
226.44538
 31
0.0
  0
ARC
  5
30B
100
AcDbEntity
  8
1
370
    50
100
AcDbCircle
 10
347.936907
 20
221.44538
 30
0.0
 40
7.25
100
AcDbArc
 50
41.292433
 51
43.602819
  0
LINE
  5
30C
100
AcDbEntity
  8
1
370
    50
100
AcDbLine
 10
353.186907
 20
226.44538
 30
0.0
 11
353.186907
 21
226.219333
 31
0.0
  0
LINE
  5
30D
100
AcDbEntity
  8
1
370
    50
100
AcDbLine
 10
355.186907
 20
213.485111
 30
0.0
 11
355.186907
 21
208.541888
 31
0.0
  0
CIRCLE
  5
30E
100
AcDbEntity
  8
1
370
    50
100
AcDbCircle
 10
293.888214
 20
218.445381
 30
0.0
 40
3.5
  0
ARC
  5
30F
100
AcDbEntity
  8
1
370
    25
100
AcDbCircle
 10
296.038214
 20
220.595381
 30
0.0
 40
1.658571
100
AcDbArc
 50
180.0
 51
270.0
  0
ARC
  5
310
100
AcDbEntity
  8
1
370
    25
100
AcDbCircle
 10
291.738214
 20
220.595381
 30
0.0
 40
1.658571
100
AcDbArc
 50
270.0
 51
360.0
  0
ARC
  5
311
100
AcDbEntity
  8
1
370
    25
100
AcDbCircle
 10
291.738214
 20
216.295381
 30
0.0
 40
1.658571
100
AcDbArc
 50
0.0
 51
90.0
  0
ARC
  5
312
100
AcDbEntity
  8
1
370
    25
100
AcDbCircle
 10
296.038214
 20
216.295381
 30
0.0
 40
1.658571
100
AcDbArc
 50
90.0
 51
180.0
  0
LINE
  5
313
100
AcDbEntity
  8
1
370
    25
100
AcDbLine
 10
293.888214
 20
216.295381
 30
0.0
 11
294.379643
 21
216.295381
 31
0.0
  0
LINE
  5
314
100
AcDbEntity
  8
1
370
    25
100
AcDbLine
 10
293.888214
 20
216.295381
 30
0.0
 11
293.396786
 21
216.295381
 31
0.0
  0
LINE
  5
315
100
AcDbEntity
  8
1
370
    25
100
AcDbLine
 10
291.738214
 20
217.953952
 30
0.0
 11
291.738214
 21
218.445381
 31
0.0
  0
LINE
  5
316
100
AcDbEntity
  8
1
370
    25
100
AcDbLine
 10
291.738214
 20
218.93681
 30
0.0
 11
291.738214
 21
218.445381
 31
0.0
  0
LINE
  5
317
100
AcDbEntity
  8
1
370
    25
100
AcDbLine
 10
293.888214
 20
220.595381
 30
0.0
 11
293.396786
 21
220.595381
 31
0.0
  0
LINE
  5
318
100
AcDbEntity
  8
1
370
    25
100
AcDbLine
 10
293.888214
 20
220.595381
 30
0.0
 11
294.379643
 21
220.595381
 31
0.0
  0
LINE
  5
319
100
AcDbEntity
  8
1
370
    25
100
AcDbLine
 10
296.038214
 20
218.93681
 30
0.0
 11
296.038214
 21
218.445381
 31
0.0
  0
LINE
  5
31A
100
AcDbEntity
  8
1
370
    25
100
AcDbLine
 10
296.038214
 20
217.953952
 30
0.0
 11
296.038214
 21
218.445381
 31
0.0
  0
CIRCLE
  5
31B
100
AcDbEntity
  8
1
370
    50
100
AcDbCircle
 10
293.888214
 20
168.445381
 30
0.0
 40
3.5
  0
ARC
  5
31C
100
AcDbEntity
  8
1
370
    25
100
AcDbCircle
 10
296.038214
 20
170.595381
 30
0.0
 40
1.658571
100
AcDbArc
 50
180.0
 51
270.0
  0
ARC
  5
31D
100
AcDbEntity
  8
1
370
    25
100
AcDbCircle
 10
291.738214
 20
170.595381
 30
0.0
 40
1.658571
100
AcDbArc
 50
270.0
 51
360.0
  0
ARC
  5
31E
100
AcDbEntity
  8
1
370
    25
100
AcDbCircle
 10
291.738214
 20
166.295381
 30
0.0
 40
1.658571
100
AcDbArc
 50
0.0
 51
90.0
  0
ARC
  5
31F
100
AcDbEntity
  8
1
370
    25
100
AcDbCircle
 10
296.038214
 20
166.295381
 30
0.0
 40
1.658571
100
AcDbArc
 50
90.0
 51
180.0
  0
LINE
  5
320
100
AcDbEntity
  8
1
370
    25
100
AcDbLine
 10
293.888214
 20
166.295381
 30
0.0
 11
294.379643
 21
166.295381
 31
0.0
  0
LINE
  5
321
100
AcDbEntity
  8
1
370
    25
100
AcDbLine
 10
293.888214
 20
166.295381
 30
0.0
 11
293.396786
 21
166.295381
 31
0.0
  0
LINE
  5
322
100
AcDbEntity
  8
1
370
    25
100
AcDbLine
 10
291.738214
 20
167.953952
 30
0.0
 11
291.738214
 21
168.445381
 31
0.0
  0
LINE
  5
323
100
AcDbEntity
  8
1
370
    25
100
AcDbLine
 10
291.738214
 20
168.93681
 30
0.0
 11
291.738214
 21
168.445381
 31
0.0
  0
LINE
  5
324
100
AcDbEntity
  8
1
370
    25
100
AcDbLine
 10
293.888214
 20
170.595381
 30
0.0
 11
293.396786
 21
170.595381
 31
0.0
  0
LINE
  5
325
100
AcDbEntity
  8
1
370
    25
100
AcDbLine
 10
293.888214
 20
170.595381
 30
0.0
 11
294.379643
 21
170.595381
 31
0.0
  0
LINE
  5
326
100
AcDbEntity
  8
1
370
    25
100
AcDbLine
 10
296.038214
 20
168.93681
 30
0.0
 11
296.038214
 21
168.445381
 31
0.0
  0
LINE
  5
327
100
AcDbEntity
  8
1
370
    25
100
AcDbLine
 10
296.038214
 20
167.953952
 30
0.0
 11
296.038214
 21
168.445381
 31
0.0
  0
LINE
  5
328
100
AcDbEntity
  8
1
370
    25
  6
CENTER
100
AcDbLine
 10
286.863367
 20
168.445381
 30
0.0
 11
300.913061
 21
168.445381
 31
0.0
  0
LINE
  5
329
100
AcDbEntity
  8
1
370
    25
  6
CENTER
100
AcDbLine
 10
300.913061
 20
218.445381
 30
0.0
 11
286.863367
 21
218.445381
 31
0.0
  0
LINE
  5
32A
100
AcDbEntity
  8
1
370
    50
100
AcDbLine
 10
359.955818
 20
216.695378
 30
0.0
 11
355.686907
 21
216.695378
 31
0.0
  0
LINE
  5
32B
100
AcDbEntity
  8
1
370
    50
100
AcDbLine
 10
359.017996
 20
220.195378
 30
0.0
 11
355.686907
 21
220.195378
 31
0.0
  0
LINE
  5
32C
100
AcDbEntity
  8
1
370
    50
100
AcDbLine
 10
374.186907
 20
218.445378
 30
0.0
 11
369.521843
 21
219.695378
 31
0.0
  0
LINE
  5
32D
100
AcDbEntity
  8
1
370
    50
100
AcDbLine
 10
374.186907
 20
218.445378
 30
0.0
 11
369.521843
 21
217.195378
 31
0.0
  0
LINE
  5
32E
100
AcDbEntity
  8
1
370
    50
100
AcDbLine
 10
369.521843
 20
217.195378
 30
0.0
 11
359.821843
 21
217.195378
 31
0.0
  0
LINE
  5
32F
100
AcDbEntity
  8
1
370
    50
100
AcDbLine
 10
369.521843
 20
219.695378
 30
0.0
 11
359.15197
 21
219.695378
 31
0.0
  0
LINE
  5
330
100
AcDbEntity
  8
1
370
    50
100
AcDbLine
 10
359.955818
 20
216.695378
 30
0.0
 11
359.017996
 21
220.195378
 31
0.0
  0
LINE
  5
331
100
AcDbEntity
  8
1
370
    25
100
AcDbLine
 10
361.355818
 20
216.695378
 30
0.0
 11
360.417996
 21
220.195378
 31
0.0
  0
LINE
  5
332
100
AcDbEntity
  8
1
370
    25
100
AcDbLine
 10
362.755818
 20
216.695378
 30
0.0
 11
361.817996
 21
220.195378
 31
0.0
  0
LINE
  5
333
100
AcDbEntity
  8
1
370
    25
100
AcDbLine
 10
364.155818
 20
216.695378
 30
0.0
 11
363.217996
 21
220.195378
 31
0.0
  0
LINE
  5
334
100
AcDbEntity
  8
1
370
    25
100
AcDbLine
 10
365.555818
 20
216.695378
 30
0.0
 11
364.617996
 21
220.195378
 31
0.0
  0
LINE
  5
335
100
AcDbEntity
  8
1
370
    25
100
AcDbLine
 10
366.955818
 20
216.695378
 30
0.0
 11
366.017996
 21
220.195378
 31
0.0
  0
LINE
  5
336
100
AcDbEntity
  8
1
370
    25
100
AcDbLine
 10
368.355818
 20
216.695378
 30
0.0
 11
367.417996
 21
220.195378
 31
0.0
  0
LINE
  5
337
100
AcDbEntity
  8
1
370
    25
100
AcDbLine
 10
369.744554
 20
216.737415
 30
0.0
 11
368.817996
 21
220.195378
 31
0.0
  0
LINE
  5
338
100
AcDbEntity
  8
1
370
    25
100
AcDbLine
 10
371.050772
 20
217.087415
 30
0.0
 11
370.266752
 21
220.013418
 31
0.0
  0
LINE
  5
339
100
AcDbEntity
  8
1
370
    25
100
AcDbLine
 10
372.35699
 20
217.437415
 30
0.0
 11
371.775042
 21
219.609273
 31
0.0
  0
LINE
  5
33A
100
AcDbEntity
  8
1
370
    50
100
AcDbLine
 10
359.955818
 20
166.695382
 30
0.0
 11
355.686907
 21
166.695382
 31
0.0
  0
LINE
  5
33B
100
AcDbEntity
  8
1
370
    50
100
AcDbLine
 10
359.017996
 20
170.195382
 30
0.0
 11
355.686907
 21
170.195382
 31
0.0
  0
LINE
  5
33C
100
AcDbEntity
  8
1
370
    50
100
AcDbLine
 10
374.186907
 20
168.445382
 30
0.0
 11
369.521843
 21
169.695382
 31
0.0
  0
LINE
  5
33D
100
AcDbEntity
  8
1
370
    50
100
AcDbLine
 10
374.186907
 20
168.445382
 30
0.0
 11
369.521843
 21
167.195382
 31
0.0
  0
LINE
  5
33E
100
AcDbEntity
  8
1
370
    50
100
AcDbLine
 10
369.521843
 20
167.195382
 30
0.0
 11
359.821843
 21
167.195382
 31
0.0
  0
LINE
  5
33F
100
AcDbEntity
  8
1
370
    50
100
AcDbLine
 10
369.521843
 20
169.695382
 30
0.0
 11
359.15197
 21
169.695382
 31
0.0
  0
LINE
  5
340
100
AcDbEntity
  8
1
370
    50
100
AcDbLine
 10
359.955818
 20
166.695382
 30
0.0
 11
359.017996
 21
170.195382
 31
0.0
  0
LINE
  5
341
100
AcDbEntity
  8
1
370
    25
100
AcDbLine
 10
361.355818
 20
166.695382
 30
0.0
 11
360.417996
 21
170.195382
 31
0.0
  0
LINE
  5
342
100
AcDbEntity
  8
1
370
    25
100
AcDbLine
 10
362.755818
 20
166.695382
 30
0.0
 11
361.817996
 21
170.195382
 31
0.0
  0
LINE
  5
343
100
AcDbEntity
  8
1
370
    25
100
AcDbLine
 10
364.155818
 20
166.695382
 30
0.0
 11
363.217996
 21
170.195382
 31
0.0
  0
LINE
  5
344
100
AcDbEntity
  8
1
370
    25
100
AcDbLine
 10
365.555818
 20
166.695382
 30
0.0
 11
364.617996
 21
170.195382
 31
0.0
  0
LINE
  5
345
100
AcDbEntity
  8
1
370
    25
100
AcDbLine
 10
366.955818
 20
166.695382
 30
0.0
 11
366.017996
 21
170.195382
 31
0.0
  0
LINE
  5
346
100
AcDbEntity
  8
1
370
    25
100
AcDbLine
 10
368.355818
 20
166.695382
 30
0.0
 11
367.417996
 21
170.195382
 31
0.0
  0
LINE
  5
347
100
AcDbEntity
  8
1
370
    25
100
AcDbLine
 10
369.744554
 20
166.737419
 30
0.0
 11
368.817996
 21
170.195382
 31
0.0
  0
LINE
  5
348
100
AcDbEntity
  8
1
370
    25
100
AcDbLine
 10
371.050772
 20
167.087419
 30
0.0
 11
370.266752
 21
170.013422
 31
0.0
  0
LINE
  5
349
100
AcDbEntity
  8
1
370
    25
100
AcDbLine
 10
372.35699
 20
167.437419
 30
0.0
 11
371.775042
 21
169.609277
 31
0.0
  0
LINE
  5
34A
100
AcDbEntity
  8
1
370
    50
100
AcDbLine
 10
292.138214
 20
116.153442
 30
0.0
 11
292.138214
 21
120.422353
 31
0.0
  0
LINE
  5
34B
100
AcDbEntity
  8
1
370
    50
100
AcDbLine
 10
295.638214
 20
117.091264
 30
0.0
 11
295.638214
 21
120.422353
 31
0.0
  0
LINE
  5
34C
100
AcDbEntity
  8
1
370
    50
100
AcDbLine
 10
293.888214
 20
101.922353
 30
0.0
 11
295.138214
 21
106.587417
 31
0.0
  0
LINE
  5
34D
100
AcDbEntity
  8
1
370
    50
100
AcDbLine
 10
293.888214
 20
101.922353
 30
0.0
 11
292.638214
 21
106.587417
 31
0.0
  0
LINE
  5
34E
100
AcDbEntity
  8
1
370
    50
100
AcDbLine
 10
292.638214
 20
106.587417
 30
0.0
 11
292.638214
 21
116.287417
 31
0.0
  0
LINE
  5
34F
100
AcDbEntity
  8
1
370
    50
100
AcDbLine
 10
295.138214
 20
106.587417
 30
0.0
 11
295.138214
 21
116.95729
 31
0.0
  0
LINE
  5
350
100
AcDbEntity
  8
1
370
    50
100
AcDbLine
 10
292.138214
 20
116.153442
 30
0.0
 11
295.638214
 21
117.091264
 31
0.0
  0
LINE
  5
351
100
AcDbEntity
  8
1
370
    25
100
AcDbLine
 10
292.138214
 20
114.753442
 30
0.0
 11
295.638214
 21
115.691264
 31
0.0
  0
LINE
  5
352
100
AcDbEntity
  8
1
370
    25
100
AcDbLine
 10
292.138214
 20
113.353442
 30
0.0
 11
295.638214
 21
114.291264
 31
0.0
  0
LINE
  5
353
100
AcDbEntity
  8
1
370
    25
100
AcDbLine
 10
292.138214
 20
111.953442
 30
0.0
 11
295.638214
 21
112.891264
 31
0.0
  0
LINE
  5
354
100
AcDbEntity
  8
1
370
    25
100
AcDbLine
 10
292.138214
 20
110.553442
 30
0.0
 11
295.638214
 21
111.491264
 31
0.0
  0
LINE
  5
355
100
AcDbEntity
  8
1
370
    25
100
AcDbLine
 10
292.138214
 20
109.153442
 30
0.0
 11
295.638214
 21
110.091264
 31
0.0
  0
LINE
  5
356
100
AcDbEntity
  8
1
370
    25
100
AcDbLine
 10
292.138214
 20
107.753442
 30
0.0
 11
295.638214
 21
108.691264
 31
0.0
  0
LINE
  5
357
100
AcDbEntity
  8
1
370
    25
100
AcDbLine
 10
292.180251
 20
106.364706
 30
0.0
 11
295.638214
 21
107.291264
 31
0.0
  0
LINE
  5
358
100
AcDbEntity
  8
1
370
    25
100
AcDbLine
 10
292.530251
 20
105.058488
 30
0.0
 11
295.456255
 21
105.842509
 31
0.0
  0
LINE
  5
359
100
AcDbEntity
  8
1
370
    25
100
AcDbLine
 10
292.880251
 20
103.752271
 30
0.0
 11
295.052109
 21
104.334218
 31
0.0
  0
LINE
  5
35A
100
AcDbEntity
  8
1
370
    25
  6
CENTER
100
AcDbLine
 10
263.5177
 20
193.445387
 30
0.0
 11
298.883026
 21
193.445387
 31
0.0
  0
LINE
  5
35B
100
AcDbEntity
  8
1
370
    25
  6
CENTER
100
AcDbLine
 10
348.722626
 20
193.445388
 30
0.0
 11
366.079346
 21
193.445388
 31
0.0
  0
LINE
  5
35C
100
AcDbEntity
  8
1
370
    25
  6
CENTER
100
AcDbLine
 10
293.888214
 20
125.191382
 30
0.0
 11
293.888214
 21
100.886328
 31
0.0
  0
LINE
  5
35D
100
AcDbEntity
  8
1
370
    50
100
AcDbLine
 10
-303.784009
 20
173.886947
 30
0.0
 11
-352.284009
 21
173.886947
 31
0.0
  0
LINE
  5
35E
100
AcDbEntity
  8
1
370
    50
100
AcDbLine
 10
-303.784009
 20
171.886947
 30
0.0
 11
-352.284009
 21
171.886947
 31
0.0
  0
LINE
  5
35F
100
AcDbEntity
  8
1
370
    50
100
AcDbLine
 10
-303.784009
 20
173.886947
 30
0.0
 11
-303.784009
 21
171.886947
 31
0.0
  0
LINE
  5
360
100
AcDbEntity
  8
1
370
    50
100
AcDbLine
 10
-337.784009
 20
173.886947
 30
0.0
 11
-337.784009
 21
171.886947
 31
0.0
  0
LINE
  5
361
100
AcDbEntity
  8
1
370
    50
100
AcDbLine
 10
-339.619329
 20
173.886947
 30
0.0
 11
-339.619329
 21
171.886947
 31
0.0
  0
LINE
  5
362
100
AcDbEntity
  8
1
370
    50
100
AcDbLine
 10
-341.119329
 20
173.886947
 30
0.0
 11
-341.119329
 21
171.886947
 31
0.0
  0
LINE
  5
363
100
AcDbEntity
  8
1
370
    50
100
AcDbLine
 10
-342.919329
 20
173.886947
 30
0.0
 11
-342.919329
 21
171.886947
 31
0.0
  0
LINE
  5
364
100
AcDbEntity
  8
1
370
    50
100
AcDbLine
 10
-344.619329
 20
173.886947
 30
0.0
 11
-344.619329
 21
171.886947
 31
0.0
  0
LINE
  5
365
100
AcDbEntity
  8
1
370
    50
100
AcDbLine
 10
-344.619329
 20
173.886947
 30
0.0
 11
-344.619329
 21
171.886947
 31
0.0
  0
LINE
  5
366
100
AcDbEntity
  8
1
370
    50
100
AcDbLine
 10
-346.319329
 20
173.886947
 30
0.0
 11
-346.319329
 21
171.886947
 31
0.0
  0
LINE
  5
367
100
AcDbEntity
  8
1
370
    50
100
AcDbLine
 10
-349.15051
 20
173.886947
 30
0.0
 11
-349.15051
 21
171.886947
 31
0.0
  0
LINE
  5
368
100
AcDbEntity
  8
1
370
    50
100
AcDbLine
 10
-349.619329
 20
173.886947
 30
0.0
 11
-349.619329
 21
171.886947
 31
0.0
  0
LINE
  5
369
100
AcDbEntity
  8
1
370
    50
100
AcDbLine
 10
-352.284009
 20
173.886947
 30
0.0
 11
-352.284009
 21
171.886947
 31
0.0
  0
LINE
  5
36A
100
AcDbEntity
  8
1
370
    50
100
AcDbLine
 10
-326.76107
 20
173.886947
 30
0.0
 11
-326.76107
 21
171.886947
 31
0.0
  0
LINE
  5
36B
100
AcDbEntity
  8
1
370
    25
  6
DASHED
100
AcDbLine
 10
74.999998
 20
92.693479
 30
0.0
 11
119.999998
 21
92.693479
 31
0.0
  0
LINE
  5
36C
100
AcDbEntity
  8
1
370
    25
  6
DASHED
100
AcDbLine
 10
75.047716
 20
18.693479
 30
0.0
 11
119.999998
 21
18.693479
 31
0.0
  0
LINE
  5
36D
100
AcDbEntity
  8
1
370
    25
  6
DASHED
100
AcDbLine
 10
121.499998
 20
43.362966
 30
0.0
 11
121.499998
 21
91.193479
 31
0.0
  0
ARC
  5
36E
100
AcDbEntity
  8
1
370
    25
  6
DASHED
100
AcDbCircle
 10
119.999998
 20
91.193479
 30
0.0
 40
1.5
100
AcDbArc
 50
0.0
 51
90.0
  0
ARC
  5
36F
100
AcDbEntity
  8
1
370
    25
  6
DASHED
100
AcDbCircle
 10
119.999998
 20
20.193479
 30
0.0
 40
1.5
100
AcDbArc
 50
270.0
 51
360.0
  0
LINE
  5
370
100
AcDbEntity
  8
1
370
    25
  6
DASHED
100
AcDbLine
 10
121.499998
 20
20.193479
 30
0.0
 11
121.499998
 21
26.372077
 31
0.0
  0
LINE
  5
371
100
AcDbEntity
  8
1
370
    25
  6
CENTER
100
AcDbLine
 10
350.042949
 20
218.445376
 30
0.0
 11
375.384155
 21
218.445376
 31
0.0
  0
LINE
  5
372
100
AcDbEntity
  8
1
370
    25
  6
CENTER
100
AcDbLine
 10
350.042949
 20
168.445399
 30
0.0
 11
375.384155
 21
168.445399
 31
0.0
  0
LINE
  5
373
100
AcDbEntity
  8
1
370
    25
100
AcDbLine
 10
-279.691276
 20
-63.497842
 30
0.0
 11
-279.691276
 21
26.390168
 31
0.0
  0
LINE
  5
374
100
AcDbEntity
  8
1
370
    25
100
AcDbLine
 10
-279.691276
 20
43.390815
 30
0.0
 11
-279.691276
 21
192.884794
 31
0.0
  0
LINE
  5
375
100
AcDbEntity
  8
1
370
    50
100
AcDbLine
 10
-281.999976
 20
-65.806524
 30
0.0
 11
-281.999976
 21
26.410316
 31
0.0
  0
LINE
  5
376
100
AcDbEntity
  8
1
370
    50
100
AcDbLine
 10
-281.999976
 20
43.410963
 30
0.0
 11
-281.999976
 21
195.193476
 31
0.0
  0
LINE
  5
377
100
AcDbEntity
  8
1
370
    25
  6
CENTER
100
AcDbLine
 10
-157.499998
 20
39.268583
 30
0.0
 11
-157.499998
 21
29.869841
 31
0.0
  0
LINE
  5
378
100
AcDbEntity
  8
1
370
    25
100
AcDbLine
 10
-157.499998
 20
36.443487
 30
0.0
 11
-157.099998
 21
36.443487
 31
0.0
  0
ARC
  5
379
100
AcDbEntity
  8
1
370
    25
100
AcDbCircle
 10
-155.749998
 20
36.443487
 30
0.0
 40
1.35
100
AcDbArc
 50
180.0
 51
270.0
  0
LINE
  5
37A
100
AcDbEntity
  8
1
370
    25
100
AcDbLine
 10
-155.749998
 20
35.093487
 30
0.0
 11
-155.749998
 21
34.693487
 31
0.0
  0
LINE
  5
37B
100
AcDbEntity
  8
1
370
    25
100
AcDbLine
 10
-157.499998
 20
32.943487
 30
0.0
 11
-157.099998
 21
32.943487
 31
0.0
  0
ARC
  5
37C
100
AcDbEntity
  8
1
370
    25
100
AcDbCircle
 10
-155.749998
 20
32.943487
 30
0.0
 40
1.35
100
AcDbArc
 50
90.0
 51
180.0
  0
LINE
  5
37D
100
AcDbEntity
  8
1
370
    25
100
AcDbLine
 10
-155.749998
 20
34.293487
 30
0.0
 11
-155.749998
 21
34.693487
 31
0.0
  0
LINE
  5
37E
100
AcDbEntity
  8
1
370
    25
100
AcDbLine
 10
-157.499998
 20
36.443487
 30
0.0
 11
-157.899998
 21
36.443487
 31
0.0
  0
ARC
  5
37F
100
AcDbEntity
  8
1
370
    25
100
AcDbCircle
 10
-159.249998
 20
36.443487
 30
0.0
 40
1.35
100
AcDbArc
 50
270.0
 51
360.0
  0
LINE
  5
380
100
AcDbEntity
  8
1
370
    25
100
AcDbLine
 10
-159.249998
 20
35.093487
 30
0.0
 11
-159.249998
 21
34.693487
 31
0.0
  0
LINE
  5
381
100
AcDbEntity
  8
1
370
    25
100
AcDbLine
 10
-157.499998
 20
32.943487
 30
0.0
 11
-157.899998
 21
32.943487
 31
0.0
  0
ARC
  5
382
100
AcDbEntity
  8
1
370
    25
100
AcDbCircle
 10
-159.249998
 20
32.943487
 30
0.0
 40
1.35
100
AcDbArc
 50
0.0
 51
90.0
  0
LINE
  5
383
100
AcDbEntity
  8
1
370
    25
100
AcDbLine
 10
-159.249998
 20
34.293487
 30
0.0
 11
-159.249998
 21
34.693487
 31
0.0
  0
CIRCLE
  5
384
100
AcDbEntity
  8
1
370
    50
100
AcDbCircle
 10
-157.499998
 20
34.693487
 30
0.0
 40
3.0
  0
LINE
  5
385
100
AcDbEntity
  8
1
370
    25
  6
CENTER
100
AcDbLine
 10
-157.499998
 20
39.268583
 30
0.0
 11
-157.499998
 21
29.869841
 31
0.0
  0
LINE
  5
386
100
AcDbEntity
  8
1
370
    25
100
AcDbLine
 10
-157.499998
 20
36.443487
 30
0.0
 11
-157.099998
 21
36.443487
 31
0.0
  0
ARC
  5
387
100
AcDbEntity
  8
1
370
    25
100
AcDbCircle
 10
-155.749998
 20
36.443487
 30
0.0
 40
1.35
100
AcDbArc
 50
180.0
 51
270.0
  0
LINE
  5
388
100
AcDbEntity
  8
1
370
    25
100
AcDbLine
 10
-155.749998
 20
35.093487
 30
0.0
 11
-155.749998
 21
34.693487
 31
0.0
  0
LINE
  5
389
100
AcDbEntity
  8
1
370
    25
100
AcDbLine
 10
-157.499998
 20
32.943487
 30
0.0
 11
-157.099998
 21
32.943487
 31
0.0
  0
ARC
  5
38A
100
AcDbEntity
  8
1
370
    25
100
AcDbCircle
 10
-155.749998
 20
32.943487
 30
0.0
 40
1.35
100
AcDbArc
 50
90.0
 51
180.0
  0
LINE
  5
38B
100
AcDbEntity
  8
1
370
    25
100
AcDbLine
 10
-155.749998
 20
34.293487
 30
0.0
 11
-155.749998
 21
34.693487
 31
0.0
  0
LINE
  5
38C
100
AcDbEntity
  8
1
370
    25
100
AcDbLine
 10
-157.499998
 20
36.443487
 30
0.0
 11
-157.899998
 21
36.443487
 31
0.0
  0
ARC
  5
38D
100
AcDbEntity
  8
1
370
    25
100
AcDbCircle
 10
-159.249998
 20
36.443487
 30
0.0
 40
1.35
100
AcDbArc
 50
270.0
 51
360.0
  0
LINE
  5
38E
100
AcDbEntity
  8
1
370
    25
100
AcDbLine
 10
-159.249998
 20
35.093487
 30
0.0
 11
-159.249998
 21
34.693487
 31
0.0
  0
LINE
  5
38F
100
AcDbEntity
  8
1
370
    25
100
AcDbLine
 10
-157.499998
 20
32.943487
 30
0.0
 11
-157.899998
 21
32.943487
 31
0.0
  0
ARC
  5
390
100
AcDbEntity
  8
1
370
    25
100
AcDbCircle
 10
-159.249998
 20
32.943487
 30
0.0
 40
1.35
100
AcDbArc
 50
0.0
 51
90.0
  0
LINE
  5
391
100
AcDbEntity
  8
1
370
    25
100
AcDbLine
 10
-159.249998
 20
34.293487
 30
0.0
 11
-159.249998
 21
34.693487
 31
0.0
  0
CIRCLE
  5
392
100
AcDbEntity
  8
1
370
    50
100
AcDbCircle
 10
-157.499998
 20
34.693487
 30
0.0
 40
3.0
  0
LINE
  5
393
100
AcDbEntity
  8
1
370
    25
  6
CENTER
100
AcDbLine
 10
-157.499998
 20
39.268583
 30
0.0
 11
-157.499998
 21
29.869841
 31
0.0
  0
LINE
  5
394
100
AcDbEntity
  8
1
370
    25
100
AcDbLine
 10
-157.499998
 20
36.443487
 30
0.0
 11
-157.099998
 21
36.443487
 31
0.0
  0
ARC
  5
395
100
AcDbEntity
  8
1
370
    25
100
AcDbCircle
 10
-155.749998
 20
36.443487
 30
0.0
 40
1.35
100
AcDbArc
 50
180.0
 51
270.0
  0
LINE
  5
396
100
AcDbEntity
  8
1
370
    25
100
AcDbLine
 10
-155.749998
 20
35.093487
 30
0.0
 11
-155.749998
 21
34.693487
 31
0.0
  0
LINE
  5
397
100
AcDbEntity
  8
1
370
    25
100
AcDbLine
 10
-157.499998
 20
32.943487
 30
0.0
 11
-157.099998
 21
32.943487
 31
0.0
  0
ARC
  5
398
100
AcDbEntity
  8
1
370
    25
100
AcDbCircle
 10
-155.749998
 20
32.943487
 30
0.0
 40
1.35
100
AcDbArc
 50
90.0
 51
180.0
  0
LINE
  5
399
100
AcDbEntity
  8
1
370
    25
100
AcDbLine
 10
-155.749998
 20
34.293487
 30
0.0
 11
-155.749998
 21
34.693487
 31
0.0
  0
LINE
  5
39A
100
AcDbEntity
  8
1
370
    25
100
AcDbLine
 10
-157.499998
 20
36.443487
 30
0.0
 11
-157.899998
 21
36.443487
 31
0.0
  0
ARC
  5
39B
100
AcDbEntity
  8
1
370
    25
100
AcDbCircle
 10
-159.249998
 20
36.443487
 30
0.0
 40
1.35
100
AcDbArc
 50
270.0
 51
360.0
  0
LINE
  5
39C
100
AcDbEntity
  8
1
370
    25
100
AcDbLine
 10
-159.249998
 20
35.093487
 30
0.0
 11
-159.249998
 21
34.693487
 31
0.0
  0
LINE
  5
39D
100
AcDbEntity
  8
1
370
    25
100
AcDbLine
 10
-157.499998
 20
32.943487
 30
0.0
 11
-157.899998
 21
32.943487
 31
0.0
  0
ARC
  5
39E
100
AcDbEntity
  8
1
370
    25
100
AcDbCircle
 10
-159.249998
 20
32.943487
 30
0.0
 40
1.35
100
AcDbArc
 50
0.0
 51
90.0
  0
LINE
  5
39F
100
AcDbEntity
  8
1
370
    25
100
AcDbLine
 10
-159.249998
 20
34.293487
 30
0.0
 11
-159.249998
 21
34.693487
 31
0.0
  0
CIRCLE
  5
3A0
100
AcDbEntity
  8
1
370
    50
100
AcDbCircle
 10
-157.499998
 20
34.693487
 30
0.0
 40
3.0
  0
LINE
  5
3A1
100
AcDbEntity
  8
1
370
    25
100
AcDbLine
 10
-157.499998
 20
36.443487
 30
0.0
 11
-157.099998
 21
36.443487
 31
0.0
  0
ARC
  5
3A2
100
AcDbEntity
  8
1
370
    25
100
AcDbCircle
 10
-155.749998
 20
36.443487
 30
0.0
 40
1.35
100
AcDbArc
 50
180.0
 51
270.0
  0
LINE
  5
3A3
100
AcDbEntity
  8
1
370
    25
100
AcDbLine
 10
-155.749998
 20
35.093487
 30
0.0
 11
-155.749998
 21
34.693487
 31
0.0
  0
LINE
  5
3A4
100
AcDbEntity
  8
1
370
    25
100
AcDbLine
 10
-157.499998
 20
32.943487
 30
0.0
 11
-157.099998
 21
32.943487
 31
0.0
  0
ARC
  5
3A5
100
AcDbEntity
  8
1
370
    25
100
AcDbCircle
 10
-155.749998
 20
32.943487
 30
0.0
 40
1.35
100
AcDbArc
 50
90.0
 51
180.0
  0
LINE
  5
3A6
100
AcDbEntity
  8
1
370
    25
100
AcDbLine
 10
-155.749998
 20
34.293487
 30
0.0
 11
-155.749998
 21
34.693487
 31
0.0
  0
LINE
  5
3A7
100
AcDbEntity
  8
1
370
    25
100
AcDbLine
 10
-157.499998
 20
36.443487
 30
0.0
 11
-157.899998
 21
36.443487
 31
0.0
  0
ARC
  5
3A8
100
AcDbEntity
  8
1
370
    25
100
AcDbCircle
 10
-159.249998
 20
36.443487
 30
0.0
 40
1.35
100
AcDbArc
 50
270.0
 51
360.0
  0
LINE
  5
3A9
100
AcDbEntity
  8
1
370
    25
100
AcDbLine
 10
-159.249998
 20
35.093487
 30
0.0
 11
-159.249998
 21
34.693487
 31
0.0
  0
LINE
  5
3AA
100
AcDbEntity
  8
1
370
    25
100
AcDbLine
 10
-157.499998
 20
32.943487
 30
0.0
 11
-157.899998
 21
32.943487
 31
0.0
  0
ARC
  5
3AB
100
AcDbEntity
  8
1
370
    25
100
AcDbCircle
 10
-159.249998
 20
32.943487
 30
0.0
 40
1.35
100
AcDbArc
 50
0.0
 51
90.0
  0
LINE
  5
3AC
100
AcDbEntity
  8
1
370
    25
100
AcDbLine
 10
-159.249998
 20
34.293487
 30
0.0
 11
-159.249998
 21
34.693487
 31
0.0
  0
CIRCLE
  5
3AD
100
AcDbEntity
  8
1
370
    50
100
AcDbCircle
 10
-157.499998
 20
34.693487
 30
0.0
 40
3.0
  0
LINE
  5
3AE
100
AcDbEntity
  8
1
370
    50
100
AcDbLine
 10
-136.999998
 20
37.693487
 30
0.0
 11
-129.499998
 21
37.693487
 31
0.0
  0
LINE
  5
3AF
100
AcDbEntity
  8
1
370
    50
100
AcDbLine
 10
-136.999998
 20
31.693487
 30
0.0
 11
-129.499998
 21
31.693487
 31
0.0
  0
LINE
  5
3B0
100
AcDbEntity
  8
1
370
    50
100
AcDbLine
 10
-81.999998
 20
106.219687
 30
0.0
 11
-82.999998
 21
106.219687
 31
0.0
  0
LINE
  5
3B1
100
AcDbEntity
  8
1
370
    50
100
AcDbLine
 10
-81.999998
 20
74.219687
 30
0.0
 11
-82.999998
 21
74.219687
 31
0.0
  0
ARC
  5
3B2
100
AcDbEntity
  8
1
370
    50
100
AcDbCircle
 10
-81.999998
 20
105.219687
 30
0.0
 40
1.0
100
AcDbArc
 50
0.0
 51
90.0
  0
ARC
  5
3B3
100
AcDbEntity
  8
1
370
    50
100
AcDbCircle
 10
-81.999998
 20
75.219687
 30
0.0
 40
1.0
100
AcDbArc
 50
270.0
 51
360.0
  0
LINE
  5
3B4
100
AcDbEntity
  8
1
370
    50
100
AcDbLine
 10
-80.999998
 20
105.219687
 30
0.0
 11
-80.999998
 21
75.219687
 31
0.0
  0
CIRCLE
  5
3B5
100
AcDbEntity
  8
1
370
    50
100
AcDbCircle
 10
101.000046
 20
90.246387
 30
0.0
 40
16.0
  0
ARC
  5
3B6
100
AcDbEntity
  8
1
370
    50
100
AcDbCircle
 10
-255.999976
 20
34.693476
 30
0.0
 40
11.5
100
AcDbArc
 50
47.157395
 51
131.842605
  0
ARC
  5
3B7
100
AcDbEntity
  8
1
370
    50
100
AcDbCircle
 10
-255.999976
 20
34.693476
 30
0.0
 40
11.5
100
AcDbArc
 50
227.157395
 51
311.842605
  0
ARC
  5
3B8
100
AcDbEntity
  8
1
370
    50
100
AcDbCircle
 10
101.000046
 20
34.693487
 30
0.0
 40
11.5
100
AcDbArc
 50
47.157395
 51
131.842605
  0
ARC
  5
3B9
100
AcDbEntity
  8
1
370
    50
100
AcDbCircle
 10
101.000046
 20
34.693487
 30
0.0
 40
11.5
100
AcDbArc
 50
227.157395
 51
311.842605
  0
LINE
  5
3BA
100
AcDbEntity
  8
1
370
    50
100
AcDbLine
 10
127.000046
 20
195.193487
 30
0.0
 11
127.000046
 21
43.410964
 31
0.0
  0
LINE
  5
3BB
100
AcDbEntity
  8
1
370
    50
100
AcDbLine
 10
127.000046
 20
26.410316
 30
0.0
 11
127.000046
 21
-65.806513
 31
0.0
  0
LINE
  5
3BC
100
AcDbEntity
  8
1
370
    25
100
AcDbLine
 10
124.691346
 20
192.884805
 30
0.0
 11
124.691346
 21
43.390816
 31
0.0
  0
LINE
  5
3BD
100
AcDbEntity
  8
1
370
    25
100
AcDbLine
 10
124.691346
 20
26.390169
 30
0.0
 11
124.691346
 21
-63.497831
 31
0.0
  0
LINE
  5
3BE
100
AcDbEntity
  8
1
370
    50
100
AcDbLine
 10
-348.419329
 20
214.8952
 30
0.0
 11
-347.219329
 21
216.0952
 31
0.0
  0
LINE
  5
3BF
100
AcDbEntity
  8
1
370
    50
100
AcDbLine
 10
-343.919329
 20
214.8952
 30
0.0
 11
-342.719329
 21
216.0952
 31
0.0
  0
LINE
  5
3C0
100
AcDbEntity
  8
1
370
    50
100
AcDbLine
 10
-339.419329
 20
214.5952
 30
0.0
 11
-340.919329
 21
216.0952
 31
0.0
  0
LINE
  5
3C1
100
AcDbEntity
  8
1
370
    50
100
AcDbLine
 10
-344.919329
 20
214.8952
 30
0.0
 11
-346.119329
 21
216.0952
 31
0.0
  0
LINE
  5
3C2
100
AcDbEntity
  8
1
370
    18
  6
CENTER
100
AcDbLine
 10
-358.05998
 20
217.5952
 30
0.0
 11
-299.331153
 21
217.5952
 31
0.0
  0
LINE
  5
3C3
100
AcDbEntity
  8
1
370
    50
100
AcDbLine
 10
-303.784009
 20
211.526172
 30
0.0
 11
-303.784009
 21
223.664228
 31
0.0
  0
ARC
  5
3C4
100
AcDbEntity
  8
1
370
    50
100
AcDbCircle
 10
-316.034009
 20
192.8452
 30
0.0
 40
35.0
100
AcDbArc
 50
72.868027
 51
103.094776
  0
ARC
  5
3C5
100
AcDbEntity
  8
1
370
    50
100
AcDbCircle
 10
-306.534009
 20
223.664228
 30
0.0
 40
2.75
100
AcDbArc
 50
0.0
 51
72.868027
  0
ARC
  5
3C6
100
AcDbEntity
  8
1
370
    50
100
AcDbCircle
 10
-316.034009
 20
242.3452
 30
0.0
 40
35.0
100
AcDbArc
 50
256.905224
 51
287.131973
  0
ARC
  5
3C7
100
AcDbEntity
  8
1
370
    50
100
AcDbCircle
 10
-306.534009
 20
211.526172
 30
0.0
 40
2.75
100
AcDbArc
 50
287.131973
 51
360.0
  0
LINE
  5
3C8
100
AcDbEntity
  8
1
370
    50
100
AcDbLine
 10
-337.784009
 20
222.0952
 30
0.0
 11
-328.753118
 21
222.0952
 31
0.0
  0
LINE
  5
3C9
100
AcDbEntity
  8
1
370
    50
100
AcDbLine
 10
-337.784009
 20
213.0952
 30
0.0
 11
-328.753118
 21
213.0952
 31
0.0
  0
LINE
  5
3CA
100
AcDbEntity
  8
1
370
    50
100
AcDbLine
 10
-350.391116
 20
220.5952
 30
0.0
 11
-337.784009
 21
220.5952
 31
0.0
  0
LINE
  5
3CB
100
AcDbEntity
  8
1
370
    50
100
AcDbLine
 10
-339.419329
 20
214.5952
 30
0.0
 11
-332.284009
 21
214.5952
 31
0.0
  0
LINE
  5
3CC
100
AcDbEntity
  8
1
370
    50
100
AcDbLine
 10
-337.784009
 20
213.0952
 30
0.0
 11
-337.784009
 21
214.5952
 31
0.0
  0
LINE
  5
3CD
100
AcDbEntity
  8
1
370
    50
100
AcDbLine
 10
-337.784009
 20
220.5952
 30
0.0
 11
-337.784009
 21
222.0952
 31
0.0
  0
CIRCLE
  5
3CE
100
AcDbEntity
  8
1
370
    50
100
AcDbCircle
 10
-308.284009
 20
217.5952
 30
0.0
 40
2.0
  0
ARC
  5
3CF
100
AcDbEntity
  8
1
370
    50
100
AcDbCircle
 10
-316.034009
 20
192.8452
 30
0.0
 40
34.0
100
AcDbArc
 50
73.198162
 51
103.094776
  0
ARC
  5
3D0
100
AcDbEntity
  8
1
370
    50
100
AcDbCircle
 10
-316.034009
 20
242.3452
 30
0.0
 40
34.0
100
AcDbArc
 50
256.905224
 51
286.801838
  0
LINE
  5
3D1
100
AcDbEntity
  8
1
370
    50
100
AcDbLine
 10
-304.784009
 20
211.711273
 30
0.0
 11
-304.784009
 21
223.479127
 31
0.0
  0
LINE
  5
3D2
100
AcDbEntity
  8
1
370
    50
100
AcDbLine
 10
-325.284009
 20
211.177308
 30
0.0
 11
-325.284009
 21
224.013092
 31
0.0
  0
ARC
  5
3D3
100
AcDbEntity
  8
1
370
    50
100
AcDbCircle
 10
-323.284009
 20
224.013092
 30
0.0
 40
2.0
100
AcDbArc
 50
103.094776
 51
180.0
  0
ARC
  5
3D4
100
AcDbEntity
  8
1
370
    50
100
AcDbCircle
 10
-306.784009
 20
223.479127
 30
0.0
 40
2.0
100
AcDbArc
 50
0.0
 51
73.198162
  0
ARC
  5
3D5
100
AcDbEntity
  8
1
370
    50
100
AcDbCircle
 10
-306.784009
 20
211.711273
 30
0.0
 40
2.0
100
AcDbArc
 50
286.801838
 51
360.0
  0
ARC
  5
3D6
100
AcDbEntity
  8
1
370
    50
100
AcDbCircle
 10
-323.284009
 20
211.177308
 30
0.0
 40
2.0
100
AcDbArc
 50
180.0
 51
256.905224
  0
LINE
  5
3D7
100
AcDbEntity
  8
1
370
    50
100
AcDbLine
 10
-350.505329
 20
216.0952
 30
0.0
 11
-332.284009
 21
216.0952
 31
0.0
  0
LINE
  5
3D8
100
AcDbEntity
  8
1
370
    50
100
AcDbLine
 10
-332.284009
 20
218.3952
 30
0.0
 11
-332.284009
 21
214.5952
 31
0.0
  0
LINE
  5
3D9
100
AcDbEntity
  8
1
370
    50
100
AcDbLine
 10
-351.71892
 20
217.2952
 30
0.0
 11
-332.284009
 21
217.2952
 31
0.0
  0
LINE
  5
3DA
100
AcDbEntity
  8
1
370
    50
100
AcDbLine
 10
-332.284009
 20
218.3952
 30
0.0
 11
-352.281518
 21
218.3952
 31
0.0
  0
ARC
  5
3DB
100
AcDbEntity
  8
1
370
    50
100
AcDbCircle
 10
-323.284009
 20
211.177308
 30
0.0
 40
3.0
100
AcDbArc
 50
186.075438
 51
256.905224
  0
ARC
  5
3DC
100
AcDbEntity
  8
1
370
    50
100
AcDbCircle
 10
-328.753118
 20
210.5952
 30
0.0
 40
2.5
100
AcDbArc
 50
6.075438
 51
90.0
  0
ARC
  5
3DD
100
AcDbEntity
  8
1
370
    50
100
AcDbCircle
 10
-328.753118
 20
224.5952
 30
0.0
 40
2.5
100
AcDbArc
 50
270.0
 51
353.924562
  0
LINE
  5
3DE
100
AcDbEntity
  8
1
370
    18
  6
CENTER
100
AcDbLine
 10
-308.284009
 20
222.5952
 30
0.0
 11
-308.284009
 21
212.5952
 31
0.0
  0
ARC
  5
3DF
100
AcDbEntity
  8
1
370
    50
100
AcDbCircle
 10
-323.284009
 20
224.013092
 30
0.0
 40
3.0
100
AcDbArc
 50
103.094776
 51
173.924562
  0
LINE
  5
3E0
100
AcDbEntity
  8
1
370
    50
100
AcDbLine
 10
-351.844669
 20
219.55586
 30
0.0
 11
-351.098222
 21
220.302307
 31
0.0
  0
LINE
  5
3E1
100
AcDbEntity
  8
1
370
    50
100
AcDbLine
 10
-351.844669
 20
217.43454
 30
0.0
 11
-349.305329
 21
214.8952
 31
0.0
  0
ARC
  5
3E2
100
AcDbEntity
  8
1
370
    50
100
AcDbCircle
 10
-350.784009
 20
218.4952
 30
0.0
 40
1.5
100
AcDbArc
 50
135.0
 51
225.0
  0
ARC
  5
3E3
100
AcDbEntity
  8
1
370
    50
100
AcDbCircle
 10
-350.391116
 20
219.5952
 30
0.0
 40
1.0
100
AcDbArc
 50
90.0
 51
135.0
  0
LINE
  5
3E4
100
AcDbEntity
  8
1
370
    50
100
AcDbLine
 10
-349.305329
 20
214.8952
 30
0.0
 11
-348.419329
 21
214.8952
 31
0.0
  0
LINE
  5
3E5
100
AcDbEntity
  8
1
370
    50
100
AcDbLine
 10
-344.919329
 20
214.8952
 30
0.0
 11
-343.919329
 21
214.8952
 31
0.0
  0
LINE
  5
3E6
100
AcDbEntity
  8
1
370
    25
100
AcDbLine
 10
-318.284009
 20
225.5952
 30
0.0
 11
-318.284009
 21
209.5952
 31
0.0
  0
LINE
  5
3E7
100
AcDbEntity
  8
1
370
    25
100
AcDbLine
 10
-314.284009
 20
225.5952
 30
0.0
 11
-314.284009
 21
209.5952
 31
0.0
  0
LINE
  5
3E8
100
AcDbEntity
  8
1
370
    25
100
AcDbLine
 10
-318.284009
 20
225.5952
 30
0.0
 11
-314.284009
 21
225.5952
 31
0.0
  0
LINE
  5
3E9
100
AcDbEntity
  8
1
370
    25
100
AcDbLine
 10
-318.284009
 20
209.5952
 30
0.0
 11
-314.284009
 21
209.5952
 31
0.0
  0
TEXT
  5
3EA
100
AcDbEntity
  8
1
370
    25
100
AcDbText
 10
-318.084009
 20
225.7952
 30
0.0
 40
3.5
  1
Ｇ
 50
270.0
 72
     5
 11
-318.084009
 21
222.9952
 31
0.0
100
AcDbText
  0
TEXT
  5
3EB
100
AcDbEntity
  8
1
370
    25
100
AcDbText
 10
-318.084009
 20
222.5952
 30
0.0
 40
3.5
  1
Ｉ
 50
270.0
 72
     5
 11
-318.084009
 21
219.7952
 31
0.0
100
AcDbText
  0
TEXT
  5
3EC
100
AcDbEntity
  8
1
370
    25
100
AcDbText
 10
-318.084009
 20
219.3952
 30
0.0
 40
3.5
  1
Ｋ
 50
270.0
 72
     5
 11
-318.084009
 21
216.5952
 31
0.0
100
AcDbText
  0
TEXT
  5
3ED
100
AcDbEntity
  8
1
370
    25
100
AcDbText
 10
-318.084009
 20
216.1952
 30
0.0
 40
3.5
  1
Ｅ
 50
270.0
 72
     5
 11
-318.084009
 21
213.3952
 31
0.0
100
AcDbText
  0
TEXT
  5
3EE
100
AcDbEntity
  8
1
370
    25
100
AcDbText
 10
-318.084009
 20
212.9952
 30
0.0
 40
3.5
  1
Ｎ
 50
270.0
 72
     5
 11
-318.084009
 21
210.1952
 31
0.0
100
AcDbText
  0
LINE
  5
3EF
100
AcDbEntity
  8
1
370
    50
100
AcDbLine
 10
-236.225734
 20
26.01085
 30
0.0
 11
-368.919197
 21
27.168848
 31
0.0
  0
LINE
  5
3F0
100
AcDbEntity
  8
1
370
    50
100
AcDbLine
 10
-236.077383
 20
43.010203
 30
0.0
 11
-368.770846
 21
44.168201
 31
0.0
  0
ARC
  5
3F1
100
AcDbEntity
  8
1
370
    50
100
AcDbCircle
 10
-284.998956
 20
34.936811
 30
0.0
 40
50.0
100
AcDbArc
 50
350.199284
 51
8.800716
  0
ARC
  5
3F2
100
AcDbEntity
  8
1
370
    50
100
AcDbCircle
 10
-319.997623
 20
35.24224
 30
0.0
 40
50.0
100
AcDbArc
 50
170.199284
 51
188.800716
  0
ARC
  5
3F3
100
AcDbEntity
  8
1
370
    50
100
AcDbCircle
 10
-368.914834
 20
27.668829
 30
0.0
 40
0.5
100
AcDbArc
 50
188.800716
 51
269.5
  0
ARC
  5
3F4
100
AcDbEntity
  8
1
370
    50
100
AcDbCircle
 10
-368.775209
 20
43.66822
 30
0.0
 40
0.5
100
AcDbArc
 50
89.5
 51
170.199284
  0
LINE
  5
3F5
100
AcDbEntity
  8
1
370
    50
100
AcDbLine
 10
-235.798079
 20
26.548631
 30
0.0
 11
-235.657451
 21
42.663015
 31
0.0
  0
LINE
  5
3F6
100
AcDbEntity
  8
1
370
    50
100
AcDbLine
 10
-369.34009
 20
27.405852
 30
0.0
 11
-369.195811
 21
43.938579
 31
0.0
  0
ARC
  5
3F7
100
AcDbEntity
  8
1
370
    50
100
AcDbCircle
 10
-236.081746
 20
42.510222
 30
0.0
 40
0.5
100
AcDbArc
 50
8.800716
 51
89.5
  0
ARC
  5
3F8
100
AcDbEntity
  8
1
370
    50
100
AcDbCircle
 10
-236.221371
 20
26.510831
 30
0.0
 40
0.5
100
AcDbArc
 50
269.5
 51
350.199284
  0
LINE
  5
3F9
100
AcDbEntity
  8
1
370
    50
100
AcDbLine
 10
81.225734
 20
26.01085
 30
0.0
 11
213.919197
 21
27.168848
 31
0.0
  0
LINE
  5
3FA
100
AcDbEntity
  8
1
370
    50
100
AcDbLine
 10
81.077383
 20
43.010203
 30
0.0
 11
213.770846
 21
44.168201
 31
0.0
  0
ARC
  5
3FB
100
AcDbEntity
  8
1
370
    50
100
AcDbCircle
 10
129.998956
 20
34.936811
 30
0.0
 40
50.0
100
AcDbArc
 50
171.199284
 51
189.800716
  0
LINE
  5
3FC
100
AcDbEntity
  8
1
370
    50
100
AcDbLine
 10
80.798079
 20
26.548631
 30
0.0
 11
80.657451
 21
42.663015
 31
0.0
  0
ARC
  5
3FD
100
AcDbEntity
  8
1
370
    50
100
AcDbCircle
 10
164.997623
 20
35.24224
 30
0.0
 40
50.0
100
AcDbArc
 50
351.199284
 51
9.800716
  0
LINE
  5
3FE
100
AcDbEntity
  8
1
370
    50
100
AcDbLine
 10
214.34009
 20
27.405852
 30
0.0
 11
214.195811
 21
43.938579
 31
0.0
  0
ARC
  5
3FF
100
AcDbEntity
  8
1
370
    50
100
AcDbCircle
 10
213.914834
 20
27.668829
 30
0.0
 40
0.5
100
AcDbArc
 50
270.5
 51
351.199284
  0
ARC
  5
400
100
AcDbEntity
  8
1
370
    50
100
AcDbCircle
 10
213.775209
 20
43.66822
 30
0.0
 40
0.5
100
AcDbArc
 50
9.800716
 51
90.5
  0
ARC
  5
401
100
AcDbEntity
  8
1
370
    50
100
AcDbCircle
 10
81.081746
 20
42.510222
 30
0.0
 40
0.5
100
AcDbArc
 50
90.5
 51
171.199284
  0
ARC
  5
402
100
AcDbEntity
  8
1
370
    50
100
AcDbCircle
 10
81.221371
 20
26.510831
 30
0.0
 40
0.5
100
AcDbArc
 50
189.800716
 51
270.5
  0
LINE
  5
403
100
AcDbEntity
  8
1
370
    50
100
AcDbLine
 10
-186.999997
 20
26.193474
 30
0.0
 11
-152.799997
 21
26.193474
 31
0.0
  0
LINE
  5
404
100
AcDbEntity
  8
1
370
    50
100
AcDbLine
 10
-186.999997
 20
43.193474
 30
0.0
 11
-152.799997
 21
43.193474
 31
0.0
  0
CIRCLE
  5
405
100
AcDbEntity
  8
1
370
    50
100
AcDbCircle
 10
-186.999997
 20
34.693474
 30
0.0
 40
8.5
  0
LINE
  5
406
100
AcDbEntity
  8
1
370
    50
100
AcDbLine
 10
-147.499997
 20
23.693474
 30
0.0
 11
-147.499997
 21
45.693474
 31
0.0
  0
LINE
  5
407
100
AcDbEntity
  8
1
370
    50
100
AcDbLine
 10
-152.199997
 20
23.193474
 30
0.0
 11
-147.999997
 21
23.193474
 31
0.0
  0
LINE
  5
408
100
AcDbEntity
  8
1
370
    50
100
AcDbLine
 10
-152.199997
 20
46.193474
 30
0.0
 11
-147.999997
 21
46.193474
 31
0.0
  0
ARC
  5
409
100
AcDbEntity
  8
1
370
    50
100
AcDbCircle
 10
-147.999997
 20
23.693474
 30
0.0
 40
0.5
100
AcDbArc
 50
270.0
 51
360.0
  0
ARC
  5
40A
100
AcDbEntity
  8
1
370
    50
100
AcDbCircle
 10
-147.999997
 20
45.693474
 30
0.0
 40
0.5
100
AcDbArc
 50
0.0
 51
90.0
  0
LINE
  5
40B
100
AcDbEntity
  8
1
370
    50
100
AcDbLine
 10
-152.499997
 20
45.893474
 30
0.0
 11
-152.499997
 21
43.493474
 31
0.0
  0
LINE
  5
40C
100
AcDbEntity
  8
1
370
    50
100
AcDbLine
 10
-152.499997
 20
25.893474
 30
0.0
 11
-152.499997
 21
23.493474
 31
0.0
  0
ARC
  5
40D
100
AcDbEntity
  8
1
370
    50
100
AcDbCircle
 10
-152.799997
 20
25.893474
 30
0.0
 40
0.3
100
AcDbArc
 50
360.0
 51
90.0
  0
ARC
  5
40E
100
AcDbEntity
  8
1
370
    50
100
AcDbCircle
 10
-152.199997
 20
23.493474
 30
0.0
 40
0.3
100
AcDbArc
 50
180.0
 51
270.0
  0
ARC
  5
40F
100
AcDbEntity
  8
1
370
    50
100
AcDbCircle
 10
-152.199997
 20
45.893474
 30
0.0
 40
0.3
100
AcDbArc
 50
90.0
 51
180.0
  0
ARC
  5
410
100
AcDbEntity
  8
1
370
    50
100
AcDbCircle
 10
-152.799997
 20
43.493474
 30
0.0
 40
0.3
100
AcDbArc
 50
270.0
 51
0.0
  0
LINE
  5
411
100
AcDbEntity
  8
1
370
    50
100
AcDbLine
 10
-46.999997
 20
26.193474
 30
0.0
 11
-81.199997
 21
26.193474
 31
0.0
  0
LINE
  5
412
100
AcDbEntity
  8
1
370
    50
100
AcDbLine
 10
-46.999997
 20
43.193474
 30
0.0
 11
-81.199997
 21
43.193474
 31
0.0
  0
CIRCLE
  5
413
100
AcDbEntity
  8
1
370
    50
100
AcDbCircle
 10
-46.999997
 20
34.693474
 30
0.0
 40
8.5
  0
LINE
  5
414
100
AcDbEntity
  8
1
370
    50
100
AcDbLine
 10
-86.499997
 20
23.693474
 30
0.0
 11
-86.499997
 21
45.693474
 31
0.0
  0
LINE
  5
415
100
AcDbEntity
  8
1
370
    50
100
AcDbLine
 10
-81.799997
 20
23.193474
 30
0.0
 11
-85.999997
 21
23.193474
 31
0.0
  0
LINE
  5
416
100
AcDbEntity
  8
1
370
    50
100
AcDbLine
 10
-81.799997
 20
46.193474
 30
0.0
 11
-85.999997
 21
46.193474
 31
0.0
  0
ARC
  5
417
100
AcDbEntity
  8
1
370
    50
100
AcDbCircle
 10
-85.999997
 20
23.693474
 30
0.0
 40
0.5
100
AcDbArc
 50
180.0
 51
270.0
  0
ARC
  5
418
100
AcDbEntity
  8
1
370
    50
100
AcDbCircle
 10
-85.999997
 20
45.693474
 30
0.0
 40
0.5
100
AcDbArc
 50
90.0
 51
180.0
  0
LINE
  5
419
100
AcDbEntity
  8
1
370
    50
100
AcDbLine
 10
-81.499997
 20
45.893474
 30
0.0
 11
-81.499997
 21
43.493474
 31
0.0
  0
LINE
  5
41A
100
AcDbEntity
  8
1
370
    50
100
AcDbLine
 10
-81.499997
 20
25.893474
 30
0.0
 11
-81.499997
 21
23.493474
 31
0.0
  0
ARC
  5
41B
100
AcDbEntity
  8
1
370
    50
100
AcDbCircle
 10
-81.199997
 20
25.893474
 30
0.0
 40
0.3
100
AcDbArc
 50
90.0
 51
180.0
  0
ARC
  5
41C
100
AcDbEntity
  8
1
370
    50
100
AcDbCircle
 10
-81.799997
 20
23.493474
 30
0.0
 40
0.3
100
AcDbArc
 50
270.0
 51
360.0
  0
ARC
  5
41D
100
AcDbEntity
  8
1
370
    50
100
AcDbCircle
 10
-81.799997
 20
45.893474
 30
0.0
 40
0.3
100
AcDbArc
 50
0.0
 51
90.0
  0
ARC
  5
41E
100
AcDbEntity
  8
1
370
    50
100
AcDbCircle
 10
-81.199997
 20
43.493474
 30
0.0
 40
0.3
100
AcDbArc
 50
180.0
 51
270.0
  0
DIMENSION
  5
41F
100
AcDbEntity
  8
2
370
    25
100
AcDbDimension
  2
*D0
 10
-68.290843
 20
72.291116
 30
0.0
 11
-76.790843
 21
87.719687
 31
0.0
 70
     1
 71
     0
 72
     0
 41
0.0
 42
0.0
 51
270.0
  3
Standard
100
AcDbAlignedDimension
 13
-86.999998
 23
108.148259
 33
0.0
 14
-86.999998
 24
72.291116
 34
0.0
 50
90.0
  0
DIMENSION
  5
420
100
AcDbEntity
  8
2
370
    25
100
AcDbDimension
  2
*D1
 10
-164.999998
 20
112.591263
 30
0.0
 11
-171.999998
 21
116.091263
 31
0.0
 70
     1
 71
     0
 72
     0
 41
0.0
 42
0.0
 51
270.0
  3
Standard
100
AcDbAlignedDimension
 13
-136.999998
 23
104.172202
 33
0.0
 14
-164.999998
 24
84.719687
 34
0.0
 50
180.0
  0
DIMENSION
  5
421
100
AcDbEntity
  8
2
370
    25
100
AcDbDimension
  2
*D2
 10
-180.768542
 20
74.719687
 30
0.0
 11
-189.268542
 21
82.219687
 31
0.0
 70
     1
 71
     0
 72
     0
 41
0.0
 42
0.0
 51
270.0
  3
Standard
100
AcDbAlignedDimension
 13
-147.999998
 23
94.719687
 33
0.0
 14
-147.999998
 24
74.719687
 34
0.0
 50
270.0
  0
DIMENSION
  5
422
100
AcDbEntity
  8
2
370
    25
100
AcDbDimension
  2
*D3
 10
-96.999998
 20
112.504288
 30
0.0
 11
-68.199998
 21
116.004288
 31
0.0
 70
     1
 71
     0
 72
     0
 41
0.0
 42
0.0
 51
270.0
  3
Standard
100
AcDbAlignedDimension
 13
-80.199998
 23
84.719687
 33
0.0
 14
-96.999998
 24
56.658049
 34
0.0
 50
180.0
  0
DIMENSION
  5
423
100
AcDbEntity
  8
2
370
    25
100
AcDbDimension
  2
*D4
 10
-216.975038
 20
84.719676
 30
0.0
 11
-222.975038
 21
59.719676
 31
0.0
 71
     0
 72
     0
 41
0.0
 42
0.0
  3
Standard
100
AcDbAlignedDimension
 13
-226.618236
 23
34.719676
 33
0.0
 14
-239.999976
 24
84.719676
 34
0.0
 50
90.0
100
AcDbRotatedDimension
  0
DIMENSION
  5
424
100
AcDbEntity
  8
2
370
    25
100
AcDbDimension
  2
*D5
 10
-208.312196
 20
34.719676
 30
0.0
 11
-214.312197
 21
21.219676
 31
0.0
 71
     0
 72
     0
 41
0.0
 42
0.0
  3
Standard
100
AcDbAlignedDimension
 13
-248.749976
 23
7.719676
 33
0.0
 14
-226.618236
 24
34.719676
 34
0.0
 50
90.0
100
AcDbRotatedDimension
  0
DIMENSION
  5
425
100
AcDbEntity
  8
2
370
    25
100
AcDbDimension
  2
*D6
 10
-208.312196
 20
119.719676
 30
0.0
 11
-214.312196
 21
77.219676
 31
0.0
 71
     0
 72
     0
 41
0.0
 42
0.0
  3
Standard
100
AcDbAlignedDimension
 13
-226.618236
 23
34.719676
 33
0.0
 14
-248.749976
 24
119.719676
 34
0.0
 50
90.0
100
AcDbRotatedDimension
  0
CIRCLE
  5
426
100
AcDbEntity
  8
2
370
    25
100
AcDbCircle
 10
21.013524
 20
154.109874
 30
0.0
 40
5.0
  0
CIRCLE
  5
427
100
AcDbEntity
  8
2
370
    25
100
AcDbCircle
 10
40.754153
 20
154.109874
 30
0.0
 40
5.0
  0
CIRCLE
  5
428
100
AcDbEntity
  8
2
370
    25
100
AcDbCircle
 10
60.494783
 20
154.109874
 30
0.0
 40
5.0
  0
LWPOLYLINE
  5
429
100
AcDbEntity
  8
2
370
    25
100
AcDbPolyline
 90
        2
 70
     0
 10
50.000046
 20
101.996751
 10
23.467287
 20
149.698401
  0
LINE
  5
42D
100
AcDbEntity
  8
2
370
    25
100
AcDbLine
 10
50.280689
 20
101.492199
 30
0.0
 11
51.154598
 21
101.978287
 31
0.0
  0
LINE
  5
42E
100
AcDbEntity
  8
2
370
    25
100
AcDbLine
 10
51.154598
 20
101.978287
 30
0.0
 11
49.438759
 21
103.005854
 31
0.0
  0
LINE
  5
42F
100
AcDbEntity
  8
2
370
    25
100
AcDbLine
 10
49.438759
 20
103.005854
 30
0.0
 11
49.406779
 21
101.00611
 31
0.0
  0
LINE
  5
430
100
AcDbEntity
  8
2
370
    25
100
AcDbLine
 10
49.406779
 20
101.00611
 30
0.0
 11
50.280689
 21
101.492199
 31
0.0
  0
LWPOLYLINE
  5
431
100
AcDbEntity
  8
2
370
    25
100
AcDbPolyline
 90
        2
 70
     0
 10
59.157998
 20
113.996387
 10
42.82427
 20
149.597795
  0
LINE
  5
435
100
AcDbEntity
  8
2
370
    25
100
AcDbLine
 10
59.398753
 20
113.47163
 30
0.0
 11
60.307659
 21
113.888631
 31
0.0
  0
LINE
  5
436
100
AcDbEntity
  8
2
370
    25
100
AcDbLine
 10
60.307659
 20
113.888631
 30
0.0
 11
58.676486
 21
115.045901
 31
0.0
  0
LINE
  5
437
100
AcDbEntity
  8
2
370
    25
100
AcDbLine
 10
58.676486
 20
115.045901
 30
0.0
 11
58.489847
 21
113.054629
 31
0.0
  0
LINE
  5
438
100
AcDbEntity
  8
2
370
    25
100
AcDbLine
 10
58.489847
 20
113.054629
 30
0.0
 11
59.398753
 21
113.47163
 31
0.0
  0
LWPOLYLINE
  5
439
100
AcDbEntity
  8
2
370
    25
100
AcDbPolyline
 90
        2
 70
     0
 10
65.954018
 20
86.25787
 10
60.903367
 20
149.031652
  0
LINE
  5
43D
100
AcDbEntity
  8
2
370
    25
100
AcDbLine
 10
66.00032
 20
85.68238
 30
0.0
 11
66.997099
 21
85.762579
 31
0.0
  0
LINE
  5
43E
100
AcDbEntity
  8
2
370
    25
100
AcDbLine
 10
66.997099
 20
85.762579
 30
0.0
 11
65.861412
 21
87.408851
 31
0.0
  0
LINE
  5
43F
100
AcDbEntity
  8
2
370
    25
100
AcDbLine
 10
65.861412
 20
87.408851
 30
0.0
 11
65.003542
 21
85.602181
 31
0.0
  0
LINE
  5
440
100
AcDbEntity
  8
2
370
    25
100
AcDbLine
 10
65.003542
 20
85.602181
 30
0.0
 11
66.00032
 21
85.68238
 31
0.0
  0
CIRCLE
  5
441
100
AcDbEntity
  8
2
370
    25
100
AcDbCircle
 10
-63.484178
 20
148.782332
 30
0.0
 40
5.0
  0
LWPOLYLINE
  5
442
100
AcDbEntity
  8
2
370
    25
100
AcDbPolyline
 90
        2
 70
     0
 10
-90.734743
 20
127.431976
 10
-67.517816
 20
145.622045
  0
LINE
  5
446
100
AcDbEntity
  8
2
370
    25
100
AcDbLine
 10
-91.189216
 20
127.075904
 30
0.0
 11
-90.572481
 21
126.288733
 31
0.0
  0
LINE
  5
447
100
AcDbEntity
  8
2
370
    25
100
AcDbLine
 10
-90.572481
 20
126.288733
 30
0.0
 11
-89.825796
 21
128.14412
 31
0.0
  0
LINE
  5
448
100
AcDbEntity
  8
2
370
    25
100
AcDbLine
 10
-89.825796
 20
128.14412
 30
0.0
 11
-91.805951
 21
127.863074
 31
0.0
  0
LINE
  5
449
100
AcDbEntity
  8
2
370
    25
100
AcDbLine
 10
-91.805951
 20
127.863074
 30
0.0
 11
-91.189216
 21
127.075904
 31
0.0
  0
CIRCLE
  5
44A
100
AcDbEntity
  8
2
370
    25
100
AcDbCircle
 10
-209.885997
 20
148.878115
 30
0.0
 40
5.0
  0
LWPOLYLINE
  5
44B
100
AcDbEntity
  8
2
370
    25
100
AcDbPolyline
 90
        2
 70
     0
 10
-254.899721
 20
121.492724
 10
-214.418285
 20
146.120767
  0
LINE
  5
44F
100
AcDbEntity
  8
2
370
    25
100
AcDbLine
 10
-255.392962
 20
121.192647
 30
0.0
 11
-254.873213
 21
120.338328
 31
0.0
  0
LINE
  5
450
100
AcDbEntity
  8
2
370
    25
100
AcDbLine
 10
-254.873213
 20
120.338328
 30
0.0
 11
-253.913239
 21
122.092879
 31
0.0
  0
LINE
  5
451
100
AcDbEntity
  8
2
370
    25
100
AcDbLine
 10
-253.913239
 20
122.092879
 30
0.0
 11
-255.912711
 21
122.046966
 31
0.0
  0
LINE
  5
452
100
AcDbEntity
  8
2
370
    25
100
AcDbLine
 10
-255.912711
 20
122.046966
 30
0.0
 11
-255.392962
 21
121.192647
 31
0.0
  0
DIMENSION
  5
453
100
AcDbEntity
  8
2
370
    25
100
AcDbDimension
  2
*D7
 10
322.388214
 20
206.945381
 30
0.0
 11
316.388214
 21
193.445381
 31
0.0
 71
     0
 72
     0
 41
0.0
 42
0.0
  3
Standard
100
AcDbAlignedDimension
 13
299.388214
 23
179.945381
 33
0.0
 14
299.388214
 24
206.945381
 34
0.0
 50
90.0
100
AcDbRotatedDimension
  0
DIMENSION
  5
454
100
AcDbEntity
  8
2
370
    25
100
AcDbDimension
  2
*D8
 10
330.388214
 20
218.445381
 30
0.0
 11
324.388214
 21
193.445381
 31
0.0
 71
     0
 72
     0
 41
0.0
 42
0.0
  3
Standard
100
AcDbAlignedDimension
 13
300.913061
 23
168.445381
 33
0.0
 14
300.913061
 24
218.445381
 34
0.0
 50
90.0
100
AcDbRotatedDimension
  0
DIMENSION
  5
455
100
AcDbEntity
  8
2
370
    25
100
AcDbDimension
  2
*D9
 10
338.388214
 20
226.445381
 30
0.0
 11
332.388214
 21
193.445381
 31
0.0
 71
     0
 72
     0
 41
0.0
 42
0.0
  3
Standard
100
AcDbAlignedDimension
 13
306.388214
 23
160.445381
 33
0.0
 14
306.388214
 24
226.445381
 34
0.0
 50
90.0
100
AcDbRotatedDimension
  0
DIMENSION
  5
456
100
AcDbEntity
  8
2
370
    25
100
AcDbDimension
  2
*D10
 10
383.360118
 20
208.54538
 30
0.0
 11
372.360118
 21
188.44538
 31
0.0
 71
     0
 72
     0
 41
0.0
 42
0.0
  3
Standard
100
AcDbAlignedDimension
 13
355.086907
 23
178.34538
 33
0.0
 14
355.086907
 24
208.54538
 34
0.0
 50
90.0
100
AcDbRotatedDimension
  0
DIMENSION
  5
457
100
AcDbEntity
  8
2
370
    25
100
AcDbDimension
  2
*D11
 10
391.360118
 20
226.245501
 30
0.0
 11
380.360118
 21
188.44538
 31
0.0
 71
     0
 72
     0
 41
0.0
 42
0.0
  3
Standard
100
AcDbAlignedDimension
 13
353.686222
 23
160.645259
 33
0.0
 14
353.686222
 24
226.245501
 34
0.0
 50
90.0
100
AcDbRotatedDimension
  0
LWPOLYLINE
  5
458
100
AcDbEntity
  8
2
370
    25
100
AcDbPolyline
 90
        2
 70
     0
 10
272.79949
 20
220.30651
 10
253.761827
 20
259.125659
  0
LINE
  5
45C
100
AcDbEntity
  8
2
370
    25
100
AcDbLine
 10
273.053709
 20
219.788141
 30
0.0
 11
273.95155
 21
220.228459
 31
0.0
  0
LINE
  5
45D
100
AcDbEntity
  8
2
370
    25
100
AcDbLine
 10
273.95155
 20
220.228459
 30
0.0
 11
272.291054
 21
221.343248
 31
0.0
  0
LINE
  5
45E
100
AcDbEntity
  8
2
370
    25
100
AcDbLine
 10
272.291054
 20
221.343248
 30
0.0
 11
272.155867
 21
219.347822
 31
0.0
  0
LINE
  5
45F
100
AcDbEntity
  8
2
370
    25
100
AcDbLine
 10
272.155867
 20
219.347822
 30
0.0
 11
273.053709
 21
219.788141
 31
0.0
  0
DIMENSION
  5
460
100
AcDbEntity
  8
2
370
    25
100
AcDbDimension
  2
*D12
 10
293.888214
 20
254.445381
 30
0.0
 11
304.388214
 21
257.945381
 31
0.0
 71
     0
 72
     0
 41
0.0
 42
0.0
  3
Standard
100
AcDbAlignedDimension
 13
286.888214
 23
204.245381
 33
0.0
 14
293.888214
 24
231.392797
 34
0.0
100
AcDbRotatedDimension
  0
DIMENSION
  5
461
100
AcDbEntity
  8
2
370
    25
100
AcDbDimension
  2
*D13
 10
293.888214
 20
144.445381
 30
0.0
 11
281.388214
 21
147.945381
 31
0.0
 71
     0
 72
     0
 41
0.0
 42
0.0
  3
Standard
100
AcDbAlignedDimension
 13
268.888214
 23
144.445381
 33
0.0
 14
293.888214
 24
158.111501
 34
0.0
100
AcDbRotatedDimension
  0
DIMENSION
  5
462
100
AcDbEntity
  8
2
370
    25
100
AcDbDimension
  2
*D14
 10
306.388214
 20
144.445381
 30
0.0
 11
324.388214
 21
147.945381
 31
0.0
 71
     0
 72
     0
 41
0.0
 42
0.0
  3
Standard
100
AcDbAlignedDimension
 13
293.888214
 23
144.445381
 33
0.0
 14
306.388214
 24
144.445381
 34
0.0
100
AcDbRotatedDimension
  0
DIMENSION
  5
463
100
AcDbEntity
  8
2
370
    25
100
AcDbDimension
  2
*D15
 10
306.388214
 20
134.445381
 30
0.0
 11
287.638214
 21
137.945381
 31
0.0
 71
     0
 72
     0
 41
0.0
 42
0.0
  3
Standard
100
AcDbAlignedDimension
 13
268.888214
 23
165.445381
 33
0.0
 14
306.388214
 24
160.445381
 34
0.0
100
AcDbRotatedDimension
  0
DIMENSION
  5
464
100
AcDbEntity
  8
2
370
    25
100
AcDbDimension
  2
*D16
 10
319.653927
 20
123.922353
 30
0.0
 11
316.153927
 21
132.922353
 31
0.0
 71
     0
 72
     0
 41
0.0
 42
0.0
  3
Standard
100
AcDbAlignedDimension
 13
306.388214
 23
122.922353
 33
0.0
 14
319.653927
 24
123.922353
 34
0.0
 50
90.0
100
AcDbRotatedDimension
  0
DIMENSION
  5
465
100
AcDbEntity
  8
2
370
    25
100
AcDbDimension
  2
*D17
 10
319.653927
 20
122.922353
 30
0.0
 11
310.969173
 21
103.474622
 31
0.0
 71
     0
 72
     0
 41
0.0
 42
0.0
  3
Standard
100
AcDbAlignedDimension
 13
303.721807
 23
121.022353
 33
0.0
 14
319.653927
 24
122.922353
 34
0.0
 50
90.0
100
AcDbRotatedDimension
  0
DIMENSION
  5
466
100
AcDbEntity
  8
2
370
    25
100
AcDbDimension
  2
*D18
 10
328.988888
 20
123.922353
 30
0.0
 11
322.988888
 21
118.922353
 31
0.0
 71
     0
 72
     0
 41
0.0
 42
0.0
  3
Standard
100
AcDbAlignedDimension
 13
301.008899
 23
113.922353
 33
0.0
 14
306.388214
 24
123.922353
 34
0.0
 50
90.0
100
AcDbRotatedDimension
  0
DIMENSION
  5
467
100
AcDbEntity
  8
2
370
    25
100
AcDbDimension
  2
*D19
 10
303.188214
 20
92.315168
 30
0.0
 11
294.138214
 21
95.815168
 31
0.0
 71
     0
 72
     0
 41
0.0
 42
0.0
  3
Standard
100
AcDbAlignedDimension
 13
285.088214
 23
121.022353
 33
0.0
 14
303.188214
 24
121.022353
 34
0.0
100
AcDbRotatedDimension
  0
TEXT
  5
468
100
AcDbEntity
  8
2
370
    25
100
AcDbText
 10
296.888214
 20
247.445381
 30
0.0
 40
5.0
  1
－
 72
     5
 11
300.888214
 21
247.445381
 31
0.0
100
AcDbText
  0
DIMENSION
  5
469
100
AcDbEntity
  8
2
370
    25
100
AcDbDimension
  2
*D20
 10
288.888214
 20
246.445381
 30
0.0
 11
304.388214
 21
249.945381
 31
0.0
 71
     0
 72
     0
 41
0.0
 42
0.0
  3
Standard
100
AcDbAlignedDimension
 13
286.888214
 23
246.445381
 33
0.0
 14
288.888214
 24
204.245381
 34
0.0
100
AcDbRotatedDimension
  0
TEXT
  5
46A
100
AcDbEntity
  8
2
370
    25
100
AcDbText
 10
265.888214
 20
247.445381
 30
0.0
 40
5.0
  1
＋
 72
     5
 11
269.888214
 21
247.445381
 31
0.0
100
AcDbText
  0
DIMENSION
  5
46B
100
AcDbEntity
  8
2
370
    25
100
AcDbDimension
  2
*D21
 10
286.888214
 20
246.445381
 30
0.0
 11
273.388214
 21
249.945381
 31
0.0
 71
     0
 72
     0
 41
0.0
 42
0.0
  3
Standard
100
AcDbAlignedDimension
 13
283.888214
 23
204.245381
 33
0.0
 14
286.888214
 24
246.445381
 34
0.0
100
AcDbRotatedDimension
  0
TEXT
  5
46C
100
AcDbEntity
  8
2
370
    25
100
AcDbText
 10
264.567451
 20
265.206076
 30
0.0
 40
5.0
  1
（調整範囲５ｍｍ）
 72
     5
 11
308.567451
 21
265.206076
 31
0.0
100
AcDbText
  0
CIRCLE
  5
46D
100
AcDbEntity
  8
2
370
    25
100
AcDbCircle
 10
-364.164946
 20
185.631038
 30
0.0
 40
5.0
  0
LWPOLYLINE
  5
46E
100
AcDbEntity
  8
2
370
    25
100
AcDbPolyline
 90
        2
 70
     0
 10
-344.093549
 20
216.530877
 10
-361.409459
 20
189.873099
  0
LINE
  5
472
100
AcDbEntity
  8
2
370
    25
100
AcDbLine
 10
-343.779048
 20
217.015049
 30
0.0
 11
-344.617659
 21
217.55978
 31
0.0
  0
LINE
  5
473
100
AcDbEntity
  8
2
370
    25
100
AcDbLine
 10
-344.617659
 20
217.55978
 30
0.0
 11
-344.72255
 21
215.562533
 31
0.0
  0
LINE
  5
474
100
AcDbEntity
  8
2
370
    25
100
AcDbLine
 10
-344.72255
 20
215.562533
 30
0.0
 11
-342.940438
 21
216.470319
 31
0.0
  0
LINE
  5
475
100
AcDbEntity
  8
2
370
    25
100
AcDbLine
 10
-342.940438
 20
216.470319
 30
0.0
 11
-343.779048
 21
217.015049
 31
0.0
  0
DIMENSION
  5
476
100
AcDbEntity
  8
2
370
    25
100
AcDbDimension
  2
*D22
 10
-290.147156
 20
227.8452
 30
0.0
 11
-301.147156
 21
212.5952
 31
0.0
 70
     1
 71
     0
 72
     0
 41
0.0
 42
0.0
 51
270.0
  3
Standard
100
AcDbAlignedDimension
 13
-316.034009
 23
207.3452
 33
0.0
 14
-316.034009
 24
227.8452
 34
0.0
 50
90.0
  0
DIMENSION
  5
477
100
AcDbEntity
  8
2
370
    25
100
AcDbDimension
  2
*D23
 10
-352.284009
 20
254.75235
 30
0.0
 11
-328.034009
 21
258.25235
 31
0.0
 70
     1
 71
     0
 72
     0
 41
0.0
 42
0.0
 51
270.0
  3
Standard
100
AcDbAlignedDimension
 13
-303.784009
 23
211.526172
 33
0.0
 14
-352.284009
 24
218.481609
 34
0.0
 50
180.0
  0
DIMENSION
  5
478
100
AcDbEntity
  8
2
370
    25
100
AcDbDimension
  2
*D24
 10
-290.598938
 20
173.886947
 30
0.0
 11
-294.098938
 21
180.886947
 31
0.0
 70
     1
 71
     0
 72
     0
 41
0.0
 42
0.0
 51
270.0
  3
Standard
100
AcDbAlignedDimension
 13
-303.784009
 23
171.886947
 33
0.0
 14
-303.784009
 24
173.886947
 34
0.0
 50
90.0
  0
DIMENSION
  5
479
100
AcDbEntity
  8
2
370
    25
100
AcDbDimension
  2
*D25
 10
-326.782799
 20
243.677338
 30
0.0
 11
-315.283404
 21
247.177338
 31
0.0
 70
     1
 71
     0
 72
     0
 41
0.0
 42
0.0
 51
270.0
  3
Standard
100
AcDbAlignedDimension
 13
-303.784009
 23
211.526172
 33
0.0
 14
-326.782799
 24
210.607135
 34
0.0
 50
180.0
  0
DIMENSION
  5
47A
100
AcDbEntity
  8
2
370
    25
100
AcDbDimension
  2
*D26
 10
9.938293
 20
56.7
 30
0.0
 11
3.938293
 21
23.7
 31
0.0
 71
     0
 72
     0
 41
0.0
 42
0.0
  3
Standard
100
AcDbAlignedDimension
 13
50.118263
 23
-9.3
 33
0.0
 14
35.983211
 24
56.7
 34
0.0
 50
90.0
100
AcDbRotatedDimension
  0
DIMENSION
  5
47B
100
AcDbEntity
  8
2
370
    25
100
AcDbDimension
  2
*D27
 10
50.118263
 20
86.7
 30
0.0
 11
25.618276
 21
90.2
 31
0.0
 71
     0
 72
     0
 41
0.0
 42
0.0
  3
Standard
100
AcDbAlignedDimension
 13
39.618276
 23
65.251551
 33
0.0
 14
50.118263
 24
86.7
 34
0.0
100
AcDbRotatedDimension
  0
DIMENSION
  5
47C
100
AcDbEntity
  8
2
370
    25
100
AcDbDimension
  2
*D28
 10
20.403679
 20
56.7
 30
0.0
 11
14.403679
 21
25.7
 31
0.0
 71
     0
 72
     0
 41
0.0
 42
0.0
  3
Standard
100
AcDbAlignedDimension
 13
72.118263
 23
34.7
 33
0.0
 14
35.983211
 24
56.7
 34
0.0
 50
90.0
100
AcDbRotatedDimension
  0
DIMENSION
  5
47D
100
AcDbEntity
  8
2
370
    25
100
AcDbDimension
  2
*D29
 10
80.330614
 20
-2.329352
 30
0.0
 11
147.819317
 21
-0.783982
 31
0.0
 70
     1
 71
     0
 72
     0
 41
0.0
 42
0.0
  3
Standard
100
AcDbAlignedDimension
 13
215.003922
 23
35.694825
 33
0.0
 14
80.009063
 24
34.516743
 34
0.0
 50
0.5
  0
DIMENSION
  5
47E
100
AcDbEntity
  8
2
370
    25
100
AcDbDimension
  2
*D30
 10
-0.139465
 20
46.7
 30
0.0
 11
-8.639465
 21
54.2
 31
0.0
 70
     1
 71
     0
 72
     0
 41
0.0
 42
0.0
  3
Standard
100
AcDbAlignedDimension
 13
43.153078
 23
66.7
 33
0.0
 14
43.153078
 24
46.7
 34
0.0
 50
90.0
  0
DIMENSION
  5
47F
100
AcDbEntity
  8
2
370
    25
100
AcDbDimension
  2
*D31
 10
9.938293
 20
56.7
 30
0.0
 11
3.938293
 21
23.7
 31
0.0
 71
     0
 72
     0
 41
0.0
 42
0.0
  3
Standard
100
AcDbAlignedDimension
 13
50.118263
 23
-9.3
 33
0.0
 14
35.983211
 24
56.7
 34
0.0
 50
90.0
100
AcDbRotatedDimension
  0
DIMENSION
  5
480
100
AcDbEntity
  8
2
370
    25
100
AcDbDimension
  2
*D32
 10
-19.907349
 20
120.7
 30
0.0
 11
-28.407349
 21
53.2
 31
0.0
 71
     0
 72
     0
 41
0.0
 42
0.0
  3
Standard
100
AcDbAlignedDimension
 13
50.118263
 23
-9.3
 33
0.0
 14
50.118263
 24
120.7
 34
0.0
 50
90.0
100
AcDbRotatedDimension
  0
DIMENSION
  5
481
100
AcDbEntity
  8
2
370
    25
100
AcDbDimension
  2
*D33
 10
-9.812103
 20
112.7
 30
0.0
 11
-18.312103
 21
53.2
 31
0.0
 71
     0
 72
     0
 41
0.0
 42
0.0
  3
Standard
100
AcDbAlignedDimension
 13
44.328007
 23
-1.3
 33
0.0
 14
44.328007
 24
112.7
 34
0.0
 50
90.0
100
AcDbRotatedDimension
  0
DIMENSION
  5
482
100
AcDbEntity
  8
2
370
    25
100
AcDbDimension
  2
*D34
 10
-9.812103
 20
120.7
 30
0.0
 11
-13.312103
 21
129.7
 31
0.0
 71
     0
 72
     0
 41
0.0
 42
0.0
  3
Standard
100
AcDbAlignedDimension
 13
44.328007
 23
112.7
 33
0.0
 14
50.118263
 24
120.7
 34
0.0
 50
90.0
100
AcDbRotatedDimension
  0
DIMENSION
  5
483
100
AcDbEntity
  8
2
370
    25
100
AcDbDimension
  2
*D35
 10
-9.812103
 20
-1.3
 30
0.0
 11
-13.312103
 21
-13.3
 31
0.0
 71
     0
 72
     0
 41
0.0
 42
0.0
  3
Standard
100
AcDbAlignedDimension
 13
50.118263
 23
-9.3
 33
0.0
 14
44.328007
 24
-1.3
 34
0.0
 50
90.0
100
AcDbRotatedDimension
  0
DIMENSION
  5
484
100
AcDbEntity
  8
2
370
    25
100
AcDbDimension
  2
*D36
 10
50.118263
 20
86.7
 30
0.0
 11
25.618276
 21
90.2
 31
0.0
 71
     0
 72
     0
 41
0.0
 42
0.0
  3
Standard
100
AcDbAlignedDimension
 13
39.618276
 23
65.251551
 33
0.0
 14
50.118263
 24
86.7
 34
0.0
100
AcDbRotatedDimension
  0
DIMENSION
  5
485
100
AcDbEntity
  8
2
370
    25
100
AcDbDimension
  2
*D37
 10
20.403679
 20
56.7
 30
0.0
 11
14.403679
 21
25.7
 31
0.0
 71
     0
 72
     0
 41
0.0
 42
0.0
  3
Standard
100
AcDbAlignedDimension
 13
72.118263
 23
34.7
 33
0.0
 14
35.983211
 24
56.7
 34
0.0
 50
90.0
100
AcDbRotatedDimension
  0
CIRCLE
  5
486
100
AcDbEntity
  8
2
370
    25
100
AcDbCircle
 10
-63.484178
 20
148.773532
 30
0.0
 40
5.0
  0
LWPOLYLINE
  5
487
100
AcDbEntity
  8
2
370
    25
100
AcDbPolyline
 90
        2
 70
     0
 10
-90.734743
 20
127.423176
 10
-67.517816
 20
145.613245
  0
LINE
  5
48B
100
AcDbEntity
  8
2
370
    25
100
AcDbLine
 10
-91.189216
 20
127.067104
 30
0.0
 11
-90.572481
 21
126.279933
 31
0.0
  0
LINE
  5
48C
100
AcDbEntity
  8
2
370
    25
100
AcDbLine
 10
-90.572481
 20
126.279933
 30
0.0
 11
-89.825796
 21
128.13532
 31
0.0
  0
LINE
  5
48D
100
AcDbEntity
  8
2
370
    25
100
AcDbLine
 10
-89.825796
 20
128.13532
 30
0.0
 11
-91.805951
 21
127.854274
 31
0.0
  0
LINE
  5
48E
100
AcDbEntity
  8
2
370
    25
100
AcDbLine
 10
-91.805951
 20
127.854274
 30
0.0
 11
-91.189216
 21
127.067104
 31
0.0
  0
CIRCLE
  5
48F
100
AcDbEntity
  8
2
370
    25
100
AcDbCircle
 10
-63.484178
 20
148.773532
 30
0.0
 40
5.0
  0
DIMENSION
  5
490
100
AcDbEntity
  8
2
370
    25
100
AcDbDimension
  2
*D38
 10
-104.499998
 20
-95.918945
 30
0.0
 11
-116.999998
 21
-92.418945
 31
0.0
 71
     0
 72
     0
 41
0.0
 42
0.0
  3
Standard
100
AcDbAlignedDimension
 13
-129.499998
 23
-9.306513
 33
0.0
 14
-104.499998
 24
-9.306513
 34
0.0
100
AcDbRotatedDimension
  0
DIMENSION
  5
491
100
AcDbEntity
  8
2
370
    25
100
AcDbDimension
  2
*D39
 10
-110.999977
 20
20.811367
 30
0.0
 11
-116.999977
 21
24.311367
 31
0.0
 71
     0
 72
     0
 41
0.0
 42
0.0
  3
Standard
100
AcDbAlignedDimension
 13
-122.999977
 23
49.210168
 33
0.0
 14
-110.999977
 24
49.210168
 34
0.0
100
AcDbRotatedDimension
  0
TEXT
  5
492
100
AcDbEntity
  8
2
370
    25
100
AcDbText
 10
-65.984178
 20
146.273532
 30
0.0
 40
5.0
  1
２
 72
     5
 11
-61.984178
 21
146.273532
 31
0.0
100
AcDbText
  0
DIMENSION
  5
493
100
AcDbEntity
  8
2
370
    25
100
AcDbDimension
  2
*D40
 10
54.000046
 20
-92.661812
 30
0.0
 11
45.500046
 21
-89.161812
 31
0.0
 71
     0
 72
     0
 41
0.0
 42
0.0
  3
Standard
100
AcDbAlignedDimension
 13
50.000046
 23
-9.306513
 33
0.0
 14
54.000046
 24
-9.206513
 34
0.0
100
AcDbRotatedDimension
  0
DIMENSION
  5
494
100
AcDbEntity
  8
2
370
    25
100
AcDbDimension
  2
*D41
 10
258.627686
 20
197.193487
 30
0.0
 11
250.127686
 21
62.193487
 31
0.0
 71
     0
 72
     0
 41
0.0
 42
0.0
  3
Standard
100
AcDbAlignedDimension
 13
125.000046
 23
-67.806513
 33
0.0
 14
125.000046
 24
197.193487
 34
0.0
 50
90.0
100
AcDbRotatedDimension
  0
DIMENSION
  5
495
100
AcDbEntity
  8
2
370
    25
100
AcDbDimension
  2
*D42
 10
127.000046
 20
214.536957
 30
0.0
 11
101.000046
 21
218.036957
 31
0.0
 71
     0
 72
     0
 41
0.0
 42
0.0
  3
Standard
100
AcDbAlignedDimension
 13
75.000046
 23
195.193487
 33
0.0
 14
127.000046
 24
195.193487
 34
0.0
100
AcDbRotatedDimension
  0
LINE
  5
496
100
AcDbEntity
  8
2
370
    25
100
AcDbLine
 10
50.000263
 20
-10.3
 30
0.0
 11
50.000263
 21
-114.324051
 31
0.0
  0
LINE
  5
497
100
AcDbEntity
  8
2
370
    25
100
AcDbLine
 10
50.000263
 20
-112.324051
 30
0.0
 11
53.863967
 21
-113.359327
 31
0.0
  0
LINE
  5
498
100
AcDbEntity
  8
2
370
    25
100
AcDbLine
 10
50.000263
 20
-112.324051
 30
0.0
 11
53.863967
 21
-111.288775
 31
0.0
  0
LINE
  5
499
100
AcDbEntity
  8
2
370
    25
100
AcDbLine
 10
50.000263
 20
-112.324051
 30
0.0
 11
122.300263
 21
-112.324051
 31
0.0
  0
LINE
  5
49A
100
AcDbEntity
  8
2
370
    25
100
AcDbLine
 10
122.300263
 20
-112.324051
 30
0.0
 11
118.43656
 21
-111.288775
 31
0.0
  0
LINE
  5
49B
100
AcDbEntity
  8
2
370
    25
100
AcDbLine
 10
122.300263
 20
-112.324051
 30
0.0
 11
118.43656
 21
-113.359327
 31
0.0
  0
LINE
  5
49C
100
AcDbEntity
  8
2
370
    25
100
AcDbLine
 10
122.300263
 20
17.136955
 30
0.0
 11
122.300263
 21
-114.324051
 31
0.0
  0
TEXT
  5
49D
100
AcDbEntity
  8
2
370
    18
100
AcDbText
 10
76.150263
 20
-111.324051
 30
0.0
 40
5.0
  1
７２．３
 72
     5
 11
95.150263
 21
-111.324051
 31
0.0
100
AcDbText
  0
LINE
  5
49E
100
AcDbEntity
  8
2
370
    25
100
AcDbLine
 10
52.200046
 20
-9.306513
 30
0.0
 11
240.527588
 21
-9.306513
 31
0.0
  0
LINE
  5
49F
100
AcDbEntity
  8
2
370
    25
100
AcDbLine
 10
238.527588
 20
-9.306513
 30
0.0
 11
239.562864
 21
-5.44281
 31
0.0
  0
LINE
  5
4A0
100
AcDbEntity
  8
2
370
    25
100
AcDbLine
 10
238.527588
 20
-9.306513
 30
0.0
 11
237.492312
 21
-5.44281
 31
0.0
  0
LINE
  5
4A1
100
AcDbEntity
  8
2
370
    25
100
AcDbLine
 10
238.527588
 20
-9.306513
 30
0.0
 11
238.527588
 21
18.693479
 31
0.0
  0
LINE
  5
4A2
100
AcDbEntity
  8
2
370
    25
100
AcDbLine
 10
238.527588
 20
18.693479
 30
0.0
 11
237.492312
 21
14.829776
 31
0.0
  0
LINE
  5
4A3
100
AcDbEntity
  8
2
370
    25
100
AcDbLine
 10
238.527588
 20
18.693479
 30
0.0
 11
239.562864
 21
14.829776
 31
0.0
  0
TEXT
  5
4A4
100
AcDbEntity
  8
2
370
    18
100
AcDbText
 10
237.527588
 20
-0.306517
 30
0.0
 40
5.0
  1
２８
 50
90.0
 72
     5
 11
237.527588
 21
8.693483
 31
0.0
100
AcDbText
  0
LINE
  5
4A5
100
AcDbEntity
  8
2
370
    25
100
AcDbLine
 10
134.261536
 20
18.693479
 30
0.0
 11
240.527588
 21
18.693479
 31
0.0
  0
LINE
  5
4A6
100
AcDbEntity
  8
2
370
    25
100
AcDbLine
 10
238.527588
 20
18.693479
 30
0.0
 11
239.562864
 21
22.557183
 31
0.0
  0
LINE
  5
4A7
100
AcDbEntity
  8
2
370
    25
100
AcDbLine
 10
238.527588
 20
18.693479
 30
0.0
 11
237.492312
 21
22.557183
 31
0.0
  0
LINE
  5
4A8
100
AcDbEntity
  8
2
370
    25
100
AcDbLine
 10
238.527588
 20
18.693479
 30
0.0
 11
238.527588
 21
92.693479
 31
0.0
  0
LINE
  5
4A9
100
AcDbEntity
  8
2
370
    25
100
AcDbLine
 10
238.527588
 20
92.693479
 30
0.0
 11
237.492312
 21
88.829776
 31
0.0
  0
LINE
  5
4AA
100
AcDbEntity
  8
2
370
    25
100
AcDbLine
 10
238.527588
 20
92.693479
 30
0.0
 11
239.562864
 21
88.829776
 31
0.0
  0
LINE
  5
4AB
100
AcDbEntity
  8
2
370
    25
100
AcDbLine
 10
147.435425
 20
92.693479
 30
0.0
 11
240.527588
 21
92.693479
 31
0.0
  0
TEXT
  5
4AC
100
AcDbEntity
  8
2
370
    18
100
AcDbText
 10
237.527588
 20
50.693479
 30
0.0
 40
5.0
  1
７４
 50
90.0
 72
     5
 11
237.527588
 21
59.693479
 31
0.0
100
AcDbText
  0
LINE
  5
4AD
100
AcDbEntity
  8
2
370
    25
100
AcDbLine
 10
123.754636
 20
18.693479
 30
0.0
 11
231.383423
 21
18.693479
 31
0.0
  0
LINE
  5
4AE
100
AcDbEntity
  8
2
370
    25
100
AcDbLine
 10
229.383423
 20
18.693479
 30
0.0
 11
230.418699
 21
22.557183
 31
0.0
  0
LINE
  5
4AF
100
AcDbEntity
  8
2
370
    25
100
AcDbLine
 10
229.383423
 20
18.693479
 30
0.0
 11
228.348147
 21
22.557183
 31
0.0
  0
LINE
  5
4B0
100
AcDbEntity
  8
2
370
    25
100
AcDbLine
 10
229.383423
 20
18.693479
 30
0.0
 11
229.383423
 21
34.693487
 31
0.0
  0
LINE
  5
4B1
100
AcDbEntity
  8
2
370
    25
100
AcDbLine
 10
229.383423
 20
34.693487
 30
0.0
 11
228.348147
 21
30.829784
 31
0.0
  0
LINE
  5
4B2
100
AcDbEntity
  8
2
370
    25
100
AcDbLine
 10
229.383423
 20
34.693487
 30
0.0
 11
230.418699
 21
30.829784
 31
0.0
  0
LINE
  5
4B3
100
AcDbEntity
  8
2
370
    25
100
AcDbLine
 10
133.872219
 20
34.693487
 30
0.0
 11
231.383423
 21
34.693487
 31
0.0
  0
TEXT
  5
4B4
100
AcDbEntity
  8
2
370
    18
100
AcDbText
 10
228.383423
 20
21.693483
 30
0.0
 40
5.0
  1
１６
 50
90.0
 72
     5
 11
228.383423
 21
30.693483
 31
0.0
100
AcDbText
  0
LINE
  5
4B5
100
AcDbEntity
  8
2
370
    25
100
AcDbLine
 10
133.872219
 20
34.693487
 30
0.0
 11
231.383423
 21
34.693487
 31
0.0
  0
LINE
  5
4B6
100
AcDbEntity
  8
2
370
    25
100
AcDbLine
 10
229.383423
 20
34.693487
 30
0.0
 11
230.418699
 21
38.55719
 31
0.0
  0
LINE
  5
4B7
100
AcDbEntity
  8
2
370
    25
100
AcDbLine
 10
229.383423
 20
34.693487
 30
0.0
 11
228.348147
 21
38.55719
 31
0.0
  0
LINE
  5
4B8
100
AcDbEntity
  8
2
370
    25
100
AcDbLine
 10
229.383423
 20
34.693487
 30
0.0
 11
229.383423
 21
92.693479
 31
0.0
  0
LINE
  5
4B9
100
AcDbEntity
  8
2
370
    25
100
AcDbLine
 10
229.383423
 20
92.693479
 30
0.0
 11
228.348147
 21
88.829776
 31
0.0
  0
LINE
  5
4BA
100
AcDbEntity
  8
2
370
    25
100
AcDbLine
 10
229.383423
 20
92.693479
 30
0.0
 11
230.418699
 21
88.829776
 31
0.0
  0
LINE
  5
4BB
100
AcDbEntity
  8
2
370
    25
100
AcDbLine
 10
121.943115
 20
92.693479
 30
0.0
 11
231.383423
 21
92.693479
 31
0.0
  0
TEXT
  5
4BC
100
AcDbEntity
  8
2
370
    18
100
AcDbText
 10
228.383423
 20
58.693483
 30
0.0
 40
5.0
  1
５８
 50
90.0
 72
     5
 11
228.383423
 21
67.693483
 31
0.0
100
AcDbText
  0
LINE
  5
4BD
100
AcDbEntity
  8
2
370
    25
100
AcDbLine
 10
-146.999998
 20
-66.083481
 30
0.0
 11
-146.999998
 21
-97.35331
 31
0.0
  0
LINE
  5
4BE
100
AcDbEntity
  8
2
370
    25
100
AcDbLine
 10
-146.999998
 20
-95.35331
 30
0.0
 11
-143.136295
 21
-96.388586
 31
0.0
  0
LINE
  5
4BF
100
AcDbEntity
  8
2
370
    25
100
AcDbLine
 10
-146.999998
 20
-95.35331
 30
0.0
 11
-143.136295
 21
-94.318033
 31
0.0
  0
LINE
  5
4C0
100
AcDbEntity
  8
2
370
    25
100
AcDbLine
 10
-146.999998
 20
-95.35331
 30
0.0
 11
-136.999998
 21
-95.35331
 31
0.0
  0
LINE
  5
4C1
100
AcDbEntity
  8
2
370
    25
100
AcDbLine
 10
-136.999998
 20
-95.35331
 30
0.0
 11
-140.863702
 21
-94.318033
 31
0.0
  0
LINE
  5
4C2
100
AcDbEntity
  8
2
370
    25
100
AcDbLine
 10
-136.999998
 20
-95.35331
 30
0.0
 11
-140.863702
 21
-96.388586
 31
0.0
  0
LINE
  5
4C3
100
AcDbEntity
  8
2
370
    25
100
AcDbLine
 10
-136.999998
 20
-71.325729
 30
0.0
 11
-136.999998
 21
-97.35331
 31
0.0
  0
TEXT
  5
4C4
100
AcDbEntity
  8
2
370
    18
100
AcDbText
 10
-146.999998
 20
-94.35331
 30
0.0
 40
5.0
  1
１０
 72
     5
 11
-137.999998
 21
-94.35331
 31
0.0
100
AcDbText
  0
LINE
  5
4C5
100
AcDbEntity
  8
2
370
    25
100
AcDbLine
 10
-96.999998
 20
-69.760178
 30
0.0
 11
-96.999998
 21
-97.214836
 31
0.0
  0
LINE
  5
4C6
100
AcDbEntity
  8
2
370
    25
100
AcDbLine
 10
-96.999998
 20
-95.214836
 30
0.0
 11
-93.136295
 21
-96.250112
 31
0.0
  0
LINE
  5
4C7
100
AcDbEntity
  8
2
370
    25
100
AcDbLine
 10
-96.999998
 20
-95.214836
 30
0.0
 11
-93.136295
 21
-94.17956
 31
0.0
  0
LINE
  5
4C8
100
AcDbEntity
  8
2
370
    25
100
AcDbLine
 10
-96.999998
 20
-95.214836
 30
0.0
 11
-86.999998
 21
-95.214836
 31
0.0
  0
LINE
  5
4C9
100
AcDbEntity
  8
2
370
    25
100
AcDbLine
 10
-86.999998
 20
-95.214836
 30
0.0
 11
-90.863702
 21
-94.17956
 31
0.0
  0
LINE
  5
4CA
100
AcDbEntity
  8
2
370
    25
100
AcDbLine
 10
-86.999998
 20
-95.214836
 30
0.0
 11
-90.863702
 21
-96.250112
 31
0.0
  0
LINE
  5
4CB
100
AcDbEntity
  8
2
370
    25
100
AcDbLine
 10
-86.999998
 20
-66.528366
 30
0.0
 11
-86.999998
 21
-97.214836
 31
0.0
  0
TEXT
  5
4CC
100
AcDbEntity
  8
2
370
    18
100
AcDbText
 10
-96.999998
 20
-94.214836
 30
0.0
 40
5.0
  1
１０
 72
     5
 11
-87.999998
 21
-94.214836
 31
0.0
100
AcDbText
  0
LINE
  5
4CD
100
AcDbEntity
  8
2
370
    25
100
AcDbLine
 10
49.992263
 20
-10.3
 30
0.0
 11
49.992263
 21
-105.400513
 31
0.0
  0
LINE
  5
4CE
100
AcDbEntity
  8
2
370
    25
100
AcDbLine
 10
49.992263
 20
-103.400513
 30
0.0
 11
53.855967
 21
-104.435789
 31
0.0
  0
LINE
  5
4CF
100
AcDbEntity
  8
2
370
    25
100
AcDbLine
 10
49.992263
 20
-103.400513
 30
0.0
 11
53.855967
 21
-102.365237
 31
0.0
  0
LINE
  5
4D0
100
AcDbEntity
  8
2
370
    25
100
AcDbLine
 10
49.992263
 20
-103.400513
 30
0.0
 11
100.992263
 21
-103.400513
 31
0.0
  0
LINE
  5
4D1
100
AcDbEntity
  8
2
370
    25
100
AcDbLine
 10
100.992263
 20
-103.400513
 30
0.0
 11
97.12856
 21
-102.365237
 31
0.0
  0
LINE
  5
4D2
100
AcDbEntity
  8
2
370
    25
100
AcDbLine
 10
100.992263
 20
-103.400513
 30
0.0
 11
97.12856
 21
-104.435789
 31
0.0
  0
LINE
  5
4D3
100
AcDbEntity
  8
2
370
    25
100
AcDbLine
 10
100.992263
 20
-75.478363
 30
0.0
 11
100.992263
 21
-105.400513
 31
0.0
  0
TEXT
  5
4D4
100
AcDbEntity
  8
2
370
    25
100
AcDbText
 10
55.492263
 20
-102.400513
 30
0.0
 40
5.0
  1
バックセット５１
 72
     5
 11
94.492263
 21
-102.400513
 31
0.0
100
AcDbText
  0
DIMENSION
  5
4D5
100
AcDbEntity
  8
2
370
    25
100
AcDbDimension
  2
*D43
 10
-136.999995
 20
-115.054202
 30
0.0
 11
-166.249996
 21
-111.554202
 31
0.0
 71
     0
 72
     0
 41
0.0
 42
0.0
  3
Standard
100
AcDbAlignedDimension
 13
-195.499997
 23
34.693474
 33
0.0
 14
-136.999995
 24
-67.806539
 34
0.0
100
AcDbRotatedDimension
  0
DIMENSION
  5
4D6
100
AcDbEntity
  8
2
370
    25
100
AcDbDimension
  2
*D44
 10
-38.499997
 20
-114.910297
 30
0.0
 11
-67.749996
 21
-111.410297
 31
0.0
 71
     0
 72
     0
 41
0.0
 42
0.0
  3
Standard
100
AcDbAlignedDimension
 13
-96.999995
 23
-67.806539
 33
0.0
 14
-38.499997
 24
34.693474
 34
0.0
100
AcDbRotatedDimension
  0
CIRCLE
  5
4D7
100
AcDbEntity
  8
2
370
    25
100
AcDbCircle
 10
-49.705858
 20
63.657734
 30
0.0
 40
5.0
  0
TEXT
  5
4D8
100
AcDbEntity
  8
2
370
    25
100
AcDbText
 10
-52.205858
 20
61.157734
 30
0.0
 40
5.0
  1
1
 72
     5
 11
-48.205858
 21
61.157734
 31
0.0
100
AcDbText
  0
TEXT
  5
4D9
100
AcDbEntity
  8
2
370
    25
100
AcDbText
 10
-52.205858
 20
61.157734
 30
0.0
 40
5.0
  1
1
 72
     5
 11
-48.205858
 21
61.157734
 31
0.0
100
AcDbText
  0
LWPOLYLINE
  5
4DA
100
AcDbEntity
  8
2
370
    25
100
AcDbPolyline
 90
        2
 70
     0
 10
-72.663145
 20
40.018259
 10
-53.185403
 20
60.067084
  0
LINE
  5
4DE
100
AcDbEntity
  8
2
370
    25
100
AcDbLine
 10
-73.065453
 20
39.604156
 30
0.0
 11
-72.348205
 21
38.907338
 31
0.0
  0
LINE
  5
4DF
100
AcDbEntity
  8
2
370
    25
100
AcDbLine
 10
-72.348205
 20
38.907338
 30
0.0
 11
-71.858529
 21
40.846466
 31
0.0
  0
LINE
  5
4E0
100
AcDbEntity
  8
2
370
    25
100
AcDbLine
 10
-71.858529
 20
40.846466
 30
0.0
 11
-73.782701
 21
40.300974
 31
0.0
  0
LINE
  5
4E1
100
AcDbEntity
  8
2
370
    25
100
AcDbLine
 10
-73.782701
 20
40.300974
 30
0.0
 11
-73.065453
 21
39.604156
 31
0.0
  0
DIMENSION
  5
4E2
100
AcDbEntity
  8
2
370
    25
100
AcDbDimension
  2
*D45
 10
248.740479
 20
197.193487
 30
0.0
 11
235.240479
 21
108.443487
 31
0.0
 71
     0
 72
     0
 41
0.0
 42
0.0
  3
Standard
100
AcDbAlignedDimension
 13
132.872219
 23
34.693487
 33
0.0
 14
125.000046
 24
197.193487
 34
0.0
 50
90.0
100
AcDbRotatedDimension
  0
DIMENSION
  5
4E3
100
AcDbEntity
  8
2
370
    25
100
AcDbDimension
  2
*D46
 10
248.740479
 20
34.693487
 30
0.0
 11
235.240479
 21
-24.056513
 31
0.0
 71
     0
 72
     0
 41
0.0
 42
0.0
  3
Standard
100
AcDbAlignedDimension
 13
125.000046
 23
-67.806513
 33
0.0
 14
248.740479
 24
34.693487
 34
0.0
 50
90.0
100
AcDbRotatedDimension
  0
TEXT
  5
4E4
100
AcDbEntity
  8
2
370
    25
100
AcDbText
 10
-136.351193
 20
-114.144542
 30
0.0
 40
5.0
  1
ドア厚２８～
 72
     5
 11
-107.351193
 21
-114.144542
 31
0.0
100
AcDbText
  0
DIMENSION
  5
4E5
100
AcDbEntity
  8
2
370
    25
100
AcDbDimension
  2
*D47
 10
-96.999997
 20
-115.000026
 30
0.0
 11
-101.351193
 21
-111.644542
 31
0.0
 71
     0
 72
     0
 41
0.0
 42
0.0
  3
Standard
100
AcDbAlignedDimension
 13
-136.999997
 23
-115.000026
 33
0.0
 14
-96.999997
 24
-115.000026
 34
0.0
100
AcDbRotatedDimension
  0
LWPOLYLINE
  5
4E6
100
AcDbEntity
  8
2
370
    25
100
AcDbPolyline
 90
        2
 70
     0
 10
360.594416
 20
202.986675
 10
363.74923
 20
258.583672
  0
LINE
  5
4EA
100
AcDbEntity
  8
2
370
    25
100
AcDbLine
 10
360.561707
 20
202.410252
 30
0.0
 11
361.560101
 21
202.353599
 31
0.0
  0
LINE
  5
4EB
100
AcDbEntity
  8
2
370
    25
100
AcDbLine
 10
361.560101
 20
202.353599
 30
0.0
 11
360.659833
 21
204.139521
 31
0.0
  0
LINE
  5
4EC
100
AcDbEntity
  8
2
370
    25
100
AcDbLine
 10
360.659833
 20
204.139521
 30
0.0
 11
359.563313
 21
202.466905
 31
0.0
  0
LINE
  5
4ED
100
AcDbEntity
  8
2
370
    25
100
AcDbLine
 10
359.563313
 20
202.466905
 30
0.0
 11
360.561707
 21
202.410252
 31
0.0
  0
LWPOLYLINE
  5
4EE
100
AcDbEntity
  8
2
370
    25
100
AcDbPolyline
 90
        2
 70
     0
 10
370.022023
 20
219.905673
 10
377.772638
 20
258.273921
  0
LINE
  5
4F2
100
AcDbEntity
  8
2
370
    25
100
AcDbLine
 10
369.907704
 20
219.339754
 30
0.0
 11
370.887905
 21
219.141747
 31
0.0
  0
LINE
  5
4F3
100
AcDbEntity
  8
2
370
    25
100
AcDbLine
 10
370.887905
 20
219.141747
 30
0.0
 11
370.250661
 21
221.037511
 31
0.0
  0
LINE
  5
4F4
100
AcDbEntity
  8
2
370
    25
100
AcDbLine
 10
370.250661
 20
221.037511
 30
0.0
 11
368.927503
 21
219.53776
 31
0.0
  0
LINE
  5
4F5
100
AcDbEntity
  8
2
370
    25
100
AcDbLine
 10
368.927503
 20
219.53776
 30
0.0
 11
369.907704
 21
219.339754
 31
0.0
  0
CIRCLE
  5
4F6
100
AcDbEntity
  8
2
370
    25
100
AcDbCircle
 10
-183.283206
 20
9.42817
 30
0.0
 40
5.0
  0
LWPOLYLINE
  5
4F7
100
AcDbEntity
  8
2
370
    25
100
AcDbPolyline
 90
        2
 70
     0
 10
-160.325919
 20
33.067645
 10
-179.803661
 20
13.01882
  0
LINE
  5
4FB
100
AcDbEntity
  8
2
370
    25
100
AcDbLine
 10
-159.923611
 20
33.481748
 30
0.0
 11
-160.640859
 21
34.178566
 31
0.0
  0
LINE
  5
4FC
100
AcDbEntity
  8
2
370
    25
100
AcDbLine
 10
-160.640859
 20
34.178566
 30
0.0
 11
-161.130535
 21
32.239438
 31
0.0
  0
LINE
  5
4FD
100
AcDbEntity
  8
2
370
    25
100
AcDbLine
 10
-161.130535
 20
32.239438
 30
0.0
 11
-159.206363
 21
32.784931
 31
0.0
  0
LINE
  5
4FE
100
AcDbEntity
  8
2
370
    25
100
AcDbLine
 10
-159.206363
 20
32.784931
 30
0.0
 11
-159.923611
 21
33.481748
 31
0.0
  0
TEXT
  5
4FF
100
AcDbEntity
  8
2
370
    25
100
AcDbText
 10
-185.783206
 20
6.92817
 30
0.0
 40
5.0
  1
３
 72
     5
 11
-181.783206
 21
6.92817
 31
0.0
100
AcDbText
  0
CIRCLE
  5
500
100
AcDbEntity
  8
2
370
    25
100
AcDbCircle
 10
364.414551
 20
263.712494
 30
0.0
 40
5.0
  0
TEXT
  5
501
100
AcDbEntity
  8
2
370
    25
100
AcDbText
 10
360.247051
 20
261.212494
 30
0.0
 40
5.0
  1
１
 72
     5
 11
362.580551
 21
261.212494
 31
0.0
100
AcDbText
  0
TEXT
  5
502
100
AcDbEntity
  8
2
370
    25
100
AcDbText
 10
363.580551
 20
261.212494
 30
0.0
 40
5.0
  1
０
 72
     5
 11
365.914051
 21
261.212494
 31
0.0
100
AcDbText
  0
CIRCLE
  5
503
100
AcDbEntity
  8
2
370
    25
100
AcDbCircle
 10
378.61438
 20
263.23584
 30
0.0
 40
5.0
  0
TEXT
  5
504
100
AcDbEntity
  8
2
370
    25
100
AcDbText
 10
374.44688
 20
260.73584
 30
0.0
 40
5.0
  1
１
 72
     5
 11
376.78038
 21
260.73584
 31
0.0
100
AcDbText
  0
TEXT
  5
505
100
AcDbEntity
  8
2
370
    25
100
AcDbText
 10
377.78038
 20
260.73584
 30
0.0
 40
5.0
  1
１
 72
     5
 11
380.11388
 21
260.73584
 31
0.0
100
AcDbText
  0
CIRCLE
  5
506
100
AcDbEntity
  8
2
370
    25
100
AcDbCircle
 10
251.560233
 20
263.614867
 30
0.0
 40
5.0
  0
TEXT
  5
507
100
AcDbEntity
  8
2
370
    25
100
AcDbText
 10
249.059733
 20
261.114867
 30
0.0
 40
5.0
  1
９
 72
     5
 11
251.393233
 21
261.114867
 31
0.0
100
AcDbText
  0
TEXT
  5
508
100
AcDbEntity
  8
2
370
    25
100
AcDbText
 10
57.994783
 20
151.609874
 30
0.0
 40
5.0
  1
６
 72
     5
 11
61.994783
 21
151.609874
 31
0.0
100
AcDbText
  0
TEXT
  5
509
100
AcDbEntity
  8
2
370
    25
100
AcDbText
 10
38.254153
 20
151.609874
 30
0.0
 40
5.0
  1
８
 72
     5
 11
42.254153
 21
151.609874
 31
0.0
100
AcDbText
  0
TEXT
  5
50A
100
AcDbEntity
  8
2
370
    25
100
AcDbText
 10
18.513524
 20
151.609874
 30
0.0
 40
5.0
  1
７
 72
     5
 11
22.513524
 21
151.609874
 31
0.0
100
AcDbText
  0
TEXT
  5
50B
100
AcDbEntity
  8
2
370
    25
100
AcDbText
 10
-212.385997
 20
146.378115
 30
0.0
 40
5.0
  1
５
 72
     5
 11
-208.385997
 21
146.378115
 31
0.0
100
AcDbText
  0
DIMENSION
  5
50C
100
AcDbEntity
  8
2
370
    25
100
AcDbDimension
  2
*D48
 10
219.169556
 20
90.193487
 30
0.0
 11
208.169556
 21
57.443487
 31
0.0
 71
     0
 72
     0
 41
0.0
 42
0.0
  3
Standard
100
AcDbAlignedDimension
 13
132.872219
 23
34.693487
 33
0.0
 14
132.872219
 24
90.193487
 34
0.0
 50
90.0
100
AcDbRotatedDimension
  0
DIMENSION
  5
50D
100
AcDbEntity
  8
2
370
    25
100
AcDbDimension
  2
*D49
 10
206.67749
 20
90.193487
 30
0.0
 11
198.17749
 21
72.693487
 31
0.0
 71
     0
 72
     0
 41
0.0
 42
0.0
  3
Standard
100
AcDbAlignedDimension
 13
111.900046
 23
84.693487
 33
0.0
 14
132.872219
 24
90.193487
 34
0.0
 50
90.0
100
AcDbRotatedDimension
  0
TEXT
  5
50E
100
AcDbEntity
  8
2
370
    18
100
AcDbText
 10
-366.664946
 20
183.131038
 30
0.0
 40
5.0
  1
４
 72
     5
 11
-362.664946
 21
183.131038
 31
0.0
100
AcDbText
  0
LINE
  5
50F
100
AcDbEntity
  8
3
370
   100
100
AcDbLine
 10
-380.0
 20
276.0
 30
0.0
 11
-380.0
 21
-276.0
 31
0.0
  0
LINE
  5
510
100
AcDbEntity
  8
3
370
   100
100
AcDbLine
 10
400.0
 20
276.0
 30
0.0
 11
400.0
 21
-276.0
 31
0.0
  0
LINE
  5
511
100
AcDbEntity
  8
3
370
   100
100
AcDbLine
 10
-380.0
 20
276.0
 30
0.0
 11
400.0
 21
276.0
 31
0.0
  0
LINE
  5
512
100
AcDbEntity
  8
3
370
   100
100
AcDbLine
 10
-380.0
 20
-276.0
 30
0.0
 11
400.0
 21
-276.0
 31
0.0
  0
LINE
  5
513
100
AcDbEntity
  8
3
370
    50
100
AcDbLine
 10
-380.0
 20
-216.0
 30
0.0
 11
400.0
 21
-216.0
 31
0.0
  0
LINE
  5
514
100
AcDbEntity
  8
3
370
    25
100
AcDbLine
 10
20.0
 20
-225.999897
 30
0.0
 11
216.001054
 21
-225.999729
 31
0.0
  0
LINE
  5
515
100
AcDbEntity
  8
3
370
   100
100
AcDbLine
 10
-380.6
 20
276.6
 30
0.0
 11
400.6
 21
276.6
 31
0.0
  0
LINE
  5
516
100
AcDbEntity
  8
3
370
   100
100
AcDbLine
 10
400.6
 20
276.6
 30
0.0
 11
400.6
 21
-276.6
 31
0.0
  0
LINE
  5
517
100
AcDbEntity
  8
3
370
   100
100
AcDbLine
 10
400.6
 20
-276.6
 30
0.0
 11
-380.6
 21
-276.6
 31
0.0
  0
LINE
  5
518
100
AcDbEntity
  8
3
370
   100
100
AcDbLine
 10
-380.6
 20
-276.6
 30
0.0
 11
-380.6
 21
276.6
 31
0.0
  0
LINE
  5
519
100
AcDbEntity
  8
3
370
    25
100
AcDbLine
 10
216.001054
 20
-225.999729
 30
0.0
 11
216.001054
 21
-216.0
 31
0.0
  0
LINE
  5
51A
100
AcDbEntity
  8
3
370
    25
100
AcDbLine
 10
180.0
 20
-259.999729
 30
0.0
 11
216.001054
 21
-259.999729
 31
0.0
  0
LINE
  5
51B
100
AcDbEntity
  8
3
370
    25
100
AcDbLine
 10
216.001054
 20
-259.999729
 30
0.0
 11
216.001054
 21
-250.0
 31
0.0
  0
LINE
  5
51C
100
AcDbEntity
  8
3
370
    50
100
AcDbLine
 10
20.0
 20
-216.0
 30
0.0
 11
20.0
 21
-276.0
 31
0.0
  0
TEXT
  5
51D
100
AcDbEntity
  8
3
370
   100
100
AcDbText
 10
44.0
 20
-271.0
 30
0.0
 40
16.0
  1
（株）川口技研
 72
     5
 11
152.8
 21
-271.0
 31
0.0
100
AcDbText
  0
TEXT
  5
51E
100
AcDbEntity
  8
3
370
    25
100
AcDbText
 10
183.600527
 20
-224.59988
 30
0.0
 40
7.2
  1
図面名称
 72
     5
 11
210.960527
 21
-224.59988
 31
0.0
100
AcDbText
  0
TEXT
  5
51F
100
AcDbEntity
  8
3
370
    25
100
AcDbText
 10
183.600527
 20
-258.599849
 30
0.0
 40
7.2
  1
図面番号
 72
     5
 11
210.960527
 21
-258.599849
 31
0.0
100
AcDbText
  0
TEXT
  5
520
100
AcDbEntity
  8
3
370
    25
100
AcDbText
 10
32.266667
 20
-224.599983
 30
0.0
 40
7.2
  1
図　　法
 72
     5
 11
59.626667
 21
-224.599983
 31
0.0
100
AcDbText
  0
TEXT
  5
521
100
AcDbEntity
  8
3
370
    25
100
AcDbText
 10
85.6
 20
-224.599949
 30
0.0
 40
7.2
  1
単　　位
 72
     5
 11
112.96
 21
-224.599949
 31
0.0
100
AcDbText
  0
TEXT
  5
522
100
AcDbEntity
  8
3
370
    25
100
AcDbText
 10
138.933333
 20
-224.599914
 30
0.0
 40
7.2
  1
尺　　度
 72
     5
 11
166.293333
 21
-224.599914
 31
0.0
100
AcDbText
  0
TEXT
  5
523
100
AcDbEntity
  8
3
370
    25
100
AcDbText
 10
92.0
 20
-241.999914
 30
0.0
 40
8.0
  1
ｍｍ
 72
     5
 11
106.4
 21
-241.999914
 31
0.0
100
AcDbText
  0
TEXT
  5
524
100
AcDbEntity
  8
3
370
    25
100
AcDbText
 10
141.333333
 20
-241.999914
 30
0.0
 40
8.0
  1
１／２
 72
     5
 11
163.733333
 21
-241.999914
 31
0.0
100
AcDbText
  0
TEXT
  5
525
100
AcDbEntity
  8
3
370
    25
100
AcDbText
 10
34.666667
 20
-241.999914
 30
0.0
 40
8.0
  1
３角法
 72
     5
 11
57.066667
 21
-241.999914
 31
0.0
100
AcDbText
  0
LINE
  5
526
100
AcDbEntity
  8
3
370
    50
100
AcDbLine
 10
180.0
 20
-276.0
 30
0.0
 11
180.0
 21
-216.0
 31
0.0
  0
LINE
  5
527
100
AcDbEntity
  8
3
370
    50
100
AcDbLine
 10
20.0
 20
-250.0
 30
0.0
 11
180.0
 21
-250.0
 31
0.0
  0
LINE
  5
528
100
AcDbEntity
  8
3
370
    50
100
AcDbLine
 10
180.0
 20
-250.0
 30
0.0
 11
400.0
 21
-250.0
 31
0.0
  0
LINE
  5
529
100
AcDbEntity
  8
3
370
    50
100
AcDbLine
 10
73.333333
 20
-250.0
 30
0.0
 11
73.333333
 21
-216.0
 31
0.0
  0
LINE
  5
52A
100
AcDbEntity
  8
3
370
    50
100
AcDbLine
 10
126.666667
 20
-250.0
 30
0.0
 11
126.666667
 21
-216.0
 31
0.0
  0
TEXT
  5
52B
100
AcDbEntity
  8
3
370
   100
100
AcDbText
 10
248.842911
 20
-269.090942
 30
0.0
 40
12.0
  1
ＤＺ－２０００－００
 72
     5
 11
366.442911
 21
-269.090942
 31
0.0
100
AcDbText
  0
TEXT
  5
52C
100
AcDbEntity
  8
3
370
    50
100
AcDbText
 10
236.79686
 20
-237.638
 30
0.0
 40
9.0
  1
ＬＶＳ－６５Ａ－５ＨＴ２６　外観図
 41
0.9
 72
     5
 11
372.87686
 21
-237.638
 31
0.0
100
AcDbText
  0
LINE
  5
52D
100
AcDbEntity
  8
3
370
    50
100
AcDbLine
 10
-260.0
 20
-188.0
 30
0.0
 11
-260.0
 21
-216.0
 31
0.0
  0
LINE
  5
52E
100
AcDbEntity
  8
3
370
    50
100
AcDbLine
 10
-60.0
 20
-188.0
 30
0.0
 11
-60.0
 21
-216.0
 31
0.0
  0
TEXT
  5
52F
100
AcDbEntity
  8
3
370
    25
100
AcDbText
 10
-257.2
 20
-212.6
 30
0.0
 40
7.2
  1
品番
 72
     5
 11
-244.24
 21
-212.6
 31
0.0
100
AcDbText
  0
TEXT
  5
530
100
AcDbEntity
  8
3
370
    25
100
AcDbText
 10
-205.2
 20
-212.6
 30
0.0
 40
7.2
  1
品　　　　　名
 72
     5
 11
-156.24
 21
-212.6
 31
0.0
100
AcDbText
  0
TEXT
  5
531
100
AcDbEntity
  8
3
370
    25
100
AcDbText
 10
-57.2
 20
-212.6
 30
0.0
 40
7.2
  1
員数
 72
     5
 11
-44.24
 21
-212.6
 31
0.0
100
AcDbText
  0
LINE
  5
532
100
AcDbEntity
  8
3
370
    50
100
AcDbLine
 10
-120.0
 20
-216.0
 30
0.0
 11
-120.0
 21
-188.0
 31
0.0
  0
LINE
  5
533
100
AcDbEntity
  8
3
370
    50
100
AcDbLine
 10
-240.0
 20
-216.0
 30
0.0
 11
-240.0
 21
-188.0
 31
0.0
  0
TEXT
  5
534
100
AcDbEntity
  8
3
370
    25
100
AcDbText
 10
-100.8
 20
-212.6
 30
0.0
 40
7.2
  1
寸　法
 72
     5
 11
-80.64
 21
-212.6
 31
0.0
100
AcDbText
  0
LINE
  5
535
100
AcDbEntity
  8
3
370
    50
100
AcDbLine
 10
-260.0
 20
-202.0
 30
0.0
 11
400.0
 21
-202.0
 31
0.0
  0
LINE
  5
536
100
AcDbEntity
  8
3
370
    50
100
AcDbLine
 10
180.0
 20
-132.0
 30
0.0
 11
180.0
 21
-216.0
 31
0.0
  0
LINE
  5
537
100
AcDbEntity
  8
3
370
    50
100
AcDbLine
 10
380.0
 20
-132.0
 30
0.0
 11
380.0
 21
-216.0
 31
0.0
  0
TEXT
  5
538
100
AcDbEntity
  8
3
370
    25
100
AcDbText
 10
182.8
 20
-212.6
 30
0.0
 40
7.2
  1
品番
 72
     5
 11
195.76
 21
-212.6
 31
0.0
100
AcDbText
  0
TEXT
  5
539
100
AcDbEntity
  8
3
370
    25
100
AcDbText
 10
234.8
 20
-212.6
 30
0.0
 40
7.2
  1
品　　　　　名
 72
     5
 11
283.76
 21
-212.6
 31
0.0
100
AcDbText
  0
TEXT
  5
53A
100
AcDbEntity
  8
3
370
    25
100
AcDbText
 10
382.8
 20
-212.6
 30
0.0
 40
7.2
  1
員数
 72
     5
 11
395.76
 21
-212.6
 31
0.0
100
AcDbText
  0
LINE
  5
53B
100
AcDbEntity
  8
3
370
    50
100
AcDbLine
 10
-260.0
 20
-188.0
 30
0.0
 11
400.0
 21
-188.0
 31
0.0
  0
LINE
  5
53C
100
AcDbEntity
  8
3
370
    50
100
AcDbLine
 10
-40.0
 20
-174.0
 30
0.0
 11
400.0
 21
-174.0
 31
0.0
  0
LINE
  5
53D
100
AcDbEntity
  8
3
370
    50
100
AcDbLine
 10
-40.0
 20
-160.0
 30
0.0
 11
400.0
 21
-160.0
 31
0.0
  0
LINE
  5
53E
100
AcDbEntity
  8
3
370
    50
100
AcDbLine
 10
-40.0
 20
-146.0
 30
0.0
 11
400.0
 21
-146.0
 31
0.0
  0
TEXT
  5
53F
100
AcDbEntity
  8
3
370
    25
100
AcDbText
 10
186.0
 20
-199.0
 30
0.0
 40
8.0
  1
１
 72
     5
 11
192.4
 21
-199.0
 31
0.0
100
AcDbText
  0
TEXT
  5
540
100
AcDbEntity
  8
3
370
    25
100
AcDbText
 10
186.0
 20
-185.0
 30
0.0
 40
8.0
  1
２
 72
     5
 11
192.4
 21
-185.0
 31
0.0
100
AcDbText
  0
TEXT
  5
541
100
AcDbEntity
  8
3
370
    25
100
AcDbText
 10
186.0
 20
-171.0
 30
0.0
 40
8.0
  1
３
 72
     5
 11
192.4
 21
-171.0
 31
0.0
100
AcDbText
  0
LINE
  5
542
100
AcDbEntity
  8
3
370
    50
100
AcDbLine
 10
180.0
 20
-132.0
 30
0.0
 11
180.0
 21
-216.0
 31
0.0
  0
TEXT
  5
543
100
AcDbEntity
  8
3
370
    25
100
AcDbText
 10
386.0
 20
-199.0
 30
0.0
 40
8.0
  1
１
 72
     5
 11
392.4
 21
-199.0
 31
0.0
100
AcDbText
  0
LINE
  5
544
100
AcDbEntity
  8
3
370
    50
100
AcDbLine
 10
320.0
 20
-216.0
 30
0.0
 11
320.0
 21
-132.0
 31
0.0
  0
LINE
  5
545
100
AcDbEntity
  8
3
370
    50
100
AcDbLine
 10
200.0
 20
-216.0
 30
0.0
 11
200.0
 21
-132.0
 31
0.0
  0
TEXT
  5
546
100
AcDbEntity
  8
3
370
    25
100
AcDbText
 10
339.2
 20
-212.6
 30
0.0
 40
7.2
  1
寸　法
 72
     5
 11
359.36
 21
-212.6
 31
0.0
100
AcDbText
  0
LINE
  5
547
100
AcDbEntity
  8
3
370
    50
100
AcDbLine
 10
180.0
 20
-132.0
 30
0.0
 11
400.0
 21
-132.0
 31
0.0
  0
TEXT
  5
548
100
AcDbEntity
  8
3
370
    25
100
AcDbText
 10
205.301895
 20
-198.974701
 30
0.0
 40
6.4
  1
レバ－ハンドル　Ｎｏ．６５Ａ
 72
     5
 11
293.621896
 21
-198.974701
 31
0.0
100
AcDbText
  0
TEXT
  5
549
100
AcDbEntity
  8
3
370
    25
100
AcDbText
 10
205.301895
 20
-142.974701
 30
0.0
 40
6.4
  1
座取付ネジ
 72
     5
 11
236.021896
 21
-142.974701
 31
0.0
100
AcDbText
  0
LINE
  5
54A
100
AcDbEntity
  8
3
370
    50
100
AcDbLine
 10
-40.0
 20
-132.0
 30
0.0
 11
400.0
 21
-132.0
 31
0.0
  0
TEXT
  5
54B
100
AcDbEntity
  8
3
370
    25
100
AcDbText
 10
-34.0
 20
-199.0
 30
0.0
 40
8.0
  1
５
 72
     5
 11
-27.6
 21
-199.0
 31
0.0
100
AcDbText
  0
TEXT
  5
54C
100
AcDbEntity
  8
3
370
    25
100
AcDbText
 10
166.0
 20
-185.0
 30
0.0
 40
8.0
  1
１
 72
     5
 11
172.4
 21
-185.0
 31
0.0
100
AcDbText
  0
TEXT
  5
54D
100
AcDbEntity
  8
3
370
    25
100
AcDbText
 10
-14.698105
 20
-184.974701
 30
0.0
 40
6.4
  1
フロントプレート
 72
     5
 11
35.221896
 21
-184.974701
 31
0.0
100
AcDbText
  0
TEXT
  5
54E
100
AcDbEntity
  8
3
370
    25
100
AcDbText
 10
166.0
 20
-199.0
 30
0.0
 40
8.0
  1
１
 72
     5
 11
172.4
 21
-199.0
 31
0.0
100
AcDbText
  0
TEXT
  5
54F
100
AcDbEntity
  8
3
370
    25
100
AcDbText
 10
-34.0
 20
-199.0
 30
0.0
 40
8.0
  1
６
 72
     5
 11
-27.6
 21
-199.0
 31
0.0
100
AcDbText
  0
LINE
  5
550
100
AcDbEntity
  8
3
370
    50
100
AcDbLine
 10
-40.0
 20
-132.0
 30
0.0
 11
-40.0
 21
-216.0
 31
0.0
  0
LINE
  5
551
100
AcDbEntity
  8
3
370
    50
100
AcDbLine
 10
160.0
 20
-132.0
 30
0.0
 11
160.0
 21
-216.0
 31
0.0
  0
TEXT
  5
552
100
AcDbEntity
  8
3
370
    25
100
AcDbText
 10
-37.2
 20
-212.6
 30
0.0
 40
7.2
  1
品番
 72
     5
 11
-24.24
 21
-212.6
 31
0.0
100
AcDbText
  0
TEXT
  5
553
100
AcDbEntity
  8
3
370
    25
100
AcDbText
 10
14.8
 20
-212.6
 30
0.0
 40
7.2
  1
品　　　　　名
 72
     5
 11
63.76
 21
-212.6
 31
0.0
100
AcDbText
  0
TEXT
  5
554
100
AcDbEntity
  8
3
370
    25
100
AcDbText
 10
162.8
 20
-212.6
 30
0.0
 40
7.2
  1
員数
 72
     5
 11
175.76
 21
-212.6
 31
0.0
100
AcDbText
  0
LINE
  5
555
100
AcDbEntity
  8
3
370
    50
100
AcDbLine
 10
100.0
 20
-216.0
 30
0.0
 11
100.0
 21
-132.0
 31
0.0
  0
LINE
  5
556
100
AcDbEntity
  8
3
370
    50
100
AcDbLine
 10
-20.0
 20
-216.0
 30
0.0
 11
-20.0
 21
-132.0
 31
0.0
  0
TEXT
  5
557
100
AcDbEntity
  8
3
370
    25
100
AcDbText
 10
119.2
 20
-212.6
 30
0.0
 40
7.2
  1
寸　法
 72
     5
 11
139.36
 21
-212.6
 31
0.0
100
AcDbText
  0
TEXT
  5
558
100
AcDbEntity
  8
3
370
    25
100
AcDbText
 10
-14.698105
 20
-198.974701
 30
0.0
 40
6.4
  1
ＬＶＳ－３－５１　ケ－スロック
 72
     5
 11
80.021897
 21
-198.974701
 31
0.0
100
AcDbText
  0
TEXT
  5
559
100
AcDbEntity
  8
3
370
    25
100
AcDbText
 10
105.301895
 20
-170.974701
 30
0.0
 40
6.4
  1
サラ木ネジ３．５×２２
 41
0.75
 72
     5
 11
157.141896
 21
-170.974701
 31
0.0
100
AcDbText
  0
TEXT
  5
55A
100
AcDbEntity
  8
3
370
    25
100
AcDbText
 10
-34.0
 20
-185.0
 30
0.0
 40
8.0
  1
７
 72
     5
 11
-27.6
 21
-185.0
 31
0.0
100
AcDbText
  0
TEXT
  5
55B
100
AcDbEntity
  8
3
370
    25
100
AcDbText
 10
-34.0
 20
-171.0
 30
0.0
 40
8.0
  1
８
 72
     5
 11
-27.6
 21
-171.0
 31
0.0
100
AcDbText
  0
TEXT
  5
55C
100
AcDbEntity
  8
3
370
    25
100
AcDbText
 10
-34.0
 20
-157.0
 30
0.0
 40
8.0
  1
９
 72
     5
 11
-27.6
 21
-157.0
 31
0.0
100
AcDbText
  0
TEXT
  5
55D
100
AcDbEntity
  8
3
370
    25
100
AcDbText
 10
-114.698105
 20
-198.974701
 30
0.0
 40
6.4
  1
サラ木ネジ３．５×２２
 41
0.75
 72
     5
 11
-62.858104
 21
-198.974701
 31
0.0
100
AcDbText
  0
TEXT
  5
55E
100
AcDbEntity
  8
3
370
    25
100
AcDbText
 10
166.0
 20
-143.0
 30
0.0
 40
8.0
  1
１
 72
     5
 11
172.4
 21
-143.0
 31
0.0
100
AcDbText
  0
TEXT
  5
55F
100
AcDbEntity
  8
3
370
    25
100
AcDbText
 10
-14.698105
 20
-170.974701
 30
0.0
 40
6.4
  1
錠取付木ネジ
 72
     5
 11
22.421896
 21
-170.974701
 31
0.0
100
AcDbText
  0
TEXT
  5
560
100
AcDbEntity
  8
3
370
    25
100
AcDbText
 10
-14.698105
 20
-156.974701
 30
0.0
 40
6.4
  1
調整ストライク　Ｓ－２５
 72
     5
 11
60.821896
 21
-156.974701
 31
0.0
100
AcDbText
  0
TEXT
  5
561
100
AcDbEntity
  8
3
370
    25
100
AcDbText
 10
-14.698105
 20
-142.974701
 30
0.0
 40
6.4
  1
受箱
 72
     5
 11
-3.178105
 21
-142.974701
 31
0.0
100
AcDbText
  0
TEXT
  5
562
100
AcDbEntity
  8
3
370
    25
100
AcDbText
 10
-234.698105
 20
-198.974701
 30
0.0
 40
6.4
  1
ストライク取付木ネジ
 72
     5
 11
-171.978104
 21
-198.974701
 31
0.0
100
AcDbText
  0
TEXT
  5
563
100
AcDbEntity
  8
3
370
    25
100
AcDbText
 10
-54.0
 20
-199.0
 30
0.0
 40
8.0
  1
２
 72
     5
 11
-47.6
 21
-199.0
 31
0.0
100
AcDbText
  0
TEXT
  5
564
100
AcDbEntity
  8
3
370
    25
100
AcDbText
 10
166.0
 20
-157.0
 30
0.0
 40
8.0
  1
１
 72
     5
 11
172.4
 21
-157.0
 31
0.0
100
AcDbText
  0
TEXT
  5
565
100
AcDbEntity
  8
3
370
    25
100
AcDbText
 10
166.0
 20
-171.0
 30
0.0
 40
8.0
  1
２
 72
     5
 11
172.4
 21
-171.0
 31
0.0
100
AcDbText
  0
TEXT
  5
566
100
AcDbEntity
  8
3
370
    25
100
AcDbText
 10
-37.0
 20
-143.0
 30
0.0
 40
8.0
  1
１０
 72
     5
 11
-22.6
 21
-143.0
 31
0.0
100
AcDbText
  0
TEXT
  5
567
100
AcDbEntity
  8
3
370
    25
100
AcDbText
 10
186.0
 20
-157.0
 30
0.0
 40
8.0
  1
４
 72
     5
 11
192.4
 21
-157.0
 31
0.0
100
AcDbText
  0
TEXT
  5
568
100
AcDbEntity
  8
3
370
    25
100
AcDbText
 10
186.0
 20
-143.0
 30
0.0
 40
8.0
  1
５
 72
     5
 11
192.4
 21
-143.0
 31
0.0
100
AcDbText
  0
TEXT
  5
569
100
AcDbEntity
  8
3
370
    25
100
AcDbText
 10
386.0
 20
-171.0
 30
0.0
 40
8.0
  1
１
 72
     5
 11
392.4
 21
-171.0
 31
0.0
100
AcDbText
  0
TEXT
  5
56A
100
AcDbEntity
  8
3
370
    25
100
AcDbText
 10
205.301895
 20
-170.974701
 30
0.0
 40
6.4
  1
ハンドル止メネジ
 72
     5
 11
255.221896
 21
-170.974701
 31
0.0
100
AcDbText
  0
TEXT
  5
56B
100
AcDbEntity
  8
3
370
    25
100
AcDbText
 10
325.301895
 20
-170.974701
 30
0.0
 40
6.4
  1
Ｓ．Ｓ．Ｍ６×１０
 41
0.8
 72
     5
 11
370.357896
 21
-170.974701
 31
0.0
100
AcDbText
  0
TEXT
  5
56C
100
AcDbEntity
  8
3
370
    25
100
AcDbText
 10
323.001895
 20
-142.974701
 30
0.0
 40
6.4
  1
サラ小ネジ　Ｍ４×３０
 41
0.8
 72
     5
 11
378.297896
 21
-142.974701
 31
0.0
100
AcDbText
  0
TEXT
  5
56D
100
AcDbEntity
  8
3
370
    25
100
AcDbText
 10
205.301895
 20
-156.974701
 30
0.0
 40
6.4
  1
キー
 72
     5
 11
216.821895
 21
-156.974701
 31
0.0
100
AcDbText
  0
TEXT
  5
56E
100
AcDbEntity
  8
3
370
    25
100
AcDbText
 10
386.0
 20
-157.0
 30
0.0
 40
8.0
  1
３
 72
     5
 11
392.4
 21
-157.0
 31
0.0
100
AcDbText
  0
TEXT
  5
56F
100
AcDbEntity
  8
3
370
    25
100
AcDbText
 10
205.301895
 20
-184.974701
 30
0.0
 40
6.4
  1
ＨＴ２６型長座　シリンダー錠
 72
     5
 11
293.621896
 21
-184.974701
 31
0.0
100
AcDbText
  0
TEXT
  5
570
100
AcDbEntity
  8
3
370
    25
100
AcDbText
 10
-257.0
 20
-199.0
 30
0.0
 40
8.0
  1
１１
 72
     5
 11
-242.6
 21
-199.0
 31
0.0
100
AcDbText
  0
TEXT
  5
571
100
AcDbEntity
  8
3
370
    25
100
AcDbText
 10
386.0
 20
-185.0
 30
0.0
 40
8.0
  1
１
 72
     5
 11
392.4
 21
-185.0
 31
0.0
100
AcDbText
  0
TEXT
  5
572
100
AcDbEntity
  8
3
370
    25
100
AcDbText
 10
386.0
 20
-143.0
 30
0.0
 40
8.0
  1
２
 72
     5
 11
392.4
 21
-143.0
 31
0.0
100
AcDbText
  0
ENDSEC
  0
SECTION
  2
OBJECTS
  0
DICTIONARY
  5
75B
100
AcDbDictionary
280
     0
281
     1
  3
ACAD_GROUP
350
75C
  3
ACAD_MLINESTYLE
350
75D
  0
DICTIONARY
  5
75C
102
{ACAD_REACTORS
330
75B
102
}
100
AcDbDictionary
280
     0
281
     1
  0
DICTIONARY
  5
75D
102
{ACAD_REACTORS
330
75B
102
}
100
AcDbDictionary
280
     0
281
     1
  3
Standard
350
75E
  0
MLINESTYLE
  5
75E
102
{ACAD_REACTORS
330
75D
102
}
100
AcDbMlineStyle
  2
Standard
 70
     0
  3

 62
     0
 51
90.0
 52
90.0
 71
     2
 49
0.5
 62
   256
  6
ByLayer
 49
-0.5
 62
   256
  6
ByLayer
  0
ENDSEC
  0
EOF
