  0
SECTION
  2
HEADER
  9
$ACADVER
  1
AC1015
  9
$ACADMAINTVER
 70
     6
  9
$DWGCODEPAGE
  3
ANSI_932
  9
$INSBASE
 10
0.0
 20
0.0
 30
0.0
  9
$EXTMIN
 10
-420.0
 20
-297.0
 30
1.000000E+20
  9
$EXTMAX
 10
420.0
 20
297.0
 30
-1.000000E+20
  9
$LIMMIN
 10
-420.0
 20
-297.0
  9
$LIMMAX
 10
420.0
 20
297.0
  9
$ORTHOMODE
 70
     0
  9
$REGENMODE
 70
     1
  9
$FILLMODE
 70
     1
  9
$QTEXTMODE
 70
     0
  9
$MIRRTEXT
 70
     1
  9
$LTSCALE
 40
1.0
  9
$ATTMODE
 70
     1
  9
$TEXTSIZE
 40
0.2
  9
$TRACEWID
 40
0.05
  9
$TEXTSTYLE
  7
STANDARD
  9
$CLAYER
  8
0
  9
$CELTYPE
  6
CONTINUOUS
  9
$CECOLOR
 62
   256
  9
$CELTSCALE
 40
1.0
  9
$DISPSILH
 70
     0
  9
$DIMSCALE
 40
2.0
  9
$DIMASZ
 40
2.0
  9
$DIMEXO
 40
0.5
  9
$DIMDLI
 40
0.38
  9
$DIMRND
 40
0.0
  9
$DIMDLE
 40
0.0
  9
$DIMEXE
 40
2.0
  9
$DIMTP
 40
0.0
  9
$DIMTM
 40
0.0
  9
$DIMTXT
 40
2.5
  9
$DIMCEN
 40
0.09
  9
$DIMTSZ
 40
0.0
  9
$DIMTOL
 70
     0
  9
$DIMLIM
 70
     0
  9
$DIMTIH
 70
     0
  9
$DIMTOH
 70
     0
  9
$DIMSE1
 70
     0
  9
$DIMSE2
 70
     0
  9
$DIMTAD
 70
     1
  9
$DIMZIN
 70
     0
  9
$DIMBLK
  1

  9
$DIMASO
 70
     1
  9
$DIMSHO
 70
     1
  9
$DIMPOST
  1

  9
$DIMAPOST
  1

  9
$DIMALT
 70
     0
  9
$DIMALTD
 70
     2
  9
$DIMALTF
 40
25.4
  9
$DIMLFAC
 40
1.0
  9
$DIMTOFL
 70
     0
  9
$DIMTVP
 40
0.0
  9
$DIMTIX
 70
     0
  9
$DIMSOXD
 70
     0
  9
$DIMSAH
 70
     0
  9
$DIMBLK1
  1

  9
$DIMBLK2
  1

  9
$DIMSTYLE
  2
Standard
  9
$DIMCLRD
 70
     0
  9
$DIMCLRE
 70
     0
  9
$DIMCLRT
 70
     0
  9
$DIMTFAC
 40
1.0
  9
$DIMGAP
 40
0.5
  9
$DIMJUST
 70
     0
  9
$DIMSD1
 70
     0
  9
$DIMSD2
 70
     0
  9
$DIMTOLJ
 70
     1
  9
$DIMTZIN
 70
     0
  9
$DIMALTZ
 70
     0
  9
$DIMALTTZ
 70
     0
  9
$DIMUPT
 70
     0
  9
$DIMDEC
 70
     2
  9
$DIMTDEC
 70
     4
  9
$DIMALTU
 70
     2
  9
$DIMALTTD
 70
     2
  9
$DIMTXSTY
  7
STANDARD
  9
$DIMAUNIT
 70
     0
  9
$DIMADEC
 70
     0
  9
$DIMALTRND
 40
0.0
  9
$DIMAZIN
 70
     0
  9
$DIMDSEP
 70
     0
  9
$DIMATFIT
 70
     3
  9
$DIMFRAC
 70
     0
  9
$DIMLDRBLK
  1

  9
$DIMLUNIT
 70
     2
  9
$DIMLWD
 70
     0
  9
$DIMLWE
 70
     0
  9
$DIMTMOVE
 70
     0
  9
$LUNITS
 70
     2
  9
$LUPREC
 70
     4
  9
$SKETCHINC
 40
0.1
  9
$FILLETRAD
 40
0.0
  9
$AUNITS
 70
     0
  9
$AUPREC
 70
     0
  9
$MENU
  1
acad
  9
$ELEVATION
 40
0.0
  9
$PELEVATION
 40
0.0
  9
$THICKNESS
 40
0.0
  9
$LIMCHECK
 70
     0
  9
$CHAMFERA
 40
0.0
  9
$CHAMFERB
 40
0.0
  9
$CHAMFERC
 40
0.0
  9
$CHAMFERD
 40
0.0
  9
$SKPOLY
 70
     0
  9
$TDCREATE
 40
2451572.000000000
  9
$TDUCREATE
 40
0.000000000
  9
$TDUPDATE
 40
0.000000000
  9
$TDUUPDATE
 40
2447892.625000000
  9
$TDINDWG
 40
0.0000000000
  9
$TDUSRTIMER
 40
0.0000000000
  9
$USRTIMER
 70
     1
  9
$ANGBASE
 50
0.0
  9
$ANGDIR
 70
     0
  9
$PDMODE
 70
     0
  9
$PDSIZE
 40
0.0
  9
$PLINEWID
 40
0.0
  9
$SPLFRAME
 70
     0
  9
$SPLINETYPE
 70
     6
  9
$SPLINESEGS
 70
     8
  9
$HANDSEED
  5
332
  9
$SURFTAB1
 70
     6
  9
$SURFTAB2
 70
     6
  9
$SURFTYPE
 70
     6
  9
$SURFU
 70
     6
  9
$SURFV
 70
     6
  9
$UCSBASE
  2

  9
$UCSNAME
  2

  9
$UCSORG
 10
0.0
 20
0.0
 30
0.0
  9
$UCSXDIR
 10
1.0
 20
0.0
 30
0.0
  9
$UCSYDIR
 10
0.0
 20
1.0
 30
0.0
  9
$UCSORTHOREF
  2

  9
$UCSORTHOVIEW
 70
     0
  9
$UCSORGTOP
 10
0.0
 20
0.0
 30
0.0
  9
$UCSORGBOTTOM
 10
0.0
 20
0.0
 30
0.0
  9
$UCSORGLEFT
 10
0.0
 20
0.0
 30
0.0
  9
$UCSORGRIGHT
 10
0.0
 20
0.0
 30
0.0
  9
$UCSORGFRONT
 10
0.0
 20
0.0
 30
0.0
  9
$UCSORGBACK
 10
0.0
 20
0.0
 30
0.0
  9
$PUCSBASE
  2

  9
$PUCSNAME
  2

  9
$PUCSORG
 10
0.0
 20
0.0
 30
0.0
  9
$PUCSXDIR
 10
1.0
 20
0.0
 30
0.0
  9
$PUCSYDIR
 10
0.0
 20
1.0
 30
0.0
  9
$PUCSORTHOREF
  2

  9
$PUCSORTHOVIEW
 70
     0
  9
$PUCSORGTOP
 10
0.0
 20
0.0
 30
0.0
  9
$PUCSORGBOTTOM
 10
0.0
 20
0.0
 30
0.0
  9
$PUCSORGLEFT
 10
0.0
 20
0.0
 30
0.0
  9
$PUCSORGRIGHT
 10
0.0
 20
0.0
 30
0.0
  9
$PUCSORGFRONT
 10
0.0
 20
0.0
 30
0.0
  9
$PUCSORGBACK
 10
0.0
 20
0.0
 30
0.0
  9
$USERI1
 70
     0
  9
$USERI2
 70
     0
  9
$USERI3
 70
     0
  9
$USERI4
 70
     0
  9
$USERI5
 70
     0
  9
$USERR1
 40
0.0
  9
$USERR2
 40
0.0
  9
$USERR3
 40
0.0
  9
$USERR4
 40
0.0
  9
$USERR5
 40
0.0
  9
$WORLDVIEW
 70
     1
  9
$SHADEDGE
 70
     3
  9
$SHADEDIF
 70
    70
  9
$TILEMODE
 70
     1
  9
$MAXACTVP
 70
    16
  9
$PINSBASE
 10
0.0
 20
0.0
 30
0.0
  9
$PLIMCHECK
 70
     0
  9
$PEXTMIN
 10
1.000000E+20
 20
1.000000E+20
 30
1.000000E+20
  9
$PEXTMAX
 10
-1.000000E+20
 20
-1.000000E+20
 30
-1.000000E+20
  9
$PLIMMIN
 10
0.0
 20
0.0
  9
$PLIMMAX
 10
12.0
 20
9.0
  9
$UNITMODE
 70
     0
  9
$VISRETAIN
 70
     0
  9
$PLINEGEN
 70
     1
  9
$PSLTSCALE
 70
     0
  9
$TREEDEPTH
 70
  3020
  9
$CMLSTYLE
  2
Standard
  9
$CMLJUST
 70
     0
  9
$CMLSCALE
 40
1.0
  9
$PROXYGRAPHICS
 70
     0
  9
$MEASUREMENT
 70
     0
  9
$CELWEIGHT
370
     0
  9
$ENDCAPS
280
     0
  9
$JOINSTYLE
280
     0
  9
$LWDISPLAY
290
     0
  9
$INSUNITS
 70
     0
  9
$HYPERLINKBASE
  1

  9
$STYLESHEET
  1

  9
$XEDIT
290
     1
  9
$CEPSNTYPE
380
     0
  9
$PSTYLEMODE
290
     1
  9
$FINGERPRINTGUID
  2

  9
$VERSIONGUID
  2

  9
$EXTNAMES
290
     1
  9
$PSVPSCALE
 40
0.0
  0
ENDSEC
  0
SECTION
  2
CLASSES
  0
CLASS
  1
LWPOLYLINE
  2
AcDbPolyline
  3
AutoCAD 2000
 90
        0
280
     0
281
     1
  0
CLASS
  1
IMAGE
  2
AcDbRasterImage
  3
ISM
 90
      127
280
     0
281
     1
  0
CLASS
  1
OLE2FRAME
  2
AcDbOle2Frame
  3
AutoCAD 2000
 90
        0
280
     0
281
     1
  0
CLASS
  1
HATCH
  2
AcDbHatch
  3
AutoCAD 2000
 90
        0
280
     0
281
     1
  0
CLASS
  1
DICTIONARYVAR
  2
AcDbDictionaryVar
  3
AutoCAD 2000
 90
        0
280
     0
281
     0
  0
CLASS
  1
RASTERVARIABLES
  2
AcDbRasterVariables
  3
ISM
 90
        0
280
     0
281
     0
  0
CLASS
  1
IMAGEDEF
  2
AcDbRasterImageDef
  3
ISM
 90
        0
280
     0
281
     0
  0
CLASS
  1
IMAGEDEF_REACTOR
  2
AcDbRasterImageDefReactor
  3
ISM
 90
        1
280
     0
281
     0
  0
CLASS
  1
IDBUFFER
  2
AcDbIdBuffer
  3
AutoCAD 2000
 90
        0
280
     0
281
     0
  0
CLASS
  1
SPATIAL_FILTER
  2
AcDbSpatialFilter
  3
AutoCAD 2000
 90
        0
280
     0
281
     0
  0
CLASS
  1
XRECORD
  2
AcDbXrecord
  3
AutoCAD 2000
 90
        0
280
     0
281
     0
  0
CLASS
  1
SORTENTSTABLE
  2
AcDbSortentsTable
  3
AutoCAD 2000
 90
        0
280
     0
281
     0
  0
CLASS
  1
LAYER_INDEX
  2
AcDbLayerIndex
  3
AutoCAD 2000
 90
        0
280
     0
281
     0
  0
CLASS
  1
SPATIAL_INDEX
  2
AcDbSpatialIndex
  3
AutoCAD 2000
 90
        0
280
     0
281
     0
  0
CLASS
  1
OBJECT_PTR
  2
CAseDLPNTableRecord
  3
"ASE-LPNTableRecord"
 90
        1
280
     0
281
     0
  0
CLASS
  1
LAYOUT
  2
AcDbLayout
  3
AutoCAD 2000
 90
        0
280
     0
281
     0
  0
CLASS
  1
PLOTSETTINGS
  2
AcDbPlotSettings
  3
AutoCAD 2000
 90
        0
280
     0
281
     0
  0
CLASS
  1
ACDBDICTIONARYWDFLT
  2
AcDbDictionaryWithDefault
  3
AutoCAD 2000
 90
        0
280
     0
281
     0
  0
CLASS
  1
ACDBPLACEHOLDER
  2
AcDbPlaceHolder
  3
AutoCAD 2000
 90
        0
280
     0
281
     0
  0
CLASS
  1
VBA_PROJECT
  2
AcDbVbaProject
  3
acadvba
 90
        0
280
     0
281
     0
  0
CLASS
  1
WIPEOUT
  2
AcDbWipeout
  3
WipeOut|AutoCAD Express Tool|expresstools@autodesk.com
 90
      127
280
     0
281
     1
  0
CLASS
  1
WIPEOUTVARIABLES
  2
AcDbWipeoutVariables
  3
WipeOut|AutoCAD Express Tool|expresstools@autodesk.com
 90
        0
280
     0
281
     0
  0
CLASS
  1
RTEXT
  2
RText
  3
RText|AutoCAD Express Tool|expresstools@autodesk.com
 90
        0
280
     0
281
     1
  0
CLASS
  1
ARCALIGNEDTEXT
  2
AcDbArcAlignedText
  3
ATEXT|AutoCAD Express Tool|expresstools@autodesk.com
 90
        0
280
     0
281
     1
  0
ENDSEC
  0
SECTION
  2
TABLES
  0
TABLE
  2
VPORT
  5
6
100
AcDbSymbolTable
 70
     1
  0
VPORT
  5
1A
100
AcDbSymbolTableRecord
100
AcDbViewportTableRecord
  2
*ACTIVE
 70
     0
 10
0.0
 20
0.0
 11
1.0
 21
1.0
 12
0.0
 22
0.0
 13
0.0
 23
0.0
 14
1.0
 24
1.0
 15
0.0
 25
0.0
 16
0.0
 26
0.0
 36
1.0
 17
0.0
 27
0.0
 37
0.0
 40
594.0
 41
1.414141
 42
50.0
 43
0.0
 44
0.0
 50
0.0
 51
0.0
 71
     0
 72
   500
 73
     1
 74
     1
 75
     0
 76
     0
 77
     0
 78
     0
281
     0
 65
     0
110
0.0
120
0.0
130
0.0
111
1.0
121
0.0
131
0.0
112
0.0
122
1.0
132
0.0
345
0
346
0
 79
     0
146
0.0
  0
ENDTAB
  0
TABLE
  2
LTYPE
  5
3
100
AcDbSymbolTable
 70
     9
  0
LTYPE
  5
C
100
AcDbSymbolTableRecord
100
AcDbLinetypeTableRecord
  2
ByBlock
 70
    64
  3

 72
    65
 73
     0
 40
0.0
  0
LTYPE
  5
D
100
AcDbSymbolTableRecord
100
AcDbLinetypeTableRecord
  2
ByLayer
 70
    64
  3

 72
    65
 73
     0
 40
0.0
  0
LTYPE
  5
E
100
AcDbSymbolTableRecord
100
AcDbLinetypeTableRecord
  2
CONTINUOUS
 70
     0
  3
Solid line
 72
    65
 73
     0
 40
0.0
  0
LTYPE
  5
F
100
AcDbSymbolTableRecord
100
AcDbLinetypeTableRecord
  2
DASHED
 70
     0
  3
__ __ __ __ __ __ __ __ __ __ __ __ __ __ __
 72
    65
 73
     2
 40
2.0
 49
1.2
 74
     0
 49
-0.8
 74
     0
  0
LTYPE
  5
10
100
AcDbSymbolTableRecord
100
AcDbLinetypeTableRecord
  2
CENTER
 70
     0
  3
____ _ ____ _ ____ _ ____ _ ____ _ ____ _ ____
 72
    65
 73
     4
 40
12.0
 49
9.0
 74
     0
 49
-1.0
 74
     0
 49
1.0
 74
     0
 49
-1.0
 74
     0
  0
LTYPE
  5
11
100
AcDbSymbolTableRecord
100
AcDbLinetypeTableRecord
  2
HIDDEN
 70
     0
  3
_ _ _ _ _ _ _ _ _ _ _ _ _ _ _ _ _ _ _ _ _ _ _
 72
    65
 73
     2
 40
3.2
 49
1.3
 74
     0
 49
-1.9
 74
     0
  0
LTYPE
  5
12
100
AcDbSymbolTableRecord
100
AcDbLinetypeTableRecord
  2
PHANTOM
 70
     0
  3
_____ _ _ _____ _ _ _____ _ _ _____ _ _ _____
 72
    65
 73
     6
 40
12.5
 49
9.0
 74
     0
 49
-1.0
 74
     0
 49
0.5
 74
     0
 49
-0.5
 74
     0
 49
0.5
 74
     0
 49
-1.0
 74
     0
  0
LTYPE
  5
13
100
AcDbSymbolTableRecord
100
AcDbLinetypeTableRecord
  2
DOT
 70
     0
  3
...............................................
 72
    65
 73
     2
 40
1.0
 49
0.5
 74
     0
 49
-0.5
 74
     0
  0
LTYPE
  5
14
100
AcDbSymbolTableRecord
100
AcDbLinetypeTableRecord
  2
DASHDOT
 70
     0
  3
__ . __ . __ . __ . __ . __ . __ . __ . __ . __
 72
    65
 73
     4
 40
8.0
 49
5.0
 74
     0
 49
-1.0
 74
     0
 49
1.0
 74
     0
 49
-1.0
 74
     0
  0
ENDTAB
  0
TABLE
  2
LAYER
  5
1
100
AcDbSymbolTable
 70
     5
  0
LAYER
  5
15
100
AcDbSymbolTableRecord
100
AcDbLayerTableRecord
  2
0
 70
     0
 62
     8
  6
CONTINUOUS
290
     1
370
    -3
390
0
  0
LAYER
  5
16
100
AcDbSymbolTableRecord
100
AcDbLayerTableRecord
  2
1
 70
     0
 62
     7
  6
CONTINUOUS
290
     1
370
    -3
390
0
  0
LAYER
  5
17
100
AcDbSymbolTableRecord
100
AcDbLayerTableRecord
  2
2
 70
     0
 62
     7
  6
CONTINUOUS
290
     1
370
    -3
390
0
  0
LAYER
  5
18
100
AcDbSymbolTableRecord
100
AcDbLayerTableRecord
  2
3
 70
     0
 62
     7
  6
CONTINUOUS
290
     1
370
    -3
390
0
  0
LAYER
  5
19
100
AcDbSymbolTableRecord
100
AcDbLayerTableRecord
  2
4
 70
     0
 62
     7
  6
CONTINUOUS
290
     1
370
    -3
390
0
  0
ENDTAB
  0
TABLE
  2
STYLE
  5
2
100
AcDbSymbolTable
 70
     1
  0
STYLE
  5
1C
100
AcDbSymbolTableRecord
100
AcDbTextStyleTableRecord
  2
STANDARD
 70
    64
 40
0.0
 41
1.0
 50
0.0
 71
     0
 42
1.0
  3
txt
  4
BIGFONT
  0
ENDTAB
  0
TABLE
  2
VIEW
  5
4
100
AcDbSymbolTable
 70
     0
  0
ENDTAB
  0
TABLE
  2
UCS
  5
5
100
AcDbSymbolTable
 70
     0
  0
ENDTAB
  0
TABLE
  2
APPID
  5
7
100
AcDbSymbolTable
 70
     1
  0
APPID
  5
1B
100
AcDbSymbolTableRecord
100
AcDbRegAppTableRecord
  2
ACAD
 70
     0
  0
ENDTAB
  0
TABLE
  2
DIMSTYLE
  5
8
100
AcDbSymbolTable
 70
     1
100
AcDbDimStyleTable
 71
     0
  0
DIMSTYLE
105
39
100
AcDbSymbolTableRecord
100
AcDbDimStyleTableRecord
  2
Standard
 70
     0
  3

  4

 40
2.0
 41
2.0
 42
0.5
 43
0.38
 44
2.0
 45
0.0
 46
0.0
 47
0.0
 48
0.0
 71
     0
 72
     0
 73
     0
 74
     0
 75
     0
 76
     0
 77
     1
 78
     0
 79
     0
140
2.5
141
0.09
142
0.0
143
25.4
144
1.0
145
0.0
146
1.0
147
0.5
148
0.0
170
     0
171
     2
172
     0
173
     0
174
     0
175
     0
176
     0
177
     0
178
     0
179
     0
271
     2
272
     4
273
     2
274
     2
275
     0
276
     0
277
     2
278
    46
279
     0
280
     0
281
     0
282
     0
283
     1
284
     0
285
     0
286
     0
288
     0
289
     3
340
1C
341
0
342
0
343
0
344
0
371
    -2
372
    -2
  0
ENDTAB
  0
TABLE
  2
BLOCK_RECORD
  5
34
100
AcDbSymbolTable
 70
    21
  0
BLOCK_RECORD
  5
32
100
AcDbSymbolTableRecord
100
AcDbBlockTableRecord
  2
*Model_Space
340
0
  0
BLOCK_RECORD
  5
33
100
AcDbSymbolTableRecord
100
AcDbBlockTableRecord
  2
*Paper_Space
340
0
  0
BLOCK_RECORD
  5
1D
100
AcDbSymbolTableRecord
100
AcDbBlockTableRecord
  2
*D0
340
0
  0
BLOCK_RECORD
  5
1E
100
AcDbSymbolTableRecord
100
AcDbBlockTableRecord
  2
*D1
340
0
  0
BLOCK_RECORD
  5
1F
100
AcDbSymbolTableRecord
100
AcDbBlockTableRecord
  2
*D2
340
0
  0
BLOCK_RECORD
  5
20
100
AcDbSymbolTableRecord
100
AcDbBlockTableRecord
  2
*D3
340
0
  0
BLOCK_RECORD
  5
21
100
AcDbSymbolTableRecord
100
AcDbBlockTableRecord
  2
*D4
340
0
  0
BLOCK_RECORD
  5
22
100
AcDbSymbolTableRecord
100
AcDbBlockTableRecord
  2
*D5
340
0
  0
BLOCK_RECORD
  5
23
100
AcDbSymbolTableRecord
100
AcDbBlockTableRecord
  2
*D6
340
0
  0
BLOCK_RECORD
  5
24
100
AcDbSymbolTableRecord
100
AcDbBlockTableRecord
  2
*D7
340
0
  0
BLOCK_RECORD
  5
25
100
AcDbSymbolTableRecord
100
AcDbBlockTableRecord
  2
*D8
340
0
  0
BLOCK_RECORD
  5
26
100
AcDbSymbolTableRecord
100
AcDbBlockTableRecord
  2
*D9
340
0
  0
BLOCK_RECORD
  5
27
100
AcDbSymbolTableRecord
100
AcDbBlockTableRecord
  2
*D10
340
0
  0
BLOCK_RECORD
  5
28
100
AcDbSymbolTableRecord
100
AcDbBlockTableRecord
  2
*D11
340
0
  0
BLOCK_RECORD
  5
29
100
AcDbSymbolTableRecord
100
AcDbBlockTableRecord
  2
*D12
340
0
  0
BLOCK_RECORD
  5
2A
100
AcDbSymbolTableRecord
100
AcDbBlockTableRecord
  2
*D13
340
0
  0
BLOCK_RECORD
  5
2B
100
AcDbSymbolTableRecord
100
AcDbBlockTableRecord
  2
*D14
340
0
  0
BLOCK_RECORD
  5
2C
100
AcDbSymbolTableRecord
100
AcDbBlockTableRecord
  2
*D15
340
0
  0
BLOCK_RECORD
  5
2D
100
AcDbSymbolTableRecord
100
AcDbBlockTableRecord
  2
*D16
340
0
  0
BLOCK_RECORD
  5
2E
100
AcDbSymbolTableRecord
100
AcDbBlockTableRecord
  2
*D17
340
0
  0
BLOCK_RECORD
  5
2F
100
AcDbSymbolTableRecord
100
AcDbBlockTableRecord
  2
*D18
340
0
  0
BLOCK_RECORD
  5
30
100
AcDbSymbolTableRecord
100
AcDbBlockTableRecord
  2
*D19
340
0
  0
BLOCK_RECORD
  5
31
100
AcDbSymbolTableRecord
100
AcDbBlockTableRecord
  2
*D20
340
0
  0
ENDTAB
  0
ENDSEC
  0
SECTION
  2
BLOCKS
  0
BLOCK
  5
35
100
AcDbEntity
  8
0
390
0
100
AcDbBlockBegin
  2
*Model_Space
 70
     0
 10
0.0
 20
0.0
 30
0.0
  3
*Model_Space
  1

  0
ENDBLK
  5
36
100
AcDbEntity
  8
0
390
0
100
AcDbBlockEnd
  0
BLOCK
  5
37
100
AcDbEntity
 67
     1
  8
0
390
0
100
AcDbBlockBegin
  2
*Paper_Space
 70
     0
 10
0.0
 20
0.0
 30
0.0
  3
*Paper_Space
  1

  0
ENDBLK
  5
38
100
AcDbEntity
 67
     1
  8
0
390
0
100
AcDbBlockEnd
  0
BLOCK
  5
261
100
AcDbEntity
  8
2
100
AcDbBlockBegin
  2
*D0
 70
     1
 10
0.0
 20
0.0
 30
0.0
  3
*D0
  1

  0
TEXT
  5
262
100
AcDbEntity
  8
2
370
    18
100
AcDbText
 10
119.527154
 20
103.594694
 30
0.0
 40
5.0
  1
32
 41
2.0
 72
     5
 11
127.527154
 21
103.594694
 31
0.0
100
AcDbText
  0
LINE
  5
263
100
AcDbEntity
  8
2
370
    25
100
AcDbLine
 10
108.527154
 20
114.864186
 30
0.0
 11
108.527154
 21
100.594694
 31
0.0
  0
LINE
  5
264
100
AcDbEntity
  8
2
370
    25
100
AcDbLine
 10
108.527154
 20
102.594694
 30
0.0
 11
112.390857
 21
101.559417
 31
0.0
  0
LINE
  5
265
100
AcDbEntity
  8
2
370
    25
100
AcDbLine
 10
108.527154
 20
102.594694
 30
0.0
 11
112.390857
 21
103.62997
 31
0.0
  0
LINE
  5
266
100
AcDbEntity
  8
2
370
    25
100
AcDbLine
 10
108.527154
 20
102.594694
 30
0.0
 11
140.527154
 21
102.594694
 31
0.0
  0
LINE
  5
267
100
AcDbEntity
  8
2
370
    25
100
AcDbLine
 10
140.527154
 20
102.594694
 30
0.0
 11
136.66345
 21
103.62997
 31
0.0
  0
LINE
  5
268
100
AcDbEntity
  8
2
370
    25
100
AcDbLine
 10
140.527154
 20
102.594694
 30
0.0
 11
136.66345
 21
101.559417
 31
0.0
  0
LINE
  5
269
100
AcDbEntity
  8
2
370
    25
100
AcDbLine
 10
140.527154
 20
114.864186
 30
0.0
 11
140.527154
 21
100.594694
 31
0.0
  0
ENDBLK
  5
26A
100
AcDbEntity
  8
2
100
AcDbBlockEnd
  0
BLOCK
  5
26B
100
AcDbEntity
  8
2
100
AcDbBlockBegin
  2
*D1
 70
     1
 10
0.0
 20
0.0
 30
0.0
  3
*D1
  1

  0
TEXT
  5
26C
100
AcDbEntity
  8
2
370
    18
100
AcDbText
 10
179.777306
 20
0.007878
 30
0.0
 40
5.0
  1
111
 50
90.0
 41
2.0
 72
     5
 11
179.777306
 21
13.007878
 31
0.0
100
AcDbText
  0
LINE
  5
26D
100
AcDbEntity
  8
2
370
    25
100
AcDbLine
 10
192.291382
 20
-47.991978
 30
0.0
 11
178.777306
 21
-47.991978
 31
0.0
  0
LINE
  5
26E
100
AcDbEntity
  8
2
370
    25
100
AcDbLine
 10
180.777306
 20
-47.991978
 30
0.0
 11
181.812582
 21
-44.128275
 31
0.0
  0
LINE
  5
26F
100
AcDbEntity
  8
2
370
    25
100
AcDbLine
 10
180.777306
 20
-47.991978
 30
0.0
 11
179.74203
 21
-44.128275
 31
0.0
  0
LINE
  5
270
100
AcDbEntity
  8
2
370
    25
100
AcDbLine
 10
180.777306
 20
-47.991978
 30
0.0
 11
180.777306
 21
63.007734
 31
0.0
  0
LINE
  5
271
100
AcDbEntity
  8
2
370
    25
100
AcDbLine
 10
180.777306
 20
63.007734
 30
0.0
 11
179.74203
 21
59.144031
 31
0.0
  0
LINE
  5
272
100
AcDbEntity
  8
2
370
    25
100
AcDbLine
 10
180.777306
 20
63.007734
 30
0.0
 11
181.812582
 21
59.144031
 31
0.0
  0
LINE
  5
273
100
AcDbEntity
  8
2
370
    25
100
AcDbLine
 10
192.291382
 20
63.007734
 30
0.0
 11
178.777306
 21
63.007734
 31
0.0
  0
ENDBLK
  5
274
100
AcDbEntity
  8
2
100
AcDbBlockEnd
  0
BLOCK
  5
275
100
AcDbEntity
  8
2
100
AcDbBlockBegin
  2
*D2
 70
     1
 10
0.0
 20
0.0
 30
0.0
  3
*D2
  1

  0
TEXT
  5
276
100
AcDbEntity
  8
2
370
    18
100
AcDbText
 10
119.527154
 20
16.383056
 30
0.0
 40
5.0
  1
23
 41
2.0
 72
     5
 11
127.527154
 21
16.383056
 31
0.0
100
AcDbText
  0
LINE
  5
277
100
AcDbEntity
  8
2
370
    25
100
AcDbLine
 10
113.027154
 20
15.383056
 30
0.0
 11
116.890857
 21
14.34778
 31
0.0
  0
LINE
  5
278
100
AcDbEntity
  8
2
370
    25
100
AcDbLine
 10
113.027154
 20
15.383056
 30
0.0
 11
116.890857
 21
16.418333
 31
0.0
  0
LINE
  5
279
100
AcDbEntity
  8
2
370
    25
100
AcDbLine
 10
113.027154
 20
15.383056
 30
0.0
 11
136.027154
 21
15.383056
 31
0.0
  0
LINE
  5
27A
100
AcDbEntity
  8
2
370
    25
100
AcDbLine
 10
136.027154
 20
15.383056
 30
0.0
 11
132.16345
 21
16.418333
 31
0.0
  0
LINE
  5
27B
100
AcDbEntity
  8
2
370
    25
100
AcDbLine
 10
136.027154
 20
15.383056
 30
0.0
 11
132.16345
 21
14.34778
 31
0.0
  0
ENDBLK
  5
27C
100
AcDbEntity
  8
2
100
AcDbBlockEnd
  0
BLOCK
  5
27D
100
AcDbEntity
  8
2
100
AcDbBlockBegin
  2
*D3
 70
     1
 10
0.0
 20
0.0
 30
0.0
  3
*D3
  1

  0
TEXT
  5
27E
100
AcDbEntity
  8
2
370
    18
100
AcDbText
 10
93.5402
 20
0.006727
 30
0.0
 40
5.0
  1
102
 50
90.0
 41
2.0
 72
     5
 11
93.5402
 21
13.006727
 31
0.0
100
AcDbText
  0
LINE
  5
27F
100
AcDbEntity
  8
2
370
    25
100
AcDbLine
 10
116.427154
 20
-43.493273
 30
0.0
 11
92.5402
 21
-43.493273
 31
0.0
  0
LINE
  5
280
100
AcDbEntity
  8
2
370
    25
100
AcDbLine
 10
94.5402
 20
-43.493273
 30
0.0
 11
95.575476
 21
-39.62957
 31
0.0
  0
LINE
  5
281
100
AcDbEntity
  8
2
370
    25
100
AcDbLine
 10
94.5402
 20
-43.493273
 30
0.0
 11
93.504924
 21
-39.62957
 31
0.0
  0
LINE
  5
282
100
AcDbEntity
  8
2
370
    25
100
AcDbLine
 10
94.5402
 20
-43.493273
 30
0.0
 11
94.5402
 21
58.506727
 31
0.0
  0
LINE
  5
283
100
AcDbEntity
  8
2
370
    25
100
AcDbLine
 10
94.5402
 20
58.506727
 30
0.0
 11
93.504924
 21
54.643023
 31
0.0
  0
LINE
  5
284
100
AcDbEntity
  8
2
370
    25
100
AcDbLine
 10
94.5402
 20
58.506727
 30
0.0
 11
95.575476
 21
54.643023
 31
0.0
  0
LINE
  5
285
100
AcDbEntity
  8
2
370
    25
100
AcDbLine
 10
116.427154
 20
58.506727
 30
0.0
 11
92.5402
 21
58.506727
 31
0.0
  0
ENDBLK
  5
286
100
AcDbEntity
  8
2
100
AcDbBlockEnd
  0
BLOCK
  5
287
100
AcDbEntity
  8
2
100
AcDbBlockBegin
  2
*D4
 70
     1
 10
0.0
 20
0.0
 30
0.0
  3
*D4
  1

  0
TEXT
  5
288
100
AcDbEntity
  8
2
370
    18
100
AcDbText
 10
85.706719
 20
0.006727
 30
0.0
 40
5.0
  1
120
 50
90.0
 41
2.0
 72
     5
 11
85.706719
 21
13.006727
 31
0.0
100
AcDbText
  0
LINE
  5
289
100
AcDbEntity
  8
2
370
    25
100
AcDbLine
 10
104.527154
 20
-52.493273
 30
0.0
 11
84.706719
 21
-52.493273
 31
0.0
  0
LINE
  5
28A
100
AcDbEntity
  8
2
370
    25
100
AcDbLine
 10
86.706719
 20
-52.493273
 30
0.0
 11
87.741995
 21
-48.62957
 31
0.0
  0
LINE
  5
28B
100
AcDbEntity
  8
2
370
    25
100
AcDbLine
 10
86.706719
 20
-52.493273
 30
0.0
 11
85.671443
 21
-48.62957
 31
0.0
  0
LINE
  5
28C
100
AcDbEntity
  8
2
370
    25
100
AcDbLine
 10
86.706719
 20
-52.493273
 30
0.0
 11
86.706719
 21
67.506727
 31
0.0
  0
LINE
  5
28D
100
AcDbEntity
  8
2
370
    25
100
AcDbLine
 10
86.706719
 20
67.506727
 30
0.0
 11
85.671443
 21
63.643023
 31
0.0
  0
LINE
  5
28E
100
AcDbEntity
  8
2
370
    25
100
AcDbLine
 10
86.706719
 20
67.506727
 30
0.0
 11
87.741995
 21
63.643023
 31
0.0
  0
LINE
  5
28F
100
AcDbEntity
  8
2
370
    25
100
AcDbLine
 10
104.527154
 20
67.506727
 30
0.0
 11
84.706719
 21
67.506727
 31
0.0
  0
ENDBLK
  5
290
100
AcDbEntity
  8
2
100
AcDbBlockEnd
  0
BLOCK
  5
291
100
AcDbEntity
  8
2
100
AcDbBlockBegin
  2
*D5
 70
     1
 10
0.0
 20
0.0
 30
0.0
  3
*D5
  1

  0
TEXT
  5
292
100
AcDbEntity
  8
2
370
    18
100
AcDbText
 10
119.527154
 20
76.794767
 30
0.0
 40
5.0
  1
41
 41
2.0
 72
     5
 11
127.527154
 21
76.794767
 31
0.0
100
AcDbText
  0
LINE
  5
293
100
AcDbEntity
  8
2
370
    25
100
AcDbLine
 10
104.027154
 20
67.006727
 30
0.0
 11
104.027154
 21
77.794767
 31
0.0
  0
LINE
  5
294
100
AcDbEntity
  8
2
370
    25
100
AcDbLine
 10
104.027154
 20
75.794767
 30
0.0
 11
107.890857
 21
74.759491
 31
0.0
  0
LINE
  5
295
100
AcDbEntity
  8
2
370
    25
100
AcDbLine
 10
104.027154
 20
75.794767
 30
0.0
 11
107.890857
 21
76.830043
 31
0.0
  0
LINE
  5
296
100
AcDbEntity
  8
2
370
    25
100
AcDbLine
 10
104.027154
 20
75.794767
 30
0.0
 11
145.027154
 21
75.794767
 31
0.0
  0
LINE
  5
297
100
AcDbEntity
  8
2
370
    25
100
AcDbLine
 10
145.027154
 20
75.794767
 30
0.0
 11
141.16345
 21
76.830043
 31
0.0
  0
LINE
  5
298
100
AcDbEntity
  8
2
370
    25
100
AcDbLine
 10
145.027154
 20
75.794767
 30
0.0
 11
141.16345
 21
74.759491
 31
0.0
  0
LINE
  5
299
100
AcDbEntity
  8
2
370
    25
100
AcDbLine
 10
145.027154
 20
67.006727
 30
0.0
 11
145.027154
 21
77.794767
 31
0.0
  0
ENDBLK
  5
29A
100
AcDbEntity
  8
2
100
AcDbBlockEnd
  0
BLOCK
  5
29B
100
AcDbEntity
  8
2
100
AcDbBlockBegin
  2
*D6
 70
     1
 10
0.0
 20
0.0
 30
0.0
  3
*D6
  1

  0
TEXT
  5
29C
100
AcDbEntity
  8
2
370
    18
100
AcDbText
 10
148.574837
 20
129.564407
 30
0.0
 40
5.0
  1
12.5
 50
90.0
 41
2.0
 72
     5
 11
148.574837
 21
147.564407
 31
0.0
100
AcDbText
  0
LINE
  5
29D
100
AcDbEntity
  8
2
370
    25
100
AcDbLine
 10
146.027154
 20
113.064407
 30
0.0
 11
151.574837
 21
113.064407
 31
0.0
  0
LINE
  5
29E
100
AcDbEntity
  8
2
370
    25
100
AcDbLine
 10
149.574837
 20
113.064407
 30
0.0
 11
148.539561
 21
109.200703
 31
0.0
  0
LINE
  5
29F
100
AcDbEntity
  8
2
370
    25
100
AcDbLine
 10
149.574837
 20
113.064407
 30
0.0
 11
150.610114
 21
109.200703
 31
0.0
  0
LINE
  5
2A0
100
AcDbEntity
  8
2
370
    25
100
AcDbLine
 10
149.574837
 20
103.064407
 30
0.0
 11
149.574837
 21
151.564407
 31
0.0
  0
LINE
  5
2A1
100
AcDbEntity
  8
2
370
    25
100
AcDbLine
 10
149.574837
 20
125.564407
 30
0.0
 11
150.610114
 21
129.42811
 31
0.0
  0
LINE
  5
2A2
100
AcDbEntity
  8
2
370
    25
100
AcDbLine
 10
149.574837
 20
125.564407
 30
0.0
 11
148.539561
 21
129.42811
 31
0.0
  0
LINE
  5
2A3
100
AcDbEntity
  8
2
370
    25
100
AcDbLine
 10
140.547856
 20
125.564407
 30
0.0
 11
151.574837
 21
125.564407
 31
0.0
  0
ENDBLK
  5
2A4
100
AcDbEntity
  8
2
100
AcDbBlockEnd
  0
BLOCK
  5
2A5
100
AcDbEntity
  8
2
100
AcDbBlockBegin
  2
*D7
 70
     1
 10
0.0
 20
0.0
 30
0.0
  3
*D7
  1

  0
TEXT
  5
2A6
100
AcDbEntity
  8
2
370
    25
100
AcDbText
 10
167.491382
 20
74.685621
 30
0.0
 40
5.0
  1
12.3
 41
2.0
 72
     5
 11
185.491382
 21
74.685621
 31
0.0
100
AcDbText
  0
LINE
  5
2A7
100
AcDbEntity
  8
2
370
    25
100
AcDbLine
 10
191.491382
 20
67.616902
 30
0.0
 11
191.491382
 21
75.685621
 31
0.0
  0
LINE
  5
2A8
100
AcDbEntity
  8
2
370
    25
100
AcDbLine
 10
191.491382
 20
73.685621
 30
0.0
 11
187.627679
 21
74.720897
 31
0.0
  0
LINE
  5
2A9
100
AcDbEntity
  8
2
370
    25
100
AcDbLine
 10
191.491382
 20
73.685621
 30
0.0
 11
187.627679
 21
72.650344
 31
0.0
  0
LINE
  5
2AA
100
AcDbEntity
  8
2
370
    25
100
AcDbLine
 10
165.491382
 20
73.685621
 30
0.0
 11
213.791382
 21
73.685621
 31
0.0
  0
LINE
  5
2AB
100
AcDbEntity
  8
2
370
    25
100
AcDbLine
 10
203.791382
 20
73.685621
 30
0.0
 11
207.655085
 21
72.650344
 31
0.0
  0
LINE
  5
2AC
100
AcDbEntity
  8
2
370
    25
100
AcDbLine
 10
203.791382
 20
73.685621
 30
0.0
 11
207.655085
 21
74.720897
 31
0.0
  0
LINE
  5
2AD
100
AcDbEntity
  8
2
370
    25
100
AcDbLine
 10
203.791382
 20
59.507246
 30
0.0
 11
203.791382
 21
75.685621
 31
0.0
  0
ENDBLK
  5
2AE
100
AcDbEntity
  8
2
100
AcDbBlockEnd
  0
BLOCK
  5
2AF
100
AcDbEntity
  8
2
100
AcDbBlockBegin
  2
*D8
 70
     1
 10
0.0
 20
0.0
 30
0.0
  3
*D8
  1

  0
TEXT
  5
2B0
100
AcDbEntity
  8
2
370
    25
100
AcDbText
 10
172.491382
 20
82.802915
 30
0.0
 40
5.0
  1
1.8
 41
2.0
 72
     5
 11
185.491382
 21
82.802915
 31
0.0
100
AcDbText
  0
LINE
  5
2B1
100
AcDbEntity
  8
2
370
    25
100
AcDbLine
 10
191.491382
 20
67.616902
 30
0.0
 11
191.491382
 21
83.802915
 31
0.0
  0
LINE
  5
2B2
100
AcDbEntity
  8
2
370
    25
100
AcDbLine
 10
191.491382
 20
81.802915
 30
0.0
 11
187.627679
 21
82.838191
 31
0.0
  0
LINE
  5
2B3
100
AcDbEntity
  8
2
370
    25
100
AcDbLine
 10
191.491382
 20
81.802915
 30
0.0
 11
187.627679
 21
80.767639
 31
0.0
  0
LINE
  5
2B4
100
AcDbEntity
  8
2
370
    25
100
AcDbLine
 10
170.491382
 20
81.802915
 30
0.0
 11
203.291382
 21
81.802915
 31
0.0
  0
LINE
  5
2B5
100
AcDbEntity
  8
2
370
    25
100
AcDbLine
 10
193.291382
 20
81.802915
 30
0.0
 11
197.155085
 21
80.767639
 31
0.0
  0
LINE
  5
2B6
100
AcDbEntity
  8
2
370
    25
100
AcDbLine
 10
193.291382
 20
81.802915
 30
0.0
 11
197.155085
 21
82.838191
 31
0.0
  0
LINE
  5
2B7
100
AcDbEntity
  8
2
370
    25
100
AcDbLine
 10
193.291382
 20
68.507446
 30
0.0
 11
193.291382
 21
83.802915
 31
0.0
  0
ENDBLK
  5
2B8
100
AcDbEntity
  8
2
100
AcDbBlockEnd
  0
BLOCK
  5
2B9
100
AcDbEntity
  8
2
100
AcDbBlockBegin
  2
*D9
 70
     1
 10
0.0
 20
0.0
 30
0.0
  3
*D9
  1

  0
LINE
  5
2BA
100
AcDbEntity
  8
2
370
    25
100
AcDbLine
 10
193.291382
 20
-53.49169
 30
0.0
 11
193.291382
 21
-64.125994
 31
0.0
  0
LINE
  5
2BB
100
AcDbEntity
  8
2
370
    25
100
AcDbLine
 10
193.291382
 20
-62.125994
 30
0.0
 11
197.155085
 21
-63.161271
 31
0.0
  0
LINE
  5
2BC
100
AcDbEntity
  8
2
370
    25
100
AcDbLine
 10
193.291382
 20
-62.125994
 30
0.0
 11
197.155085
 21
-61.090718
 31
0.0
  0
LINE
  5
2BD
100
AcDbEntity
  8
2
370
    25
100
AcDbLine
 10
193.291382
 20
-62.125994
 30
0.0
 11
219.291382
 21
-62.125994
 31
0.0
  0
LINE
  5
2BE
100
AcDbEntity
  8
2
370
    25
100
AcDbLine
 10
219.291382
 20
-62.125994
 30
0.0
 11
215.427679
 21
-61.090718
 31
0.0
  0
LINE
  5
2BF
100
AcDbEntity
  8
2
370
    25
100
AcDbLine
 10
219.291382
 20
-62.125994
 30
0.0
 11
215.427679
 21
-63.161271
 31
0.0
  0
LINE
  5
2C0
100
AcDbEntity
  8
2
370
    25
100
AcDbLine
 10
219.291382
 20
-53.49169
 30
0.0
 11
219.291382
 21
-64.125994
 31
0.0
  0
ENDBLK
  5
2C1
100
AcDbEntity
  8
2
100
AcDbBlockEnd
  0
BLOCK
  5
2C2
100
AcDbEntity
  8
2
100
AcDbBlockBegin
  2
*D10
 70
     1
 10
0.0
 20
0.0
 30
0.0
  3
*D10
  1

  0
TEXT
  5
2C3
100
AcDbEntity
  8
2
370
    18
100
AcDbText
 10
-238.725531
 20
17.017579
 30
0.0
 40
5.0
  1
23
 41
2.0
 72
     5
 11
-230.725531
 21
17.017579
 31
0.0
100
AcDbText
  0
LINE
  5
2C4
100
AcDbEntity
  8
2
370
    25
100
AcDbLine
 10
-245.225531
 20
16.017579
 30
0.0
 11
-241.361828
 21
14.982303
 31
0.0
  0
LINE
  5
2C5
100
AcDbEntity
  8
2
370
    25
100
AcDbLine
 10
-245.225531
 20
16.017579
 30
0.0
 11
-241.361828
 21
17.052856
 31
0.0
  0
LINE
  5
2C6
100
AcDbEntity
  8
2
370
    25
100
AcDbLine
 10
-245.225531
 20
16.017579
 30
0.0
 11
-222.225531
 21
16.017579
 31
0.0
  0
LINE
  5
2C7
100
AcDbEntity
  8
2
370
    25
100
AcDbLine
 10
-222.225531
 20
16.017579
 30
0.0
 11
-226.089235
 21
17.052856
 31
0.0
  0
LINE
  5
2C8
100
AcDbEntity
  8
2
370
    25
100
AcDbLine
 10
-222.225531
 20
16.017579
 30
0.0
 11
-226.089235
 21
14.982303
 31
0.0
  0
ENDBLK
  5
2C9
100
AcDbEntity
  8
2
100
AcDbBlockEnd
  0
BLOCK
  5
2CA
100
AcDbEntity
  8
2
100
AcDbBlockBegin
  2
*D11
 70
     1
 10
0.0
 20
0.0
 30
0.0
  3
*D11
  1

  0
TEXT
  5
2CB
100
AcDbEntity
  8
2
370
    18
100
AcDbText
 10
-269.851264
 20
0.006731
 30
0.0
 40
5.0
  1
102
 50
90.0
 41
2.0
 72
     5
 11
-269.851264
 21
13.006731
 31
0.0
100
AcDbText
  0
LINE
  5
2CC
100
AcDbEntity
  8
2
370
    25
100
AcDbLine
 10
-241.825531
 20
-43.493269
 30
0.0
 11
-270.851264
 21
-43.493269
 31
0.0
  0
LINE
  5
2CD
100
AcDbEntity
  8
2
370
    25
100
AcDbLine
 10
-268.851264
 20
-43.493269
 30
0.0
 11
-267.815988
 21
-39.629566
 31
0.0
  0
LINE
  5
2CE
100
AcDbEntity
  8
2
370
    25
100
AcDbLine
 10
-268.851264
 20
-43.493269
 30
0.0
 11
-269.88654
 21
-39.629566
 31
0.0
  0
LINE
  5
2CF
100
AcDbEntity
  8
2
370
    25
100
AcDbLine
 10
-268.851264
 20
-43.493269
 30
0.0
 11
-268.851264
 21
58.506731
 31
0.0
  0
LINE
  5
2D0
100
AcDbEntity
  8
2
370
    25
100
AcDbLine
 10
-268.851264
 20
58.506731
 30
0.0
 11
-269.88654
 21
54.643027
 31
0.0
  0
LINE
  5
2D1
100
AcDbEntity
  8
2
370
    25
100
AcDbLine
 10
-268.851264
 20
58.506731
 30
0.0
 11
-267.815988
 21
54.643027
 31
0.0
  0
LINE
  5
2D2
100
AcDbEntity
  8
2
370
    25
100
AcDbLine
 10
-241.825531
 20
58.506731
 30
0.0
 11
-270.851264
 21
58.506731
 31
0.0
  0
ENDBLK
  5
2D3
100
AcDbEntity
  8
2
100
AcDbBlockEnd
  0
BLOCK
  5
2D4
100
AcDbEntity
  8
2
100
AcDbBlockBegin
  2
*D12
 70
     1
 10
0.0
 20
0.0
 30
0.0
  3
*D12
  1

  0
TEXT
  5
2D5
100
AcDbEntity
  8
2
370
    18
100
AcDbText
 10
-277.020973
 20
0.006731
 30
0.0
 40
5.0
  1
120
 50
90.0
 41
2.0
 72
     5
 11
-277.020973
 21
13.006731
 31
0.0
100
AcDbText
  0
LINE
  5
2D6
100
AcDbEntity
  8
2
370
    25
100
AcDbLine
 10
-253.725531
 20
-52.493269
 30
0.0
 11
-278.020973
 21
-52.493269
 31
0.0
  0
LINE
  5
2D7
100
AcDbEntity
  8
2
370
    25
100
AcDbLine
 10
-276.020973
 20
-52.493269
 30
0.0
 11
-274.985696
 21
-48.629566
 31
0.0
  0
LINE
  5
2D8
100
AcDbEntity
  8
2
370
    25
100
AcDbLine
 10
-276.020973
 20
-52.493269
 30
0.0
 11
-277.056249
 21
-48.629566
 31
0.0
  0
LINE
  5
2D9
100
AcDbEntity
  8
2
370
    25
100
AcDbLine
 10
-276.020973
 20
-52.493269
 30
0.0
 11
-276.020973
 21
67.506731
 31
0.0
  0
LINE
  5
2DA
100
AcDbEntity
  8
2
370
    25
100
AcDbLine
 10
-276.020973
 20
67.506731
 30
0.0
 11
-277.056249
 21
63.643027
 31
0.0
  0
LINE
  5
2DB
100
AcDbEntity
  8
2
370
    25
100
AcDbLine
 10
-276.020973
 20
67.506731
 30
0.0
 11
-274.985696
 21
63.643027
 31
0.0
  0
LINE
  5
2DC
100
AcDbEntity
  8
2
370
    25
100
AcDbLine
 10
-253.725531
 20
67.506731
 30
0.0
 11
-278.020973
 21
67.506731
 31
0.0
  0
ENDBLK
  5
2DD
100
AcDbEntity
  8
2
100
AcDbBlockEnd
  0
BLOCK
  5
2DE
100
AcDbEntity
  8
2
100
AcDbBlockBegin
  2
*D13
 70
     1
 10
0.0
 20
0.0
 30
0.0
  3
*D13
  1

  0
TEXT
  5
2DF
100
AcDbEntity
  8
2
370
    18
100
AcDbText
 10
-238.725531
 20
79.332948
 30
0.0
 40
5.0
  1
41
 41
2.0
 72
     5
 11
-230.725531
 21
79.332948
 31
0.0
100
AcDbText
  0
LINE
  5
2E0
100
AcDbEntity
  8
2
370
    25
100
AcDbLine
 10
-254.225531
 20
67.006731
 30
0.0
 11
-254.225531
 21
80.332948
 31
0.0
  0
LINE
  5
2E1
100
AcDbEntity
  8
2
370
    25
100
AcDbLine
 10
-254.225531
 20
78.332948
 30
0.0
 11
-250.361828
 21
77.297672
 31
0.0
  0
LINE
  5
2E2
100
AcDbEntity
  8
2
370
    25
100
AcDbLine
 10
-254.225531
 20
78.332948
 30
0.0
 11
-250.361828
 21
79.368224
 31
0.0
  0
LINE
  5
2E3
100
AcDbEntity
  8
2
370
    25
100
AcDbLine
 10
-254.225531
 20
78.332948
 30
0.0
 11
-213.225531
 21
78.332948
 31
0.0
  0
LINE
  5
2E4
100
AcDbEntity
  8
2
370
    25
100
AcDbLine
 10
-213.225531
 20
78.332948
 30
0.0
 11
-217.089235
 21
79.368224
 31
0.0
  0
LINE
  5
2E5
100
AcDbEntity
  8
2
370
    25
100
AcDbLine
 10
-213.225531
 20
78.332948
 30
0.0
 11
-217.089235
 21
77.297672
 31
0.0
  0
LINE
  5
2E6
100
AcDbEntity
  8
2
370
    25
100
AcDbLine
 10
-213.225531
 20
67.006731
 30
0.0
 11
-213.225531
 21
80.332948
 31
0.0
  0
ENDBLK
  5
2E7
100
AcDbEntity
  8
2
100
AcDbBlockEnd
  0
BLOCK
  5
2E8
100
AcDbEntity
  8
2
100
AcDbBlockBegin
  2
*D14
 70
     1
 10
0.0
 20
0.0
 30
0.0
  3
*D14
  1

  0
TEXT
  5
2E9
100
AcDbEntity
  8
2
370
    18
100
AcDbText
 10
-238.725531
 20
102.992616
 30
0.0
 40
5.0
  1
32
 41
2.0
 72
     5
 11
-230.725531
 21
102.992616
 31
0.0
100
AcDbText
  0
LINE
  5
2EA
100
AcDbEntity
  8
2
370
    25
100
AcDbLine
 10
-249.725531
 20
111.506752
 30
0.0
 11
-249.725531
 21
99.992616
 31
0.0
  0
LINE
  5
2EB
100
AcDbEntity
  8
2
370
    25
100
AcDbLine
 10
-249.725531
 20
101.992616
 30
0.0
 11
-245.861828
 21
100.95734
 31
0.0
  0
LINE
  5
2EC
100
AcDbEntity
  8
2
370
    25
100
AcDbLine
 10
-249.725531
 20
101.992616
 30
0.0
 11
-245.861828
 21
103.027892
 31
0.0
  0
LINE
  5
2ED
100
AcDbEntity
  8
2
370
    25
100
AcDbLine
 10
-249.725531
 20
101.992616
 30
0.0
 11
-217.725531
 21
101.992616
 31
0.0
  0
LINE
  5
2EE
100
AcDbEntity
  8
2
370
    25
100
AcDbLine
 10
-217.725531
 20
101.992616
 30
0.0
 11
-221.589235
 21
103.027892
 31
0.0
  0
LINE
  5
2EF
100
AcDbEntity
  8
2
370
    25
100
AcDbLine
 10
-217.725531
 20
101.992616
 30
0.0
 11
-221.589235
 21
100.95734
 31
0.0
  0
LINE
  5
2F0
100
AcDbEntity
  8
2
370
    25
100
AcDbLine
 10
-217.725531
 20
111.506752
 30
0.0
 11
-217.725531
 21
99.992616
 31
0.0
  0
ENDBLK
  5
2F1
100
AcDbEntity
  8
2
100
AcDbBlockEnd
  0
BLOCK
  5
2F2
100
AcDbEntity
  8
2
100
AcDbBlockBegin
  2
*D15
 70
     1
 10
0.0
 20
0.0
 30
0.0
  3
*D15
  1

  0
TEXT
  5
2F3
100
AcDbEntity
  8
2
370
    18
100
AcDbText
 10
-202.765418
 20
129.006752
 30
0.0
 40
5.0
  1
12.5
 50
90.0
 41
2.0
 72
     5
 11
-202.765418
 21
147.006752
 31
0.0
100
AcDbText
  0
LINE
  5
2F4
100
AcDbEntity
  8
2
370
    25
100
AcDbLine
 10
-212.225531
 20
112.506752
 30
0.0
 11
-199.765418
 21
112.506752
 31
0.0
  0
LINE
  5
2F5
100
AcDbEntity
  8
2
370
    25
100
AcDbLine
 10
-201.765418
 20
112.506752
 30
0.0
 11
-202.800695
 21
108.643049
 31
0.0
  0
LINE
  5
2F6
100
AcDbEntity
  8
2
370
    25
100
AcDbLine
 10
-201.765418
 20
112.506752
 30
0.0
 11
-200.730142
 21
108.643049
 31
0.0
  0
LINE
  5
2F7
100
AcDbEntity
  8
2
370
    25
100
AcDbLine
 10
-201.765418
 20
102.506752
 30
0.0
 11
-201.765418
 21
151.006752
 31
0.0
  0
LINE
  5
2F8
100
AcDbEntity
  8
2
370
    25
100
AcDbLine
 10
-201.765418
 20
125.006752
 30
0.0
 11
-200.730142
 21
128.870455
 31
0.0
  0
LINE
  5
2F9
100
AcDbEntity
  8
2
370
    25
100
AcDbLine
 10
-201.765418
 20
125.006752
 30
0.0
 11
-202.800695
 21
128.870455
 31
0.0
  0
LINE
  5
2FA
100
AcDbEntity
  8
2
370
    25
100
AcDbLine
 10
-217.704829
 20
125.006752
 30
0.0
 11
-199.765418
 21
125.006752
 31
0.0
  0
ENDBLK
  5
2FB
100
AcDbEntity
  8
2
100
AcDbBlockEnd
  0
BLOCK
  5
2FC
100
AcDbEntity
  8
2
100
AcDbBlockBegin
  2
*D16
 70
     1
 10
0.0
 20
0.0
 30
0.0
  3
*D16
  1

  0
TEXT
  5
2FD
100
AcDbEntity
  8
2
370
    18
100
AcDbText
 10
-185.468678
 20
85.057283
 30
0.0
 40
5.0
  1
1.8
 41
2.0
 72
     5
 11
-172.468678
 21
85.057283
 31
0.0
100
AcDbText
  0
LINE
  5
2FE
100
AcDbEntity
  8
2
370
    25
100
AcDbLine
 10
-166.468678
 20
67.615483
 30
0.0
 11
-166.468678
 21
86.057283
 31
0.0
  0
LINE
  5
2FF
100
AcDbEntity
  8
2
370
    25
100
AcDbLine
 10
-166.468678
 20
84.057283
 30
0.0
 11
-170.332381
 21
85.092559
 31
0.0
  0
LINE
  5
300
100
AcDbEntity
  8
2
370
    25
100
AcDbLine
 10
-166.468678
 20
84.057283
 30
0.0
 11
-170.332381
 21
83.022007
 31
0.0
  0
LINE
  5
301
100
AcDbEntity
  8
2
370
    25
100
AcDbLine
 10
-187.468678
 20
84.057283
 30
0.0
 11
-154.668678
 21
84.057283
 31
0.0
  0
LINE
  5
302
100
AcDbEntity
  8
2
370
    25
100
AcDbLine
 10
-164.668678
 20
84.057283
 30
0.0
 11
-160.804974
 21
83.022007
 31
0.0
  0
LINE
  5
303
100
AcDbEntity
  8
2
370
    25
100
AcDbLine
 10
-164.668678
 20
84.057283
 30
0.0
 11
-160.804974
 21
85.092559
 31
0.0
  0
LINE
  5
304
100
AcDbEntity
  8
2
370
    25
100
AcDbLine
 10
-164.668678
 20
68.506027
 30
0.0
 11
-164.668678
 21
86.057283
 31
0.0
  0
ENDBLK
  5
305
100
AcDbEntity
  8
2
100
AcDbBlockEnd
  0
BLOCK
  5
306
100
AcDbEntity
  8
2
100
AcDbBlockBegin
  2
*D17
 70
     1
 10
0.0
 20
0.0
 30
0.0
  3
*D17
  1

  0
TEXT
  5
307
100
AcDbEntity
  8
2
370
    18
100
AcDbText
 10
-122.868678
 20
85.057283
 30
0.0
 40
5.0
  1
1.8
 41
2.0
 72
     5
 11
-109.868678
 21
85.057283
 31
0.0
100
AcDbText
  0
LINE
  5
308
100
AcDbEntity
  8
2
370
    25
100
AcDbLine
 10
-128.668678
 20
68.506603
 30
0.0
 11
-128.668678
 21
86.057283
 31
0.0
  0
LINE
  5
309
100
AcDbEntity
  8
2
370
    25
100
AcDbLine
 10
-128.668678
 20
84.057283
 30
0.0
 11
-132.532381
 21
85.092559
 31
0.0
  0
LINE
  5
30A
100
AcDbEntity
  8
2
370
    25
100
AcDbLine
 10
-128.668678
 20
84.057283
 30
0.0
 11
-132.532381
 21
83.022007
 31
0.0
  0
LINE
  5
30B
100
AcDbEntity
  8
2
370
    25
100
AcDbLine
 10
-138.668678
 20
84.057283
 30
0.0
 11
-105.868678
 21
84.057283
 31
0.0
  0
LINE
  5
30C
100
AcDbEntity
  8
2
370
    25
100
AcDbLine
 10
-126.868678
 20
84.057283
 30
0.0
 11
-123.004974
 21
83.022007
 31
0.0
  0
LINE
  5
30D
100
AcDbEntity
  8
2
370
    25
100
AcDbLine
 10
-126.868678
 20
84.057283
 30
0.0
 11
-123.004974
 21
85.092559
 31
0.0
  0
LINE
  5
30E
100
AcDbEntity
  8
2
370
    25
100
AcDbLine
 10
-126.868678
 20
67.616059
 30
0.0
 11
-126.868678
 21
86.057283
 31
0.0
  0
ENDBLK
  5
30F
100
AcDbEntity
  8
2
100
AcDbBlockEnd
  0
BLOCK
  5
310
100
AcDbEntity
  8
2
100
AcDbBlockBegin
  2
*D18
 70
     1
 10
0.0
 20
0.0
 30
0.0
  3
*D18
  1

  0
TEXT
  5
311
100
AcDbEntity
  8
2
370
    25
100
AcDbText
 10
-122.868678
 20
75.249696
 30
0.0
 40
5.0
  1
12.3
 41
2.0
 72
     5
 11
-104.868678
 21
75.249696
 31
0.0
100
AcDbText
  0
LINE
  5
312
100
AcDbEntity
  8
2
370
    25
100
AcDbLine
 10
-139.168678
 20
59.506891
 30
0.0
 11
-139.168678
 21
76.249696
 31
0.0
  0
LINE
  5
313
100
AcDbEntity
  8
2
370
    25
100
AcDbLine
 10
-139.168678
 20
74.249696
 30
0.0
 11
-143.032381
 21
75.284972
 31
0.0
  0
LINE
  5
314
100
AcDbEntity
  8
2
370
    25
100
AcDbLine
 10
-139.168678
 20
74.249696
 30
0.0
 11
-143.032381
 21
73.21442
 31
0.0
  0
LINE
  5
315
100
AcDbEntity
  8
2
370
    25
100
AcDbLine
 10
-149.168678
 20
74.249696
 30
0.0
 11
-100.868678
 21
74.249696
 31
0.0
  0
LINE
  5
316
100
AcDbEntity
  8
2
370
    25
100
AcDbLine
 10
-126.868678
 20
74.249696
 30
0.0
 11
-123.004974
 21
73.21442
 31
0.0
  0
LINE
  5
317
100
AcDbEntity
  8
2
370
    25
100
AcDbLine
 10
-126.868678
 20
74.249696
 30
0.0
 11
-123.004974
 21
75.284972
 31
0.0
  0
LINE
  5
318
100
AcDbEntity
  8
2
370
    25
100
AcDbLine
 10
-126.868678
 20
67.616059
 30
0.0
 11
-126.868678
 21
76.249696
 31
0.0
  0
ENDBLK
  5
319
100
AcDbEntity
  8
2
100
AcDbBlockEnd
  0
BLOCK
  5
31A
100
AcDbEntity
  8
2
100
AcDbBlockBegin
  2
*D19
 70
     1
 10
0.0
 20
0.0
 30
0.0
  3
*D19
  1

  0
LINE
  5
31B
100
AcDbEntity
  8
2
370
    25
100
AcDbLine
 10
-164.668678
 20
68.506027
 30
0.0
 11
-164.668678
 21
86.057283
 31
0.0
  0
LINE
  5
31C
100
AcDbEntity
  8
2
370
    25
100
AcDbLine
 10
-164.668678
 20
84.057283
 30
0.0
 11
-160.804974
 21
83.022007
 31
0.0
  0
LINE
  5
31D
100
AcDbEntity
  8
2
370
    25
100
AcDbLine
 10
-164.668678
 20
84.057283
 30
0.0
 11
-160.804974
 21
85.092559
 31
0.0
  0
LINE
  5
31E
100
AcDbEntity
  8
2
370
    25
100
AcDbLine
 10
-164.668678
 20
84.057283
 30
0.0
 11
-128.668678
 21
84.057283
 31
0.0
  0
LINE
  5
31F
100
AcDbEntity
  8
2
370
    25
100
AcDbLine
 10
-128.668678
 20
84.057283
 30
0.0
 11
-132.532381
 21
85.092559
 31
0.0
  0
LINE
  5
320
100
AcDbEntity
  8
2
370
    25
100
AcDbLine
 10
-128.668678
 20
84.057283
 30
0.0
 11
-132.532381
 21
83.022007
 31
0.0
  0
LINE
  5
321
100
AcDbEntity
  8
2
370
    25
100
AcDbLine
 10
-128.668678
 20
68.506603
 30
0.0
 11
-128.668678
 21
86.057283
 31
0.0
  0
ENDBLK
  5
322
100
AcDbEntity
  8
2
100
AcDbBlockEnd
  0
BLOCK
  5
323
100
AcDbEntity
  8
2
100
AcDbBlockBegin
  2
*D20
 70
     1
 10
0.0
 20
0.0
 30
0.0
  3
*D20
  1

  0
TEXT
  5
324
100
AcDbEntity
  8
2
370
    25
100
AcDbText
 10
-263.637122
 20
2.506731
 30
0.0
 40
5.0
  1
89
 50
90.0
 41
2.0
 72
     5
 11
-263.637122
 21
10.506731
 31
0.0
100
AcDbText
  0
LINE
  5
325
100
AcDbEntity
  8
2
370
    25
100
AcDbLine
 10
-228.928321
 20
-36.993269
 30
0.0
 11
-264.637122
 21
-36.993269
 31
0.0
  0
LINE
  5
326
100
AcDbEntity
  8
2
370
    25
100
AcDbLine
 10
-262.637122
 20
-36.993269
 30
0.0
 11
-261.601846
 21
-33.129566
 31
0.0
  0
LINE
  5
327
100
AcDbEntity
  8
2
370
    25
100
AcDbLine
 10
-262.637122
 20
-36.993269
 30
0.0
 11
-263.672399
 21
-33.129566
 31
0.0
  0
LINE
  5
328
100
AcDbEntity
  8
2
370
    25
100
AcDbLine
 10
-262.637122
 20
-36.993269
 30
0.0
 11
-262.637122
 21
52.006731
 31
0.0
  0
LINE
  5
329
100
AcDbEntity
  8
2
370
    25
100
AcDbLine
 10
-262.637122
 20
52.006731
 30
0.0
 11
-263.672399
 21
48.143027
 31
0.0
  0
LINE
  5
32A
100
AcDbEntity
  8
2
370
    25
100
AcDbLine
 10
-262.637122
 20
52.006731
 30
0.0
 11
-261.601846
 21
48.143027
 31
0.0
  0
LINE
  5
32B
100
AcDbEntity
  8
2
370
    25
100
AcDbLine
 10
-228.928321
 20
52.006731
 30
0.0
 11
-264.637122
 21
52.006731
 31
0.0
  0
ENDBLK
  5
32C
100
AcDbEntity
  8
2
100
AcDbBlockEnd
  0
ENDSEC
  0
SECTION
  2
ENTITIES
  0
LINE
  5
3A
100
AcDbEntity
  8
1
370
    18
  6
CENTER
100
AcDbLine
 10
-258.40441
 20
7.506752
 30
0.0
 11
-209.046652
 21
7.506752
 31
0.0
  0
LINE
  5
3B
100
AcDbEntity
  8
1
370
    18
  6
CENTER
100
AcDbLine
 10
-240.825531
 20
58.506731
 30
0.0
 11
-226.625531
 21
58.506731
 31
0.0
  0
LINE
  5
3C
100
AcDbEntity
  8
1
370
    18
  6
CENTER
100
AcDbLine
 10
-240.825531
 20
-43.493269
 30
0.0
 11
-226.625531
 21
-43.493269
 31
0.0
  0
LINE
  5
3D
100
AcDbEntity
  8
1
370
    50
100
AcDbLine
 10
-245.225531
 20
-36.992795
 30
0.0
 11
-245.225531
 21
52.006299
 31
0.0
  0
LINE
  5
3E
100
AcDbEntity
  8
1
370
    50
100
AcDbLine
 10
-222.225531
 20
-36.992795
 30
0.0
 11
-222.225531
 21
52.006299
 31
0.0
  0
LINE
  5
3F
100
AcDbEntity
  8
1
370
    50
100
AcDbLine
 10
-254.225531
 20
-50.993269
 30
0.0
 11
-254.225531
 21
66.006731
 31
0.0
  0
LINE
  5
40
100
AcDbEntity
  8
1
370
    50
100
AcDbLine
 10
-213.225531
 20
-50.993269
 30
0.0
 11
-213.225531
 21
66.006731
 31
0.0
  0
LINE
  5
41
100
AcDbEntity
  8
1
370
    50
100
AcDbLine
 10
-244.225531
 20
52.006731
 30
0.0
 11
-223.225531
 21
52.006731
 31
0.0
  0
LINE
  5
42
100
AcDbEntity
  8
1
370
    50
100
AcDbLine
 10
-244.225531
 20
-36.993269
 30
0.0
 11
-223.225531
 21
-36.993269
 31
0.0
  0
ARC
  5
43
100
AcDbEntity
  8
1
370
    50
100
AcDbCircle
 10
-223.225531
 20
51.006731
 30
0.0
 40
1.0
100
AcDbArc
 50
0.0
 51
90.0
  0
ARC
  5
44
100
AcDbEntity
  8
1
370
    50
100
AcDbCircle
 10
-244.225531
 20
51.006731
 30
0.0
 40
1.0
100
AcDbArc
 50
90.0
 51
180.0
  0
ARC
  5
45
100
AcDbEntity
  8
1
370
    50
100
AcDbCircle
 10
-244.225531
 20
-35.993269
 30
0.0
 40
1.0
100
AcDbArc
 50
180.0
 51
270.0
  0
ARC
  5
46
100
AcDbEntity
  8
1
370
    50
100
AcDbCircle
 10
-223.225531
 20
-35.993269
 30
0.0
 40
1.0
100
AcDbArc
 50
270.0
 51
0.0
  0
LINE
  5
47
100
AcDbEntity
  8
1
370
    50
100
AcDbLine
 10
-252.725531
 20
67.506731
 30
0.0
 11
-214.725531
 21
67.506731
 31
0.0
  0
LINE
  5
48
100
AcDbEntity
  8
1
370
    50
100
AcDbLine
 10
-252.725531
 20
-52.493269
 30
0.0
 11
-214.725531
 21
-52.493269
 31
0.0
  0
ARC
  5
49
100
AcDbEntity
  8
1
370
    50
100
AcDbCircle
 10
-214.725531
 20
66.006731
 30
0.0
 40
1.5
100
AcDbArc
 50
0.0
 51
90.0
  0
ARC
  5
4A
100
AcDbEntity
  8
1
370
    50
100
AcDbCircle
 10
-252.725531
 20
66.006731
 30
0.0
 40
1.5
100
AcDbArc
 50
90.0
 51
180.0
  0
ARC
  5
4B
100
AcDbEntity
  8
1
370
    50
100
AcDbCircle
 10
-252.725531
 20
-50.993269
 30
0.0
 40
1.5
100
AcDbArc
 50
180.0
 51
270.0
  0
ARC
  5
4C
100
AcDbEntity
  8
1
370
    50
100
AcDbCircle
 10
-214.725531
 20
-50.993269
 30
0.0
 40
1.5
100
AcDbArc
 50
270.0
 51
360.0
  0
LINE
  5
4D
100
AcDbEntity
  8
1
370
    50
100
AcDbLine
 10
-244.225531
 20
53.006299
 30
0.0
 11
-223.225531
 21
53.006299
 31
0.0
  0
ARC
  5
4E
100
AcDbEntity
  8
1
370
    50
100
AcDbCircle
 10
-223.225531
 20
52.006299
 30
0.0
 40
1.0
100
AcDbArc
 50
0.0
 51
90.0
  0
ARC
  5
4F
100
AcDbEntity
  8
1
370
    50
100
AcDbCircle
 10
-244.225531
 20
52.006299
 30
0.0
 40
1.0
100
AcDbArc
 50
90.0
 51
180.0
  0
LINE
  5
50
100
AcDbEntity
  8
1
370
    50
100
AcDbLine
 10
-244.225531
 20
-37.992795
 30
0.0
 11
-223.225531
 21
-37.992795
 31
0.0
  0
ARC
  5
51
100
AcDbEntity
  8
1
370
    50
100
AcDbCircle
 10
-223.225531
 20
-36.992795
 30
0.0
 40
1.0
100
AcDbArc
 50
270.0
 51
360.0
  0
ARC
  5
52
100
AcDbEntity
  8
1
370
    50
100
AcDbCircle
 10
-244.225531
 20
-36.992795
 30
0.0
 40
1.0
100
AcDbArc
 50
180.0
 51
270.0
  0
LINE
  5
53
100
AcDbEntity
  8
1
370
    50
100
AcDbLine
 10
-164.668678
 20
67.506027
 30
0.0
 11
-164.668678
 21
-52.493109
 31
0.0
  0
LINE
  5
54
100
AcDbEntity
  8
1
370
    50
100
AcDbLine
 10
-164.668678
 20
67.506027
 30
0.0
 11
-165.738402
 21
67.412439
 31
0.0
  0
LINE
  5
55
100
AcDbEntity
  8
1
370
    50
100
AcDbLine
 10
-164.187711
 20
62.987993
 30
0.0
 11
-162.149644
 21
62.910352
 31
0.0
  0
ARC
  5
56
100
AcDbEntity
  8
1
370
    50
100
AcDbCircle
 10
-164.168678
 20
63.48763
 30
0.0
 40
0.5
100
AcDbArc
 50
180.0
 51
267.818359
  0
LINE
  5
57
100
AcDbEntity
  8
1
370
    50
100
AcDbLine
 10
-154.649644
 20
58.524494
 30
0.0
 11
-161.668678
 21
58.791886
 31
0.0
  0
LINE
  5
58
100
AcDbEntity
  8
1
370
    50
100
AcDbLine
 10
-161.668678
 20
62.410427
 30
0.0
 11
-161.668678
 21
58.791886
 31
0.0
  0
ARC
  5
59
100
AcDbEntity
  8
1
370
    50
100
AcDbCircle
 10
-162.168678
 20
62.410714
 30
0.0
 40
0.5
100
AcDbArc
 50
360.0
 51
87.818359
  0
ARC
  5
5A
100
AcDbEntity
  8
1
370
    50
100
AcDbCircle
 10
-154.668678
 20
58.024856
 30
0.0
 40
0.5
100
AcDbArc
 50
0.0
 51
87.818359
  0
LINE
  5
5B
100
AcDbEntity
  8
1
370
    18
  6
DASHED
100
AcDbLine
 10
-161.668678
 20
58.791886
 30
0.0
 11
-161.668678
 21
54.291907
 31
0.0
  0
LINE
  5
5C
100
AcDbEntity
  8
1
370
    18
  6
DASHED
100
AcDbLine
 10
-161.668678
 20
54.291907
 30
0.0
 11
-154.649651
 21
54.02465
 31
0.0
  0
LINE
  5
5D
100
AcDbEntity
  8
1
370
    50
100
AcDbLine
 10
-161.668678
 20
62.306027
 30
0.0
 11
-159.149644
 21
62.210064
 31
0.0
  0
ARC
  5
5E
100
AcDbEntity
  8
1
370
    50
100
AcDbCircle
 10
-159.168678
 20
61.710427
 30
0.0
 40
0.5
100
AcDbArc
 50
0.0
 51
87.818359
  0
LINE
  5
5F
100
AcDbEntity
  8
1
370
    50
100
AcDbLine
 10
-158.668678
 20
61.710427
 30
0.0
 11
-158.668678
 21
58.6776
 31
0.0
  0
LINE
  5
60
100
AcDbEntity
  8
1
370
    18
  6
DASHED
100
AcDbLine
 10
-158.668678
 20
58.6776
 30
0.0
 11
-158.668678
 21
54.177679
 31
0.0
  0
LINE
  5
61
100
AcDbEntity
  8
1
370
    50
100
AcDbLine
 10
-164.187711
 20
-47.975074
 30
0.0
 11
-162.149644
 21
-47.897434
 31
0.0
  0
ARC
  5
62
100
AcDbEntity
  8
1
370
    50
100
AcDbCircle
 10
-164.168678
 20
-48.474712
 30
0.0
 40
0.5
100
AcDbArc
 50
92.181641
 51
180.0
  0
LINE
  5
63
100
AcDbEntity
  8
1
370
    50
100
AcDbLine
 10
-154.649644
 20
-43.511576
 30
0.0
 11
-161.668678
 21
-43.778967
 31
0.0
  0
LINE
  5
64
100
AcDbEntity
  8
1
370
    50
100
AcDbLine
 10
-161.668678
 20
-47.397508
 30
0.0
 11
-161.668678
 21
-43.778967
 31
0.0
  0
ARC
  5
65
100
AcDbEntity
  8
1
370
    50
100
AcDbCircle
 10
-162.168678
 20
-47.397796
 30
0.0
 40
0.5
100
AcDbArc
 50
272.181641
 51
0.0
  0
ARC
  5
66
100
AcDbEntity
  8
1
370
    50
100
AcDbCircle
 10
-154.668678
 20
-43.011938
 30
0.0
 40
0.5
100
AcDbArc
 50
272.181641
 51
360.0
  0
LINE
  5
67
100
AcDbEntity
  8
1
370
    18
  6
DASHED
100
AcDbLine
 10
-161.668678
 20
-43.778967
 30
0.0
 11
-161.668678
 21
-39.278989
 31
0.0
  0
LINE
  5
68
100
AcDbEntity
  8
1
370
    18
  6
DASHED
100
AcDbLine
 10
-161.668678
 20
-39.278989
 30
0.0
 11
-154.649656
 21
-39.011732
 31
0.0
  0
LINE
  5
69
100
AcDbEntity
  8
1
370
    50
100
AcDbLine
 10
-161.668678
 20
-47.293109
 30
0.0
 11
-159.149644
 21
-47.197146
 31
0.0
  0
ARC
  5
6A
100
AcDbEntity
  8
1
370
    50
100
AcDbCircle
 10
-159.168678
 20
-46.697508
 30
0.0
 40
0.5
100
AcDbArc
 50
272.181641
 51
0.0
  0
LINE
  5
6B
100
AcDbEntity
  8
1
370
    50
100
AcDbLine
 10
-158.668678
 20
-46.697508
 30
0.0
 11
-158.668678
 21
-43.664682
 31
0.0
  0
LINE
  5
6C
100
AcDbEntity
  8
1
370
    18
  6
DASHED
100
AcDbLine
 10
-158.668678
 20
-43.664682
 30
0.0
 11
-158.668678
 21
-39.16476
 31
0.0
  0
ARC
  5
6D
100
AcDbEntity
  8
1
370
    18
  6
DASHED
100
AcDbCircle
 10
-154.668678
 20
53.524945
 30
0.0
 40
0.5
100
AcDbArc
 50
0.0
 51
87.819456
  0
ARC
  5
6E
100
AcDbEntity
  8
1
370
    18
  6
DASHED
100
AcDbCircle
 10
-154.668678
 20
-38.512161
 30
0.0
 40
0.5
100
AcDbArc
 50
272.180544
 51
0.0
  0
LINE
  5
6F
100
AcDbEntity
  8
1
370
    50
100
AcDbLine
 10
-166.468678
 20
66.615483
 30
0.0
 11
-166.468678
 21
-51.602565
 31
0.0
  0
LINE
  5
70
100
AcDbEntity
  8
1
370
    50
100
AcDbLine
 10
-164.668678
 20
-52.493109
 30
0.0
 11
-165.738402
 21
-52.39952
 31
0.0
  0
ARC
  5
71
100
AcDbEntity
  8
1
370
    50
100
AcDbCircle
 10
-165.668678
 20
66.615483
 30
0.0
 40
0.8
100
AcDbArc
 50
95.0
 51
180.0
  0
ARC
  5
72
100
AcDbEntity
  8
1
370
    50
100
AcDbCircle
 10
-165.668678
 20
-51.602565
 30
0.0
 40
0.8
100
AcDbArc
 50
180.0
 51
265.0
  0
LINE
  5
73
100
AcDbEntity
  8
1
370
    50
100
AcDbLine
 10
-152.168678
 20
57.926529
 30
0.0
 11
-152.168678
 21
-42.914875
 31
0.0
  0
LINE
  5
74
100
AcDbEntity
  8
1
370
    50
100
AcDbLine
 10
-154.168678
 20
58.505827
 30
0.0
 11
-154.168678
 21
-43.494173
 31
0.0
  0
LINE
  5
75
100
AcDbEntity
  8
1
370
    50
100
AcDbLine
 10
-154.168678
 20
58.505827
 30
0.0
 11
-152.64251
 21
58.425844
 31
0.0
  0
ARC
  5
76
100
AcDbEntity
  8
1
370
    50
100
AcDbCircle
 10
-152.668678
 20
57.926529
 30
0.0
 40
0.5
100
AcDbArc
 50
360.0
 51
87.0
  0
LINE
  5
77
100
AcDbEntity
  8
1
370
    50
100
AcDbLine
 10
-154.168678
 20
-43.494173
 30
0.0
 11
-152.64251
 21
-43.41419
 31
0.0
  0
ARC
  5
78
100
AcDbEntity
  8
1
370
    50
100
AcDbCircle
 10
-152.668678
 20
-42.914875
 30
0.0
 40
0.5
100
AcDbArc
 50
273.0
 51
0.0
  0
LINE
  5
79
100
AcDbEntity
  8
1
370
    50
100
AcDbLine
 10
-254.225531
 20
112.506752
 30
0.0
 11
-254.151562
 21
111.661277
 31
0.0
  0
LINE
  5
7A
100
AcDbEntity
  8
1
370
    50
100
AcDbLine
 10
-213.225531
 20
112.506752
 30
0.0
 11
-213.299501
 21
111.661277
 31
0.0
  0
LINE
  5
7B
100
AcDbEntity
  8
1
370
    50
100
AcDbLine
 10
-249.343854
 20
122.525786
 30
0.0
 11
-249.707209
 21
112.987718
 31
0.0
  0
ARC
  5
7C
100
AcDbEntity
  8
1
370
    50
100
AcDbCircle
 10
-250.206846
 20
113.006752
 30
0.0
 40
0.5
100
AcDbArc
 50
270.0
 51
357.818359
  0
ARC
  5
7D
100
AcDbEntity
  8
1
370
    50
100
AcDbCircle
 10
-248.844216
 20
122.506752
 30
0.0
 40
0.5
100
AcDbArc
 50
90.0
 51
177.818359
  0
LINE
  5
7E
100
AcDbEntity
  8
1
370
    50
100
AcDbLine
 10
-213.225531
 20
112.506752
 30
0.0
 11
-254.225531
 21
112.506752
 31
0.0
  0
ARC
  5
7F
100
AcDbEntity
  8
1
370
    50
100
AcDbCircle
 10
-233.725531
 20
970.706752
 30
0.0
 40
860.0
100
AcDbArc
 50
268.690921
 51
271.309079
  0
LINE
  5
80
100
AcDbEntity
  8
1
370
    50
100
AcDbLine
 10
-218.107209
 20
122.525786
 30
0.0
 11
-217.743854
 21
112.987718
 31
0.0
  0
ARC
  5
81
100
AcDbEntity
  8
1
370
    50
100
AcDbCircle
 10
-217.244216
 20
113.006752
 30
0.0
 40
0.5
100
AcDbArc
 50
182.181641
 51
270.0
  0
ARC
  5
82
100
AcDbEntity
  8
1
370
    50
100
AcDbCircle
 10
-218.606846
 20
122.506752
 30
0.0
 40
0.5
100
AcDbArc
 50
2.181641
 51
90.0
  0
LINE
  5
83
100
AcDbEntity
  8
1
370
    50
100
AcDbLine
 10
-245.208857
 20
115.506752
 30
0.0
 11
-222.242205
 21
115.506752
 31
0.0
  0
LINE
  5
84
100
AcDbEntity
  8
1
370
    50
100
AcDbLine
 10
-244.794752
 20
122.525786
 30
0.0
 11
-244.905301
 21
115.506752
 31
0.0
  0
LINE
  5
85
100
AcDbEntity
  8
1
370
    50
100
AcDbLine
 10
-222.656311
 20
122.525786
 30
0.0
 11
-222.545762
 21
115.506752
 31
0.0
  0
LINE
  5
86
100
AcDbEntity
  8
1
370
    50
100
AcDbLine
 10
-237.389098
 20
118.506752
 30
0.0
 11
-237.519166
 21
115.506752
 31
0.0
  0
LINE
  5
87
100
AcDbEntity
  8
1
370
    50
100
AcDbLine
 10
-230.061965
 20
118.506752
 30
0.0
 11
-229.931897
 21
115.506752
 31
0.0
  0
LINE
  5
88
100
AcDbEntity
  8
1
370
    50
100
AcDbLine
 10
-238.959117
 20
118.506752
 30
0.0
 11
-233.725531
 21
118.506752
 31
0.0
  0
LINE
  5
89
100
AcDbEntity
  8
1
370
    50
100
AcDbLine
 10
-228.491945
 20
118.506752
 30
0.0
 11
-233.725531
 21
118.506752
 31
0.0
  0
LINE
  5
8A
100
AcDbEntity
  8
1
370
    50
100
AcDbLine
 10
-229.400263
 20
118.506752
 30
0.0
 11
-229.247157
 21
122.525786
 31
0.0
  0
ARC
  5
8B
100
AcDbEntity
  8
1
370
    50
100
AcDbCircle
 10
-228.747519
 20
122.506752
 30
0.0
 40
0.5
100
AcDbArc
 50
90.0
 51
177.818359
  0
LINE
  5
8C
100
AcDbEntity
  8
1
370
    50
100
AcDbLine
 10
-238.0508
 20
118.506752
 30
0.0
 11
-238.203906
 21
122.525786
 31
0.0
  0
ARC
  5
8D
100
AcDbEntity
  8
1
370
    50
100
AcDbCircle
 10
-238.703543
 20
122.506752
 30
0.0
 40
0.5
100
AcDbArc
 50
2.181641
 51
90.0
  0
LINE
  5
8E
100
AcDbEntity
  8
1
370
    50
100
AcDbLine
 10
-249.325531
 20
123.006752
 30
0.0
 11
-249.245548
 21
124.53292
 31
0.0
  0
ARC
  5
8F
100
AcDbEntity
  8
1
370
    50
100
AcDbCircle
 10
-248.746233
 20
124.506752
 30
0.0
 40
0.5
100
AcDbArc
 50
90.0
 51
177.0
  0
LINE
  5
90
100
AcDbEntity
  8
1
370
    50
100
AcDbLine
 10
-218.125531
 20
123.006752
 30
0.0
 11
-218.205514
 21
124.53292
 31
0.0
  0
ARC
  5
91
100
AcDbEntity
  8
1
370
    50
100
AcDbCircle
 10
-218.704829
 20
124.506752
 30
0.0
 40
0.5
100
AcDbArc
 50
3.0
 51
90.0
  0
LINE
  5
92
100
AcDbEntity
  8
1
370
    50
100
AcDbLine
 10
-238.225244
 20
123.006752
 30
0.0
 11
-238.225244
 21
124.53292
 31
0.0
  0
LINE
  5
93
100
AcDbEntity
  8
1
370
    50
100
AcDbLine
 10
-229.225244
 20
123.006752
 30
0.0
 11
-229.225244
 21
124.53292
 31
0.0
  0
ARC
  5
94
100
AcDbEntity
  8
1
370
    50
100
AcDbCircle
 10
-214.096456
 20
111.731002
 30
0.0
 40
0.8
100
AcDbArc
 50
271.309079
 51
355.0
  0
ARC
  5
95
100
AcDbEntity
  8
1
370
    50
100
AcDbCircle
 10
-253.354606
 20
111.731002
 30
0.0
 40
0.8
100
AcDbArc
 50
185.0
 51
268.690921
  0
LINE
  5
96
100
AcDbEntity
  8
1
370
    18
  6
CENTER
100
AcDbLine
 10
-124.711341
 20
58.506315
 30
0.0
 11
-168.626014
 21
58.506027
 31
0.0
  0
LINE
  5
97
100
AcDbEntity
  8
1
370
    18
  6
CENTER
100
AcDbLine
 10
-124.711341
 20
-43.492821
 30
0.0
 11
-168.626014
 21
-43.493109
 31
0.0
  0
LINE
  5
98
100
AcDbEntity
  8
1
370
    18
  6
CENTER
100
AcDbLine
 10
-233.725531
 20
108.058706
 30
0.0
 11
-233.725531
 21
153.232064
 31
0.0
  0
LINE
  5
99
100
AcDbEntity
  8
1
370
    50
100
AcDbLine
 10
-218.107209
 20
138.487718
 30
0.0
 11
-217.743854
 21
148.025786
 31
0.0
  0
ARC
  5
9A
100
AcDbEntity
  8
1
370
    50
100
AcDbCircle
 10
-217.244216
 20
148.006752
 30
0.0
 40
0.5
100
AcDbArc
 50
90.0
 51
177.818359
  0
ARC
  5
9B
100
AcDbEntity
  8
1
370
    50
100
AcDbCircle
 10
-218.606846
 20
138.506752
 30
0.0
 40
0.5
100
AcDbArc
 50
270.0
 51
357.818359
  0
LINE
  5
9C
100
AcDbEntity
  8
1
370
    50
100
AcDbLine
 10
-249.343854
 20
138.487718
 30
0.0
 11
-249.707209
 21
148.025786
 31
0.0
  0
ARC
  5
9D
100
AcDbEntity
  8
1
370
    50
100
AcDbCircle
 10
-250.206846
 20
148.006752
 30
0.0
 40
0.5
100
AcDbArc
 50
2.181641
 51
90.0
  0
ARC
  5
9E
100
AcDbEntity
  8
1
370
    50
100
AcDbCircle
 10
-248.844216
 20
138.506752
 30
0.0
 40
0.5
100
AcDbArc
 50
182.181641
 51
270.0
  0
LINE
  5
9F
100
AcDbEntity
  8
1
370
    50
100
AcDbLine
 10
-222.242205
 20
145.506752
 30
0.0
 11
-245.208857
 21
145.506752
 31
0.0
  0
LINE
  5
A0
100
AcDbEntity
  8
1
370
    50
100
AcDbLine
 10
-222.656311
 20
138.487718
 30
0.0
 11
-222.545762
 21
145.506752
 31
0.0
  0
LINE
  5
A1
100
AcDbEntity
  8
1
370
    50
100
AcDbLine
 10
-244.794752
 20
138.487718
 30
0.0
 11
-244.905301
 21
145.506752
 31
0.0
  0
LINE
  5
A2
100
AcDbEntity
  8
1
370
    50
100
AcDbLine
 10
-237.225518
 20
127.606752
 30
0.0
 11
-230.225518
 21
127.606752
 31
0.0
  0
LINE
  5
A3
100
AcDbEntity
  8
1
370
    50
100
AcDbLine
 10
-237.225518
 20
127.606752
 30
0.0
 11
-237.525531
 21
128.106752
 31
0.0
  0
LINE
  5
A4
100
AcDbEntity
  8
1
370
    50
100
AcDbLine
 10
-230.225544
 20
127.606752
 30
0.0
 11
-229.925531
 21
128.106752
 31
0.0
  0
LINE
  5
A5
100
AcDbEntity
  8
1
370
    50
100
AcDbLine
 10
-237.525531
 20
128.106752
 30
0.0
 11
-229.925531
 21
128.106752
 31
0.0
  0
LINE
  5
A6
100
AcDbEntity
  8
1
370
    50
100
AcDbLine
 10
-237.525531
 20
128.106752
 30
0.0
 11
-238.102749
 21
145.506752
 31
0.0
  0
LINE
  5
A7
100
AcDbEntity
  8
1
370
    50
100
AcDbLine
 10
-229.925531
 20
128.106752
 30
0.0
 11
-229.348314
 21
145.506752
 31
0.0
  0
LINE
  5
A8
100
AcDbEntity
  8
1
370
    50
100
AcDbLine
 10
-254.225531
 20
148.506752
 30
0.0
 11
-254.151562
 21
149.352227
 31
0.0
  0
LINE
  5
A9
100
AcDbEntity
  8
1
370
    50
100
AcDbLine
 10
-213.225531
 20
148.506752
 30
0.0
 11
-213.299501
 21
149.352227
 31
0.0
  0
LINE
  5
AA
100
AcDbEntity
  8
1
370
    50
100
AcDbLine
 10
-213.225531
 20
148.506752
 30
0.0
 11
-254.225531
 21
148.506752
 31
0.0
  0
ARC
  5
AB
100
AcDbEntity
  8
1
370
    50
100
AcDbCircle
 10
-233.725531
 20
-709.693248
 30
0.0
 40
860.0
100
AcDbArc
 50
88.690921
 51
91.309079
  0
ARC
  5
AC
100
AcDbEntity
  8
1
370
    50
100
AcDbCircle
 10
-214.096456
 20
149.282502
 30
0.0
 40
0.8
100
AcDbArc
 50
5.0
 51
88.690921
  0
ARC
  5
AD
100
AcDbEntity
  8
1
370
    50
100
AcDbCircle
 10
-253.354606
 20
149.282502
 30
0.0
 40
0.8
100
AcDbArc
 50
91.309079
 51
175.0
  0
LINE
  5
AE
100
AcDbEntity
  8
1
370
    50
100
AcDbLine
 10
-218.704829
 20
136.006752
 30
0.0
 11
-229.663461
 21
136.006752
 31
0.0
  0
LINE
  5
AF
100
AcDbEntity
  8
1
370
    50
100
AcDbLine
 10
-218.125531
 20
138.006752
 30
0.0
 11
-229.597114
 21
138.006752
 31
0.0
  0
LINE
  5
B0
100
AcDbEntity
  8
1
370
    50
100
AcDbLine
 10
-218.125531
 20
138.006752
 30
0.0
 11
-218.205514
 21
136.480584
 31
0.0
  0
ARC
  5
B1
100
AcDbEntity
  8
1
370
    50
100
AcDbCircle
 10
-218.704829
 20
136.506752
 30
0.0
 40
0.5
100
AcDbArc
 50
270.0
 51
357.0
  0
LINE
  5
B2
100
AcDbEntity
  8
1
370
    50
100
AcDbLine
 10
-248.746233
 20
136.006752
 30
0.0
 11
-237.787601
 21
136.006752
 31
0.0
  0
LINE
  5
B3
100
AcDbEntity
  8
1
370
    50
100
AcDbLine
 10
-249.325531
 20
138.006752
 30
0.0
 11
-237.853948
 21
138.006752
 31
0.0
  0
LINE
  5
B4
100
AcDbEntity
  8
1
370
    50
100
AcDbLine
 10
-249.325531
 20
138.006752
 30
0.0
 11
-249.245548
 21
136.480584
 31
0.0
  0
ARC
  5
B5
100
AcDbEntity
  8
1
370
    50
100
AcDbCircle
 10
-248.746233
 20
136.506752
 30
0.0
 40
0.5
100
AcDbArc
 50
183.0
 51
270.0
  0
LINE
  5
B6
100
AcDbEntity
  8
1
370
    50
100
AcDbLine
 10
-229.225818
 20
138.006752
 30
0.0
 11
-229.225818
 21
136.480584
 31
0.0
  0
LINE
  5
B7
100
AcDbEntity
  8
1
370
    50
100
AcDbLine
 10
-238.225818
 20
138.006752
 30
0.0
 11
-238.225818
 21
136.480584
 31
0.0
  0
LINE
  5
B8
100
AcDbEntity
  8
1
370
    18
100
AcDbLine
 10
-231.725531
 20
127.606752
 30
0.0
 11
-231.725531
 21
118.506752
 31
0.0
  0
LINE
  5
B9
100
AcDbEntity
  8
1
370
    18
100
AcDbLine
 10
-232.125531
 20
127.606752
 30
0.0
 11
-232.125531
 21
118.506752
 31
0.0
  0
LINE
  5
BA
100
AcDbEntity
  8
1
370
    18
100
AcDbLine
 10
-235.325531
 20
127.606752
 30
0.0
 11
-235.325531
 21
118.506752
 31
0.0
  0
LINE
  5
BB
100
AcDbEntity
  8
1
370
    18
100
AcDbLine
 10
-235.725531
 20
127.606752
 30
0.0
 11
-235.725531
 21
118.506752
 31
0.0
  0
LINE
  5
BC
100
AcDbEntity
  8
1
370
    50
100
AcDbLine
 10
-249.325531
 20
123.006752
 30
0.0
 11
-235.725531
 21
123.006752
 31
0.0
  0
LINE
  5
BD
100
AcDbEntity
  8
1
370
    50
100
AcDbLine
 10
-231.725531
 20
123.006752
 30
0.0
 11
-218.125531
 21
123.006752
 31
0.0
  0
LINE
  5
BE
100
AcDbEntity
  8
1
370
    50
100
AcDbLine
 10
-248.746233
 20
125.006752
 30
0.0
 11
-235.725531
 21
125.006752
 31
0.0
  0
LINE
  5
BF
100
AcDbEntity
  8
1
370
    50
100
AcDbLine
 10
-231.725531
 20
125.006752
 30
0.0
 11
-218.704829
 21
125.006752
 31
0.0
  0
LINE
  5
C0
100
AcDbEntity
  8
1
370
    18
100
AcDbLine
 10
-149.568678
 20
56.506093
 30
0.0
 11
-152.168678
 21
56.506093
 31
0.0
  0
LINE
  5
C1
100
AcDbEntity
  8
1
370
    18
100
AcDbLine
 10
-149.568678
 20
56.906093
 30
0.0
 11
-152.168678
 21
56.906093
 31
0.0
  0
LINE
  5
C2
100
AcDbEntity
  8
1
370
    18
100
AcDbLine
 10
-149.568678
 20
60.106093
 30
0.0
 11
-158.668678
 21
60.106093
 31
0.0
  0
LINE
  5
C3
100
AcDbEntity
  8
1
370
    18
100
AcDbLine
 10
-149.568678
 20
60.506093
 30
0.0
 11
-158.668678
 21
60.506093
 31
0.0
  0
LINE
  5
C4
100
AcDbEntity
  8
1
370
    18
100
AcDbLine
 10
-149.568678
 20
-41.492599
 30
0.0
 11
-152.168678
 21
-41.492599
 31
0.0
  0
LINE
  5
C5
100
AcDbEntity
  8
1
370
    18
100
AcDbLine
 10
-149.568678
 20
-41.892599
 30
0.0
 11
-152.168678
 21
-41.892599
 31
0.0
  0
LINE
  5
C6
100
AcDbEntity
  8
1
370
    18
100
AcDbLine
 10
-149.568678
 20
-45.092599
 30
0.0
 11
-158.668678
 21
-45.092599
 31
0.0
  0
LINE
  5
C7
100
AcDbEntity
  8
1
370
    18
100
AcDbLine
 10
-149.568678
 20
-45.492599
 30
0.0
 11
-158.668678
 21
-45.492599
 31
0.0
  0
LINE
  5
C8
100
AcDbEntity
  8
1
370
    18
  6
CENTER
100
AcDbLine
 10
-213.225531
 20
130.506752
 30
0.0
 11
-254.225531
 21
130.506752
 31
0.0
  0
ARC
  5
C9
100
AcDbEntity
  8
1
370
    50
100
AcDbCircle
 10
-231.575531
 20
-41.343151
 30
0.0
 40
1.658571
100
AcDbArc
 50
180.0
 51
270.0
  0
ARC
  5
CA
100
AcDbEntity
  8
1
370
    50
100
AcDbCircle
 10
-235.875531
 20
-41.343151
 30
0.0
 40
1.658571
100
AcDbArc
 50
270.0
 51
360.0
  0
ARC
  5
CB
100
AcDbEntity
  8
1
370
    50
100
AcDbCircle
 10
-235.875531
 20
-45.643151
 30
0.0
 40
1.658571
100
AcDbArc
 50
0.0
 51
90.0
  0
ARC
  5
CC
100
AcDbEntity
  8
1
370
    50
100
AcDbCircle
 10
-231.575531
 20
-45.643151
 30
0.0
 40
1.658571
100
AcDbArc
 50
90.0
 51
180.0
  0
LINE
  5
CD
100
AcDbEntity
  8
1
370
    50
100
AcDbLine
 10
-233.725531
 20
-45.643151
 30
0.0
 11
-233.234103
 21
-45.643151
 31
0.0
  0
LINE
  5
CE
100
AcDbEntity
  8
1
370
    50
100
AcDbLine
 10
-233.725531
 20
-45.643151
 30
0.0
 11
-234.21696
 21
-45.643151
 31
0.0
  0
LINE
  5
CF
100
AcDbEntity
  8
1
370
    50
100
AcDbLine
 10
-235.875531
 20
-43.98458
 30
0.0
 11
-235.875531
 21
-43.493151
 31
0.0
  0
LINE
  5
D0
100
AcDbEntity
  8
1
370
    50
100
AcDbLine
 10
-235.875531
 20
-43.001723
 30
0.0
 11
-235.875531
 21
-43.493151
 31
0.0
  0
LINE
  5
D1
100
AcDbEntity
  8
1
370
    50
100
AcDbLine
 10
-233.725531
 20
-41.343151
 30
0.0
 11
-234.21696
 21
-41.343151
 31
0.0
  0
LINE
  5
D2
100
AcDbEntity
  8
1
370
    50
100
AcDbLine
 10
-233.725531
 20
-41.343151
 30
0.0
 11
-233.234103
 21
-41.343151
 31
0.0
  0
LINE
  5
D3
100
AcDbEntity
  8
1
370
    50
100
AcDbLine
 10
-231.575531
 20
-43.001723
 30
0.0
 11
-231.575531
 21
-43.493151
 31
0.0
  0
LINE
  5
D4
100
AcDbEntity
  8
1
370
    50
100
AcDbLine
 10
-231.575531
 20
-43.98458
 30
0.0
 11
-231.575531
 21
-43.493151
 31
0.0
  0
ARC
  5
D5
100
AcDbEntity
  8
1
370
    50
100
AcDbCircle
 10
-231.575531
 20
56.356655
 30
0.0
 40
1.658571
100
AcDbArc
 50
90.0
 51
180.0
  0
ARC
  5
D6
100
AcDbEntity
  8
1
370
    50
100
AcDbCircle
 10
-235.875531
 20
56.356655
 30
0.0
 40
1.658571
100
AcDbArc
 50
0.0
 51
90.0
  0
ARC
  5
D7
100
AcDbEntity
  8
1
370
    50
100
AcDbCircle
 10
-235.875531
 20
60.656655
 30
0.0
 40
1.658571
100
AcDbArc
 50
270.0
 51
360.0
  0
ARC
  5
D8
100
AcDbEntity
  8
1
370
    50
100
AcDbCircle
 10
-231.575531
 20
60.656655
 30
0.0
 40
1.658571
100
AcDbArc
 50
180.0
 51
270.0
  0
LINE
  5
D9
100
AcDbEntity
  8
1
370
    50
100
AcDbLine
 10
-233.725531
 20
60.656655
 30
0.0
 11
-233.234103
 21
60.656655
 31
0.0
  0
LINE
  5
DA
100
AcDbEntity
  8
1
370
    50
100
AcDbLine
 10
-233.725531
 20
60.656655
 30
0.0
 11
-234.21696
 21
60.656655
 31
0.0
  0
LINE
  5
DB
100
AcDbEntity
  8
1
370
    50
100
AcDbLine
 10
-235.875531
 20
58.998084
 30
0.0
 11
-235.875531
 21
58.506655
 31
0.0
  0
LINE
  5
DC
100
AcDbEntity
  8
1
370
    50
100
AcDbLine
 10
-235.875531
 20
58.015227
 30
0.0
 11
-235.875531
 21
58.506655
 31
0.0
  0
LINE
  5
DD
100
AcDbEntity
  8
1
370
    50
100
AcDbLine
 10
-233.725531
 20
56.356655
 30
0.0
 11
-234.21696
 21
56.356655
 31
0.0
  0
LINE
  5
DE
100
AcDbEntity
  8
1
370
    50
100
AcDbLine
 10
-233.725531
 20
56.356655
 30
0.0
 11
-233.234103
 21
56.356655
 31
0.0
  0
LINE
  5
DF
100
AcDbEntity
  8
1
370
    50
100
AcDbLine
 10
-231.575531
 20
58.015227
 30
0.0
 11
-231.575531
 21
58.506655
 31
0.0
  0
LINE
  5
E0
100
AcDbEntity
  8
1
370
    50
100
AcDbLine
 10
-231.575531
 20
58.998084
 30
0.0
 11
-231.575531
 21
58.506655
 31
0.0
  0
LINE
  5
E1
100
AcDbEntity
  8
1
370
    18
  6
CENTER
100
AcDbLine
 10
-233.725531
 20
-55.555684
 30
0.0
 11
-233.725531
 21
14.393578
 31
0.0
  0
LINE
  5
E2
100
AcDbEntity
  8
1
370
    18
  6
CENTER
100
AcDbLine
 10
-233.725531
 20
19.60865
 30
0.0
 11
-233.725531
 21
70.569188
 31
0.0
  0
LINE
  5
E3
100
AcDbEntity
  8
1
370
    18
  6
CENTER
100
AcDbLine
 10
-88.290703
 20
7.506752
 30
0.0
 11
-38.932945
 21
7.506752
 31
0.0
  0
LINE
  5
E4
100
AcDbEntity
  8
1
370
    18
  6
CENTER
100
AcDbLine
 10
-70.711824
 20
58.506731
 30
0.0
 11
-56.511824
 21
58.506731
 31
0.0
  0
LINE
  5
E5
100
AcDbEntity
  8
1
370
    18
  6
CENTER
100
AcDbLine
 10
-70.711824
 20
-43.493269
 30
0.0
 11
-56.511824
 21
-43.493269
 31
0.0
  0
LINE
  5
E6
100
AcDbEntity
  8
1
370
    18
  6
CENTER
100
AcDbLine
 10
-63.611824
 20
70.569257
 30
0.0
 11
-63.611824
 21
-55.555753
 31
0.0
  0
LINE
  5
E7
100
AcDbEntity
  8
1
370
    50
100
AcDbLine
 10
-75.111824
 20
-36.992795
 30
0.0
 11
-75.111824
 21
52.006299
 31
0.0
  0
LINE
  5
E8
100
AcDbEntity
  8
1
370
    50
100
AcDbLine
 10
-52.111824
 20
-36.992795
 30
0.0
 11
-52.111824
 21
52.006299
 31
0.0
  0
LINE
  5
E9
100
AcDbEntity
  8
1
370
    50
100
AcDbLine
 10
-84.111824
 20
-50.993269
 30
0.0
 11
-84.111824
 21
66.006731
 31
0.0
  0
LINE
  5
EA
100
AcDbEntity
  8
1
370
    50
100
AcDbLine
 10
-43.111824
 20
-50.993269
 30
0.0
 11
-43.111824
 21
66.006731
 31
0.0
  0
LINE
  5
EB
100
AcDbEntity
  8
1
370
    50
100
AcDbLine
 10
-74.111824
 20
52.006731
 30
0.0
 11
-53.111824
 21
52.006731
 31
0.0
  0
LINE
  5
EC
100
AcDbEntity
  8
1
370
    50
100
AcDbLine
 10
-74.111824
 20
-36.993269
 30
0.0
 11
-53.111824
 21
-36.993269
 31
0.0
  0
ARC
  5
ED
100
AcDbEntity
  8
1
370
    50
100
AcDbCircle
 10
-53.111824
 20
51.006731
 30
0.0
 40
1.0
100
AcDbArc
 50
0.0
 51
90.0
  0
ARC
  5
EE
100
AcDbEntity
  8
1
370
    50
100
AcDbCircle
 10
-74.111824
 20
51.006731
 30
0.0
 40
1.0
100
AcDbArc
 50
90.0
 51
180.0
  0
ARC
  5
EF
100
AcDbEntity
  8
1
370
    50
100
AcDbCircle
 10
-74.111824
 20
-35.993269
 30
0.0
 40
1.0
100
AcDbArc
 50
180.0
 51
270.0
  0
ARC
  5
F0
100
AcDbEntity
  8
1
370
    50
100
AcDbCircle
 10
-53.111824
 20
-35.993269
 30
0.0
 40
1.0
100
AcDbArc
 50
270.0
 51
0.0
  0
LINE
  5
F1
100
AcDbEntity
  8
1
370
    50
100
AcDbLine
 10
-82.611824
 20
67.506731
 30
0.0
 11
-44.611824
 21
67.506731
 31
0.0
  0
LINE
  5
F2
100
AcDbEntity
  8
1
370
    50
100
AcDbLine
 10
-82.611824
 20
-52.493269
 30
0.0
 11
-44.611824
 21
-52.493269
 31
0.0
  0
ARC
  5
F3
100
AcDbEntity
  8
1
370
    50
100
AcDbCircle
 10
-44.611824
 20
66.006731
 30
0.0
 40
1.5
100
AcDbArc
 50
0.0
 51
90.0
  0
ARC
  5
F4
100
AcDbEntity
  8
1
370
    50
100
AcDbCircle
 10
-82.611824
 20
66.006731
 30
0.0
 40
1.5
100
AcDbArc
 50
90.0
 51
180.0
  0
ARC
  5
F5
100
AcDbEntity
  8
1
370
    50
100
AcDbCircle
 10
-82.611824
 20
-50.993269
 30
0.0
 40
1.5
100
AcDbArc
 50
180.0
 51
270.0
  0
ARC
  5
F6
100
AcDbEntity
  8
1
370
    50
100
AcDbCircle
 10
-44.611824
 20
-50.993269
 30
0.0
 40
1.5
100
AcDbArc
 50
270.0
 51
360.0
  0
LINE
  5
F7
100
AcDbEntity
  8
1
370
    50
100
AcDbLine
 10
-74.111824
 20
53.006299
 30
0.0
 11
-53.111824
 21
53.006299
 31
0.0
  0
ARC
  5
F8
100
AcDbEntity
  8
1
370
    50
100
AcDbCircle
 10
-53.111824
 20
52.006299
 30
0.0
 40
1.0
100
AcDbArc
 50
0.0
 51
90.0
  0
ARC
  5
F9
100
AcDbEntity
  8
1
370
    50
100
AcDbCircle
 10
-74.111824
 20
52.006299
 30
0.0
 40
1.0
100
AcDbArc
 50
90.0
 51
180.0
  0
LINE
  5
FA
100
AcDbEntity
  8
1
370
    50
100
AcDbLine
 10
-74.111824
 20
-37.992795
 30
0.0
 11
-53.111824
 21
-37.992795
 31
0.0
  0
ARC
  5
FB
100
AcDbEntity
  8
1
370
    50
100
AcDbCircle
 10
-53.111824
 20
-36.992795
 30
0.0
 40
1.0
100
AcDbArc
 50
270.0
 51
360.0
  0
ARC
  5
FC
100
AcDbEntity
  8
1
370
    50
100
AcDbCircle
 10
-74.111824
 20
-36.992795
 30
0.0
 40
1.0
100
AcDbArc
 50
180.0
 51
270.0
  0
LINE
  5
FD
100
AcDbEntity
  8
1
370
    50
100
AcDbLine
 10
-128.668678
 20
67.506603
 30
0.0
 11
-128.668678
 21
-52.492534
 31
0.0
  0
LINE
  5
FE
100
AcDbEntity
  8
1
370
    50
100
AcDbLine
 10
-126.868678
 20
66.616059
 30
0.0
 11
-126.868678
 21
-51.602565
 31
0.0
  0
LINE
  5
FF
100
AcDbEntity
  8
1
370
    50
100
AcDbLine
 10
-128.668678
 20
67.506603
 30
0.0
 11
-127.598953
 21
67.413014
 31
0.0
  0
LINE
  5
100
100
AcDbEntity
  8
1
370
    50
100
AcDbLine
 10
-129.149644
 20
62.988568
 30
0.0
 11
-131.187711
 21
62.910928
 31
0.0
  0
ARC
  5
101
100
AcDbEntity
  8
1
370
    50
100
AcDbCircle
 10
-129.168678
 20
63.488206
 30
0.0
 40
0.5
100
AcDbArc
 50
272.181641
 51
0.0
  0
LINE
  5
102
100
AcDbEntity
  8
1
370
    50
100
AcDbLine
 10
-138.687711
 20
58.525069
 30
0.0
 11
-131.668678
 21
58.792461
 31
0.0
  0
LINE
  5
103
100
AcDbEntity
  8
1
370
    50
100
AcDbLine
 10
-131.668678
 20
62.411002
 30
0.0
 11
-131.668678
 21
58.792461
 31
0.0
  0
ARC
  5
104
100
AcDbEntity
  8
1
370
    50
100
AcDbCircle
 10
-131.168678
 20
62.41129
 30
0.0
 40
0.5
100
AcDbArc
 50
92.181641
 51
180.0
  0
ARC
  5
105
100
AcDbEntity
  8
1
370
    50
100
AcDbCircle
 10
-138.668678
 20
58.025432
 30
0.0
 40
0.5
100
AcDbArc
 50
92.181641
 51
180.0
  0
LINE
  5
106
100
AcDbEntity
  8
1
370
    50
100
AcDbLine
 10
-149.568678
 20
62.006446
 30
0.0
 11
-149.568678
 21
55.006446
 31
0.0
  0
LINE
  5
107
100
AcDbEntity
  8
1
370
    50
100
AcDbLine
 10
-149.568678
 20
62.006446
 30
0.0
 11
-149.068678
 21
62.306459
 31
0.0
  0
LINE
  5
108
100
AcDbEntity
  8
1
370
    50
100
AcDbLine
 10
-149.568678
 20
55.006472
 30
0.0
 11
-149.068678
 21
54.706459
 31
0.0
  0
LINE
  5
109
100
AcDbEntity
  8
1
370
    50
100
AcDbLine
 10
-149.068678
 20
62.306459
 30
0.0
 11
-149.068678
 21
54.706459
 31
0.0
  0
LINE
  5
10A
100
AcDbEntity
  8
1
370
    50
100
AcDbLine
 10
-149.068678
 20
62.306603
 30
0.0
 11
-131.290501
 21
62.896366
 31
0.0
  0
LINE
  5
10B
100
AcDbEntity
  8
1
370
    50
100
AcDbLine
 10
-149.068678
 20
54.706603
 30
0.0
 11
-141.168678
 21
54.444533
 31
0.0
  0
LINE
  5
10C
100
AcDbEntity
  8
1
370
    50
100
AcDbLine
 10
-128.668678
 20
-52.492534
 30
0.0
 11
-127.898953
 21
-52.425191
 31
0.0
  0
LINE
  5
10D
100
AcDbEntity
  8
1
370
    50
100
AcDbLine
 10
-129.149644
 20
-47.974499
 30
0.0
 11
-131.187711
 21
-47.896858
 31
0.0
  0
ARC
  5
10E
100
AcDbEntity
  8
1
370
    50
100
AcDbCircle
 10
-129.168678
 20
-48.474136
 30
0.0
 40
0.5
100
AcDbArc
 50
360.0
 51
87.818359
  0
LINE
  5
10F
100
AcDbEntity
  8
1
370
    50
100
AcDbLine
 10
-138.687711
 20
-43.511
 30
0.0
 11
-131.668678
 21
-43.778392
 31
0.0
  0
LINE
  5
110
100
AcDbEntity
  8
1
370
    50
100
AcDbLine
 10
-131.668678
 20
-47.396933
 30
0.0
 11
-131.668678
 21
-43.778392
 31
0.0
  0
ARC
  5
111
100
AcDbEntity
  8
1
370
    50
100
AcDbCircle
 10
-131.168678
 20
-47.397221
 30
0.0
 40
0.5
100
AcDbArc
 50
180.0
 51
267.818359
  0
ARC
  5
112
100
AcDbEntity
  8
1
370
    50
100
AcDbCircle
 10
-138.668678
 20
-43.011362
 30
0.0
 40
0.5
100
AcDbArc
 50
180.0
 51
267.818359
  0
LINE
  5
113
100
AcDbEntity
  8
1
370
    50
100
AcDbLine
 10
-149.568678
 20
-46.992377
 30
0.0
 11
-149.568678
 21
-39.992377
 31
0.0
  0
LINE
  5
114
100
AcDbEntity
  8
1
370
    50
100
AcDbLine
 10
-149.568678
 20
-46.992377
 30
0.0
 11
-149.068678
 21
-47.29239
 31
0.0
  0
LINE
  5
115
100
AcDbEntity
  8
1
370
    50
100
AcDbLine
 10
-149.568678
 20
-39.992403
 30
0.0
 11
-149.068678
 21
-39.69239
 31
0.0
  0
LINE
  5
116
100
AcDbEntity
  8
1
370
    50
100
AcDbLine
 10
-149.068678
 20
-47.29239
 30
0.0
 11
-149.068678
 21
-39.69239
 31
0.0
  0
LINE
  5
117
100
AcDbEntity
  8
1
370
    50
100
AcDbLine
 10
-149.068678
 20
-47.292534
 30
0.0
 11
-131.290501
 21
-47.882296
 31
0.0
  0
LINE
  5
118
100
AcDbEntity
  8
1
370
    50
100
AcDbLine
 10
-149.068678
 20
-39.692534
 30
0.0
 11
-141.168678
 21
-39.430464
 31
0.0
  0
LINE
  5
119
100
AcDbEntity
  8
1
370
    18
  6
CENTER
100
AcDbLine
 10
-124.783844
 20
7.506747
 30
0.0
 11
-170.233314
 21
7.506459
 31
0.0
  0
LINE
  5
11A
100
AcDbEntity
  8
1
370
    50
100
AcDbLine
 10
-141.168678
 20
57.927593
 30
0.0
 11
-141.168678
 21
-42.913811
 31
0.0
  0
LINE
  5
11B
100
AcDbEntity
  8
1
370
    50
100
AcDbLine
 10
-139.168678
 20
58.506891
 30
0.0
 11
-139.168678
 21
-43.493109
 31
0.0
  0
LINE
  5
11C
100
AcDbEntity
  8
1
370
    50
100
AcDbLine
 10
-139.168678
 20
58.506891
 30
0.0
 11
-140.694846
 21
58.426908
 31
0.0
  0
ARC
  5
11D
100
AcDbEntity
  8
1
370
    50
100
AcDbCircle
 10
-140.668678
 20
57.927593
 30
0.0
 40
0.5
100
AcDbArc
 50
93.0
 51
180.0
  0
LINE
  5
11E
100
AcDbEntity
  8
1
370
    50
100
AcDbLine
 10
-139.168678
 20
-43.493109
 30
0.0
 11
-140.694846
 21
-43.413126
 31
0.0
  0
ARC
  5
11F
100
AcDbEntity
  8
1
370
    50
100
AcDbCircle
 10
-140.668678
 20
-42.913811
 30
0.0
 40
0.5
100
AcDbArc
 50
180.0
 51
267.0
  0
ARC
  5
120
100
AcDbEntity
  8
1
370
    50
100
AcDbCircle
 10
-127.668678
 20
66.616059
 30
0.0
 40
0.8
100
AcDbArc
 50
0.0
 51
85.0
  0
ARC
  5
121
100
AcDbEntity
  8
1
370
    50
100
AcDbCircle
 10
-127.668678
 20
-51.602565
 30
0.0
 40
0.8
100
AcDbArc
 50
275.0
 51
360.0
  0
LINE
  5
122
100
AcDbEntity
  8
1
370
    18
  6
CENTER
100
AcDbLine
 10
-146.668678
 20
67.506603
 30
0.0
 11
-146.668678
 21
-52.492533
 31
0.0
  0
CIRCLE
  5
123
100
AcDbEntity
  8
1
370
    50
100
AcDbCircle
 10
-233.725531
 20
-43.493269
 30
0.0
 40
3.0
  0
CIRCLE
  5
124
100
AcDbEntity
  8
1
370
    50
100
AcDbCircle
 10
-233.725531
 20
58.506731
 30
0.0
 40
3.0
  0
LINE
  5
125
100
AcDbEntity
  8
1
370
    50
100
AcDbLine
 10
145.027154
 20
113.064407
 30
0.0
 11
124.527154
 21
113.064407
 31
0.0
  0
LINE
  5
126
100
AcDbEntity
  8
1
370
    50
100
AcDbLine
 10
140.145476
 20
123.08344
 30
0.0
 11
140.508831
 21
113.545373
 31
0.0
  0
ARC
  5
127
100
AcDbEntity
  8
1
370
    50
100
AcDbCircle
 10
141.008469
 20
113.564407
 30
0.0
 40
0.5
100
AcDbArc
 50
182.181641
 51
270.0
  0
ARC
  5
128
100
AcDbEntity
  8
1
370
    50
100
AcDbCircle
 10
139.645839
 20
123.064407
 30
0.0
 40
0.5
100
AcDbArc
 50
2.181641
 51
90.0
  0
LINE
  5
129
100
AcDbEntity
  8
1
370
    50
100
AcDbLine
 10
104.027154
 20
113.064407
 30
0.0
 11
124.527154
 21
113.064407
 31
0.0
  0
LINE
  5
12A
100
AcDbEntity
  8
1
370
    50
100
AcDbLine
 10
108.908831
 20
123.08344
 30
0.0
 11
108.545476
 21
113.545373
 31
0.0
  0
ARC
  5
12B
100
AcDbEntity
  8
1
370
    50
100
AcDbCircle
 10
108.045839
 20
113.564407
 30
0.0
 40
0.5
100
AcDbArc
 50
270.0
 51
357.818359
  0
ARC
  5
12C
100
AcDbEntity
  8
1
370
    50
100
AcDbCircle
 10
109.408469
 20
123.064407
 30
0.0
 40
0.5
100
AcDbArc
 50
90.0
 51
177.818359
  0
LINE
  5
12D
100
AcDbEntity
  8
1
370
    50
100
AcDbLine
 10
136.01048
 20
116.064407
 30
0.0
 11
113.043828
 21
116.064407
 31
0.0
  0
LINE
  5
12E
100
AcDbEntity
  8
1
370
    50
100
AcDbLine
 10
135.596374
 20
123.08344
 30
0.0
 11
135.706923
 21
116.064407
 31
0.0
  0
LINE
  5
12F
100
AcDbEntity
  8
1
370
    50
100
AcDbLine
 10
113.457933
 20
123.08344
 30
0.0
 11
113.347384
 21
116.064407
 31
0.0
  0
LINE
  5
130
100
AcDbEntity
  8
1
370
    50
100
AcDbLine
 10
128.19072
 20
119.064407
 30
0.0
 11
128.320788
 21
116.064407
 31
0.0
  0
LINE
  5
131
100
AcDbEntity
  8
1
370
    50
100
AcDbLine
 10
120.863587
 20
119.064407
 30
0.0
 11
120.733519
 21
116.064407
 31
0.0
  0
LINE
  5
132
100
AcDbEntity
  8
1
370
    50
100
AcDbLine
 10
129.76074
 20
119.064407
 30
0.0
 11
124.527154
 21
119.064407
 31
0.0
  0
LINE
  5
133
100
AcDbEntity
  8
1
370
    50
100
AcDbLine
 10
119.293568
 20
119.064407
 30
0.0
 11
124.527154
 21
119.064407
 31
0.0
  0
LINE
  5
134
100
AcDbEntity
  8
1
370
    50
100
AcDbLine
 10
120.201885
 20
119.064407
 30
0.0
 11
120.048779
 21
123.08344
 31
0.0
  0
ARC
  5
135
100
AcDbEntity
  8
1
370
    50
100
AcDbCircle
 10
119.549142
 20
123.064407
 30
0.0
 40
0.5
100
AcDbArc
 50
2.181641
 51
90.0
  0
LINE
  5
136
100
AcDbEntity
  8
1
370
    50
100
AcDbLine
 10
128.852422
 20
119.064407
 30
0.0
 11
129.005528
 21
123.08344
 31
0.0
  0
ARC
  5
137
100
AcDbEntity
  8
1
370
    50
100
AcDbCircle
 10
129.505166
 20
123.064407
 30
0.0
 40
0.5
100
AcDbArc
 50
90.0
 51
177.818359
  0
LINE
  5
138
100
AcDbEntity
  8
1
370
    50
100
AcDbLine
 10
113.027154
 20
-36.992799
 30
0.0
 11
113.027154
 21
52.006295
 31
0.0
  0
LINE
  5
139
100
AcDbEntity
  8
1
370
    50
100
AcDbLine
 10
136.027154
 20
-36.992799
 30
0.0
 11
136.027154
 21
52.006295
 31
0.0
  0
LINE
  5
13A
100
AcDbEntity
  8
1
370
    50
100
AcDbLine
 10
104.027154
 20
-50.993273
 30
0.0
 11
104.027154
 21
66.006727
 31
0.0
  0
LINE
  5
13B
100
AcDbEntity
  8
1
370
    50
100
AcDbLine
 10
145.027154
 20
-50.993273
 30
0.0
 11
145.027154
 21
66.006727
 31
0.0
  0
LINE
  5
13C
100
AcDbEntity
  8
1
370
    50
100
AcDbLine
 10
114.027154
 20
52.006727
 30
0.0
 11
135.027154
 21
52.006727
 31
0.0
  0
LINE
  5
13D
100
AcDbEntity
  8
1
370
    50
100
AcDbLine
 10
114.027154
 20
-36.993273
 30
0.0
 11
135.027154
 21
-36.993273
 31
0.0
  0
ARC
  5
13E
100
AcDbEntity
  8
1
370
    50
100
AcDbCircle
 10
135.027154
 20
51.006727
 30
0.0
 40
1.0
100
AcDbArc
 50
0.0
 51
90.0
  0
ARC
  5
13F
100
AcDbEntity
  8
1
370
    50
100
AcDbCircle
 10
114.027154
 20
51.006727
 30
0.0
 40
1.0
100
AcDbArc
 50
90.0
 51
180.0
  0
ARC
  5
140
100
AcDbEntity
  8
1
370
    50
100
AcDbCircle
 10
114.027154
 20
-35.993273
 30
0.0
 40
1.0
100
AcDbArc
 50
180.0
 51
270.0
  0
ARC
  5
141
100
AcDbEntity
  8
1
370
    50
100
AcDbCircle
 10
135.027154
 20
-35.993273
 30
0.0
 40
1.0
100
AcDbArc
 50
270.0
 51
0.0
  0
LINE
  5
142
100
AcDbEntity
  8
1
370
    50
100
AcDbLine
 10
105.527154
 20
67.506727
 30
0.0
 11
143.527154
 21
67.506727
 31
0.0
  0
LINE
  5
143
100
AcDbEntity
  8
1
370
    50
100
AcDbLine
 10
105.527154
 20
-52.493273
 30
0.0
 11
143.527154
 21
-52.493273
 31
0.0
  0
ARC
  5
144
100
AcDbEntity
  8
1
370
    50
100
AcDbCircle
 10
143.527154
 20
66.006727
 30
0.0
 40
1.5
100
AcDbArc
 50
0.0
 51
90.0
  0
ARC
  5
145
100
AcDbEntity
  8
1
370
    50
100
AcDbCircle
 10
105.527154
 20
66.006727
 30
0.0
 40
1.5
100
AcDbArc
 50
90.0
 51
180.0
  0
ARC
  5
146
100
AcDbEntity
  8
1
370
    50
100
AcDbCircle
 10
105.527154
 20
-50.993273
 30
0.0
 40
1.5
100
AcDbArc
 50
180.0
 51
270.0
  0
ARC
  5
147
100
AcDbEntity
  8
1
370
    50
100
AcDbCircle
 10
143.527154
 20
-50.993273
 30
0.0
 40
1.5
100
AcDbArc
 50
270.0
 51
360.0
  0
LINE
  5
148
100
AcDbEntity
  8
1
370
    50
100
AcDbLine
 10
114.027154
 20
53.006295
 30
0.0
 11
135.027154
 21
53.006295
 31
0.0
  0
ARC
  5
149
100
AcDbEntity
  8
1
370
    50
100
AcDbCircle
 10
135.027154
 20
52.006295
 30
0.0
 40
1.0
100
AcDbArc
 50
0.0
 51
90.0
  0
ARC
  5
14A
100
AcDbEntity
  8
1
370
    50
100
AcDbCircle
 10
114.027154
 20
52.006295
 30
0.0
 40
1.0
100
AcDbArc
 50
90.0
 51
180.0
  0
LINE
  5
14B
100
AcDbEntity
  8
1
370
    50
100
AcDbLine
 10
114.027154
 20
-37.992799
 30
0.0
 11
135.027154
 21
-37.992799
 31
0.0
  0
ARC
  5
14C
100
AcDbEntity
  8
1
370
    50
100
AcDbCircle
 10
135.027154
 20
-36.992799
 30
0.0
 40
1.0
100
AcDbArc
 50
270.0
 51
360.0
  0
ARC
  5
14D
100
AcDbEntity
  8
1
370
    50
100
AcDbCircle
 10
114.027154
 20
-36.992799
 30
0.0
 40
1.0
100
AcDbArc
 50
180.0
 51
270.0
  0
LINE
  5
14E
100
AcDbEntity
  8
1
370
    50
100
AcDbLine
 10
193.291382
 20
67.507446
 30
0.0
 11
193.291382
 21
7.50759
 31
0.0
  0
LINE
  5
14F
100
AcDbEntity
  8
1
370
    50
100
AcDbLine
 10
193.772348
 20
62.989411
 30
0.0
 11
195.810416
 21
62.911771
 31
0.0
  0
ARC
  5
150
100
AcDbEntity
  8
1
370
    50
100
AcDbCircle
 10
193.791382
 20
63.489049
 30
0.0
 40
0.5
100
AcDbArc
 50
180.0
 51
267.818359
  0
LINE
  5
151
100
AcDbEntity
  8
1
370
    50
100
AcDbLine
 10
203.310416
 20
58.525913
 30
0.0
 11
196.291382
 21
58.793304
 31
0.0
  0
LINE
  5
152
100
AcDbEntity
  8
1
370
    50
100
AcDbLine
 10
196.291382
 20
62.411845
 30
0.0
 11
196.291382
 21
58.793304
 31
0.0
  0
ARC
  5
153
100
AcDbEntity
  8
1
370
    50
100
AcDbCircle
 10
195.791382
 20
62.412133
 30
0.0
 40
0.5
100
AcDbArc
 50
360.0
 51
87.818359
  0
ARC
  5
154
100
AcDbEntity
  8
1
370
    50
100
AcDbCircle
 10
203.291382
 20
58.026275
 30
0.0
 40
0.5
100
AcDbArc
 50
0.0
 51
87.818359
  0
LINE
  5
155
100
AcDbEntity
  8
1
370
    50
100
AcDbLine
 10
196.291382
 20
62.307446
 30
0.0
 11
198.810416
 21
62.211483
 31
0.0
  0
ARC
  5
156
100
AcDbEntity
  8
1
370
    50
100
AcDbCircle
 10
198.791382
 20
61.711845
 30
0.0
 40
0.5
100
AcDbArc
 50
0.0
 51
87.818359
  0
LINE
  5
157
100
AcDbEntity
  8
1
370
    50
100
AcDbLine
 10
199.291382
 20
61.711845
 30
0.0
 11
199.291382
 21
58.679019
 31
0.0
  0
LINE
  5
158
100
AcDbEntity
  8
1
370
    50
100
AcDbLine
 10
193.291382
 20
-52.49169
 30
0.0
 11
193.291382
 21
7.508166
 31
0.0
  0
LINE
  5
159
100
AcDbEntity
  8
1
370
    50
100
AcDbLine
 10
193.772348
 20
-47.973656
 30
0.0
 11
195.810416
 21
-47.896015
 31
0.0
  0
ARC
  5
15A
100
AcDbEntity
  8
1
370
    50
100
AcDbCircle
 10
193.791382
 20
-48.473293
 30
0.0
 40
0.5
100
AcDbArc
 50
92.181641
 51
180.0
  0
LINE
  5
15B
100
AcDbEntity
  8
1
370
    50
100
AcDbLine
 10
203.310416
 20
-43.510157
 30
0.0
 11
196.291382
 21
-43.777549
 31
0.0
  0
LINE
  5
15C
100
AcDbEntity
  8
1
370
    50
100
AcDbLine
 10
196.291382
 20
-47.39609
 30
0.0
 11
196.291382
 21
-43.777549
 31
0.0
  0
ARC
  5
15D
100
AcDbEntity
  8
1
370
    50
100
AcDbCircle
 10
195.791382
 20
-47.396378
 30
0.0
 40
0.5
100
AcDbArc
 50
272.181641
 51
0.0
  0
ARC
  5
15E
100
AcDbEntity
  8
1
370
    50
100
AcDbCircle
 10
203.291382
 20
-43.010519
 30
0.0
 40
0.5
100
AcDbArc
 50
272.181641
 51
360.0
  0
LINE
  5
15F
100
AcDbEntity
  8
1
370
    50
100
AcDbLine
 10
196.291382
 20
-47.29169
 30
0.0
 11
198.810416
 21
-47.195727
 31
0.0
  0
ARC
  5
160
100
AcDbEntity
  8
1
370
    50
100
AcDbCircle
 10
198.791382
 20
-46.69609
 30
0.0
 40
0.5
100
AcDbArc
 50
272.181641
 51
0.0
  0
LINE
  5
161
100
AcDbEntity
  8
1
370
    50
100
AcDbLine
 10
199.291382
 20
-46.69609
 30
0.0
 11
199.291382
 21
-43.663263
 31
0.0
  0
LINE
  5
162
100
AcDbEntity
  8
1
370
    50
100
AcDbLine
 10
205.791382
 20
57.927948
 30
0.0
 11
205.791382
 21
7.507102
 31
0.0
  0
LINE
  5
163
100
AcDbEntity
  8
1
370
    50
100
AcDbLine
 10
203.791382
 20
58.507246
 30
0.0
 11
203.791382
 21
7.507678
 31
0.0
  0
LINE
  5
164
100
AcDbEntity
  8
1
370
    50
100
AcDbLine
 10
203.791382
 20
58.507246
 30
0.0
 11
205.31755
 21
58.427263
 31
0.0
  0
ARC
  5
165
100
AcDbEntity
  8
1
370
    50
100
AcDbCircle
 10
205.291382
 20
57.927948
 30
0.0
 40
0.5
100
AcDbArc
 50
360.0
 51
87.0
  0
LINE
  5
166
100
AcDbEntity
  8
1
370
    50
100
AcDbLine
 10
205.791382
 20
-42.913456
 30
0.0
 11
205.791382
 21
7.507389
 31
0.0
  0
LINE
  5
167
100
AcDbEntity
  8
1
370
    50
100
AcDbLine
 10
203.791382
 20
-43.492754
 30
0.0
 11
203.791382
 21
7.506813
 31
0.0
  0
LINE
  5
168
100
AcDbEntity
  8
1
370
    50
100
AcDbLine
 10
203.791382
 20
-43.492754
 30
0.0
 11
205.31755
 21
-43.412771
 31
0.0
  0
ARC
  5
169
100
AcDbEntity
  8
1
370
    50
100
AcDbCircle
 10
205.291382
 20
-42.913456
 30
0.0
 40
0.5
100
AcDbArc
 50
273.0
 51
0.0
  0
LINE
  5
16A
100
AcDbEntity
  8
1
370
    50
100
AcDbLine
 10
140.127154
 20
123.564407
 30
0.0
 11
140.047171
 21
125.090575
 31
0.0
  0
ARC
  5
16B
100
AcDbEntity
  8
1
370
    50
100
AcDbCircle
 10
139.547856
 20
125.064407
 30
0.0
 40
0.5
100
AcDbArc
 50
3.0
 51
90.0
  0
LINE
  5
16C
100
AcDbEntity
  8
1
370
    50
100
AcDbLine
 10
108.927154
 20
123.564407
 30
0.0
 11
109.007137
 21
125.090575
 31
0.0
  0
ARC
  5
16D
100
AcDbEntity
  8
1
370
    50
100
AcDbCircle
 10
109.506452
 20
125.064407
 30
0.0
 40
0.5
100
AcDbArc
 50
90.0
 51
177.0
  0
LINE
  5
16E
100
AcDbEntity
  8
1
370
    50
100
AcDbLine
 10
129.026867
 20
123.564407
 30
0.0
 11
129.026867
 21
125.090575
 31
0.0
  0
LINE
  5
16F
100
AcDbEntity
  8
1
370
    50
100
AcDbLine
 10
120.026867
 20
123.564407
 30
0.0
 11
120.026867
 21
125.090575
 31
0.0
  0
LINE
  5
170
100
AcDbEntity
  8
1
370
    18
  6
CENTER
100
AcDbLine
 10
124.527154
 20
140.283529
 30
0.0
 11
124.527154
 21
108.443647
 31
0.0
  0
LINE
  5
171
100
AcDbEntity
  8
1
370
    18
  6
CENTER
100
AcDbLine
 10
118.377154
 20
-43.493273
 30
0.0
 11
130.677154
 21
-43.493273
 31
0.0
  0
LINE
  5
172
100
AcDbEntity
  8
1
370
    18
  6
CENTER
100
AcDbLine
 10
118.377154
 20
58.506727
 30
0.0
 11
130.677154
 21
58.506727
 31
0.0
  0
LINE
  5
173
100
AcDbEntity
  8
1
370
    18
  6
CENTER
100
AcDbLine
 10
99.848275
 20
7.506727
 30
0.0
 11
149.206032
 21
7.506727
 31
0.0
  0
LINE
  5
174
100
AcDbEntity
  8
1
370
    18
  6
CENTER
100
AcDbLine
 10
184.933037
 20
58.507406
 30
0.0
 11
219.880349
 21
58.507406
 31
0.0
  0
LINE
  5
175
100
AcDbEntity
  8
1
370
    18
  6
CENTER
100
AcDbLine
 10
184.933037
 20
-43.492594
 30
0.0
 11
215.976624
 21
-43.492594
 31
0.0
  0
LINE
  5
176
100
AcDbEntity
  8
1
370
    18
  6
CENTER
100
AcDbLine
 10
184.933037
 20
7.507446
 30
0.0
 11
215.976624
 21
7.507446
 31
0.0
  0
LINE
  5
177
100
AcDbEntity
  8
1
370
    50
100
AcDbLine
 10
139.547856
 20
125.564407
 30
0.0
 11
125.727154
 21
125.564407
 31
0.0
  0
LINE
  5
178
100
AcDbEntity
  8
1
370
    50
100
AcDbLine
 10
123.327154
 20
125.564407
 30
0.0
 11
109.506452
 21
125.564407
 31
0.0
  0
LINE
  5
179
100
AcDbEntity
  8
1
370
    50
100
AcDbLine
 10
140.127154
 20
123.564407
 30
0.0
 11
125.727154
 21
123.564407
 31
0.0
  0
LINE
  5
17A
100
AcDbEntity
  8
1
370
    50
100
AcDbLine
 10
123.327154
 20
123.564407
 30
0.0
 11
108.927154
 21
123.564407
 31
0.0
  0
ARC
  5
17B
100
AcDbEntity
  8
1
370
    50
100
AcDbCircle
 10
124.527154
 20
971.264407
 30
0.0
 40
860.0
100
AcDbArc
 50
268.690919
 51
271.309078
  0
LINE
  5
17C
100
AcDbEntity
  8
1
370
    50
100
AcDbLine
 10
145.027154
 20
113.064407
 30
0.0
 11
144.953184
 21
112.218932
 31
0.0
  0
LINE
  5
17D
100
AcDbEntity
  8
1
370
    50
100
AcDbLine
 10
104.027154
 20
113.064407
 30
0.0
 11
104.101123
 21
112.218932
 31
0.0
  0
ARC
  5
17E
100
AcDbEntity
  8
1
370
    50
100
AcDbCircle
 10
104.898079
 20
112.288656
 30
0.0
 40
0.8
100
AcDbArc
 50
185.0
 51
268.690921
  0
ARC
  5
17F
100
AcDbEntity
  8
1
370
    50
100
AcDbCircle
 10
144.156228
 20
112.288656
 30
0.0
 40
0.8
100
AcDbArc
 50
271.309079
 51
355.0
  0
LINE
  5
180
100
AcDbEntity
  8
1
370
    18
  6
CENTER
100
AcDbLine
 10
124.527154
 20
-55.555709
 30
0.0
 11
124.527154
 21
13.583851
 31
0.0
  0
LINE
  5
181
100
AcDbEntity
  8
1
370
    18
  6
CENTER
100
AcDbLine
 10
124.527154
 20
22.518969
 30
0.0
 11
124.527154
 21
70.569162
 31
0.0
  0
LINE
  5
182
100
AcDbEntity
  8
1
370
    50
100
AcDbLine
 10
193.291382
 20
67.507446
 30
0.0
 11
192.221657
 21
67.413857
 31
0.0
  0
LINE
  5
183
100
AcDbEntity
  8
1
370
    50
100
AcDbLine
 10
191.491382
 20
66.616902
 30
0.0
 11
191.491382
 21
-51.601146
 31
0.0
  0
LINE
  5
184
100
AcDbEntity
  8
1
370
    50
100
AcDbLine
 10
193.291382
 20
-52.49169
 30
0.0
 11
192.221657
 21
-52.398102
 31
0.0
  0
ARC
  5
185
100
AcDbEntity
  8
1
370
    50
100
AcDbCircle
 10
192.291382
 20
66.616902
 30
0.0
 40
0.8
100
AcDbArc
 50
95.0
 51
180.0
  0
ARC
  5
186
100
AcDbEntity
  8
1
370
    50
100
AcDbCircle
 10
192.291382
 20
-51.601146
 30
0.0
 40
0.8
100
AcDbArc
 50
180.0
 51
265.0
  0
ARC
  5
187
100
AcDbEntity
  8
1
370
    50
100
AcDbCircle
 10
126.677154
 20
60.656727
 30
0.0
 40
1.658571
100
AcDbArc
 50
180.0
 51
270.0
  0
ARC
  5
188
100
AcDbEntity
  8
1
370
    50
100
AcDbCircle
 10
122.377154
 20
60.656727
 30
0.0
 40
1.658571
100
AcDbArc
 50
270.0
 51
360.0
  0
ARC
  5
189
100
AcDbEntity
  8
1
370
    50
100
AcDbCircle
 10
122.377154
 20
56.356727
 30
0.0
 40
1.658571
100
AcDbArc
 50
0.0
 51
90.0
  0
ARC
  5
18A
100
AcDbEntity
  8
1
370
    50
100
AcDbCircle
 10
126.677154
 20
56.356727
 30
0.0
 40
1.658571
100
AcDbArc
 50
90.0
 51
180.0
  0
LINE
  5
18B
100
AcDbEntity
  8
1
370
    50
100
AcDbLine
 10
124.527154
 20
56.356727
 30
0.0
 11
125.018582
 21
56.356727
 31
0.0
  0
LINE
  5
18C
100
AcDbEntity
  8
1
370
    50
100
AcDbLine
 10
124.527154
 20
56.356727
 30
0.0
 11
124.035725
 21
56.356727
 31
0.0
  0
LINE
  5
18D
100
AcDbEntity
  8
1
370
    50
100
AcDbLine
 10
122.377154
 20
58.015298
 30
0.0
 11
122.377154
 21
58.506727
 31
0.0
  0
LINE
  5
18E
100
AcDbEntity
  8
1
370
    50
100
AcDbLine
 10
122.377154
 20
58.998155
 30
0.0
 11
122.377154
 21
58.506727
 31
0.0
  0
LINE
  5
18F
100
AcDbEntity
  8
1
370
    50
100
AcDbLine
 10
124.527154
 20
60.656727
 30
0.0
 11
124.035725
 21
60.656727
 31
0.0
  0
LINE
  5
190
100
AcDbEntity
  8
1
370
    50
100
AcDbLine
 10
124.527154
 20
60.656727
 30
0.0
 11
125.018582
 21
60.656727
 31
0.0
  0
LINE
  5
191
100
AcDbEntity
  8
1
370
    50
100
AcDbLine
 10
126.677154
 20
58.998155
 30
0.0
 11
126.677154
 21
58.506727
 31
0.0
  0
LINE
  5
192
100
AcDbEntity
  8
1
370
    50
100
AcDbLine
 10
126.677154
 20
58.015298
 30
0.0
 11
126.677154
 21
58.506727
 31
0.0
  0
ARC
  5
193
100
AcDbEntity
  8
1
370
    50
100
AcDbCircle
 10
126.677154
 20
-41.343273
 30
0.0
 40
1.658571
100
AcDbArc
 50
180.0
 51
270.0
  0
ARC
  5
194
100
AcDbEntity
  8
1
370
    50
100
AcDbCircle
 10
122.377154
 20
-41.343273
 30
0.0
 40
1.658571
100
AcDbArc
 50
270.0
 51
360.0
  0
ARC
  5
195
100
AcDbEntity
  8
1
370
    50
100
AcDbCircle
 10
122.377154
 20
-45.643273
 30
0.0
 40
1.658571
100
AcDbArc
 50
0.0
 51
90.0
  0
ARC
  5
196
100
AcDbEntity
  8
1
370
    50
100
AcDbCircle
 10
126.677154
 20
-45.643273
 30
0.0
 40
1.658571
100
AcDbArc
 50
90.0
 51
180.0
  0
LINE
  5
197
100
AcDbEntity
  8
1
370
    50
100
AcDbLine
 10
124.527154
 20
-45.643273
 30
0.0
 11
125.018582
 21
-45.643273
 31
0.0
  0
LINE
  5
198
100
AcDbEntity
  8
1
370
    50
100
AcDbLine
 10
124.527154
 20
-45.643273
 30
0.0
 11
124.035725
 21
-45.643273
 31
0.0
  0
LINE
  5
199
100
AcDbEntity
  8
1
370
    50
100
AcDbLine
 10
122.377154
 20
-43.984702
 30
0.0
 11
122.377154
 21
-43.493273
 31
0.0
  0
LINE
  5
19A
100
AcDbEntity
  8
1
370
    50
100
AcDbLine
 10
122.377154
 20
-43.001845
 30
0.0
 11
122.377154
 21
-43.493273
 31
0.0
  0
LINE
  5
19B
100
AcDbEntity
  8
1
370
    50
100
AcDbLine
 10
124.527154
 20
-41.343273
 30
0.0
 11
124.035725
 21
-41.343273
 31
0.0
  0
LINE
  5
19C
100
AcDbEntity
  8
1
370
    50
100
AcDbLine
 10
124.527154
 20
-41.343273
 30
0.0
 11
125.018582
 21
-41.343273
 31
0.0
  0
LINE
  5
19D
100
AcDbEntity
  8
1
370
    50
100
AcDbLine
 10
126.677154
 20
-43.001845
 30
0.0
 11
126.677154
 21
-43.493273
 31
0.0
  0
LINE
  5
19E
100
AcDbEntity
  8
1
370
    50
100
AcDbLine
 10
126.677154
 20
-43.984702
 30
0.0
 11
126.677154
 21
-43.493273
 31
0.0
  0
CIRCLE
  5
19F
100
AcDbEntity
  8
1
370
    50
100
AcDbCircle
 10
124.527154
 20
58.506727
 30
0.0
 40
3.0
  0
CIRCLE
  5
1A0
100
AcDbEntity
  8
1
370
    50
100
AcDbCircle
 10
124.527154
 20
-43.493273
 30
0.0
 40
3.0
  0
LINE
  5
1A1
100
AcDbEntity
  8
1
370
    25
100
AcDbLine
 10
123.327154
 20
119.064407
 30
0.0
 11
123.327154
 21
133.967761
 31
0.0
  0
LINE
  5
1A2
100
AcDbEntity
  8
1
370
    25
100
AcDbLine
 10
125.727154
 20
119.064407
 30
0.0
 11
125.727154
 21
133.967761
 31
0.0
  0
LINE
  5
1A3
100
AcDbEntity
  8
1
370
    25
100
AcDbLine
 10
124.705045
 20
119.064407
 30
0.0
 11
126.027154
 21
119.418665
 31
0.0
  0
LINE
  5
1A4
100
AcDbEntity
  8
1
370
    25
100
AcDbLine
 10
123.027154
 20
120.114817
 30
0.0
 11
126.027154
 21
120.918665
 31
0.0
  0
LINE
  5
1A5
100
AcDbEntity
  8
1
370
    25
100
AcDbLine
 10
123.027154
 20
121.614817
 30
0.0
 11
126.027154
 21
122.418665
 31
0.0
  0
LINE
  5
1A6
100
AcDbEntity
  8
1
370
    25
100
AcDbLine
 10
123.027154
 20
123.114817
 30
0.0
 11
126.027154
 21
123.918665
 31
0.0
  0
LINE
  5
1A7
100
AcDbEntity
  8
1
370
    25
100
AcDbLine
 10
123.027154
 20
124.614817
 30
0.0
 11
126.027154
 21
125.418665
 31
0.0
  0
LINE
  5
1A8
100
AcDbEntity
  8
1
370
    25
100
AcDbLine
 10
123.027154
 20
126.114817
 30
0.0
 11
126.027154
 21
126.918665
 31
0.0
  0
LINE
  5
1A9
100
AcDbEntity
  8
1
370
    25
100
AcDbLine
 10
123.027154
 20
127.614817
 30
0.0
 11
126.027154
 21
128.418665
 31
0.0
  0
LINE
  5
1AA
100
AcDbEntity
  8
1
370
    25
100
AcDbLine
 10
123.027154
 20
129.114817
 30
0.0
 11
126.027154
 21
129.918665
 31
0.0
  0
LINE
  5
1AB
100
AcDbEntity
  8
1
370
    25
100
AcDbLine
 10
123.027154
 20
130.614817
 30
0.0
 11
126.027154
 21
131.418665
 31
0.0
  0
LINE
  5
1AC
100
AcDbEntity
  8
1
370
    25
100
AcDbLine
 10
123.027154
 20
132.114817
 30
0.0
 11
126.027154
 21
132.918665
 31
0.0
  0
LINE
  5
1AD
100
AcDbEntity
  8
1
370
    25
100
AcDbLine
 10
123.027154
 20
133.614817
 30
0.0
 11
125.88129
 21
134.379581
 31
0.0
  0
LINE
  5
1AE
100
AcDbEntity
  8
1
370
    25
100
AcDbLine
 10
123.533793
 20
135.250571
 30
0.0
 11
125.32204
 21
135.72973
 31
0.0
  0
LINE
  5
1AF
100
AcDbEntity
  8
1
370
    25
100
AcDbLine
 10
124.527154
 20
136.864817
 30
0.0
 11
123.327154
 21
133.967761
 31
0.0
  0
LINE
  5
1B0
100
AcDbEntity
  8
1
370
    25
100
AcDbLine
 10
124.527154
 20
136.864817
 30
0.0
 11
125.727154
 21
133.967761
 31
0.0
  0
LINE
  5
1B1
100
AcDbEntity
  8
1
370
    25
100
AcDbLine
 10
205.791382
 20
57.307878
 30
0.0
 11
214.194736
 21
57.307878
 31
0.0
  0
LINE
  5
1B2
100
AcDbEntity
  8
1
370
    25
100
AcDbLine
 10
199.291382
 20
59.707878
 30
0.0
 11
214.194736
 21
59.707878
 31
0.0
  0
LINE
  5
1B3
100
AcDbEntity
  8
1
370
    25
100
AcDbLine
 10
199.289591
 20
58.679087
 30
0.0
 11
199.64564
 21
60.007878
 31
0.0
  0
LINE
  5
1B4
100
AcDbEntity
  8
1
370
    25
100
AcDbLine
 10
200.774435
 20
58.622521
 30
0.0
 11
201.14564
 21
60.007878
 31
0.0
  0
LINE
  5
1B5
100
AcDbEntity
  8
1
370
    25
100
AcDbLine
 10
202.259278
 20
58.565956
 30
0.0
 11
202.64564
 21
60.007878
 31
0.0
  0
LINE
  5
1B6
100
AcDbEntity
  8
1
370
    25
100
AcDbLine
 10
203.694082
 20
58.322641
 30
0.0
 11
204.14564
 21
60.007878
 31
0.0
  0
LINE
  5
1B7
100
AcDbEntity
  8
1
370
    25
100
AcDbLine
 10
205.223437
 20
58.432195
 30
0.0
 11
205.64564
 21
60.007878
 31
0.0
  0
LINE
  5
1B8
100
AcDbEntity
  8
1
370
    25
100
AcDbLine
 10
206.341792
 20
57.007878
 30
0.0
 11
207.14564
 21
60.007878
 31
0.0
  0
LINE
  5
1B9
100
AcDbEntity
  8
1
370
    25
100
AcDbLine
 10
207.841792
 20
57.007878
 30
0.0
 11
208.64564
 21
60.007878
 31
0.0
  0
LINE
  5
1BA
100
AcDbEntity
  8
1
370
    25
100
AcDbLine
 10
209.341792
 20
57.007878
 30
0.0
 11
210.14564
 21
60.007878
 31
0.0
  0
LINE
  5
1BB
100
AcDbEntity
  8
1
370
    25
100
AcDbLine
 10
210.841792
 20
57.007878
 30
0.0
 11
211.64564
 21
60.007878
 31
0.0
  0
LINE
  5
1BC
100
AcDbEntity
  8
1
370
    25
100
AcDbLine
 10
212.341792
 20
57.007878
 30
0.0
 11
213.14564
 21
60.007878
 31
0.0
  0
LINE
  5
1BD
100
AcDbEntity
  8
1
370
    25
100
AcDbLine
 10
213.841792
 20
57.007878
 30
0.0
 11
214.606556
 21
59.862015
 31
0.0
  0
LINE
  5
1BE
100
AcDbEntity
  8
1
370
    25
100
AcDbLine
 10
215.477546
 20
57.514518
 30
0.0
 11
215.956705
 21
59.302764
 31
0.0
  0
LINE
  5
1BF
100
AcDbEntity
  8
1
370
    25
100
AcDbLine
 10
217.091792
 20
58.507878
 30
0.0
 11
214.194736
 21
57.307878
 31
0.0
  0
LINE
  5
1C0
100
AcDbEntity
  8
1
370
    25
100
AcDbLine
 10
217.091792
 20
58.507878
 30
0.0
 11
214.194736
 21
59.707878
 31
0.0
  0
LINE
  5
1C1
100
AcDbEntity
  8
1
370
    25
100
AcDbLine
 10
199.291382
 20
-44.692122
 30
0.0
 11
214.194736
 21
-44.692122
 31
0.0
  0
LINE
  5
1C2
100
AcDbEntity
  8
1
370
    25
100
AcDbLine
 10
205.791382
 20
-42.292122
 30
0.0
 11
214.194736
 21
-42.292122
 31
0.0
  0
LINE
  5
1C3
100
AcDbEntity
  8
1
370
    25
100
AcDbLine
 10
200.341792
 20
-44.992122
 30
0.0
 11
200.712364
 21
-43.60913
 31
0.0
  0
LINE
  5
1C4
100
AcDbEntity
  8
1
370
    25
100
AcDbLine
 10
201.841792
 20
-44.992122
 30
0.0
 11
202.227833
 21
-43.551398
 31
0.0
  0
LINE
  5
1C5
100
AcDbEntity
  8
1
370
    25
100
AcDbLine
 10
203.341792
 20
-44.992122
 30
0.0
 11
203.791382
 21
-43.31423
 31
0.0
  0
LINE
  5
1C6
100
AcDbEntity
  8
1
370
    25
100
AcDbLine
 10
204.841792
 20
-44.992122
 30
0.0
 11
205.64564
 21
-41.992122
 31
0.0
  0
LINE
  5
1C7
100
AcDbEntity
  8
1
370
    25
100
AcDbLine
 10
206.341792
 20
-44.992122
 30
0.0
 11
207.14564
 21
-41.992122
 31
0.0
  0
LINE
  5
1C8
100
AcDbEntity
  8
1
370
    25
100
AcDbLine
 10
207.841792
 20
-44.992122
 30
0.0
 11
208.64564
 21
-41.992122
 31
0.0
  0
LINE
  5
1C9
100
AcDbEntity
  8
1
370
    25
100
AcDbLine
 10
209.341792
 20
-44.992122
 30
0.0
 11
210.14564
 21
-41.992122
 31
0.0
  0
LINE
  5
1CA
100
AcDbEntity
  8
1
370
    25
100
AcDbLine
 10
210.841792
 20
-44.992122
 30
0.0
 11
211.64564
 21
-41.992122
 31
0.0
  0
LINE
  5
1CB
100
AcDbEntity
  8
1
370
    25
100
AcDbLine
 10
212.341792
 20
-44.992122
 30
0.0
 11
213.14564
 21
-41.992122
 31
0.0
  0
LINE
  5
1CC
100
AcDbEntity
  8
1
370
    25
100
AcDbLine
 10
213.841792
 20
-44.992122
 30
0.0
 11
214.606556
 21
-42.137985
 31
0.0
  0
LINE
  5
1CD
100
AcDbEntity
  8
1
370
    25
100
AcDbLine
 10
215.477546
 20
-44.485482
 30
0.0
 11
215.956705
 21
-42.697236
 31
0.0
  0
LINE
  5
1CE
100
AcDbEntity
  8
1
370
    25
100
AcDbLine
 10
217.091792
 20
-43.492122
 30
0.0
 11
214.194736
 21
-44.692122
 31
0.0
  0
LINE
  5
1CF
100
AcDbEntity
  8
1
370
    25
100
AcDbLine
 10
217.091792
 20
-43.492122
 30
0.0
 11
214.194736
 21
-42.292122
 31
0.0
  0
DIMENSION
  5
1D0
100
AcDbEntity
  8
2
370
    25
100
AcDbDimension
  2
*D0
 10
140.527154
 20
102.594694
 30
0.0
 11
124.527154
 21
106.094694
 31
0.0
 70
     1
 71
     0
 72
     0
 41
0.0
 42
0.0
 51
270.0
  3
Standard
100
AcDbAlignedDimension
 13
108.527154
 23
115.864186
 33
0.0
 14
140.527154
 24
115.864186
 34
0.0
  0
DIMENSION
  5
1D1
100
AcDbEntity
  8
2
370
    25
100
AcDbDimension
  2
*D1
 10
180.777306
 20
63.007734
 30
0.0
 11
172.277306
 21
5.007878
 31
0.0
 71
     0
 72
     0
 41
0.0
 42
0.0
  3
Standard
100
AcDbAlignedDimension
 13
193.291382
 23
-47.991978
 33
0.0
 14
193.291382
 24
63.007734
 34
0.0
 50
90.0
100
AcDbRotatedDimension
  0
DIMENSION
  5
1D2
100
AcDbEntity
  8
2
370
    25
100
AcDbDimension
  2
*D2
 10
136.027154
 20
15.383056
 30
0.0
 11
124.527154
 21
18.883056
 31
0.0
 71
     0
 72
     0
 41
0.0
 42
0.0
  3
Standard
100
AcDbAlignedDimension
 13
113.027154
 23
16.109897
 33
0.0
 14
136.027154
 24
16.109897
 34
0.0
100
AcDbRotatedDimension
  0
DIMENSION
  5
1D3
100
AcDbEntity
  8
2
370
    25
100
AcDbDimension
  2
*D3
 10
94.5402
 20
58.506727
 30
0.0
 11
86.0402
 21
5.006727
 31
0.0
 71
     0
 72
     0
 41
0.0
 42
0.0
  3
Standard
100
AcDbAlignedDimension
 13
117.427154
 23
-43.493273
 33
0.0
 14
117.427154
 24
58.506727
 34
0.0
 50
90.0
100
AcDbRotatedDimension
  0
DIMENSION
  5
1D4
100
AcDbEntity
  8
2
370
    25
100
AcDbDimension
  2
*D4
 10
86.706719
 20
67.506727
 30
0.0
 11
78.206719
 21
5.006727
 31
0.0
 71
     0
 72
     0
 41
0.0
 42
0.0
  3
Standard
100
AcDbAlignedDimension
 13
105.527154
 23
-52.493273
 33
0.0
 14
105.527154
 24
67.506727
 34
0.0
 50
90.0
100
AcDbRotatedDimension
  0
DIMENSION
  5
1D5
100
AcDbEntity
  8
2
370
    25
100
AcDbDimension
  2
*D5
 10
145.027154
 20
75.794767
 30
0.0
 11
124.527154
 21
79.294767
 31
0.0
 71
     0
 72
     0
 41
0.0
 42
0.0
  3
Standard
100
AcDbAlignedDimension
 13
104.027154
 23
66.006727
 33
0.0
 14
145.027154
 24
66.006727
 34
0.0
100
AcDbRotatedDimension
  0
DIMENSION
  5
1D6
100
AcDbEntity
  8
2
370
    25
100
AcDbDimension
  2
*D6
 10
149.574837
 20
125.564407
 30
0.0
 11
138.574837
 21
134.564407
 31
0.0
 71
     0
 72
     0
 41
0.0
 42
0.0
  3
Standard
100
AcDbAlignedDimension
 13
145.027154
 23
113.064407
 33
0.0
 14
139.547856
 24
125.564407
 34
0.0
 50
90.0
100
AcDbRotatedDimension
  0
LINE
  5
1D7
100
AcDbEntity
  8
2
370
    18
  6
PHANTOM
100
AcDbLine
 10
219.291382
 20
-52.49169
 30
0.0
 11
219.291382
 21
67.507446
 31
0.0
  0
DIMENSION
  5
1D8
100
AcDbEntity
  8
2
370
    25
100
AcDbDimension
  2
*D7
 10
203.791382
 20
73.685621
 30
0.0
 11
177.491382
 21
77.185621
 31
0.0
 71
     0
 72
     0
 41
0.0
 42
0.0
  3
Standard
100
AcDbAlignedDimension
 13
191.491382
 23
66.616902
 33
0.0
 14
203.791382
 24
58.507246
 34
0.0
100
AcDbRotatedDimension
  0
DIMENSION
  5
1D9
100
AcDbEntity
  8
2
370
    25
100
AcDbDimension
  2
*D8
 10
193.291382
 20
81.802915
 30
0.0
 11
179.991382
 21
85.302915
 31
0.0
 71
     0
 72
     0
 41
0.0
 42
0.0
  3
Standard
100
AcDbAlignedDimension
 13
191.491382
 23
66.616902
 33
0.0
 14
193.291382
 24
67.507446
 34
0.0
100
AcDbRotatedDimension
  0
LWPOLYLINE
  5
1DA
100
AcDbEntity
  8
2
370
    18
100
AcDbPolyline
 90
        3
 70
     0
 10
104.571818
 20
67.163158
 10
96.358543
 20
77.105306
 10
66.281304
 20
77.105306
  0
LINE
  5
1DF
100
AcDbEntity
  8
2
370
    25
100
AcDbLine
 10
101.312912
 20
69.482539
 30
0.0
 11
104.571818
 21
67.163158
 31
0.0
  0
LINE
  5
1E0
100
AcDbEntity
  8
2
370
    25
100
AcDbLine
 10
104.571818
 20
67.163158
 30
0.0
 11
102.909213
 21
70.801254
 31
0.0
  0
TEXT
  5
1E1
100
AcDbEntity
  8
2
370
    18
100
AcDbText
 10
76.588006
 20
77.717374
 30
0.0
 40
5.0
  1
R1.5
 41
2.0
 72
     5
 11
94.588006
 21
77.717374
 31
0.0
100
AcDbText
  0
TEXT
  5
1E2
100
AcDbEntity
  8
2
370
    18
100
AcDbText
 10
66.588006
 20
77.717374
 30
0.0
 40
5.0
  1
４－
 72
     5
 11
75.588006
 21
77.717374
 31
0.0
100
AcDbText
  0
TEXT
  5
1E3
100
AcDbEntity
  8
2
370
    18
100
AcDbText
 10
193.791382
 20
-61.125994
 30
0.0
 40
5.0
  1
扉厚２６～
 72
     5
 11
217.791382
 21
-61.125994
 31
0.0
100
AcDbText
  0
DIMENSION
  5
1E4
100
AcDbEntity
  8
2
370
    25
100
AcDbDimension
  2
*D9
 10
219.291382
 20
-62.125994
 30
0.0
 11
206.291382
 21
-60.125994
 31
0.0
 71
     0
 72
     0
 41
0.0
 42
0.0
  3
Standard
100
AcDbAlignedDimension
 13
193.291382
 23
-52.49169
 33
0.0
 14
219.291382
 24
-52.49169
 34
0.0
100
AcDbRotatedDimension
  0
DIMENSION
  5
1E5
100
AcDbEntity
  8
2
370
    25
100
AcDbDimension
  2
*D10
 10
-222.225531
 20
16.017579
 30
0.0
 11
-233.725531
 21
19.517579
 31
0.0
 71
     0
 72
     0
 41
0.0
 42
0.0
  3
Standard
100
AcDbAlignedDimension
 13
-245.225531
 23
16.109901
 33
0.0
 14
-222.225531
 24
16.109901
 34
0.0
100
AcDbRotatedDimension
  0
DIMENSION
  5
1E6
100
AcDbEntity
  8
2
370
    25
100
AcDbDimension
  2
*D11
 10
-268.851264
 20
58.506731
 30
0.0
 11
-277.351264
 21
5.006731
 31
0.0
 71
     0
 72
     0
 41
0.0
 42
0.0
  3
Standard
100
AcDbAlignedDimension
 13
-240.825531
 23
-43.493269
 33
0.0
 14
-240.825531
 24
58.506731
 34
0.0
 50
90.0
100
AcDbRotatedDimension
  0
DIMENSION
  5
1E7
100
AcDbEntity
  8
2
370
    25
100
AcDbDimension
  2
*D12
 10
-276.020973
 20
67.506731
 30
0.0
 11
-284.520973
 21
5.006731
 31
0.0
 71
     0
 72
     0
 41
0.0
 42
0.0
  3
Standard
100
AcDbAlignedDimension
 13
-252.725531
 23
-52.493269
 33
0.0
 14
-252.725531
 24
67.506731
 34
0.0
 50
90.0
100
AcDbRotatedDimension
  0
DIMENSION
  5
1E8
100
AcDbEntity
  8
2
370
    25
100
AcDbDimension
  2
*D13
 10
-213.225531
 20
78.332948
 30
0.0
 11
-233.725531
 21
81.832948
 31
0.0
 71
     0
 72
     0
 41
0.0
 42
0.0
  3
Standard
100
AcDbAlignedDimension
 13
-254.225531
 23
66.006731
 33
0.0
 14
-213.225531
 24
66.006731
 34
0.0
100
AcDbRotatedDimension
  0
DIMENSION
  5
1E9
100
AcDbEntity
  8
2
370
    25
100
AcDbDimension
  2
*D14
 10
-217.725531
 20
101.992616
 30
0.0
 11
-233.725531
 21
105.492616
 31
0.0
 71
     0
 72
     0
 41
0.0
 42
0.0
  3
Standard
100
AcDbAlignedDimension
 13
-249.725531
 23
112.506752
 33
0.0
 14
-217.725531
 24
112.506752
 34
0.0
100
AcDbRotatedDimension
  0
DIMENSION
  5
1EA
100
AcDbEntity
  8
2
370
    25
100
AcDbDimension
  2
*D15
 10
-201.765418
 20
125.006752
 30
0.0
 11
-212.765418
 21
134.006752
 31
0.0
 71
     0
 72
     0
 41
0.0
 42
0.0
  3
Standard
100
AcDbAlignedDimension
 13
-213.225531
 23
112.506752
 33
0.0
 14
-218.704829
 24
125.006752
 34
0.0
 50
90.0
100
AcDbRotatedDimension
  0
DIMENSION
  5
1EB
100
AcDbEntity
  8
2
370
    25
100
AcDbDimension
  2
*D16
 10
-164.668678
 20
84.057283
 30
0.0
 11
-177.968678
 21
87.557283
 31
0.0
 71
     0
 72
     0
 41
0.0
 42
0.0
  3
Standard
100
AcDbAlignedDimension
 13
-166.468678
 23
66.615483
 33
0.0
 14
-164.668678
 24
67.506027
 34
0.0
100
AcDbRotatedDimension
  0
DIMENSION
  5
1EC
100
AcDbEntity
  8
2
370
    25
100
AcDbDimension
  2
*D17
 10
-126.868678
 20
84.057283
 30
0.0
 11
-115.368678
 21
87.557283
 31
0.0
 71
     0
 72
     0
 41
0.0
 42
0.0
  3
Standard
100
AcDbAlignedDimension
 13
-128.668678
 23
67.506603
 33
0.0
 14
-126.868678
 24
66.616059
 34
0.0
100
AcDbRotatedDimension
  0
DIMENSION
  5
1ED
100
AcDbEntity
  8
2
370
    25
100
AcDbDimension
  2
*D18
 10
-126.868678
 20
74.249696
 30
0.0
 11
-112.868678
 21
77.749696
 31
0.0
 71
     0
 72
     0
 41
0.0
 42
0.0
  3
Standard
100
AcDbAlignedDimension
 13
-139.168678
 23
58.506891
 33
0.0
 14
-126.868678
 24
66.616059
 34
0.0
100
AcDbRotatedDimension
  0
LWPOLYLINE
  5
1EE
100
AcDbEntity
  8
2
370
    18
100
AcDbPolyline
 90
        3
 70
     0
 10
-253.680867
 20
67.163162
 10
-261.894141
 20
77.10531
 10
-293.169959
 20
77.10531
  0
LINE
  5
1F3
100
AcDbEntity
  8
2
370
    25
100
AcDbLine
 10
-256.939773
 20
69.482543
 30
0.0
 11
-253.680867
 21
67.163162
 31
0.0
  0
LINE
  5
1F4
100
AcDbEntity
  8
2
370
    25
100
AcDbLine
 10
-253.680867
 20
67.163162
 30
0.0
 11
-255.343472
 21
70.801258
 31
0.0
  0
TEXT
  5
1F5
100
AcDbEntity
  8
2
370
    18
100
AcDbText
 10
-280.994026
 20
77.369356
 30
0.0
 40
5.0
  1
R1.5
 41
2.0
 72
     5
 11
-262.994026
 21
77.369356
 31
0.0
100
AcDbText
  0
TEXT
  5
1F6
100
AcDbEntity
  8
2
370
    18
100
AcDbText
 10
-292.994026
 20
77.369356
 30
0.0
 40
6.0
  1
４－
 72
     5
 11
-282.194026
 21
77.369356
 31
0.0
100
AcDbText
  0
TEXT
  5
1F7
100
AcDbEntity
  8
2
370
    18
100
AcDbText
 10
-164.168678
 20
85.057283
 30
0.0
 40
5.0
  1
扉厚２８～４０
 72
     5
 11
-130.168678
 21
85.057283
 31
0.0
100
AcDbText
  0
DIMENSION
  5
1F8
100
AcDbEntity
  8
2
370
    25
100
AcDbDimension
  2
*D19
 10
-128.668678
 20
84.057283
 30
0.0
 11
-146.668678
 21
86.057283
 31
0.0
 71
     0
 72
     0
 41
0.0
 42
0.0
  3
Standard
100
AcDbAlignedDimension
 13
-164.668678
 23
67.506027
 33
0.0
 14
-128.668678
 24
67.506603
 34
0.0
100
AcDbRotatedDimension
  0
DIMENSION
  5
1F9
100
AcDbEntity
  8
2
370
    25
100
AcDbDimension
  2
*D20
 10
-262.637122
 20
52.006731
 30
0.0
 11
-268.637122
 21
7.506731
 31
0.0
 71
     0
 72
     0
 41
0.0
 42
0.0
  3
Standard
100
AcDbAlignedDimension
 13
-227.928321
 23
-36.993269
 33
0.0
 14
-227.928321
 24
52.006731
 34
0.0
 50
90.0
100
AcDbRotatedDimension
  0
CIRCLE
  5
1FA
100
AcDbEntity
  8
2
370
    18
100
AcDbCircle
 10
-253.424108
 20
-65.416039
 30
0.0
 40
5.0
  0
LWPOLYLINE
  5
1FB
100
AcDbEntity
  8
2
370
    18
100
AcDbPolyline
 90
        2
 70
     0
 10
-234.579528
 20
-45.535113
 10
-249.984421
 20
-61.787189
  0
LINE
  5
1FF
100
AcDbEntity
  8
2
370
    25
100
AcDbLine
 10
-234.182347
 20
-45.11609
 30
0.0
 11
-234.908117
 21
-44.428152
 31
0.0
  0
LINE
  5
200
100
AcDbEntity
  8
2
370
    25
100
AcDbLine
 10
-234.908117
 20
-44.428152
 30
0.0
 11
-235.373889
 21
-46.37316
 31
0.0
  0
LINE
  5
201
100
AcDbEntity
  8
2
370
    25
100
AcDbLine
 10
-235.373889
 20
-46.37316
 30
0.0
 11
-233.456577
 21
-45.804027
 31
0.0
  0
LINE
  5
202
100
AcDbEntity
  8
2
370
    25
100
AcDbLine
 10
-233.456577
 20
-45.804027
 30
0.0
 11
-234.182347
 21
-45.11609
 31
0.0
  0
CIRCLE
  5
203
100
AcDbEntity
  8
2
370
    18
100
AcDbCircle
 10
-199.913247
 20
-65.416039
 30
0.0
 40
5.0
  0
LWPOLYLINE
  5
204
100
AcDbEntity
  8
2
370
    18
100
AcDbPolyline
 90
        2
 70
     0
 10
-218.757828
 20
-45.535113
 10
-203.352934
 20
-61.787189
  0
LINE
  5
208
100
AcDbEntity
  8
2
370
    25
100
AcDbLine
 10
-219.155008
 20
-45.11609
 30
0.0
 11
-219.880778
 21
-45.804027
 31
0.0
  0
LINE
  5
209
100
AcDbEntity
  8
2
370
    25
100
AcDbLine
 10
-219.880778
 20
-45.804027
 30
0.0
 11
-217.963466
 21
-46.37316
 31
0.0
  0
LINE
  5
20A
100
AcDbEntity
  8
2
370
    25
100
AcDbLine
 10
-217.963466
 20
-46.37316
 30
0.0
 11
-218.429238
 21
-44.428152
 31
0.0
  0
LINE
  5
20B
100
AcDbEntity
  8
2
370
    25
100
AcDbLine
 10
-218.429238
 20
-44.428152
 30
0.0
 11
-219.155008
 21
-45.11609
 31
0.0
  0
TEXT
  5
20C
100
AcDbEntity
  8
2
370
    18
100
AcDbText
 10
-202.413247
 20
-67.916039
 30
0.0
 40
5.0
  1
１
 72
     5
 11
-198.413247
 21
-67.916039
 31
0.0
100
AcDbText
  0
TEXT
  5
20D
100
AcDbEntity
  8
2
370
    18
100
AcDbText
 10
-255.924108
 20
-67.916039
 30
0.0
 40
5.0
  1
２
 72
     5
 11
-251.924108
 21
-67.916039
 31
0.0
100
AcDbText
  0
CIRCLE
  5
20E
100
AcDbEntity
  8
2
370
    18
100
AcDbCircle
 10
104.828577
 20
-65.416064
 30
0.0
 40
5.0
  0
LWPOLYLINE
  5
20F
100
AcDbEntity
  8
2
370
    18
100
AcDbPolyline
 90
        2
 70
     0
 10
123.673157
 20
-45.535139
 10
108.268264
 20
-61.787214
  0
LINE
  5
213
100
AcDbEntity
  8
2
370
    25
100
AcDbLine
 10
124.070338
 20
-45.116115
 30
0.0
 11
123.344568
 21
-44.428178
 31
0.0
  0
LINE
  5
214
100
AcDbEntity
  8
2
370
    25
100
AcDbLine
 10
123.344568
 20
-44.428178
 30
0.0
 11
122.878796
 21
-46.373186
 31
0.0
  0
LINE
  5
215
100
AcDbEntity
  8
2
370
    25
100
AcDbLine
 10
122.878796
 20
-46.373186
 30
0.0
 11
124.796108
 21
-45.804052
 31
0.0
  0
LINE
  5
216
100
AcDbEntity
  8
2
370
    25
100
AcDbLine
 10
124.796108
 20
-45.804052
 30
0.0
 11
124.070338
 21
-45.116115
 31
0.0
  0
CIRCLE
  5
217
100
AcDbEntity
  8
2
370
    18
100
AcDbCircle
 10
158.339438
 20
-65.416064
 30
0.0
 40
5.0
  0
LWPOLYLINE
  5
218
100
AcDbEntity
  8
2
370
    18
100
AcDbPolyline
 90
        2
 70
     0
 10
139.494857
 20
-45.535139
 10
154.899751
 20
-61.787214
  0
LINE
  5
21C
100
AcDbEntity
  8
2
370
    25
100
AcDbLine
 10
139.097677
 20
-45.116115
 30
0.0
 11
138.371906
 21
-45.804052
 31
0.0
  0
LINE
  5
21D
100
AcDbEntity
  8
2
370
    25
100
AcDbLine
 10
138.371906
 20
-45.804052
 30
0.0
 11
140.289219
 21
-46.373186
 31
0.0
  0
LINE
  5
21E
100
AcDbEntity
  8
2
370
    25
100
AcDbLine
 10
140.289219
 20
-46.373186
 30
0.0
 11
139.823447
 21
-44.428178
 31
0.0
  0
LINE
  5
21F
100
AcDbEntity
  8
2
370
    25
100
AcDbLine
 10
139.823447
 20
-44.428178
 30
0.0
 11
139.097677
 21
-45.116115
 31
0.0
  0
TEXT
  5
220
100
AcDbEntity
  8
2
370
    18
100
AcDbText
 10
155.839438
 20
-67.916064
 30
0.0
 40
5.0
  1
３
 72
     5
 11
159.839438
 21
-67.916064
 31
0.0
100
AcDbText
  0
TEXT
  5
221
100
AcDbEntity
  8
2
370
    18
100
AcDbText
 10
102.328577
 20
-67.916064
 30
0.0
 40
5.0
  1
４
 72
     5
 11
106.328577
 21
-67.916064
 31
0.0
100
AcDbText
  0
LINE
  5
222
100
AcDbEntity
  8
2
370
    18
  6
PHANTOM
100
AcDbLine
 10
0.666096
 20
248.256256
 30
0.0
 11
0.666096
 21
-173.004776
 31
0.0
  0
LINE
  5
223
100
AcDbEntity
  8
3
370
    25
100
AcDbLine
 10
180.0
 20
-259.999729
 30
0.0
 11
216.001054
 21
-259.999729
 31
0.0
  0
LINE
  5
224
100
AcDbEntity
  8
3
370
    25
100
AcDbLine
 10
216.001054
 20
-259.999729
 30
0.0
 11
216.001054
 21
-250.0
 31
0.0
  0
TEXT
  5
225
100
AcDbEntity
  8
3
370
    25
100
AcDbText
 10
183.600527
 20
-224.59988
 30
0.0
 40
7.2
  1
図面名称
 72
     5
 11
210.960527
 21
-224.59988
 31
0.0
100
AcDbText
  0
TEXT
  5
226
100
AcDbEntity
  8
3
370
    25
100
AcDbText
 10
183.600527
 20
-258.599849
 30
0.0
 40
7.2
  1
図面番号
 72
     5
 11
210.960527
 21
-258.599849
 31
0.0
100
AcDbText
  0
TEXT
  5
227
100
AcDbEntity
  8
3
370
    18
100
AcDbText
 10
186.8
 20
-184.6
 30
0.0
 40
6.4
  1
２
 72
     5
 11
191.92
 21
-184.6
 31
0.0
100
AcDbText
  0
TEXT
  5
228
100
AcDbEntity
  8
3
370
    18
100
AcDbText
 10
186.8
 20
-198.6
 30
0.0
 40
6.4
  1
１
 72
     5
 11
191.92
 21
-198.6
 31
0.0
100
AcDbText
  0
LINE
  5
229
100
AcDbEntity
  8
3
370
   100
100
AcDbLine
 10
-380.0
 20
276.0
 30
0.0
 11
-380.0
 21
-276.0
 31
0.0
  0
LINE
  5
22A
100
AcDbEntity
  8
3
370
   100
100
AcDbLine
 10
400.0
 20
276.0
 30
0.0
 11
400.0
 21
-276.0
 31
0.0
  0
LINE
  5
22B
100
AcDbEntity
  8
3
370
   100
100
AcDbLine
 10
-380.0
 20
276.0
 30
0.0
 11
400.0
 21
276.0
 31
0.0
  0
LINE
  5
22C
100
AcDbEntity
  8
3
370
   100
100
AcDbLine
 10
-380.0
 20
-276.0
 30
0.0
 11
400.0
 21
-276.0
 31
0.0
  0
LINE
  5
22D
100
AcDbEntity
  8
3
370
    50
100
AcDbLine
 10
-380.0
 20
-216.0
 30
0.0
 11
400.0
 21
-216.0
 31
0.0
  0
LINE
  5
22E
100
AcDbEntity
  8
3
370
    25
100
AcDbLine
 10
20.0
 20
-225.999897
 30
0.0
 11
216.001054
 21
-225.999729
 31
0.0
  0
LINE
  5
22F
100
AcDbEntity
  8
3
370
   100
100
AcDbLine
 10
-380.6
 20
276.6
 30
0.0
 11
400.6
 21
276.6
 31
0.0
  0
LINE
  5
230
100
AcDbEntity
  8
3
370
   100
100
AcDbLine
 10
400.6
 20
276.6
 30
0.0
 11
400.6
 21
-276.6
 31
0.0
  0
LINE
  5
231
100
AcDbEntity
  8
3
370
   100
100
AcDbLine
 10
400.6
 20
-276.6
 30
0.0
 11
-380.6
 21
-276.6
 31
0.0
  0
LINE
  5
232
100
AcDbEntity
  8
3
370
   100
100
AcDbLine
 10
-380.6
 20
-276.6
 30
0.0
 11
-380.6
 21
276.6
 31
0.0
  0
LINE
  5
233
100
AcDbEntity
  8
3
370
    25
100
AcDbLine
 10
216.001054
 20
-225.999729
 30
0.0
 11
216.001054
 21
-216.0
 31
0.0
  0
LINE
  5
234
100
AcDbEntity
  8
3
370
    25
100
AcDbLine
 10
180.0
 20
-259.999729
 30
0.0
 11
216.001054
 21
-259.999729
 31
0.0
  0
LINE
  5
235
100
AcDbEntity
  8
3
370
    25
100
AcDbLine
 10
216.001054
 20
-259.999729
 30
0.0
 11
216.001054
 21
-250.0
 31
0.0
  0
LINE
  5
236
100
AcDbEntity
  8
3
370
    50
100
AcDbLine
 10
180.0
 20
-202.0
 30
0.0
 11
400.0
 21
-202.0
 31
0.0
  0
LINE
  5
237
100
AcDbEntity
  8
3
370
    50
100
AcDbLine
 10
380.0
 20
-216.0
 30
0.0
 11
380.0
 21
-146.0
 31
0.0
  0
TEXT
  5
238
100
AcDbEntity
  8
3
370
   100
100
AcDbText
 10
44.0
 20
-271.0
 30
0.0
 40
16.0
  1
（株）川口技研
 72
     5
 11
152.8
 21
-271.0
 31
0.0
100
AcDbText
  0
TEXT
  5
239
100
AcDbEntity
  8
3
370
    25
100
AcDbText
 10
183.600527
 20
-224.59988
 30
0.0
 40
7.2
  1
図面名称
 72
     5
 11
210.960527
 21
-224.59988
 31
0.0
100
AcDbText
  0
TEXT
  5
23A
100
AcDbEntity
  8
3
370
    25
100
AcDbText
 10
183.600527
 20
-258.599849
 30
0.0
 40
7.2
  1
図面番号
 72
     5
 11
210.960527
 21
-258.599849
 31
0.0
100
AcDbText
  0
TEXT
  5
23B
100
AcDbEntity
  8
3
370
    25
100
AcDbText
 10
32.266667
 20
-224.599983
 30
0.0
 40
7.2
  1
図　　法
 72
     5
 11
59.626667
 21
-224.599983
 31
0.0
100
AcDbText
  0
TEXT
  5
23C
100
AcDbEntity
  8
3
370
    25
100
AcDbText
 10
85.6
 20
-224.599949
 30
0.0
 40
7.2
  1
単　　位
 72
     5
 11
112.96
 21
-224.599949
 31
0.0
100
AcDbText
  0
TEXT
  5
23D
100
AcDbEntity
  8
3
370
    25
100
AcDbText
 10
138.933333
 20
-224.599914
 30
0.0
 40
7.2
  1
尺　　度
 72
     5
 11
166.293333
 21
-224.599914
 31
0.0
100
AcDbText
  0
TEXT
  5
23E
100
AcDbEntity
  8
3
370
    25
100
AcDbText
 10
182.8
 20
-212.6
 30
0.0
 40
7.2
  1
品番
 72
     5
 11
195.76
 21
-212.6
 31
0.0
100
AcDbText
  0
TEXT
  5
23F
100
AcDbEntity
  8
3
370
    25
100
AcDbText
 10
234.8
 20
-212.6
 30
0.0
 40
7.2
  1
品　　　　　名
 72
     5
 11
283.76
 21
-212.6
 31
0.0
100
AcDbText
  0
TEXT
  5
240
100
AcDbEntity
  8
3
370
    25
100
AcDbText
 10
382.8
 20
-212.6
 30
0.0
 40
7.2
  1
員数
 72
     5
 11
395.76
 21
-212.6
 31
0.0
100
AcDbText
  0
TEXT
  5
241
100
AcDbEntity
  8
3
370
    25
100
AcDbText
 10
92.0
 20
-241.999914
 30
0.0
 40
8.0
  1
ｍｍ
 72
     5
 11
106.4
 21
-241.999914
 31
0.0
100
AcDbText
  0
TEXT
  5
242
100
AcDbEntity
  8
3
370
    25
100
AcDbText
 10
34.666667
 20
-241.999914
 30
0.0
 40
8.0
  1
３角法
 72
     5
 11
57.066667
 21
-241.999914
 31
0.0
100
AcDbText
  0
LINE
  5
243
100
AcDbEntity
  8
3
370
    50
100
AcDbLine
 10
180.0
 20
-276.0
 30
0.0
 11
180.0
 21
-216.0
 31
0.0
  0
LINE
  5
244
100
AcDbEntity
  8
3
370
    50
100
AcDbLine
 10
320.0
 20
-216.0
 30
0.0
 11
320.0
 21
-146.0
 31
0.0
  0
LINE
  5
245
100
AcDbEntity
  8
3
370
    50
100
AcDbLine
 10
200.0
 20
-216.0
 30
0.0
 11
200.0
 21
-146.0
 31
0.0
  0
LINE
  5
246
100
AcDbEntity
  8
3
370
    50
100
AcDbLine
 10
20.0
 20
-250.0
 30
0.0
 11
180.0
 21
-250.0
 31
0.0
  0
LINE
  5
247
100
AcDbEntity
  8
3
370
    50
100
AcDbLine
 10
180.0
 20
-250.0
 30
0.0
 11
400.0
 21
-250.0
 31
0.0
  0
TEXT
  5
248
100
AcDbEntity
  8
3
370
    25
100
AcDbText
 10
339.2
 20
-212.6
 30
0.0
 40
7.2
  1
寸　法
 72
     5
 11
359.36
 21
-212.6
 31
0.0
100
AcDbText
  0
LINE
  5
249
100
AcDbEntity
  8
3
370
    50
100
AcDbLine
 10
180.0
 20
-188.0
 30
0.0
 11
400.0
 21
-188.0
 31
0.0
  0
LINE
  5
24A
100
AcDbEntity
  8
3
370
    50
100
AcDbLine
 10
180.0
 20
-146.0
 30
0.0
 11
180.0
 21
-216.0
 31
0.0
  0
LINE
  5
24B
100
AcDbEntity
  8
3
370
   100
100
AcDbLine
 10
126.666667
 20
-250.0
 30
0.0
 11
126.666667
 21
-216.0
 31
0.0
  0
LINE
  5
24C
100
AcDbEntity
  8
3
370
   100
100
AcDbLine
 10
73.333333
 20
-250.0
 30
0.0
 11
73.333333
 21
-216.0
 31
0.0
  0
LINE
  5
24D
100
AcDbEntity
  8
3
370
   100
100
AcDbLine
 10
73.333333
 20
-250.0
 30
0.0
 11
73.333333
 21
-216.0
 31
0.0
  0
LINE
  5
24E
100
AcDbEntity
  8
3
370
   100
100
AcDbLine
 10
20.0
 20
-276.0
 30
0.0
 11
20.0
 21
-216.0
 31
0.0
  0
TEXT
  5
24F
100
AcDbEntity
  8
3
370
    25
100
AcDbText
 10
141.333333
 20
-241.999914
 30
0.0
 40
8.0
  1
１/２
 72
     5
 11
159.733333
 21
-241.999914
 31
0.0
100
AcDbText
  0
LINE
  5
250
100
AcDbEntity
  8
3
370
    50
100
AcDbLine
 10
180.0
 20
-160.0
 30
0.0
 11
400.0
 21
-160.0
 31
0.0
  0
LINE
  5
251
100
AcDbEntity
  8
3
370
    50
100
AcDbLine
 10
180.0
 20
-146.0
 30
0.0
 11
400.0
 21
-146.0
 31
0.0
  0
TEXT
  5
252
100
AcDbEntity
  8
3
370
    18
100
AcDbText
 10
186.8
 20
-170.6
 30
0.0
 40
6.4
  1
３
 72
     5
 11
191.92
 21
-170.6
 31
0.0
100
AcDbText
  0
TEXT
  5
253
100
AcDbEntity
  8
3
370
    18
100
AcDbText
 10
186.8
 20
-156.6
 30
0.0
 40
6.4
  1
４
 72
     5
 11
191.92
 21
-156.6
 31
0.0
100
AcDbText
  0
TEXT
  5
254
100
AcDbEntity
  8
3
370
    18
100
AcDbText
 10
386.8
 20
-185.2
 30
0.0
 40
6.4
  1
２
 72
     5
 11
391.92
 21
-185.2
 31
0.0
100
AcDbText
  0
LINE
  5
255
100
AcDbEntity
  8
3
370
    50
100
AcDbLine
 10
180.0
 20
-174.0
 30
0.0
 11
400.0
 21
-174.0
 31
0.0
  0
TEXT
  5
256
100
AcDbEntity
  8
3
370
   100
100
AcDbText
 10
231.500099
 20
-269.477787
 30
0.0
 40
12.0
  1
ＤＺ－１９７０－００
 72
     5
 11
349.100099
 21
-269.477787
 31
0.0
100
AcDbText
  0
TEXT
  5
257
100
AcDbEntity
  8
3
370
    50
100
AcDbText
 10
232.976365
 20
-242.233784
 30
0.0
 40
9.0
  1
１ＣＴ/Ｋ-１ＣＴ －色記号　外観図
 72
     5
 11
379.676365
 21
-242.233784
 31
0.0
100
AcDbText
  0
TEXT
  5
258
100
AcDbEntity
  8
3
370
    18
100
AcDbText
 10
206.0
 20
-184.0
 30
0.0
 40
6.0
  1
引手取付ネジ
 72
     5
 11
240.8
 21
-184.0
 31
0.0
100
AcDbText
  0
TEXT
  5
259
100
AcDbEntity
  8
3
370
    18
100
AcDbText
 10
382.089015
 20
-199.433749
 30
0.0
 40
6.4
  1
１ｓｅｔ
 41
0.7
 72
     5
 11
399.113015
 21
-199.433749
 31
0.0
100
AcDbText
  0
TEXT
  5
25A
100
AcDbEntity
  8
3
370
    18
100
AcDbText
 10
206.0
 20
-198.0
 30
0.0
 40
6.0
  1
１ＣＴ－色記号
 72
     5
 11
246.8
 21
-198.0
 31
0.0
100
AcDbText
  0
TEXT
  5
25B
100
AcDbEntity
  8
3
370
    18
100
AcDbText
 10
382.089015
 20
-171.433749
 30
0.0
 40
6.4
  1
１ｓｅｔ
 41
0.7
 72
     5
 11
399.113015
 21
-171.433749
 31
0.0
100
AcDbText
  0
TEXT
  5
25C
100
AcDbEntity
  8
3
370
    18
100
AcDbText
 10
206.0
 20
-170.0
 30
0.0
 40
6.0
  1
Ｋ－１ＣＴ－色記号
 72
     5
 11
258.8
 21
-170.0
 31
0.0
100
AcDbText
  0
TEXT
  5
25D
100
AcDbEntity
  8
3
370
    18
100
AcDbText
 10
386.8
 20
-157.2
 30
0.0
 40
6.4
  1
２
 72
     5
 11
391.92
 21
-157.2
 31
0.0
100
AcDbText
  0
TEXT
  5
25E
100
AcDbEntity
  8
3
370
    18
100
AcDbText
 10
206.0
 20
-156.0
 30
0.0
 40
6.0
  1
引手取付ネジ
 72
     5
 11
240.8
 21
-156.0
 31
0.0
100
AcDbText
  0
TEXT
  5
25F
100
AcDbEntity
  8
3
370
    18
100
AcDbText
 10
322.0
 20
-156.0
 30
0.0
 40
6.4
  1
十字穴付皿タッピング１種φ３×２５
 41
0.5
 72
     5
 11
375.760001
 21
-156.0
 31
0.0
100
AcDbText
  0
TEXT
  5
260
100
AcDbEntity
  8
3
370
    18
100
AcDbText
 10
322.0
 20
-184.0
 30
0.0
 40
6.4
  1
十字穴付皿小ネジＤ６、Ｍ４×２５
 41
0.5
 72
     5
 11
372.560001
 21
-184.0
 31
0.0
100
AcDbText
  0
ENDSEC
  0
SECTION
  2
OBJECTS
  0
DICTIONARY
  5
32D
100
AcDbDictionary
280
     0
281
     1
  3
ACAD_GROUP
350
32E
  3
ACAD_MLINESTYLE
350
32F
  0
DICTIONARY
  5
32E
102
{ACAD_REACTORS
330
32D
102
}
100
AcDbDictionary
280
     0
281
     1
  0
DICTIONARY
  5
32F
102
{ACAD_REACTORS
330
32D
102
}
100
AcDbDictionary
280
     0
281
     1
  3
Standard
350
330
  0
MLINESTYLE
  5
330
102
{ACAD_REACTORS
330
32F
102
}
100
AcDbMlineStyle
  2
Standard
 70
     0
  3

 62
     0
 51
90.0
 52
90.0
 71
     2
 49
0.5
 62
   256
  6
ByLayer
 49
-0.5
 62
   256
  6
ByLayer
  0
ENDSEC
  0
EOF
