  0
SECTION
  2
HEADER
  9
$ACADVER
  1
AC1015
  9
$ACADMAINTVER
 70
     6
  9
$DWGCODEPAGE
  3
ANSI_932
  9
$INSBASE
 10
0.0
 20
0.0
 30
0.0
  9
$EXTMIN
 10
-420.0
 20
-297.0
 30
1.000000E+20
  9
$EXTMAX
 10
420.0
 20
297.0
 30
-1.000000E+20
  9
$LIMMIN
 10
-420.0
 20
-297.0
  9
$LIMMAX
 10
420.0
 20
297.0
  9
$ORTHOMODE
 70
     0
  9
$REGENMODE
 70
     1
  9
$FILLMODE
 70
     1
  9
$QTEXTMODE
 70
     0
  9
$MIRRTEXT
 70
     1
  9
$LTSCALE
 40
1.0
  9
$ATTMODE
 70
     1
  9
$TEXTSIZE
 40
0.2
  9
$TRACEWID
 40
0.05
  9
$TEXTSTYLE
  7
STANDARD
  9
$CLAYER
  8
0
  9
$CELTYPE
  6
CONTINUOUS
  9
$CECOLOR
 62
   256
  9
$CELTSCALE
 40
1.0
  9
$DISPSILH
 70
     0
  9
$DIMSCALE
 40
2.0
  9
$DIMASZ
 40
2.0
  9
$DIMEXO
 40
0.5
  9
$DIMDLI
 40
0.38
  9
$DIMRND
 40
0.0
  9
$DIMDLE
 40
0.0
  9
$DIMEXE
 40
2.0
  9
$DIMTP
 40
0.0
  9
$DIMTM
 40
0.0
  9
$DIMTXT
 40
2.5
  9
$DIMCEN
 40
0.09
  9
$DIMTSZ
 40
0.0
  9
$DIMTOL
 70
     0
  9
$DIMLIM
 70
     0
  9
$DIMTIH
 70
     0
  9
$DIMTOH
 70
     0
  9
$DIMSE1
 70
     0
  9
$DIMSE2
 70
     0
  9
$DIMTAD
 70
     1
  9
$DIMZIN
 70
     0
  9
$DIMBLK
  1

  9
$DIMASO
 70
     1
  9
$DIMSHO
 70
     1
  9
$DIMPOST
  1

  9
$DIMAPOST
  1

  9
$DIMALT
 70
     0
  9
$DIMALTD
 70
     2
  9
$DIMALTF
 40
25.4
  9
$DIMLFAC
 40
1.0
  9
$DIMTOFL
 70
     0
  9
$DIMTVP
 40
0.0
  9
$DIMTIX
 70
     0
  9
$DIMSOXD
 70
     0
  9
$DIMSAH
 70
     0
  9
$DIMBLK1
  1

  9
$DIMBLK2
  1

  9
$DIMSTYLE
  2
Standard
  9
$DIMCLRD
 70
     0
  9
$DIMCLRE
 70
     0
  9
$DIMCLRT
 70
     0
  9
$DIMTFAC
 40
1.0
  9
$DIMGAP
 40
0.5
  9
$DIMJUST
 70
     0
  9
$DIMSD1
 70
     0
  9
$DIMSD2
 70
     0
  9
$DIMTOLJ
 70
     1
  9
$DIMTZIN
 70
     0
  9
$DIMALTZ
 70
     0
  9
$DIMALTTZ
 70
     0
  9
$DIMUPT
 70
     0
  9
$DIMDEC
 70
     2
  9
$DIMTDEC
 70
     4
  9
$DIMALTU
 70
     2
  9
$DIMALTTD
 70
     2
  9
$DIMTXSTY
  7
STANDARD
  9
$DIMAUNIT
 70
     0
  9
$DIMADEC
 70
     0
  9
$DIMALTRND
 40
0.0
  9
$DIMAZIN
 70
     0
  9
$DIMDSEP
 70
     0
  9
$DIMATFIT
 70
     3
  9
$DIMFRAC
 70
     0
  9
$DIMLDRBLK
  1

  9
$DIMLUNIT
 70
     2
  9
$DIMLWD
 70
     0
  9
$DIMLWE
 70
     0
  9
$DIMTMOVE
 70
     0
  9
$LUNITS
 70
     2
  9
$LUPREC
 70
     4
  9
$SKETCHINC
 40
0.1
  9
$FILLETRAD
 40
0.0
  9
$AUNITS
 70
     0
  9
$AUPREC
 70
     0
  9
$MENU
  1
acad
  9
$ELEVATION
 40
0.0
  9
$PELEVATION
 40
0.0
  9
$THICKNESS
 40
0.0
  9
$LIMCHECK
 70
     0
  9
$CHAMFERA
 40
0.0
  9
$CHAMFERB
 40
0.0
  9
$CHAMFERC
 40
0.0
  9
$CHAMFERD
 40
0.0
  9
$SKPOLY
 70
     0
  9
$TDCREATE
 40
2451572.000000000
  9
$TDUCREATE
 40
0.000000000
  9
$TDUPDATE
 40
0.000000000
  9
$TDUUPDATE
 40
2447892.625000000
  9
$TDINDWG
 40
0.0000000000
  9
$TDUSRTIMER
 40
0.0000000000
  9
$USRTIMER
 70
     1
  9
$ANGBASE
 50
0.0
  9
$ANGDIR
 70
     0
  9
$PDMODE
 70
     0
  9
$PDSIZE
 40
0.0
  9
$PLINEWID
 40
0.0
  9
$SPLFRAME
 70
     0
  9
$SPLINETYPE
 70
     6
  9
$SPLINESEGS
 70
     8
  9
$HANDSEED
  5
6BB
  9
$SURFTAB1
 70
     6
  9
$SURFTAB2
 70
     6
  9
$SURFTYPE
 70
     6
  9
$SURFU
 70
     6
  9
$SURFV
 70
     6
  9
$UCSBASE
  2

  9
$UCSNAME
  2

  9
$UCSORG
 10
0.0
 20
0.0
 30
0.0
  9
$UCSXDIR
 10
1.0
 20
0.0
 30
0.0
  9
$UCSYDIR
 10
0.0
 20
1.0
 30
0.0
  9
$UCSORTHOREF
  2

  9
$UCSORTHOVIEW
 70
     0
  9
$UCSORGTOP
 10
0.0
 20
0.0
 30
0.0
  9
$UCSORGBOTTOM
 10
0.0
 20
0.0
 30
0.0
  9
$UCSORGLEFT
 10
0.0
 20
0.0
 30
0.0
  9
$UCSORGRIGHT
 10
0.0
 20
0.0
 30
0.0
  9
$UCSORGFRONT
 10
0.0
 20
0.0
 30
0.0
  9
$UCSORGBACK
 10
0.0
 20
0.0
 30
0.0
  9
$PUCSBASE
  2

  9
$PUCSNAME
  2

  9
$PUCSORG
 10
0.0
 20
0.0
 30
0.0
  9
$PUCSXDIR
 10
1.0
 20
0.0
 30
0.0
  9
$PUCSYDIR
 10
0.0
 20
1.0
 30
0.0
  9
$PUCSORTHOREF
  2

  9
$PUCSORTHOVIEW
 70
     0
  9
$PUCSORGTOP
 10
0.0
 20
0.0
 30
0.0
  9
$PUCSORGBOTTOM
 10
0.0
 20
0.0
 30
0.0
  9
$PUCSORGLEFT
 10
0.0
 20
0.0
 30
0.0
  9
$PUCSORGRIGHT
 10
0.0
 20
0.0
 30
0.0
  9
$PUCSORGFRONT
 10
0.0
 20
0.0
 30
0.0
  9
$PUCSORGBACK
 10
0.0
 20
0.0
 30
0.0
  9
$USERI1
 70
     0
  9
$USERI2
 70
     0
  9
$USERI3
 70
     0
  9
$USERI4
 70
     0
  9
$USERI5
 70
     0
  9
$USERR1
 40
0.0
  9
$USERR2
 40
0.0
  9
$USERR3
 40
0.0
  9
$USERR4
 40
0.0
  9
$USERR5
 40
0.0
  9
$WORLDVIEW
 70
     1
  9
$SHADEDGE
 70
     3
  9
$SHADEDIF
 70
    70
  9
$TILEMODE
 70
     1
  9
$MAXACTVP
 70
    16
  9
$PINSBASE
 10
0.0
 20
0.0
 30
0.0
  9
$PLIMCHECK
 70
     0
  9
$PEXTMIN
 10
1.000000E+20
 20
1.000000E+20
 30
1.000000E+20
  9
$PEXTMAX
 10
-1.000000E+20
 20
-1.000000E+20
 30
-1.000000E+20
  9
$PLIMMIN
 10
0.0
 20
0.0
  9
$PLIMMAX
 10
12.0
 20
9.0
  9
$UNITMODE
 70
     0
  9
$VISRETAIN
 70
     0
  9
$PLINEGEN
 70
     1
  9
$PSLTSCALE
 70
     0
  9
$TREEDEPTH
 70
  3020
  9
$CMLSTYLE
  2
Standard
  9
$CMLJUST
 70
     0
  9
$CMLSCALE
 40
1.0
  9
$PROXYGRAPHICS
 70
     0
  9
$MEASUREMENT
 70
     0
  9
$CELWEIGHT
370
     0
  9
$ENDCAPS
280
     0
  9
$JOINSTYLE
280
     0
  9
$LWDISPLAY
290
     0
  9
$INSUNITS
 70
     0
  9
$HYPERLINKBASE
  1

  9
$STYLESHEET
  1

  9
$XEDIT
290
     1
  9
$CEPSNTYPE
380
     0
  9
$PSTYLEMODE
290
     1
  9
$FINGERPRINTGUID
  2

  9
$VERSIONGUID
  2

  9
$EXTNAMES
290
     1
  9
$PSVPSCALE
 40
0.0
  0
ENDSEC
  0
SECTION
  2
CLASSES
  0
CLASS
  1
LWPOLYLINE
  2
AcDbPolyline
  3
AutoCAD 2000
 90
        0
280
     0
281
     1
  0
CLASS
  1
IMAGE
  2
AcDbRasterImage
  3
ISM
 90
      127
280
     0
281
     1
  0
CLASS
  1
OLE2FRAME
  2
AcDbOle2Frame
  3
AutoCAD 2000
 90
        0
280
     0
281
     1
  0
CLASS
  1
HATCH
  2
AcDbHatch
  3
AutoCAD 2000
 90
        0
280
     0
281
     1
  0
CLASS
  1
DICTIONARYVAR
  2
AcDbDictionaryVar
  3
AutoCAD 2000
 90
        0
280
     0
281
     0
  0
CLASS
  1
RASTERVARIABLES
  2
AcDbRasterVariables
  3
ISM
 90
        0
280
     0
281
     0
  0
CLASS
  1
IMAGEDEF
  2
AcDbRasterImageDef
  3
ISM
 90
        0
280
     0
281
     0
  0
CLASS
  1
IMAGEDEF_REACTOR
  2
AcDbRasterImageDefReactor
  3
ISM
 90
        1
280
     0
281
     0
  0
CLASS
  1
IDBUFFER
  2
AcDbIdBuffer
  3
AutoCAD 2000
 90
        0
280
     0
281
     0
  0
CLASS
  1
SPATIAL_FILTER
  2
AcDbSpatialFilter
  3
AutoCAD 2000
 90
        0
280
     0
281
     0
  0
CLASS
  1
XRECORD
  2
AcDbXrecord
  3
AutoCAD 2000
 90
        0
280
     0
281
     0
  0
CLASS
  1
SORTENTSTABLE
  2
AcDbSortentsTable
  3
AutoCAD 2000
 90
        0
280
     0
281
     0
  0
CLASS
  1
LAYER_INDEX
  2
AcDbLayerIndex
  3
AutoCAD 2000
 90
        0
280
     0
281
     0
  0
CLASS
  1
SPATIAL_INDEX
  2
AcDbSpatialIndex
  3
AutoCAD 2000
 90
        0
280
     0
281
     0
  0
CLASS
  1
OBJECT_PTR
  2
CAseDLPNTableRecord
  3
"ASE-LPNTableRecord"
 90
        1
280
     0
281
     0
  0
CLASS
  1
LAYOUT
  2
AcDbLayout
  3
AutoCAD 2000
 90
        0
280
     0
281
     0
  0
CLASS
  1
PLOTSETTINGS
  2
AcDbPlotSettings
  3
AutoCAD 2000
 90
        0
280
     0
281
     0
  0
CLASS
  1
ACDBDICTIONARYWDFLT
  2
AcDbDictionaryWithDefault
  3
AutoCAD 2000
 90
        0
280
     0
281
     0
  0
CLASS
  1
ACDBPLACEHOLDER
  2
AcDbPlaceHolder
  3
AutoCAD 2000
 90
        0
280
     0
281
     0
  0
CLASS
  1
VBA_PROJECT
  2
AcDbVbaProject
  3
acadvba
 90
        0
280
     0
281
     0
  0
CLASS
  1
WIPEOUT
  2
AcDbWipeout
  3
WipeOut|AutoCAD Express Tool|expresstools@autodesk.com
 90
      127
280
     0
281
     1
  0
CLASS
  1
WIPEOUTVARIABLES
  2
AcDbWipeoutVariables
  3
WipeOut|AutoCAD Express Tool|expresstools@autodesk.com
 90
        0
280
     0
281
     0
  0
CLASS
  1
RTEXT
  2
RText
  3
RText|AutoCAD Express Tool|expresstools@autodesk.com
 90
        0
280
     0
281
     1
  0
CLASS
  1
ARCALIGNEDTEXT
  2
AcDbArcAlignedText
  3
ATEXT|AutoCAD Express Tool|expresstools@autodesk.com
 90
        0
280
     0
281
     1
  0
ENDSEC
  0
SECTION
  2
TABLES
  0
TABLE
  2
VPORT
  5
6
100
AcDbSymbolTable
 70
     1
  0
VPORT
  5
19
100
AcDbSymbolTableRecord
100
AcDbViewportTableRecord
  2
*ACTIVE
 70
     0
 10
0.0
 20
0.0
 11
1.0
 21
1.0
 12
0.0
 22
0.0
 13
0.0
 23
0.0
 14
1.0
 24
1.0
 15
0.0
 25
0.0
 16
0.0
 26
0.0
 36
1.0
 17
0.0
 27
0.0
 37
0.0
 40
594.0
 41
1.414141
 42
50.0
 43
0.0
 44
0.0
 50
0.0
 51
0.0
 71
     0
 72
   500
 73
     1
 74
     1
 75
     0
 76
     0
 77
     0
 78
     0
281
     0
 65
     0
110
0.0
120
0.0
130
0.0
111
1.0
121
0.0
131
0.0
112
0.0
122
1.0
132
0.0
345
0
346
0
 79
     0
146
0.0
  0
ENDTAB
  0
TABLE
  2
LTYPE
  5
3
100
AcDbSymbolTable
 70
     9
  0
LTYPE
  5
C
100
AcDbSymbolTableRecord
100
AcDbLinetypeTableRecord
  2
ByBlock
 70
    64
  3

 72
    65
 73
     0
 40
0.0
  0
LTYPE
  5
D
100
AcDbSymbolTableRecord
100
AcDbLinetypeTableRecord
  2
ByLayer
 70
    64
  3

 72
    65
 73
     0
 40
0.0
  0
LTYPE
  5
E
100
AcDbSymbolTableRecord
100
AcDbLinetypeTableRecord
  2
CONTINUOUS
 70
     0
  3
Solid line
 72
    65
 73
     0
 40
0.0
  0
LTYPE
  5
F
100
AcDbSymbolTableRecord
100
AcDbLinetypeTableRecord
  2
DASHED
 70
     0
  3
__ __ __ __ __ __ __ __ __ __ __ __ __ __ __
 72
    65
 73
     2
 40
2.0
 49
1.2
 74
     0
 49
-0.8
 74
     0
  0
LTYPE
  5
10
100
AcDbSymbolTableRecord
100
AcDbLinetypeTableRecord
  2
CENTER
 70
     0
  3
____ _ ____ _ ____ _ ____ _ ____ _ ____ _ ____
 72
    65
 73
     4
 40
12.0
 49
9.0
 74
     0
 49
-1.0
 74
     0
 49
1.0
 74
     0
 49
-1.0
 74
     0
  0
LTYPE
  5
11
100
AcDbSymbolTableRecord
100
AcDbLinetypeTableRecord
  2
HIDDEN
 70
     0
  3
_ _ _ _ _ _ _ _ _ _ _ _ _ _ _ _ _ _ _ _ _ _ _
 72
    65
 73
     2
 40
3.2
 49
1.3
 74
     0
 49
-1.9
 74
     0
  0
LTYPE
  5
12
100
AcDbSymbolTableRecord
100
AcDbLinetypeTableRecord
  2
PHANTOM
 70
     0
  3
_____ _ _ _____ _ _ _____ _ _ _____ _ _ _____
 72
    65
 73
     6
 40
12.5
 49
9.0
 74
     0
 49
-1.0
 74
     0
 49
0.5
 74
     0
 49
-0.5
 74
     0
 49
0.5
 74
     0
 49
-1.0
 74
     0
  0
LTYPE
  5
13
100
AcDbSymbolTableRecord
100
AcDbLinetypeTableRecord
  2
DOT
 70
     0
  3
...............................................
 72
    65
 73
     2
 40
1.0
 49
0.5
 74
     0
 49
-0.5
 74
     0
  0
LTYPE
  5
14
100
AcDbSymbolTableRecord
100
AcDbLinetypeTableRecord
  2
DASHDOT
 70
     0
  3
__ . __ . __ . __ . __ . __ . __ . __ . __ . __
 72
    65
 73
     4
 40
8.0
 49
5.0
 74
     0
 49
-1.0
 74
     0
 49
1.0
 74
     0
 49
-1.0
 74
     0
  0
ENDTAB
  0
TABLE
  2
LAYER
  5
1
100
AcDbSymbolTable
 70
     4
  0
LAYER
  5
15
100
AcDbSymbolTableRecord
100
AcDbLayerTableRecord
  2
0
 70
     0
 62
     8
  6
CONTINUOUS
290
     1
370
    -3
390
0
  0
LAYER
  5
16
100
AcDbSymbolTableRecord
100
AcDbLayerTableRecord
  2
1
 70
     0
 62
     7
  6
CONTINUOUS
290
     1
370
    -3
390
0
  0
LAYER
  5
17
100
AcDbSymbolTableRecord
100
AcDbLayerTableRecord
  2
2
 70
     0
 62
     7
  6
CONTINUOUS
290
     1
370
    -3
390
0
  0
LAYER
  5
18
100
AcDbSymbolTableRecord
100
AcDbLayerTableRecord
  2
3
 70
     0
 62
     7
  6
CONTINUOUS
290
     1
370
    -3
390
0
  0
ENDTAB
  0
TABLE
  2
STYLE
  5
2
100
AcDbSymbolTable
 70
     1
  0
STYLE
  5
1B
100
AcDbSymbolTableRecord
100
AcDbTextStyleTableRecord
  2
STANDARD
 70
    64
 40
0.0
 41
1.0
 50
0.0
 71
     0
 42
1.0
  3
txt
  4
BIGFONT
  0
ENDTAB
  0
TABLE
  2
VIEW
  5
4
100
AcDbSymbolTable
 70
     0
  0
ENDTAB
  0
TABLE
  2
UCS
  5
5
100
AcDbSymbolTable
 70
     0
  0
ENDTAB
  0
TABLE
  2
APPID
  5
7
100
AcDbSymbolTable
 70
     1
  0
APPID
  5
1A
100
AcDbSymbolTableRecord
100
AcDbRegAppTableRecord
  2
ACAD
 70
     0
  0
ENDTAB
  0
TABLE
  2
DIMSTYLE
  5
8
100
AcDbSymbolTable
 70
     1
100
AcDbDimStyleTable
 71
     0
  0
DIMSTYLE
105
4B
100
AcDbSymbolTableRecord
100
AcDbDimStyleTableRecord
  2
Standard
 70
     0
  3

  4

 40
2.0
 41
2.0
 42
0.5
 43
0.38
 44
2.0
 45
0.0
 46
0.0
 47
0.0
 48
0.0
 71
     0
 72
     0
 73
     0
 74
     0
 75
     0
 76
     0
 77
     1
 78
     0
 79
     0
140
2.5
141
0.09
142
0.0
143
25.4
144
1.0
145
0.0
146
1.0
147
0.5
148
0.0
170
     0
171
     2
172
     0
173
     0
174
     0
175
     0
176
     0
177
     0
178
     0
179
     0
271
     2
272
     4
273
     2
274
     2
275
     0
276
     0
277
     2
278
    46
279
     0
280
     0
281
     0
282
     0
283
     1
284
     0
285
     0
286
     0
288
     0
289
     3
340
1B
341
0
342
0
343
0
344
0
371
    -2
372
    -2
  0
ENDTAB
  0
TABLE
  2
BLOCK_RECORD
  5
46
100
AcDbSymbolTable
 70
    40
  0
BLOCK_RECORD
  5
44
100
AcDbSymbolTableRecord
100
AcDbBlockTableRecord
  2
*Model_Space
340
0
  0
BLOCK_RECORD
  5
45
100
AcDbSymbolTableRecord
100
AcDbBlockTableRecord
  2
*Paper_Space
340
0
  0
BLOCK_RECORD
  5
1C
100
AcDbSymbolTableRecord
100
AcDbBlockTableRecord
  2
*D0
340
0
  0
BLOCK_RECORD
  5
1D
100
AcDbSymbolTableRecord
100
AcDbBlockTableRecord
  2
*D1
340
0
  0
BLOCK_RECORD
  5
1E
100
AcDbSymbolTableRecord
100
AcDbBlockTableRecord
  2
*D2
340
0
  0
BLOCK_RECORD
  5
1F
100
AcDbSymbolTableRecord
100
AcDbBlockTableRecord
  2
*D3
340
0
  0
BLOCK_RECORD
  5
20
100
AcDbSymbolTableRecord
100
AcDbBlockTableRecord
  2
*D4
340
0
  0
BLOCK_RECORD
  5
21
100
AcDbSymbolTableRecord
100
AcDbBlockTableRecord
  2
*D5
340
0
  0
BLOCK_RECORD
  5
22
100
AcDbSymbolTableRecord
100
AcDbBlockTableRecord
  2
*D6
340
0
  0
BLOCK_RECORD
  5
23
100
AcDbSymbolTableRecord
100
AcDbBlockTableRecord
  2
*D7
340
0
  0
BLOCK_RECORD
  5
24
100
AcDbSymbolTableRecord
100
AcDbBlockTableRecord
  2
*D8
340
0
  0
BLOCK_RECORD
  5
25
100
AcDbSymbolTableRecord
100
AcDbBlockTableRecord
  2
*D9
340
0
  0
BLOCK_RECORD
  5
26
100
AcDbSymbolTableRecord
100
AcDbBlockTableRecord
  2
*D10
340
0
  0
BLOCK_RECORD
  5
27
100
AcDbSymbolTableRecord
100
AcDbBlockTableRecord
  2
*D11
340
0
  0
BLOCK_RECORD
  5
28
100
AcDbSymbolTableRecord
100
AcDbBlockTableRecord
  2
*D12
340
0
  0
BLOCK_RECORD
  5
29
100
AcDbSymbolTableRecord
100
AcDbBlockTableRecord
  2
*D13
340
0
  0
BLOCK_RECORD
  5
2A
100
AcDbSymbolTableRecord
100
AcDbBlockTableRecord
  2
*D14
340
0
  0
BLOCK_RECORD
  5
2B
100
AcDbSymbolTableRecord
100
AcDbBlockTableRecord
  2
*D15
340
0
  0
BLOCK_RECORD
  5
2C
100
AcDbSymbolTableRecord
100
AcDbBlockTableRecord
  2
*D16
340
0
  0
BLOCK_RECORD
  5
2D
100
AcDbSymbolTableRecord
100
AcDbBlockTableRecord
  2
*D17
340
0
  0
BLOCK_RECORD
  5
2E
100
AcDbSymbolTableRecord
100
AcDbBlockTableRecord
  2
*D18
340
0
  0
BLOCK_RECORD
  5
2F
100
AcDbSymbolTableRecord
100
AcDbBlockTableRecord
  2
*D19
340
0
  0
BLOCK_RECORD
  5
30
100
AcDbSymbolTableRecord
100
AcDbBlockTableRecord
  2
*D20
340
0
  0
BLOCK_RECORD
  5
31
100
AcDbSymbolTableRecord
100
AcDbBlockTableRecord
  2
*D21
340
0
  0
BLOCK_RECORD
  5
32
100
AcDbSymbolTableRecord
100
AcDbBlockTableRecord
  2
*D22
340
0
  0
BLOCK_RECORD
  5
33
100
AcDbSymbolTableRecord
100
AcDbBlockTableRecord
  2
*D23
340
0
  0
BLOCK_RECORD
  5
34
100
AcDbSymbolTableRecord
100
AcDbBlockTableRecord
  2
*D24
340
0
  0
BLOCK_RECORD
  5
35
100
AcDbSymbolTableRecord
100
AcDbBlockTableRecord
  2
*D25
340
0
  0
BLOCK_RECORD
  5
36
100
AcDbSymbolTableRecord
100
AcDbBlockTableRecord
  2
*D26
340
0
  0
BLOCK_RECORD
  5
37
100
AcDbSymbolTableRecord
100
AcDbBlockTableRecord
  2
*D27
340
0
  0
BLOCK_RECORD
  5
38
100
AcDbSymbolTableRecord
100
AcDbBlockTableRecord
  2
*D28
340
0
  0
BLOCK_RECORD
  5
39
100
AcDbSymbolTableRecord
100
AcDbBlockTableRecord
  2
*D29
340
0
  0
BLOCK_RECORD
  5
3A
100
AcDbSymbolTableRecord
100
AcDbBlockTableRecord
  2
*D30
340
0
  0
BLOCK_RECORD
  5
3B
100
AcDbSymbolTableRecord
100
AcDbBlockTableRecord
  2
*D31
340
0
  0
BLOCK_RECORD
  5
3C
100
AcDbSymbolTableRecord
100
AcDbBlockTableRecord
  2
*D32
340
0
  0
BLOCK_RECORD
  5
3D
100
AcDbSymbolTableRecord
100
AcDbBlockTableRecord
  2
*D33
340
0
  0
BLOCK_RECORD
  5
3E
100
AcDbSymbolTableRecord
100
AcDbBlockTableRecord
  2
*D34
340
0
  0
BLOCK_RECORD
  5
3F
100
AcDbSymbolTableRecord
100
AcDbBlockTableRecord
  2
*D35
340
0
  0
BLOCK_RECORD
  5
40
100
AcDbSymbolTableRecord
100
AcDbBlockTableRecord
  2
*D36
340
0
  0
BLOCK_RECORD
  5
41
100
AcDbSymbolTableRecord
100
AcDbBlockTableRecord
  2
*D37
340
0
  0
BLOCK_RECORD
  5
42
100
AcDbSymbolTableRecord
100
AcDbBlockTableRecord
  2
*D38
340
0
  0
BLOCK_RECORD
  5
43
100
AcDbSymbolTableRecord
100
AcDbBlockTableRecord
  2
*D39
340
0
  0
ENDTAB
  0
ENDSEC
  0
SECTION
  2
BLOCKS
  0
BLOCK
  5
47
100
AcDbEntity
  8
0
390
0
100
AcDbBlockBegin
  2
*Model_Space
 70
     0
 10
0.0
 20
0.0
 30
0.0
  3
*Model_Space
  1

  0
ENDBLK
  5
48
100
AcDbEntity
  8
0
390
0
100
AcDbBlockEnd
  0
BLOCK
  5
49
100
AcDbEntity
 67
     1
  8
0
390
0
100
AcDbBlockBegin
  2
*Paper_Space
 70
     0
 10
0.0
 20
0.0
 30
0.0
  3
*Paper_Space
  1

  0
ENDBLK
  5
4A
100
AcDbEntity
 67
     1
  8
0
390
0
100
AcDbBlockEnd
  0
BLOCK
  5
536
100
AcDbEntity
  8
2
100
AcDbBlockBegin
  2
*D0
 70
     1
 10
0.0
 20
0.0
 30
0.0
  3
*D0
  1

  0
TEXT
  5
537
100
AcDbEntity
  8
2
370
    18
100
AcDbText
 10
-184.134903
 20
113.39889
 30
0.0
 40
5.0
  1
164
 50
90.0
 41
2.0
 72
     5
 11
-184.134903
 21
126.39889
 31
0.0
100
AcDbText
  0
LINE
  5
538
100
AcDbEntity
  8
2
370
    25
100
AcDbLine
 10
-214.932303
 20
38.904127
 30
0.0
 11
-181.134903
 21
38.904127
 31
0.0
  0
LINE
  5
539
100
AcDbEntity
  8
2
370
    25
100
AcDbLine
 10
-183.134903
 20
38.904127
 30
0.0
 11
-182.099627
 21
42.76783
 31
0.0
  0
LINE
  5
53A
100
AcDbEntity
  8
2
370
    25
100
AcDbLine
 10
-183.134903
 20
38.904127
 30
0.0
 11
-184.170179
 21
42.76783
 31
0.0
  0
LINE
  5
53B
100
AcDbEntity
  8
2
370
    25
100
AcDbLine
 10
-183.134903
 20
38.904127
 30
0.0
 11
-183.134903
 21
202.893652
 31
0.0
  0
LINE
  5
53C
100
AcDbEntity
  8
2
370
    25
100
AcDbLine
 10
-183.134903
 20
202.893652
 30
0.0
 11
-184.170179
 21
199.029949
 31
0.0
  0
LINE
  5
53D
100
AcDbEntity
  8
2
370
    25
100
AcDbLine
 10
-183.134903
 20
202.893652
 30
0.0
 11
-182.099627
 21
199.029949
 31
0.0
  0
LINE
  5
53E
100
AcDbEntity
  8
2
370
    25
100
AcDbLine
 10
-214.932303
 20
202.893652
 30
0.0
 11
-181.134903
 21
202.893652
 31
0.0
  0
ENDBLK
  5
53F
100
AcDbEntity
  8
2
100
AcDbBlockEnd
  0
BLOCK
  5
540
100
AcDbEntity
  8
2
100
AcDbBlockBegin
  2
*D1
 70
     1
 10
0.0
 20
0.0
 30
0.0
  3
*D1
  1

  0
TEXT
  5
541
100
AcDbEntity
  8
2
370
    18
100
AcDbText
 10
-107.946808
 20
113.398893
 30
0.0
 40
5.0
  1
151
 50
90.0
 41
2.0
 72
     5
 11
-107.946808
 21
126.398893
 31
0.0
100
AcDbText
  0
LINE
  5
542
100
AcDbEntity
  8
2
370
    25
100
AcDbLine
 10
-137.932303
 20
45.398893
 30
0.0
 11
-104.946808
 21
45.398893
 31
0.0
  0
LINE
  5
543
100
AcDbEntity
  8
2
370
    25
100
AcDbLine
 10
-106.946808
 20
45.398893
 30
0.0
 11
-105.911532
 21
49.262596
 31
0.0
  0
LINE
  5
544
100
AcDbEntity
  8
2
370
    25
100
AcDbLine
 10
-106.946808
 20
45.398893
 30
0.0
 11
-107.982084
 21
49.262596
 31
0.0
  0
LINE
  5
545
100
AcDbEntity
  8
2
370
    25
100
AcDbLine
 10
-106.946808
 20
45.398893
 30
0.0
 11
-106.946808
 21
196.398893
 31
0.0
  0
LINE
  5
546
100
AcDbEntity
  8
2
370
    25
100
AcDbLine
 10
-106.946808
 20
196.398893
 30
0.0
 11
-107.982084
 21
192.53519
 31
0.0
  0
LINE
  5
547
100
AcDbEntity
  8
2
370
    25
100
AcDbLine
 10
-106.946808
 20
196.398893
 30
0.0
 11
-105.911532
 21
192.53519
 31
0.0
  0
LINE
  5
548
100
AcDbEntity
  8
2
370
    25
100
AcDbLine
 10
-137.932205
 20
196.398893
 30
0.0
 11
-104.946808
 21
196.398893
 31
0.0
  0
ENDBLK
  5
549
100
AcDbEntity
  8
2
100
AcDbBlockEnd
  0
BLOCK
  5
54A
100
AcDbEntity
  8
2
100
AcDbBlockBegin
  2
*D2
 70
     1
 10
0.0
 20
0.0
 30
0.0
  3
*D2
  1

  0
TEXT
  5
54B
100
AcDbEntity
  8
2
370
    18
100
AcDbText
 10
-117.025284
 20
95.398893
 30
0.0
 40
5.0
  1
100
 50
90.0
 41
2.0
 72
     5
 11
-117.025284
 21
108.398893
 31
0.0
100
AcDbText
  0
LINE
  5
54C
100
AcDbEntity
  8
2
370
    25
100
AcDbLine
 10
-144.932303
 20
52.698893
 30
0.0
 11
-114.025284
 21
52.698893
 31
0.0
  0
LINE
  5
54D
100
AcDbEntity
  8
2
370
    25
100
AcDbLine
 10
-116.025284
 20
52.698893
 30
0.0
 11
-114.990008
 21
56.562596
 31
0.0
  0
LINE
  5
54E
100
AcDbEntity
  8
2
370
    25
100
AcDbLine
 10
-116.025284
 20
52.698893
 30
0.0
 11
-117.06056
 21
56.562596
 31
0.0
  0
LINE
  5
54F
100
AcDbEntity
  8
2
370
    25
100
AcDbLine
 10
-116.025284
 20
52.698893
 30
0.0
 11
-116.025284
 21
153.098893
 31
0.0
  0
LINE
  5
550
100
AcDbEntity
  8
2
370
    25
100
AcDbLine
 10
-116.025284
 20
153.098893
 30
0.0
 11
-117.06056
 21
149.23519
 31
0.0
  0
LINE
  5
551
100
AcDbEntity
  8
2
370
    25
100
AcDbLine
 10
-116.025284
 20
153.098893
 30
0.0
 11
-114.990008
 21
149.23519
 31
0.0
  0
LINE
  5
552
100
AcDbEntity
  8
2
370
    25
100
AcDbLine
 10
-144.932303
 20
153.098893
 30
0.0
 11
-114.025284
 21
153.098893
 31
0.0
  0
ENDBLK
  5
553
100
AcDbEntity
  8
2
100
AcDbBlockEnd
  0
BLOCK
  5
554
100
AcDbEntity
  8
2
100
AcDbBlockBegin
  2
*D3
 70
     1
 10
0.0
 20
0.0
 30
0.0
  3
*D3
  1

  0
TEXT
  5
555
100
AcDbEntity
  8
2
370
    18
100
AcDbText
 10
-98.282677
 20
113.398893
 30
0.0
 40
5.0
  1
174
 50
90.0
 41
2.0
 72
     5
 11
-98.282677
 21
126.398893
 31
0.0
100
AcDbText
  0
LINE
  5
556
100
AcDbEntity
  8
2
370
    25
100
AcDbLine
 10
-144.932303
 20
33.898893
 30
0.0
 11
-95.282677
 21
33.898893
 31
0.0
  0
LINE
  5
557
100
AcDbEntity
  8
2
370
    25
100
AcDbLine
 10
-97.282677
 20
33.898893
 30
0.0
 11
-96.247401
 21
37.762596
 31
0.0
  0
LINE
  5
558
100
AcDbEntity
  8
2
370
    25
100
AcDbLine
 10
-97.282677
 20
33.898893
 30
0.0
 11
-98.317953
 21
37.762596
 31
0.0
  0
LINE
  5
559
100
AcDbEntity
  8
2
370
    25
100
AcDbLine
 10
-97.282677
 20
33.898893
 30
0.0
 11
-97.282677
 21
207.898893
 31
0.0
  0
LINE
  5
55A
100
AcDbEntity
  8
2
370
    25
100
AcDbLine
 10
-97.282677
 20
207.898893
 30
0.0
 11
-98.317953
 21
204.03519
 31
0.0
  0
LINE
  5
55B
100
AcDbEntity
  8
2
370
    25
100
AcDbLine
 10
-97.282677
 20
207.898893
 30
0.0
 11
-96.247401
 21
204.03519
 31
0.0
  0
LINE
  5
55C
100
AcDbEntity
  8
2
370
    25
100
AcDbLine
 10
-144.932303
 20
207.898893
 30
0.0
 11
-95.282677
 21
207.898893
 31
0.0
  0
ENDBLK
  5
55D
100
AcDbEntity
  8
2
100
AcDbBlockEnd
  0
BLOCK
  5
55E
100
AcDbEntity
  8
2
100
AcDbBlockBegin
  2
*D4
 70
     1
 10
0.0
 20
0.0
 30
0.0
  3
*D4
  1

  0
TEXT
  5
55F
100
AcDbEntity
  8
2
370
    18
100
AcDbText
 10
-150.932303
 20
219.008255
 30
0.0
 40
5.0
  1
39
 41
2.0
 72
     5
 11
-142.932303
 21
219.008255
 31
0.0
100
AcDbText
  0
LINE
  5
560
100
AcDbEntity
  8
2
370
    25
100
AcDbLine
 10
-165.432303
 20
189.398893
 30
0.0
 11
-165.432303
 21
220.008255
 31
0.0
  0
LINE
  5
561
100
AcDbEntity
  8
2
370
    25
100
AcDbLine
 10
-165.432303
 20
218.008255
 30
0.0
 11
-161.5686
 21
216.972979
 31
0.0
  0
LINE
  5
562
100
AcDbEntity
  8
2
370
    25
100
AcDbLine
 10
-165.432303
 20
218.008255
 30
0.0
 11
-161.5686
 21
219.043531
 31
0.0
  0
LINE
  5
563
100
AcDbEntity
  8
2
370
    25
100
AcDbLine
 10
-165.432303
 20
218.008255
 30
0.0
 11
-126.432303
 21
218.008255
 31
0.0
  0
LINE
  5
564
100
AcDbEntity
  8
2
370
    25
100
AcDbLine
 10
-126.432303
 20
218.008255
 30
0.0
 11
-130.296007
 21
219.043531
 31
0.0
  0
LINE
  5
565
100
AcDbEntity
  8
2
370
    25
100
AcDbLine
 10
-126.432303
 20
218.008255
 30
0.0
 11
-130.296007
 21
216.972979
 31
0.0
  0
LINE
  5
566
100
AcDbEntity
  8
2
370
    25
100
AcDbLine
 10
-126.432303
 20
189.398893
 30
0.0
 11
-126.432303
 21
220.008255
 31
0.0
  0
ENDBLK
  5
567
100
AcDbEntity
  8
2
100
AcDbBlockEnd
  0
BLOCK
  5
568
100
AcDbEntity
  8
2
100
AcDbBlockBegin
  2
*D5
 70
     1
 10
0.0
 20
0.0
 30
0.0
  3
*D5
  1

  0
TEXT
  5
569
100
AcDbEntity
  8
2
370
    18
100
AcDbText
 10
-150.932303
 20
93.676927
 30
0.0
 40
5.0
  1
26
 41
2.0
 72
     5
 11
-142.932303
 21
93.676927
 31
0.0
100
AcDbText
  0
LINE
  5
56A
100
AcDbEntity
  8
2
370
    25
100
AcDbLine
 10
-159.132303
 20
92.676927
 30
0.0
 11
-155.2686
 21
91.641651
 31
0.0
  0
LINE
  5
56B
100
AcDbEntity
  8
2
370
    25
100
AcDbLine
 10
-159.132303
 20
92.676927
 30
0.0
 11
-155.2686
 21
93.712203
 31
0.0
  0
LINE
  5
56C
100
AcDbEntity
  8
2
370
    25
100
AcDbLine
 10
-159.132303
 20
92.676927
 30
0.0
 11
-132.732303
 21
92.676927
 31
0.0
  0
LINE
  5
56D
100
AcDbEntity
  8
2
370
    25
100
AcDbLine
 10
-132.732303
 20
92.676927
 30
0.0
 11
-136.596007
 21
93.712203
 31
0.0
  0
LINE
  5
56E
100
AcDbEntity
  8
2
370
    25
100
AcDbLine
 10
-132.732303
 20
92.676927
 30
0.0
 11
-136.596007
 21
91.641651
 31
0.0
  0
ENDBLK
  5
56F
100
AcDbEntity
  8
2
100
AcDbBlockEnd
  0
BLOCK
  5
570
100
AcDbEntity
  8
2
100
AcDbBlockBegin
  2
*D6
 70
     1
 10
0.0
 20
0.0
 30
0.0
  3
*D6
  1

  0
TEXT
  5
571
100
AcDbEntity
  8
2
370
    18
100
AcDbText
 10
-210.032303
 20
102.445412
 30
0.0
 40
5.0
  1
12.8
 41
2.0
 72
     5
 11
-192.032303
 21
102.445412
 31
0.0
100
AcDbText
  0
LINE
  5
572
100
AcDbEntity
  8
2
370
    25
100
AcDbLine
 10
-226.832303
 20
101.445412
 30
0.0
 11
-230.696007
 21
102.480688
 31
0.0
  0
LINE
  5
573
100
AcDbEntity
  8
2
370
    25
100
AcDbLine
 10
-226.832303
 20
101.445412
 30
0.0
 11
-230.696007
 21
100.410136
 31
0.0
  0
LINE
  5
574
100
AcDbEntity
  8
2
370
    25
100
AcDbLine
 10
-236.832303
 20
101.445412
 30
0.0
 11
-188.032303
 21
101.445412
 31
0.0
  0
LINE
  5
575
100
AcDbEntity
  8
2
370
    25
100
AcDbLine
 10
-214.032303
 20
101.445412
 30
0.0
 11
-210.1686
 21
100.410136
 31
0.0
  0
LINE
  5
576
100
AcDbEntity
  8
2
370
    25
100
AcDbLine
 10
-214.032303
 20
101.445412
 30
0.0
 11
-210.1686
 21
102.480688
 31
0.0
  0
ENDBLK
  5
577
100
AcDbEntity
  8
2
100
AcDbBlockEnd
  0
BLOCK
  5
578
100
AcDbEntity
  8
2
100
AcDbBlockBegin
  2
*D7
 70
     1
 10
0.0
 20
0.0
 30
0.0
  3
*D7
  1

  0
TEXT
  5
579
100
AcDbEntity
  8
2
370
    18
100
AcDbText
 10
-202.743149
 20
247.416409
 30
0.0
 40
5.0
  1
29
 50
90.0
 41
2.0
 72
     5
 11
-202.743149
 21
255.416409
 31
0.0
100
AcDbText
  0
LINE
  5
57A
100
AcDbEntity
  8
2
370
    25
100
AcDbLine
 10
-214.932303
 20
237.921647
 30
0.0
 11
-199.743149
 21
237.921647
 31
0.0
  0
LINE
  5
57B
100
AcDbEntity
  8
2
370
    25
100
AcDbLine
 10
-201.743149
 20
237.921647
 30
0.0
 11
-200.707873
 21
241.78535
 31
0.0
  0
LINE
  5
57C
100
AcDbEntity
  8
2
370
    25
100
AcDbLine
 10
-201.743149
 20
237.921647
 30
0.0
 11
-202.778425
 21
241.78535
 31
0.0
  0
LINE
  5
57D
100
AcDbEntity
  8
2
370
    25
100
AcDbLine
 10
-201.743149
 20
237.921647
 30
0.0
 11
-201.743149
 21
266.911172
 31
0.0
  0
LINE
  5
57E
100
AcDbEntity
  8
2
370
    25
100
AcDbLine
 10
-201.743149
 20
266.911172
 30
0.0
 11
-202.778425
 21
263.047469
 31
0.0
  0
LINE
  5
57F
100
AcDbEntity
  8
2
370
    25
100
AcDbLine
 10
-201.743149
 20
266.911172
 30
0.0
 11
-200.707873
 21
263.047469
 31
0.0
  0
LINE
  5
580
100
AcDbEntity
  8
2
370
    25
100
AcDbLine
 10
-214.932303
 20
266.911172
 30
0.0
 11
-199.743149
 21
266.911172
 31
0.0
  0
ENDBLK
  5
581
100
AcDbEntity
  8
2
100
AcDbBlockEnd
  0
BLOCK
  5
582
100
AcDbEntity
  8
2
100
AcDbBlockBegin
  2
*D8
 70
     1
 10
0.0
 20
0.0
 30
0.0
  3
*D8
  1

  0
LINE
  5
583
100
AcDbEntity
  8
2
370
    25
100
AcDbLine
 10
-245.932303
 20
208.89889
 30
0.0
 11
-245.932303
 21
220.008255
 31
0.0
  0
LINE
  5
584
100
AcDbEntity
  8
2
370
    25
100
AcDbLine
 10
-245.932303
 20
218.008255
 30
0.0
 11
-242.0686
 21
216.972979
 31
0.0
  0
LINE
  5
585
100
AcDbEntity
  8
2
370
    25
100
AcDbLine
 10
-245.932303
 20
218.008255
 30
0.0
 11
-242.0686
 21
219.043531
 31
0.0
  0
LINE
  5
586
100
AcDbEntity
  8
2
370
    25
100
AcDbLine
 10
-245.932303
 20
218.008255
 30
0.0
 11
-215.932303
 21
218.008255
 31
0.0
  0
LINE
  5
587
100
AcDbEntity
  8
2
370
    25
100
AcDbLine
 10
-215.932303
 20
218.008255
 30
0.0
 11
-219.796007
 21
219.043531
 31
0.0
  0
LINE
  5
588
100
AcDbEntity
  8
2
370
    25
100
AcDbLine
 10
-215.932303
 20
218.008255
 30
0.0
 11
-219.796007
 21
216.972979
 31
0.0
  0
LINE
  5
589
100
AcDbEntity
  8
2
370
    25
100
AcDbLine
 10
-215.932303
 20
208.89889
 30
0.0
 11
-215.932303
 21
220.008255
 31
0.0
  0
ENDBLK
  5
58A
100
AcDbEntity
  8
2
100
AcDbBlockEnd
  0
BLOCK
  5
58B
100
AcDbEntity
  8
2
100
AcDbBlockBegin
  2
*D9
 70
     1
 10
0.0
 20
0.0
 30
0.0
  3
*D9
  1

  0
TEXT
  5
58C
100
AcDbEntity
  8
2
370
    18
100
AcDbText
 10
-210.032303
 20
219.008255
 30
0.0
 40
5.0
  1
1.9
 41
2.0
 72
     5
 11
-197.032303
 21
219.008255
 31
0.0
100
AcDbText
  0
LINE
  5
58D
100
AcDbEntity
  8
2
370
    25
100
AcDbLine
 10
-215.932303
 20
208.89889
 30
0.0
 11
-215.932303
 21
220.008255
 31
0.0
  0
LINE
  5
58E
100
AcDbEntity
  8
2
370
    25
100
AcDbLine
 10
-215.932303
 20
218.008255
 30
0.0
 11
-219.796007
 21
219.043531
 31
0.0
  0
LINE
  5
58F
100
AcDbEntity
  8
2
370
    25
100
AcDbLine
 10
-215.932303
 20
218.008255
 30
0.0
 11
-219.796007
 21
216.972979
 31
0.0
  0
LINE
  5
590
100
AcDbEntity
  8
2
370
    25
100
AcDbLine
 10
-225.932303
 20
218.008255
 30
0.0
 11
-193.032303
 21
218.008255
 31
0.0
  0
LINE
  5
591
100
AcDbEntity
  8
2
370
    25
100
AcDbLine
 10
-214.032303
 20
218.008255
 30
0.0
 11
-210.1686
 21
216.972979
 31
0.0
  0
LINE
  5
592
100
AcDbEntity
  8
2
370
    25
100
AcDbLine
 10
-214.032303
 20
218.008255
 30
0.0
 11
-210.1686
 21
219.043531
 31
0.0
  0
LINE
  5
593
100
AcDbEntity
  8
2
370
    25
100
AcDbLine
 10
-214.032303
 20
189.398884
 30
0.0
 11
-214.032303
 21
220.008255
 31
0.0
  0
ENDBLK
  5
594
100
AcDbEntity
  8
2
100
AcDbBlockEnd
  0
BLOCK
  5
595
100
AcDbEntity
  8
2
100
AcDbBlockBegin
  2
*D10
 70
     1
 10
0.0
 20
0.0
 30
0.0
  3
*D10
  1

  0
TEXT
  5
596
100
AcDbEntity
  8
2
370
    18
100
AcDbText
 10
-305.087507
 20
-170.672148
 30
0.0
 40
6.0
  1
163
 50
90.0
 41
2.0
 72
     5
 11
-305.087507
 21
-155.072148
 31
0.0
100
AcDbText
  0
LINE
  5
597
100
AcDbEntity
  8
2
370
    25
100
AcDbLine
 10
-275.978704
 20
-247.672148
 30
0.0
 11
-306.587507
 21
-247.672148
 31
0.0
  0
LINE
  5
598
100
AcDbEntity
  8
2
370
    25
100
AcDbLine
 10
-304.587507
 20
-247.672148
 30
0.0
 11
-303.552231
 21
-243.808445
 31
0.0
  0
LINE
  5
599
100
AcDbEntity
  8
2
370
    25
100
AcDbLine
 10
-304.587507
 20
-247.672148
 30
0.0
 11
-305.622783
 21
-243.808445
 31
0.0
  0
LINE
  5
59A
100
AcDbEntity
  8
2
370
    25
100
AcDbLine
 10
-304.587507
 20
-247.672148
 30
0.0
 11
-304.587507
 21
-84.672148
 31
0.0
  0
LINE
  5
59B
100
AcDbEntity
  8
2
370
    25
100
AcDbLine
 10
-304.587507
 20
-84.672148
 30
0.0
 11
-305.622783
 21
-88.535852
 31
0.0
  0
LINE
  5
59C
100
AcDbEntity
  8
2
370
    25
100
AcDbLine
 10
-304.587507
 20
-84.672148
 30
0.0
 11
-303.552231
 21
-88.535852
 31
0.0
  0
LINE
  5
59D
100
AcDbEntity
  8
2
370
    25
100
AcDbLine
 10
-275.978704
 20
-84.672148
 30
0.0
 11
-306.587507
 21
-84.672148
 31
0.0
  0
ENDBLK
  5
59E
100
AcDbEntity
  8
2
100
AcDbBlockEnd
  0
BLOCK
  5
59F
100
AcDbEntity
  8
2
100
AcDbBlockBegin
  2
*D11
 70
     1
 10
0.0
 20
0.0
 30
0.0
  3
*D11
  1

  0
TEXT
  5
5A0
100
AcDbEntity
  8
2
370
    18
100
AcDbText
 10
-280.978704
 20
-182.733326
 30
0.0
 40
6.0
  1
28
 41
2.0
 72
     5
 11
-271.378704
 21
-182.733326
 31
0.0
100
AcDbText
  0
LINE
  5
5A1
100
AcDbEntity
  8
2
370
    25
100
AcDbLine
 10
-288.978704
 20
-183.733326
 30
0.0
 11
-285.115001
 21
-184.768602
 31
0.0
  0
LINE
  5
5A2
100
AcDbEntity
  8
2
370
    25
100
AcDbLine
 10
-288.978704
 20
-183.733326
 30
0.0
 11
-285.115001
 21
-182.69805
 31
0.0
  0
LINE
  5
5A3
100
AcDbEntity
  8
2
370
    25
100
AcDbLine
 10
-288.978704
 20
-183.733326
 30
0.0
 11
-260.978704
 21
-183.733326
 31
0.0
  0
LINE
  5
5A4
100
AcDbEntity
  8
2
370
    25
100
AcDbLine
 10
-260.978704
 20
-183.733326
 30
0.0
 11
-264.842407
 21
-182.69805
 31
0.0
  0
LINE
  5
5A5
100
AcDbEntity
  8
2
370
    25
100
AcDbLine
 10
-260.978704
 20
-183.733326
 30
0.0
 11
-264.842407
 21
-184.768602
 31
0.0
  0
ENDBLK
  5
5A6
100
AcDbEntity
  8
2
100
AcDbBlockEnd
  0
BLOCK
  5
5A7
100
AcDbEntity
  8
2
100
AcDbBlockBegin
  2
*D12
 70
     1
 10
0.0
 20
0.0
 30
0.0
  3
*D12
  1

  0
TEXT
  5
5A8
100
AcDbEntity
  8
2
370
    18
100
AcDbText
 10
-280.978704
 20
-63.871929
 30
0.0
 40
6.0
  1
39
 41
2.0
 72
     5
 11
-271.378704
 21
-63.871929
 31
0.0
100
AcDbText
  0
LINE
  5
5A9
100
AcDbEntity
  8
2
370
    25
100
AcDbLine
 10
-294.478704
 20
-92.672147
 30
0.0
 11
-294.478704
 21
-62.871929
 31
0.0
  0
LINE
  5
5AA
100
AcDbEntity
  8
2
370
    25
100
AcDbLine
 10
-294.478704
 20
-64.871929
 30
0.0
 11
-290.615001
 21
-65.907205
 31
0.0
  0
LINE
  5
5AB
100
AcDbEntity
  8
2
370
    25
100
AcDbLine
 10
-294.478704
 20
-64.871929
 30
0.0
 11
-290.615001
 21
-63.836653
 31
0.0
  0
LINE
  5
5AC
100
AcDbEntity
  8
2
370
    25
100
AcDbLine
 10
-294.478704
 20
-64.871929
 30
0.0
 11
-255.478704
 21
-64.871929
 31
0.0
  0
LINE
  5
5AD
100
AcDbEntity
  8
2
370
    25
100
AcDbLine
 10
-255.478704
 20
-64.871929
 30
0.0
 11
-259.342407
 21
-63.836653
 31
0.0
  0
LINE
  5
5AE
100
AcDbEntity
  8
2
370
    25
100
AcDbLine
 10
-255.478704
 20
-64.871929
 30
0.0
 11
-259.342407
 21
-65.907205
 31
0.0
  0
LINE
  5
5AF
100
AcDbEntity
  8
2
370
    25
100
AcDbLine
 10
-255.478704
 20
-92.672147
 30
0.0
 11
-255.478704
 21
-62.871929
 31
0.0
  0
ENDBLK
  5
5B0
100
AcDbEntity
  8
2
100
AcDbBlockEnd
  0
BLOCK
  5
5B1
100
AcDbEntity
  8
2
100
AcDbBlockBegin
  2
*D13
 70
     1
 10
0.0
 20
0.0
 30
0.0
  3
*D13
  1

  0
TEXT
  5
5B2
100
AcDbEntity
  8
2
370
    18
100
AcDbText
 10
-313.166937
 20
-170.672148
 30
0.0
 40
6.0
  1
184
 50
90.0
 41
2.0
 72
     5
 11
-313.166937
 21
-155.072148
 31
0.0
100
AcDbText
  0
LINE
  5
5B3
100
AcDbEntity
  8
2
370
    25
100
AcDbLine
 10
-275.978704
 20
-258.172149
 30
0.0
 11
-314.666937
 21
-258.172149
 31
0.0
  0
LINE
  5
5B4
100
AcDbEntity
  8
2
370
    25
100
AcDbLine
 10
-312.666937
 20
-258.172149
 30
0.0
 11
-311.63166
 21
-254.308446
 31
0.0
  0
LINE
  5
5B5
100
AcDbEntity
  8
2
370
    25
100
AcDbLine
 10
-312.666937
 20
-258.172149
 30
0.0
 11
-313.702213
 21
-254.308446
 31
0.0
  0
LINE
  5
5B6
100
AcDbEntity
  8
2
370
    25
100
AcDbLine
 10
-312.666937
 20
-258.172149
 30
0.0
 11
-312.666937
 21
-74.172147
 31
0.0
  0
LINE
  5
5B7
100
AcDbEntity
  8
2
370
    25
100
AcDbLine
 10
-312.666937
 20
-74.172147
 30
0.0
 11
-313.702213
 21
-78.035851
 31
0.0
  0
LINE
  5
5B8
100
AcDbEntity
  8
2
370
    25
100
AcDbLine
 10
-312.666937
 20
-74.172147
 30
0.0
 11
-311.63166
 21
-78.035851
 31
0.0
  0
LINE
  5
5B9
100
AcDbEntity
  8
2
370
    25
100
AcDbLine
 10
-275.978704
 20
-74.172147
 30
0.0
 11
-314.666937
 21
-74.172147
 31
0.0
  0
ENDBLK
  5
5BA
100
AcDbEntity
  8
2
100
AcDbBlockEnd
  0
BLOCK
  5
5BB
100
AcDbEntity
  8
2
100
AcDbBlockBegin
  2
*D14
 70
     1
 10
0.0
 20
0.0
 30
0.0
  3
*D14
  1

  0
TEXT
  5
5BC
100
AcDbEntity
  8
2
370
    18
100
AcDbText
 10
-206.432198
 20
-63.044066
 30
0.0
 40
6.0
  1
0.5
 41
2.0
 72
     5
 11
-190.832198
 21
-63.044066
 31
0.0
100
AcDbText
  0
LINE
  5
5BD
100
AcDbEntity
  8
2
370
    25
100
AcDbLine
 10
-184.432198
 20
-73.172151
 30
0.0
 11
-184.432198
 21
-62.044066
 31
0.0
  0
LINE
  5
5BE
100
AcDbEntity
  8
2
370
    25
100
AcDbLine
 10
-184.432198
 20
-64.044066
 30
0.0
 11
-188.295902
 21
-63.00879
 31
0.0
  0
LINE
  5
5BF
100
AcDbEntity
  8
2
370
    25
100
AcDbLine
 10
-184.432198
 20
-64.044066
 30
0.0
 11
-188.295902
 21
-65.079342
 31
0.0
  0
LINE
  5
5C0
100
AcDbEntity
  8
2
370
    25
100
AcDbLine
 10
-208.432198
 20
-64.044066
 30
0.0
 11
-183.932303
 21
-64.044066
 31
0.0
  0
LINE
  5
5C1
100
AcDbEntity
  8
2
370
    25
100
AcDbLine
 10
-183.932303
 20
-73.182408
 30
0.0
 11
-183.932303
 21
-62.044066
 31
0.0
  0
CIRCLE
  5
5C2
100
AcDbEntity
  8
2
370
    25
100
AcDbCircle
 10
-183.932303
 20
-64.044066
 30
0.0
 40
1.0
  0
CIRCLE
  5
5C3
100
AcDbEntity
  8
2
370
    25
100
AcDbCircle
 10
-183.932303
 20
-64.044066
 30
0.0
 40
0.6
  0
ENDBLK
  5
5C4
100
AcDbEntity
  8
2
100
AcDbBlockEnd
  0
BLOCK
  5
5C5
100
AcDbEntity
  8
2
100
AcDbBlockBegin
  2
*D15
 70
     1
 10
0.0
 20
0.0
 30
0.0
  3
*D15
  1

  0
TEXT
  5
5C6
100
AcDbEntity
  8
2
370
    18
100
AcDbText
 10
-167.432198
 20
-63.044066
 30
0.0
 40
6.0
  1
12.5
 41
2.0
 72
     5
 11
-145.832198
 21
-63.044066
 31
0.0
100
AcDbText
  0
LINE
  5
5C7
100
AcDbEntity
  8
2
370
    25
100
AcDbLine
 10
-183.932303
 20
-73.182408
 30
0.0
 11
-183.932303
 21
-62.044066
 31
0.0
  0
LINE
  5
5C8
100
AcDbEntity
  8
2
370
    25
100
AcDbLine
 10
-183.932303
 20
-64.044066
 30
0.0
 11
-141.432198
 21
-64.044066
 31
0.0
  0
LINE
  5
5C9
100
AcDbEntity
  8
2
370
    25
100
AcDbLine
 10
-171.432198
 20
-64.044066
 30
0.0
 11
-167.568495
 21
-65.079342
 31
0.0
  0
LINE
  5
5CA
100
AcDbEntity
  8
2
370
    25
100
AcDbLine
 10
-171.432198
 20
-64.044066
 30
0.0
 11
-167.568495
 21
-63.00879
 31
0.0
  0
LINE
  5
5CB
100
AcDbEntity
  8
2
370
    25
100
AcDbLine
 10
-171.432198
 20
-89.365678
 30
0.0
 11
-171.432198
 21
-62.044066
 31
0.0
  0
CIRCLE
  5
5CC
100
AcDbEntity
  8
2
370
    25
100
AcDbCircle
 10
-183.932303
 20
-64.044066
 30
0.0
 40
1.0
  0
CIRCLE
  5
5CD
100
AcDbEntity
  8
2
370
    25
100
AcDbCircle
 10
-183.932303
 20
-64.044066
 30
0.0
 40
0.6
  0
ENDBLK
  5
5CE
100
AcDbEntity
  8
2
100
AcDbBlockEnd
  0
BLOCK
  5
5CF
100
AcDbEntity
  8
2
100
AcDbBlockBegin
  2
*D16
 70
     1
 10
0.0
 20
0.0
 30
0.0
  3
*D16
  1

  0
TEXT
  5
5D0
100
AcDbEntity
  8
2
370
    18
100
AcDbText
 10
-197.975191
 20
-170.67215
 30
0.0
 40
6.0
  1
164
 50
90.0
 41
2.0
 72
     5
 11
-197.975191
 21
-155.07215
 31
0.0
100
AcDbText
  0
LINE
  5
5D1
100
AcDbEntity
  8
2
370
    25
100
AcDbLine
 10
-184.932303
 20
-248.30029
 30
0.0
 11
-199.475191
 21
-248.30029
 31
0.0
  0
LINE
  5
5D2
100
AcDbEntity
  8
2
370
    25
100
AcDbLine
 10
-197.475191
 20
-248.30029
 30
0.0
 11
-196.439915
 21
-244.436587
 31
0.0
  0
LINE
  5
5D3
100
AcDbEntity
  8
2
370
    25
100
AcDbLine
 10
-197.475191
 20
-248.30029
 30
0.0
 11
-198.510467
 21
-244.436587
 31
0.0
  0
LINE
  5
5D4
100
AcDbEntity
  8
2
370
    25
100
AcDbLine
 10
-197.475191
 20
-248.30029
 30
0.0
 11
-197.475191
 21
-84.04401
 31
0.0
  0
LINE
  5
5D5
100
AcDbEntity
  8
2
370
    25
100
AcDbLine
 10
-197.475191
 20
-84.04401
 30
0.0
 11
-198.510467
 21
-87.907714
 31
0.0
  0
LINE
  5
5D6
100
AcDbEntity
  8
2
370
    25
100
AcDbLine
 10
-197.475191
 20
-84.04401
 30
0.0
 11
-196.439915
 21
-87.907714
 31
0.0
  0
LINE
  5
5D7
100
AcDbEntity
  8
2
370
    25
100
AcDbLine
 10
-184.932303
 20
-84.04401
 30
0.0
 11
-199.475191
 21
-84.04401
 31
0.0
  0
ENDBLK
  5
5D8
100
AcDbEntity
  8
2
100
AcDbBlockEnd
  0
BLOCK
  5
5D9
100
AcDbEntity
  8
2
100
AcDbBlockBegin
  2
*D17
 70
     1
 10
0.0
 20
0.0
 30
0.0
  3
*D17
  1

  0
TEXT
  5
5DA
100
AcDbEntity
  8
2
370
    18
100
AcDbText
 10
22.565305
 20
33.521461
 30
0.0
 40
6.0
  1
1.5
 41
2.0
 72
     5
 11
38.165305
 21
33.521461
 31
0.0
100
AcDbText
  0
LINE
  5
5DB
100
AcDbEntity
  8
2
370
    25
100
AcDbLine
 10
44.565305
 20
51.022455
 30
0.0
 11
44.565305
 21
30.521461
 31
0.0
  0
LINE
  5
5DC
100
AcDbEntity
  8
2
370
    25
100
AcDbLine
 10
44.565305
 20
32.521461
 30
0.0
 11
40.701602
 21
33.556738
 31
0.0
  0
LINE
  5
5DD
100
AcDbEntity
  8
2
370
    25
100
AcDbLine
 10
44.565305
 20
32.521461
 30
0.0
 11
40.701602
 21
31.486185
 31
0.0
  0
LINE
  5
5DE
100
AcDbEntity
  8
2
370
    25
100
AcDbLine
 10
20.565305
 20
32.521461
 30
0.0
 11
56.065305
 21
32.521461
 31
0.0
  0
LINE
  5
5DF
100
AcDbEntity
  8
2
370
    25
100
AcDbLine
 10
46.065305
 20
32.521461
 30
0.0
 11
49.929008
 21
31.486185
 31
0.0
  0
LINE
  5
5E0
100
AcDbEntity
  8
2
370
    25
100
AcDbLine
 10
46.065305
 20
32.521461
 30
0.0
 11
49.929008
 21
33.556738
 31
0.0
  0
LINE
  5
5E1
100
AcDbEntity
  8
2
370
    25
100
AcDbLine
 10
46.065305
 20
50.158157
 30
0.0
 11
46.065305
 21
30.521461
 31
0.0
  0
ENDBLK
  5
5E2
100
AcDbEntity
  8
2
100
AcDbBlockEnd
  0
BLOCK
  5
5E3
100
AcDbEntity
  8
2
100
AcDbBlockBegin
  2
*D18
 70
     1
 10
0.0
 20
0.0
 30
0.0
  3
*D18
  1

  0
TEXT
  5
5E4
100
AcDbEntity
  8
2
370
    18
100
AcDbText
 10
84.565305
 20
33.521461
 30
0.0
 40
6.0
  1
1.5
 41
2.0
 72
     5
 11
100.165305
 21
33.521461
 31
0.0
100
AcDbText
  0
LINE
  5
5E5
100
AcDbEntity
  8
2
370
    25
100
AcDbLine
 10
79.065305
 20
50.158157
 30
0.0
 11
79.065305
 21
30.521461
 31
0.0
  0
LINE
  5
5E6
100
AcDbEntity
  8
2
370
    25
100
AcDbLine
 10
79.065305
 20
32.521461
 30
0.0
 11
75.201602
 21
33.556738
 31
0.0
  0
LINE
  5
5E7
100
AcDbEntity
  8
2
370
    25
100
AcDbLine
 10
79.065305
 20
32.521461
 30
0.0
 11
75.201602
 21
31.486185
 31
0.0
  0
LINE
  5
5E8
100
AcDbEntity
  8
2
370
    25
100
AcDbLine
 10
69.065305
 20
32.521461
 30
0.0
 11
104.565305
 21
32.521461
 31
0.0
  0
LINE
  5
5E9
100
AcDbEntity
  8
2
370
    25
100
AcDbLine
 10
80.565305
 20
32.521461
 30
0.0
 11
84.429008
 21
31.486185
 31
0.0
  0
LINE
  5
5EA
100
AcDbEntity
  8
2
370
    25
100
AcDbLine
 10
80.565305
 20
32.521461
 30
0.0
 11
84.429008
 21
33.556738
 31
0.0
  0
LINE
  5
5EB
100
AcDbEntity
  8
2
370
    25
100
AcDbLine
 10
80.565305
 20
51.022455
 30
0.0
 11
80.565305
 21
30.521461
 31
0.0
  0
ENDBLK
  5
5EC
100
AcDbEntity
  8
2
100
AcDbBlockEnd
  0
BLOCK
  5
5ED
100
AcDbEntity
  8
2
100
AcDbBlockBegin
  2
*D19
 70
     1
 10
0.0
 20
0.0
 30
0.0
  3
*D19
  1

  0
TEXT
  5
5EE
100
AcDbEntity
  8
2
370
    18
100
AcDbText
 10
132.111706
 20
33.521461
 30
0.0
 40
6.0
  1
41
 41
2.0
 72
     5
 11
141.711706
 21
33.521461
 31
0.0
100
AcDbText
  0
LINE
  5
5EF
100
AcDbEntity
  8
2
370
    25
100
AcDbLine
 10
117.611706
 20
51.658157
 30
0.0
 11
117.611706
 21
30.521461
 31
0.0
  0
LINE
  5
5F0
100
AcDbEntity
  8
2
370
    25
100
AcDbLine
 10
117.611706
 20
32.521461
 30
0.0
 11
121.475409
 21
31.486185
 31
0.0
  0
LINE
  5
5F1
100
AcDbEntity
  8
2
370
    25
100
AcDbLine
 10
117.611706
 20
32.521461
 30
0.0
 11
121.475409
 21
33.556738
 31
0.0
  0
LINE
  5
5F2
100
AcDbEntity
  8
2
370
    25
100
AcDbLine
 10
117.611706
 20
32.521461
 30
0.0
 11
158.611706
 21
32.521461
 31
0.0
  0
LINE
  5
5F3
100
AcDbEntity
  8
2
370
    25
100
AcDbLine
 10
158.611706
 20
32.521461
 30
0.0
 11
154.748002
 21
33.556738
 31
0.0
  0
LINE
  5
5F4
100
AcDbEntity
  8
2
370
    25
100
AcDbLine
 10
158.611706
 20
32.521461
 30
0.0
 11
154.748002
 21
31.486185
 31
0.0
  0
LINE
  5
5F5
100
AcDbEntity
  8
2
370
    25
100
AcDbLine
 10
158.611706
 20
51.658157
 30
0.0
 11
158.611706
 21
30.521461
 31
0.0
  0
ENDBLK
  5
5F6
100
AcDbEntity
  8
2
100
AcDbBlockEnd
  0
BLOCK
  5
5F7
100
AcDbEntity
  8
2
100
AcDbBlockBegin
  2
*D20
 70
     1
 10
0.0
 20
0.0
 30
0.0
  3
*D20
  1

  0
TEXT
  5
5F8
100
AcDbEntity
  8
2
370
    18
100
AcDbText
 10
187.553711
 20
128.658157
 30
0.0
 40
6.0
  1
173
 50
90.0
 41
2.0
 72
     5
 11
187.553711
 21
144.258157
 31
0.0
100
AcDbText
  0
LINE
  5
5F9
100
AcDbEntity
  8
2
370
    25
100
AcDbLine
 10
158.111706
 20
51.158157
 30
0.0
 11
190.553711
 21
51.158157
 31
0.0
  0
LINE
  5
5FA
100
AcDbEntity
  8
2
370
    25
100
AcDbLine
 10
188.553711
 20
51.158157
 30
0.0
 11
189.588987
 21
55.021861
 31
0.0
  0
LINE
  5
5FB
100
AcDbEntity
  8
2
370
    25
100
AcDbLine
 10
188.553711
 20
51.158157
 30
0.0
 11
187.518435
 21
55.021861
 31
0.0
  0
LINE
  5
5FC
100
AcDbEntity
  8
2
370
    25
100
AcDbLine
 10
188.553711
 20
51.158157
 30
0.0
 11
188.553711
 21
224.158157
 31
0.0
  0
LINE
  5
5FD
100
AcDbEntity
  8
2
370
    25
100
AcDbLine
 10
188.553711
 20
224.158157
 30
0.0
 11
187.518435
 21
220.294454
 31
0.0
  0
LINE
  5
5FE
100
AcDbEntity
  8
2
370
    25
100
AcDbLine
 10
188.553711
 20
224.158157
 30
0.0
 11
189.588987
 21
220.294454
 31
0.0
  0
LINE
  5
5FF
100
AcDbEntity
  8
2
370
    25
100
AcDbLine
 10
158.111706
 20
224.158157
 30
0.0
 11
190.553711
 21
224.158157
 31
0.0
  0
ENDBLK
  5
600
100
AcDbEntity
  8
2
100
AcDbBlockEnd
  0
BLOCK
  5
601
100
AcDbEntity
  8
2
100
AcDbBlockBegin
  2
*D21
 70
     1
 10
0.0
 20
0.0
 30
0.0
  3
*D21
  1

  0
TEXT
  5
602
100
AcDbEntity
  8
2
370
    18
100
AcDbText
 10
132.111706
 20
126.330032
 30
0.0
 40
6.0
  1
26
 41
2.0
 72
     5
 11
141.711706
 21
126.330032
 31
0.0
100
AcDbText
  0
LINE
  5
603
100
AcDbEntity
  8
2
370
    25
100
AcDbLine
 10
124.911706
 20
125.330032
 30
0.0
 11
128.775409
 21
124.294756
 31
0.0
  0
LINE
  5
604
100
AcDbEntity
  8
2
370
    25
100
AcDbLine
 10
124.911706
 20
125.330032
 30
0.0
 11
128.775409
 21
126.365309
 31
0.0
  0
LINE
  5
605
100
AcDbEntity
  8
2
370
    25
100
AcDbLine
 10
124.911706
 20
125.330032
 30
0.0
 11
151.311706
 21
125.330032
 31
0.0
  0
LINE
  5
606
100
AcDbEntity
  8
2
370
    25
100
AcDbLine
 10
151.311706
 20
125.330032
 30
0.0
 11
147.448002
 21
126.365309
 31
0.0
  0
LINE
  5
607
100
AcDbEntity
  8
2
370
    25
100
AcDbLine
 10
151.311706
 20
125.330032
 30
0.0
 11
147.448002
 21
124.294756
 31
0.0
  0
ENDBLK
  5
608
100
AcDbEntity
  8
2
100
AcDbBlockEnd
  0
BLOCK
  5
609
100
AcDbEntity
  8
2
100
AcDbBlockBegin
  2
*D22
 70
     1
 10
0.0
 20
0.0
 30
0.0
  3
*D22
  1

  0
TEXT
  5
60A
100
AcDbEntity
  8
2
370
    18
100
AcDbText
 10
174.457672
 20
128.658157
 30
0.0
 40
6.0
  1
140
 50
90.0
 41
2.0
 72
     5
 11
174.457672
 21
144.258157
 31
0.0
100
AcDbText
  0
LINE
  5
60B
100
AcDbEntity
  8
2
370
    25
100
AcDbLine
 10
151.311706
 20
67.658157
 30
0.0
 11
177.457672
 21
67.658157
 31
0.0
  0
LINE
  5
60C
100
AcDbEntity
  8
2
370
    25
100
AcDbLine
 10
175.457672
 20
67.658157
 30
0.0
 11
176.492948
 21
71.521861
 31
0.0
  0
LINE
  5
60D
100
AcDbEntity
  8
2
370
    25
100
AcDbLine
 10
175.457672
 20
67.658157
 30
0.0
 11
174.422396
 21
71.521861
 31
0.0
  0
LINE
  5
60E
100
AcDbEntity
  8
2
370
    25
100
AcDbLine
 10
175.457672
 20
67.658157
 30
0.0
 11
175.457672
 21
207.658157
 31
0.0
  0
LINE
  5
60F
100
AcDbEntity
  8
2
370
    25
100
AcDbLine
 10
175.457672
 20
207.658157
 30
0.0
 11
174.422396
 21
203.794454
 31
0.0
  0
LINE
  5
610
100
AcDbEntity
  8
2
370
    25
100
AcDbLine
 10
175.457672
 20
207.658157
 30
0.0
 11
176.492948
 21
203.794454
 31
0.0
  0
LINE
  5
611
100
AcDbEntity
  8
2
370
    25
100
AcDbLine
 10
151.311706
 20
207.658157
 30
0.0
 11
177.457672
 21
207.658157
 31
0.0
  0
ENDBLK
  5
612
100
AcDbEntity
  8
2
100
AcDbBlockEnd
  0
BLOCK
  5
613
100
AcDbEntity
  8
2
100
AcDbBlockBegin
  2
*D23
 70
     1
 10
0.0
 20
0.0
 30
0.0
  3
*D23
  1

  0
TEXT
  5
614
100
AcDbEntity
  8
2
370
    18
100
AcDbText
 10
66.565305
 20
33.521461
 30
0.0
 40
6.0
  1
13
 41
2.0
 72
     5
 11
76.165305
 21
33.521461
 31
0.0
100
AcDbText
  0
LINE
  5
615
100
AcDbEntity
  8
2
370
    25
100
AcDbLine
 10
66.065305
 20
74.161987
 30
0.0
 11
66.065305
 21
30.521461
 31
0.0
  0
LINE
  5
616
100
AcDbEntity
  8
2
370
    25
100
AcDbLine
 10
66.065305
 20
32.521461
 30
0.0
 11
69.929008
 21
31.486185
 31
0.0
  0
LINE
  5
617
100
AcDbEntity
  8
2
370
    25
100
AcDbLine
 10
66.065305
 20
32.521461
 30
0.0
 11
69.929008
 21
33.556738
 31
0.0
  0
LINE
  5
618
100
AcDbEntity
  8
2
370
    25
100
AcDbLine
 10
66.065305
 20
32.521461
 30
0.0
 11
79.065305
 21
32.521461
 31
0.0
  0
LINE
  5
619
100
AcDbEntity
  8
2
370
    25
100
AcDbLine
 10
79.065305
 20
32.521461
 30
0.0
 11
75.201602
 21
33.556738
 31
0.0
  0
LINE
  5
61A
100
AcDbEntity
  8
2
370
    25
100
AcDbLine
 10
79.065305
 20
32.521461
 30
0.0
 11
75.201602
 21
31.486185
 31
0.0
  0
LINE
  5
61B
100
AcDbEntity
  8
2
370
    25
100
AcDbLine
 10
79.065305
 20
50.158157
 30
0.0
 11
79.065305
 21
30.521461
 31
0.0
  0
ENDBLK
  5
61C
100
AcDbEntity
  8
2
100
AcDbBlockEnd
  0
BLOCK
  5
61D
100
AcDbEntity
  8
2
100
AcDbBlockBegin
  2
*D24
 70
     1
 10
0.0
 20
0.0
 30
0.0
  3
*D24
  1

  0
TEXT
  5
61E
100
AcDbEntity
  8
2
370
    18
100
AcDbText
 10
34.005408
 20
133.158157
 30
0.0
 40
6.0
  1
163
 50
90.0
 41
2.0
 72
     5
 11
34.005408
 21
148.758157
 31
0.0
100
AcDbText
  0
LINE
  5
61F
100
AcDbEntity
  8
2
370
    25
100
AcDbLine
 10
55.312373
 20
56.158154
 30
0.0
 11
32.505408
 21
56.158154
 31
0.0
  0
LINE
  5
620
100
AcDbEntity
  8
2
370
    25
100
AcDbLine
 10
34.505408
 20
56.158154
 30
0.0
 11
35.540684
 21
60.021857
 31
0.0
  0
LINE
  5
621
100
AcDbEntity
  8
2
370
    25
100
AcDbLine
 10
34.505408
 20
56.158154
 30
0.0
 11
33.470132
 21
60.021857
 31
0.0
  0
LINE
  5
622
100
AcDbEntity
  8
2
370
    25
100
AcDbLine
 10
34.505408
 20
56.158154
 30
0.0
 11
34.505408
 21
219.158161
 31
0.0
  0
LINE
  5
623
100
AcDbEntity
  8
2
370
    25
100
AcDbLine
 10
34.505408
 20
219.158161
 30
0.0
 11
33.470132
 21
215.294457
 31
0.0
  0
LINE
  5
624
100
AcDbEntity
  8
2
370
    25
100
AcDbLine
 10
34.505408
 20
219.158161
 30
0.0
 11
35.540684
 21
215.294457
 31
0.0
  0
LINE
  5
625
100
AcDbEntity
  8
2
370
    25
100
AcDbLine
 10
55.312373
 20
219.158161
 30
0.0
 11
32.505408
 21
219.158161
 31
0.0
  0
ENDBLK
  5
626
100
AcDbEntity
  8
2
100
AcDbBlockEnd
  0
BLOCK
  5
627
100
AcDbEntity
  8
2
100
AcDbBlockBegin
  2
*D25
 70
     1
 10
0.0
 20
0.0
 30
0.0
  3
*D25
  1

  0
TEXT
  5
628
100
AcDbEntity
  8
2
370
    18
100
AcDbText
 10
99.064514
 20
128.658157
 30
0.0
 40
6.0
  1
162
 50
90.0
 41
2.0
 72
     5
 11
99.064514
 21
144.258157
 31
0.0
100
AcDbText
  0
LINE
  5
629
100
AcDbEntity
  8
2
370
    25
100
AcDbLine
 10
80.065305
 20
56.858157
 30
0.0
 11
102.064514
 21
56.858157
 31
0.0
  0
LINE
  5
62A
100
AcDbEntity
  8
2
370
    25
100
AcDbLine
 10
100.064514
 20
56.858157
 30
0.0
 11
101.09979
 21
60.721861
 31
0.0
  0
LINE
  5
62B
100
AcDbEntity
  8
2
370
    25
100
AcDbLine
 10
100.064514
 20
56.858157
 30
0.0
 11
99.029238
 21
60.721861
 31
0.0
  0
LINE
  5
62C
100
AcDbEntity
  8
2
370
    25
100
AcDbLine
 10
100.064514
 20
56.858157
 30
0.0
 11
100.064514
 21
218.458157
 31
0.0
  0
LINE
  5
62D
100
AcDbEntity
  8
2
370
    25
100
AcDbLine
 10
100.064514
 20
218.458157
 30
0.0
 11
99.029238
 21
214.594454
 31
0.0
  0
LINE
  5
62E
100
AcDbEntity
  8
2
370
    25
100
AcDbLine
 10
100.064514
 20
218.458157
 30
0.0
 11
101.09979
 21
214.594454
 31
0.0
  0
LINE
  5
62F
100
AcDbEntity
  8
2
370
    25
100
AcDbLine
 10
80.065305
 20
218.458157
 30
0.0
 11
102.064514
 21
218.458157
 31
0.0
  0
ENDBLK
  5
630
100
AcDbEntity
  8
2
100
AcDbBlockEnd
  0
BLOCK
  5
631
100
AcDbEntity
  8
2
100
AcDbBlockBegin
  2
*D26
 70
     1
 10
0.0
 20
0.0
 30
0.0
  3
*D26
  1

  0
TEXT
  5
632
100
AcDbEntity
  8
2
370
    18
100
AcDbText
 10
99.064514
 20
247.658157
 30
0.0
 40
6.0
  1
29
 50
90.0
 41
2.0
 72
     5
 11
99.064514
 21
257.258157
 31
0.0
100
AcDbText
  0
LINE
  5
633
100
AcDbEntity
  8
2
370
    25
100
AcDbLine
 10
80.065305
 20
239.158157
 30
0.0
 11
102.064514
 21
239.158157
 31
0.0
  0
LINE
  5
634
100
AcDbEntity
  8
2
370
    25
100
AcDbLine
 10
100.064514
 20
239.158157
 30
0.0
 11
101.09979
 21
243.021861
 31
0.0
  0
LINE
  5
635
100
AcDbEntity
  8
2
370
    25
100
AcDbLine
 10
100.064514
 20
239.158157
 30
0.0
 11
99.029238
 21
243.021861
 31
0.0
  0
LINE
  5
636
100
AcDbEntity
  8
2
370
    25
100
AcDbLine
 10
100.064514
 20
239.158157
 30
0.0
 11
100.064514
 21
268.158157
 31
0.0
  0
LINE
  5
637
100
AcDbEntity
  8
2
370
    25
100
AcDbLine
 10
100.064514
 20
268.158157
 30
0.0
 11
99.029238
 21
264.294454
 31
0.0
  0
LINE
  5
638
100
AcDbEntity
  8
2
370
    25
100
AcDbLine
 10
100.064514
 20
268.158157
 30
0.0
 11
101.09979
 21
264.294454
 31
0.0
  0
LINE
  5
639
100
AcDbEntity
  8
2
370
    25
100
AcDbLine
 10
80.065305
 20
268.158157
 30
0.0
 11
102.064514
 21
268.158157
 31
0.0
  0
ENDBLK
  5
63A
100
AcDbEntity
  8
2
100
AcDbBlockEnd
  0
BLOCK
  5
63B
100
AcDbEntity
  8
2
100
AcDbBlockBegin
  2
*D27
 70
     1
 10
0.0
 20
0.0
 30
0.0
  3
*D27
  1

  0
TEXT
  5
63C
100
AcDbEntity
  8
2
370
    18
100
AcDbText
 10
-144.80036
 20
-38.154137
 30
0.0
 40
5.0
  1
30
 50
90.0
 41
2.0
 72
     5
 11
-144.80036
 21
-30.154137
 31
0.0
100
AcDbText
  0
LINE
  5
63D
100
AcDbEntity
  8
2
370
    25
100
AcDbLine
 10
-156.932303
 20
-48.071439
 30
0.0
 11
-141.800359
 21
-48.071439
 31
0.0
  0
LINE
  5
63E
100
AcDbEntity
  8
2
370
    25
100
AcDbLine
 10
-143.800359
 20
-48.071439
 30
0.0
 11
-142.765083
 21
-44.207735
 31
0.0
  0
LINE
  5
63F
100
AcDbEntity
  8
2
370
    25
100
AcDbLine
 10
-143.800359
 20
-48.071439
 30
0.0
 11
-144.835636
 21
-44.207735
 31
0.0
  0
LINE
  5
640
100
AcDbEntity
  8
2
370
    25
100
AcDbLine
 10
-143.800359
 20
-48.071439
 30
0.0
 11
-143.800359
 21
-18.236835
 31
0.0
  0
LINE
  5
641
100
AcDbEntity
  8
2
370
    25
100
AcDbLine
 10
-143.800359
 20
-18.236835
 30
0.0
 11
-144.835636
 21
-22.100538
 31
0.0
  0
LINE
  5
642
100
AcDbEntity
  8
2
370
    25
100
AcDbLine
 10
-143.800359
 20
-18.236835
 30
0.0
 11
-142.765083
 21
-22.100538
 31
0.0
  0
LINE
  5
643
100
AcDbEntity
  8
2
370
    25
100
AcDbLine
 10
-156.932303
 20
-18.236835
 30
0.0
 11
-141.800359
 21
-18.236835
 31
0.0
  0
ENDBLK
  5
644
100
AcDbEntity
  8
2
100
AcDbBlockEnd
  0
BLOCK
  5
645
100
AcDbEntity
  8
2
100
AcDbBlockBegin
  2
*D28
 70
     1
 10
0.0
 20
0.0
 30
0.0
  3
*D28
  1

  0
TEXT
  5
646
100
AcDbEntity
  8
2
370
    18
100
AcDbText
 10
-153.932303
 20
-7.999878
 30
0.0
 40
5.0
  1
5
 41
2.0
 72
     5
 11
-150.932303
 21
-7.999878
 31
0.0
100
AcDbText
  0
LINE
  5
647
100
AcDbEntity
  8
2
370
    25
100
AcDbLine
 10
-162.932303
 20
-27.803883
 30
0.0
 11
-162.932303
 21
-6.999878
 31
0.0
  0
LINE
  5
648
100
AcDbEntity
  8
2
370
    25
100
AcDbLine
 10
-162.932303
 20
-8.999878
 30
0.0
 11
-166.796007
 21
-7.964602
 31
0.0
  0
LINE
  5
649
100
AcDbEntity
  8
2
370
    25
100
AcDbLine
 10
-162.932303
 20
-8.999878
 30
0.0
 11
-166.796007
 21
-10.035154
 31
0.0
  0
LINE
  5
64A
100
AcDbEntity
  8
2
370
    25
100
AcDbLine
 10
-172.932303
 20
-8.999878
 30
0.0
 11
-146.932303
 21
-8.999878
 31
0.0
  0
LINE
  5
64B
100
AcDbEntity
  8
2
370
    25
100
AcDbLine
 10
-157.932303
 20
-8.999878
 30
0.0
 11
-154.0686
 21
-10.035154
 31
0.0
  0
LINE
  5
64C
100
AcDbEntity
  8
2
370
    25
100
AcDbLine
 10
-157.932303
 20
-8.999878
 30
0.0
 11
-154.0686
 21
-7.964602
 31
0.0
  0
LINE
  5
64D
100
AcDbEntity
  8
2
370
    25
100
AcDbLine
 10
-157.932303
 20
-12.664394
 30
0.0
 11
-157.932303
 21
-6.999878
 31
0.0
  0
ENDBLK
  5
64E
100
AcDbEntity
  8
2
100
AcDbBlockEnd
  0
BLOCK
  5
64F
100
AcDbEntity
  8
2
100
AcDbBlockBegin
  2
*D29
 70
     1
 10
0.0
 20
0.0
 30
0.0
  3
*D29
  1

  0
TEXT
  5
650
100
AcDbEntity
  8
2
370
    18
100
AcDbText
 10
303.658107
 20
35.732933
 30
0.0
 40
6.0
  1
1.5
 41
2.0
 72
     5
 11
319.258107
 21
35.732933
 31
0.0
100
AcDbText
  0
LINE
  5
651
100
AcDbEntity
  8
2
370
    25
100
AcDbLine
 10
327.158107
 20
50.158157
 30
0.0
 11
327.158107
 21
32.732933
 31
0.0
  0
LINE
  5
652
100
AcDbEntity
  8
2
370
    25
100
AcDbLine
 10
327.158107
 20
34.732933
 30
0.0
 11
331.02181
 21
33.697657
 31
0.0
  0
LINE
  5
653
100
AcDbEntity
  8
2
370
    25
100
AcDbLine
 10
327.158107
 20
34.732933
 30
0.0
 11
331.02181
 21
35.768209
 31
0.0
  0
LINE
  5
654
100
AcDbEntity
  8
2
370
    25
100
AcDbLine
 10
337.158107
 20
34.732933
 30
0.0
 11
301.658107
 21
34.732933
 31
0.0
  0
LINE
  5
655
100
AcDbEntity
  8
2
370
    25
100
AcDbLine
 10
325.658107
 20
34.732933
 30
0.0
 11
321.794403
 21
35.768209
 31
0.0
  0
LINE
  5
656
100
AcDbEntity
  8
2
370
    25
100
AcDbLine
 10
325.658107
 20
34.732933
 30
0.0
 11
321.794403
 21
33.697657
 31
0.0
  0
LINE
  5
657
100
AcDbEntity
  8
2
370
    25
100
AcDbLine
 10
325.658107
 20
51.022455
 30
0.0
 11
325.658107
 21
32.732933
 31
0.0
  0
ENDBLK
  5
658
100
AcDbEntity
  8
2
100
AcDbBlockEnd
  0
BLOCK
  5
659
100
AcDbEntity
  8
2
100
AcDbBlockBegin
  2
*D30
 70
     1
 10
0.0
 20
0.0
 30
0.0
  3
*D30
  1

  0
TEXT
  5
65A
100
AcDbEntity
  8
2
370
    18
100
AcDbText
 10
262.111706
 20
39.274879
 30
0.0
 40
6.0
  1
41
 41
2.0
 72
     5
 11
271.711706
 21
39.274879
 31
0.0
100
AcDbText
  0
LINE
  5
65B
100
AcDbEntity
  8
2
370
    25
100
AcDbLine
 10
247.611706
 20
51.658157
 30
0.0
 11
247.611706
 21
36.274879
 31
0.0
  0
LINE
  5
65C
100
AcDbEntity
  8
2
370
    25
100
AcDbLine
 10
247.611706
 20
38.274879
 30
0.0
 11
251.475409
 21
37.239603
 31
0.0
  0
LINE
  5
65D
100
AcDbEntity
  8
2
370
    25
100
AcDbLine
 10
247.611706
 20
38.274879
 30
0.0
 11
251.475409
 21
39.310156
 31
0.0
  0
LINE
  5
65E
100
AcDbEntity
  8
2
370
    25
100
AcDbLine
 10
247.611706
 20
38.274879
 30
0.0
 11
288.611706
 21
38.274879
 31
0.0
  0
LINE
  5
65F
100
AcDbEntity
  8
2
370
    25
100
AcDbLine
 10
288.611706
 20
38.274879
 30
0.0
 11
284.748002
 21
39.310156
 31
0.0
  0
LINE
  5
660
100
AcDbEntity
  8
2
370
    25
100
AcDbLine
 10
288.611706
 20
38.274879
 30
0.0
 11
284.748002
 21
37.239603
 31
0.0
  0
LINE
  5
661
100
AcDbEntity
  8
2
370
    25
100
AcDbLine
 10
288.611706
 20
51.658157
 30
0.0
 11
288.611706
 21
36.274879
 31
0.0
  0
ENDBLK
  5
662
100
AcDbEntity
  8
2
100
AcDbBlockEnd
  0
BLOCK
  5
663
100
AcDbEntity
  8
2
100
AcDbBlockBegin
  2
*D31
 70
     1
 10
0.0
 20
0.0
 30
0.0
  3
*D31
  1

  0
TEXT
  5
664
100
AcDbEntity
  8
2
370
    18
100
AcDbText
 10
306.359662
 20
128.658157
 30
0.0
 40
6.0
  1
173
 50
90.0
 41
2.0
 72
     5
 11
306.359662
 21
144.258157
 31
0.0
100
AcDbText
  0
LINE
  5
665
100
AcDbEntity
  8
2
370
    25
100
AcDbLine
 10
288.111706
 20
51.158157
 30
0.0
 11
309.359662
 21
51.158157
 31
0.0
  0
LINE
  5
666
100
AcDbEntity
  8
2
370
    25
100
AcDbLine
 10
307.359662
 20
51.158157
 30
0.0
 11
308.394939
 21
55.021861
 31
0.0
  0
LINE
  5
667
100
AcDbEntity
  8
2
370
    25
100
AcDbLine
 10
307.359662
 20
51.158157
 30
0.0
 11
306.324386
 21
55.021861
 31
0.0
  0
LINE
  5
668
100
AcDbEntity
  8
2
370
    25
100
AcDbLine
 10
307.359662
 20
51.158157
 30
0.0
 11
307.359662
 21
224.158157
 31
0.0
  0
LINE
  5
669
100
AcDbEntity
  8
2
370
    25
100
AcDbLine
 10
307.359662
 20
224.158157
 30
0.0
 11
306.324386
 21
220.294454
 31
0.0
  0
LINE
  5
66A
100
AcDbEntity
  8
2
370
    25
100
AcDbLine
 10
307.359662
 20
224.158157
 30
0.0
 11
308.394939
 21
220.294454
 31
0.0
  0
LINE
  5
66B
100
AcDbEntity
  8
2
370
    25
100
AcDbLine
 10
288.111706
 20
224.158157
 30
0.0
 11
309.359662
 21
224.158157
 31
0.0
  0
ENDBLK
  5
66C
100
AcDbEntity
  8
2
100
AcDbBlockEnd
  0
BLOCK
  5
66D
100
AcDbEntity
  8
2
100
AcDbBlockBegin
  2
*D32
 70
     1
 10
0.0
 20
0.0
 30
0.0
  3
*D32
  1

  0
TEXT
  5
66E
100
AcDbEntity
  8
2
370
    18
100
AcDbText
 10
262.111706
 20
126.193062
 30
0.0
 40
6.0
  1
26
 41
2.0
 72
     5
 11
271.711706
 21
126.193062
 31
0.0
100
AcDbText
  0
LINE
  5
66F
100
AcDbEntity
  8
2
370
    25
100
AcDbLine
 10
254.911706
 20
125.193062
 30
0.0
 11
258.775409
 21
124.157786
 31
0.0
  0
LINE
  5
670
100
AcDbEntity
  8
2
370
    25
100
AcDbLine
 10
254.911706
 20
125.193062
 30
0.0
 11
258.775409
 21
126.228338
 31
0.0
  0
LINE
  5
671
100
AcDbEntity
  8
2
370
    25
100
AcDbLine
 10
254.911706
 20
125.193062
 30
0.0
 11
281.311706
 21
125.193062
 31
0.0
  0
LINE
  5
672
100
AcDbEntity
  8
2
370
    25
100
AcDbLine
 10
281.311706
 20
125.193062
 30
0.0
 11
277.448002
 21
126.228338
 31
0.0
  0
LINE
  5
673
100
AcDbEntity
  8
2
370
    25
100
AcDbLine
 10
281.311706
 20
125.193062
 30
0.0
 11
277.448002
 21
124.157786
 31
0.0
  0
ENDBLK
  5
674
100
AcDbEntity
  8
2
100
AcDbBlockEnd
  0
BLOCK
  5
675
100
AcDbEntity
  8
2
100
AcDbBlockBegin
  2
*D33
 70
     1
 10
0.0
 20
0.0
 30
0.0
  3
*D33
  1

  0
TEXT
  5
676
100
AcDbEntity
  8
2
370
    18
100
AcDbText
 10
299.549398
 20
128.658157
 30
0.0
 40
6.0
  1
140
 50
90.0
 41
2.0
 72
     5
 11
299.549398
 21
144.258157
 31
0.0
100
AcDbText
  0
LINE
  5
677
100
AcDbEntity
  8
2
370
    25
100
AcDbLine
 10
281.311706
 20
67.658157
 30
0.0
 11
302.549398
 21
67.658157
 31
0.0
  0
LINE
  5
678
100
AcDbEntity
  8
2
370
    25
100
AcDbLine
 10
300.549398
 20
67.658157
 30
0.0
 11
301.584674
 21
71.521861
 31
0.0
  0
LINE
  5
679
100
AcDbEntity
  8
2
370
    25
100
AcDbLine
 10
300.549398
 20
67.658157
 30
0.0
 11
299.514122
 21
71.521861
 31
0.0
  0
LINE
  5
67A
100
AcDbEntity
  8
2
370
    25
100
AcDbLine
 10
300.549398
 20
67.658157
 30
0.0
 11
300.549398
 21
207.658157
 31
0.0
  0
LINE
  5
67B
100
AcDbEntity
  8
2
370
    25
100
AcDbLine
 10
300.549398
 20
207.658157
 30
0.0
 11
299.514122
 21
203.794454
 31
0.0
  0
LINE
  5
67C
100
AcDbEntity
  8
2
370
    25
100
AcDbLine
 10
300.549398
 20
207.658157
 30
0.0
 11
301.584674
 21
203.794454
 31
0.0
  0
LINE
  5
67D
100
AcDbEntity
  8
2
370
    25
100
AcDbLine
 10
281.311706
 20
207.658157
 30
0.0
 11
302.549398
 21
207.658157
 31
0.0
  0
ENDBLK
  5
67E
100
AcDbEntity
  8
2
100
AcDbBlockEnd
  0
BLOCK
  5
67F
100
AcDbEntity
  8
2
100
AcDbBlockBegin
  2
*D34
 70
     1
 10
0.0
 20
0.0
 30
0.0
  3
*D34
  1

  0
TEXT
  5
680
100
AcDbEntity
  8
2
370
    18
100
AcDbText
 10
327.658107
 20
35.732933
 30
0.0
 40
6.0
  1
13
 41
2.0
 72
     5
 11
337.258107
 21
35.732933
 31
0.0
100
AcDbText
  0
LINE
  5
681
100
AcDbEntity
  8
2
370
    25
100
AcDbLine
 10
340.158107
 20
74.161987
 30
0.0
 11
340.158107
 21
32.732933
 31
0.0
  0
LINE
  5
682
100
AcDbEntity
  8
2
370
    25
100
AcDbLine
 10
340.158107
 20
34.732933
 30
0.0
 11
336.294403
 21
35.768209
 31
0.0
  0
LINE
  5
683
100
AcDbEntity
  8
2
370
    25
100
AcDbLine
 10
340.158107
 20
34.732933
 30
0.0
 11
336.294403
 21
33.697657
 31
0.0
  0
LINE
  5
684
100
AcDbEntity
  8
2
370
    25
100
AcDbLine
 10
340.158107
 20
34.732933
 30
0.0
 11
327.158107
 21
34.732933
 31
0.0
  0
LINE
  5
685
100
AcDbEntity
  8
2
370
    25
100
AcDbLine
 10
327.158107
 20
34.732933
 30
0.0
 11
331.02181
 21
33.697657
 31
0.0
  0
LINE
  5
686
100
AcDbEntity
  8
2
370
    25
100
AcDbLine
 10
327.158107
 20
34.732933
 30
0.0
 11
331.02181
 21
35.768209
 31
0.0
  0
LINE
  5
687
100
AcDbEntity
  8
2
370
    25
100
AcDbLine
 10
327.158107
 20
50.158157
 30
0.0
 11
327.158107
 21
32.732933
 31
0.0
  0
ENDBLK
  5
688
100
AcDbEntity
  8
2
100
AcDbBlockEnd
  0
BLOCK
  5
689
100
AcDbEntity
  8
2
100
AcDbBlockBegin
  2
*D35
 70
     1
 10
0.0
 20
0.0
 30
0.0
  3
*D35
  1

  0
TEXT
  5
68A
100
AcDbEntity
  8
2
370
    18
100
AcDbText
 10
318.93745
 20
248.658157
 30
0.0
 40
5.0
  1
29
 50
90.0
 41
2.0
 72
     5
 11
318.93745
 21
256.658157
 31
0.0
100
AcDbText
  0
LINE
  5
68B
100
AcDbEntity
  8
2
370
    25
100
AcDbLine
 10
326.158107
 20
239.158157
 30
0.0
 11
317.93745
 21
239.158157
 31
0.0
  0
LINE
  5
68C
100
AcDbEntity
  8
2
370
    25
100
AcDbLine
 10
319.93745
 20
239.158157
 30
0.0
 11
320.972726
 21
243.021861
 31
0.0
  0
LINE
  5
68D
100
AcDbEntity
  8
2
370
    25
100
AcDbLine
 10
319.93745
 20
239.158157
 30
0.0
 11
318.902174
 21
243.021861
 31
0.0
  0
LINE
  5
68E
100
AcDbEntity
  8
2
370
    25
100
AcDbLine
 10
319.93745
 20
239.158157
 30
0.0
 11
319.93745
 21
268.158157
 31
0.0
  0
LINE
  5
68F
100
AcDbEntity
  8
2
370
    25
100
AcDbLine
 10
319.93745
 20
268.158157
 30
0.0
 11
318.902174
 21
264.294454
 31
0.0
  0
LINE
  5
690
100
AcDbEntity
  8
2
370
    25
100
AcDbLine
 10
319.93745
 20
268.158157
 30
0.0
 11
320.972726
 21
264.294454
 31
0.0
  0
LINE
  5
691
100
AcDbEntity
  8
2
370
    25
100
AcDbLine
 10
326.158107
 20
268.158157
 30
0.0
 11
317.93745
 21
268.158157
 31
0.0
  0
ENDBLK
  5
692
100
AcDbEntity
  8
2
100
AcDbBlockEnd
  0
BLOCK
  5
693
100
AcDbEntity
  8
2
100
AcDbBlockBegin
  2
*D36
 70
     1
 10
0.0
 20
0.0
 30
0.0
  3
*D36
  1

  0
LINE
  5
694
100
AcDbEntity
  8
2
370
    25
100
AcDbLine
 10
46.065305
 20
50.158157
 30
0.0
 11
46.065305
 21
19.195782
 31
0.0
  0
LINE
  5
695
100
AcDbEntity
  8
2
370
    25
100
AcDbLine
 10
46.065305
 20
21.195782
 30
0.0
 11
49.929008
 21
20.160506
 31
0.0
  0
LINE
  5
696
100
AcDbEntity
  8
2
370
    25
100
AcDbLine
 10
46.065305
 20
21.195782
 30
0.0
 11
49.929008
 21
22.231058
 31
0.0
  0
LINE
  5
697
100
AcDbEntity
  8
2
370
    25
100
AcDbLine
 10
46.065305
 20
21.195782
 30
0.0
 11
79.065305
 21
21.195782
 31
0.0
  0
LINE
  5
698
100
AcDbEntity
  8
2
370
    25
100
AcDbLine
 10
79.065305
 20
21.195782
 30
0.0
 11
75.201602
 21
22.231058
 31
0.0
  0
LINE
  5
699
100
AcDbEntity
  8
2
370
    25
100
AcDbLine
 10
79.065305
 20
21.195782
 30
0.0
 11
75.201602
 21
20.160506
 31
0.0
  0
LINE
  5
69A
100
AcDbEntity
  8
2
370
    25
100
AcDbLine
 10
79.065305
 20
50.158157
 30
0.0
 11
79.065305
 21
19.195782
 31
0.0
  0
ENDBLK
  5
69B
100
AcDbEntity
  8
2
100
AcDbBlockEnd
  0
BLOCK
  5
69C
100
AcDbEntity
  8
2
100
AcDbBlockBegin
  2
*D37
 70
     1
 10
0.0
 20
0.0
 30
0.0
  3
*D37
  1

  0
TEXT
  5
69D
100
AcDbEntity
  8
2
370
    18
100
AcDbText
 10
-173.432303
 20
-271.155945
 30
0.0
 40
5.0
  1
26
 41
2.0
 72
     5
 11
-165.432303
 21
-271.155945
 31
0.0
100
AcDbText
  0
LINE
  5
69E
100
AcDbEntity
  8
2
370
    25
100
AcDbLine
 10
-183.932303
 20
-259.161892
 30
0.0
 11
-183.932303
 21
-274.155945
 31
0.0
  0
LINE
  5
69F
100
AcDbEntity
  8
2
370
    25
100
AcDbLine
 10
-183.932303
 20
-272.155945
 30
0.0
 11
-180.0686
 21
-273.191221
 31
0.0
  0
LINE
  5
6A0
100
AcDbEntity
  8
2
370
    25
100
AcDbLine
 10
-183.932303
 20
-272.155945
 30
0.0
 11
-180.0686
 21
-271.120669
 31
0.0
  0
LINE
  5
6A1
100
AcDbEntity
  8
2
370
    25
100
AcDbLine
 10
-183.932303
 20
-272.155945
 30
0.0
 11
-157.932303
 21
-272.155945
 31
0.0
  0
LINE
  5
6A2
100
AcDbEntity
  8
2
370
    25
100
AcDbLine
 10
-157.932303
 20
-272.155945
 30
0.0
 11
-161.796007
 21
-271.120669
 31
0.0
  0
LINE
  5
6A3
100
AcDbEntity
  8
2
370
    25
100
AcDbLine
 10
-157.932303
 20
-272.155945
 30
0.0
 11
-161.796007
 21
-273.191221
 31
0.0
  0
LINE
  5
6A4
100
AcDbEntity
  8
2
370
    25
100
AcDbLine
 10
-157.932303
 20
-259.161892
 30
0.0
 11
-157.932303
 21
-274.155945
 31
0.0
  0
ENDBLK
  5
6A5
100
AcDbEntity
  8
2
100
AcDbBlockEnd
  0
BLOCK
  5
6A6
100
AcDbEntity
  8
2
100
AcDbBlockBegin
  2
*D38
 70
     1
 10
0.0
 20
0.0
 30
0.0
  3
*D38
  1

  0
TEXT
  5
6A7
100
AcDbEntity
  8
2
370
    18
100
AcDbText
 10
84.565305
 20
169.763245
 30
0.0
 40
5.0
  1
13
 41
2.0
 72
     5
 11
92.565305
 21
169.763245
 31
0.0
100
AcDbText
  0
LINE
  5
6A8
100
AcDbEntity
  8
2
370
    25
100
AcDbLine
 10
67.565305
 20
168.763245
 30
0.0
 11
63.701602
 21
169.798521
 31
0.0
  0
LINE
  5
6A9
100
AcDbEntity
  8
2
370
    25
100
AcDbLine
 10
67.565305
 20
168.763245
 30
0.0
 11
63.701602
 21
167.727968
 31
0.0
  0
LINE
  5
6AA
100
AcDbEntity
  8
2
370
    25
100
AcDbLine
 10
57.565305
 20
168.763245
 30
0.0
 11
96.565305
 21
168.763245
 31
0.0
  0
LINE
  5
6AB
100
AcDbEntity
  8
2
370
    25
100
AcDbLine
 10
80.565305
 20
168.763245
 30
0.0
 11
84.429008
 21
167.727968
 31
0.0
  0
LINE
  5
6AC
100
AcDbEntity
  8
2
370
    25
100
AcDbLine
 10
80.565305
 20
168.763245
 30
0.0
 11
84.429008
 21
169.798521
 31
0.0
  0
ENDBLK
  5
6AD
100
AcDbEntity
  8
2
100
AcDbBlockEnd
  0
BLOCK
  5
6AE
100
AcDbEntity
  8
2
100
AcDbBlockBegin
  2
*D39
 70
     1
 10
0.0
 20
0.0
 30
0.0
  3
*D39
  1

  0
TEXT
  5
6AF
100
AcDbEntity
  8
2
370
    18
100
AcDbText
 10
311.658107
 20
169.742645
 30
0.0
 40
5.0
  1
13
 41
2.0
 72
     5
 11
319.658107
 21
169.742645
 31
0.0
100
AcDbText
  0
LINE
  5
6B0
100
AcDbEntity
  8
2
370
    25
100
AcDbLine
 10
325.658107
 20
168.742645
 30
0.0
 11
321.794403
 21
169.777921
 31
0.0
  0
LINE
  5
6B1
100
AcDbEntity
  8
2
370
    25
100
AcDbLine
 10
325.658107
 20
168.742645
 30
0.0
 11
321.794403
 21
167.707369
 31
0.0
  0
LINE
  5
6B2
100
AcDbEntity
  8
2
370
    25
100
AcDbLine
 10
309.658107
 20
168.742645
 30
0.0
 11
348.658107
 21
168.742645
 31
0.0
  0
LINE
  5
6B3
100
AcDbEntity
  8
2
370
    25
100
AcDbLine
 10
338.658107
 20
168.742645
 30
0.0
 11
342.52181
 21
167.707369
 31
0.0
  0
LINE
  5
6B4
100
AcDbEntity
  8
2
370
    25
100
AcDbLine
 10
338.658107
 20
168.742645
 30
0.0
 11
342.52181
 21
169.777921
 31
0.0
  0
ENDBLK
  5
6B5
100
AcDbEntity
  8
2
100
AcDbBlockEnd
  0
ENDSEC
  0
SECTION
  2
ENTITIES
  0
ARC
  5
4C
100
AcDbEntity
  8
1
370
    25
100
AcDbCircle
 10
-315.932303
 20
53.398893
 30
0.0
 40
19.5
100
AcDbArc
 50
180.0
 51
360.0
  0
ARC
  5
4D
100
AcDbEntity
  8
1
370
    25
100
AcDbCircle
 10
-315.932303
 20
188.398893
 30
0.0
 40
19.5
100
AcDbArc
 50
0.0
 51
180.0
  0
LINE
  5
4E
100
AcDbEntity
  8
1
370
    25
100
AcDbLine
 10
-296.432303
 20
53.398893
 30
0.0
 11
-296.432303
 21
188.398893
 31
0.0
  0
LINE
  5
4F
100
AcDbEntity
  8
1
370
    25
100
AcDbLine
 10
-335.432303
 20
53.398893
 30
0.0
 11
-335.432303
 21
188.398893
 31
0.0
  0
ARC
  5
50
100
AcDbEntity
  8
1
370
    25
100
AcDbCircle
 10
-315.932303
 20
65.898893
 30
0.0
 40
13.2
100
AcDbArc
 50
180.0
 51
360.0
  0
ARC
  5
51
100
AcDbEntity
  8
1
370
    25
100
AcDbCircle
 10
-315.932303
 20
139.898893
 30
0.0
 40
13.2
100
AcDbArc
 50
0.0
 51
180.0
  0
LINE
  5
52
100
AcDbEntity
  8
1
370
    25
100
AcDbLine
 10
-302.732303
 20
65.898893
 30
0.0
 11
-302.732303
 21
139.898893
 31
0.0
  0
LINE
  5
53
100
AcDbEntity
  8
1
370
    25
100
AcDbLine
 10
-329.132303
 20
65.898893
 30
0.0
 11
-329.132303
 21
139.898893
 31
0.0
  0
LINE
  5
54
100
AcDbEntity
  8
1
370
    18
  6
CENTER
100
AcDbLine
 10
-322.932123
 20
196.398893
 30
0.0
 11
-308.93297
 21
196.398893
 31
0.0
  0
LINE
  5
55
100
AcDbEntity
  8
1
370
    18
  6
CENTER
100
AcDbLine
 10
-322.932303
 20
45.398893
 30
0.0
 11
-308.932303
 21
45.398893
 31
0.0
  0
LINE
  5
56
100
AcDbEntity
  8
1
370
    18
  6
CENTER
100
AcDbLine
 10
-315.932303
 20
215.046918
 30
0.0
 11
-315.932303
 21
28.899641
 31
0.0
  0
LINE
  5
57
100
AcDbEntity
  8
1
370
    25
100
AcDbLine
 10
-245.15848
 20
38.92439
 30
0.0
 11
-240.619215
 21
39.043255
 31
0.0
  0
ARC
  5
58
100
AcDbEntity
  8
1
370
    25
100
AcDbCircle
 10
-240.632303
 20
39.543084
 30
0.0
 40
0.5
100
AcDbArc
 50
271.5
 51
360.0
  0
LINE
  5
59
100
AcDbEntity
  8
1
370
    25
100
AcDbLine
 10
-245.15848
 20
202.873389
 30
0.0
 11
-240.619215
 21
202.754524
 31
0.0
  0
ARC
  5
5A
100
AcDbEntity
  8
1
370
    25
100
AcDbCircle
 10
-240.632303
 20
202.254696
 30
0.0
 40
0.5
100
AcDbArc
 50
0.0
 51
88.5
  0
LINE
  5
5B
100
AcDbEntity
  8
1
370
    25
100
AcDbLine
 10
-240.132303
 20
39.543084
 30
0.0
 11
-240.132303
 21
65.254696
 31
0.0
  0
LINE
  5
5C
100
AcDbEntity
  8
1
370
    25
100
AcDbLine
 10
-240.619215
 20
65.754524
 30
0.0
 11
-246.132303
 21
65.89889
 31
0.0
  0
ARC
  5
5D
100
AcDbEntity
  8
1
370
    25
100
AcDbCircle
 10
-240.632303
 20
65.254696
 30
0.0
 40
0.5
100
AcDbArc
 50
0.0
 51
88.5
  0
LINE
  5
5E
100
AcDbEntity
  8
1
370
    25
100
AcDbLine
 10
-240.619215
 20
140.043233
 30
0.0
 11
-246.132303
 21
139.898867
 31
0.0
  0
ARC
  5
5F
100
AcDbEntity
  8
1
370
    25
100
AcDbCircle
 10
-240.632303
 20
140.543061
 30
0.0
 40
0.5
100
AcDbArc
 50
271.5
 51
0.0
  0
POINT
  5
60
100
AcDbEntity
  8
1
370
    50
100
AcDbPoint
 10
-240.132303
 20
39.056005
 30
0.0
  0
LINE
  5
61
100
AcDbEntity
  8
1
370
    25
100
AcDbLine
 10
-240.132303
 20
52.312405
 30
0.0
 11
-237.506024
 21
52.681504
 31
0.0
  0
ARC
  5
62
100
AcDbEntity
  8
1
370
    25
100
AcDbCircle
 10
-245.132303
 20
203.873046
 30
0.0
 40
1.0
100
AcDbArc
 50
224.415309
 51
268.5
  0
ARC
  5
63
100
AcDbEntity
  8
1
370
    25
100
AcDbCircle
 10
-245.132303
 20
37.924733
 30
0.0
 40
1.0
100
AcDbArc
 50
91.5
 51
135.584691
  0
LINE
  5
64
100
AcDbEntity
  8
1
370
    25
100
AcDbLine
 10
-246.132303
 20
207.898912
 30
0.0
 11
-246.588204
 21
207.859026
 31
0.0
  0
ARC
  5
65
100
AcDbEntity
  8
1
370
    25
100
AcDbCircle
 10
92.167697
 20
53.398867
 30
0.0
 40
340.0
100
AcDbArc
 50
180.0
 51
183.15407
  0
LINE
  5
66
100
AcDbEntity
  8
1
370
    25
100
AcDbLine
 10
-246.132303
 20
33.898867
 30
0.0
 11
-246.588205
 21
33.938754
 31
0.0
  0
ARC
  5
67
100
AcDbEntity
  8
1
370
    25
100
AcDbCircle
 10
92.167697
 20
188.398884
 30
0.0
 40
340.0
100
AcDbArc
 50
176.845925
 51
180.0
  0
LINE
  5
68
100
AcDbEntity
  8
1
370
    25
100
AcDbLine
 10
-247.832303
 20
53.398867
 30
0.0
 11
-247.832303
 21
188.398884
 31
0.0
  0
POINT
  5
69
100
AcDbEntity
  8
1
370
    50
100
AcDbPoint
 10
-247.832303
 20
153.098867
 30
0.0
  0
LINE
  5
6A
100
AcDbEntity
  8
1
370
    25
100
AcDbLine
 10
-233.632303
 20
57.137711
 30
0.0
 11
-233.632303
 21
148.660068
 31
0.0
  0
ARC
  5
6B
100
AcDbEntity
  8
1
370
    25
100
AcDbCircle
 10
-238.132303
 20
148.660068
 30
0.0
 40
4.5
100
AcDbArc
 50
360.0
 51
82.0
  0
ARC
  5
6C
100
AcDbEntity
  8
1
370
    25
100
AcDbCircle
 10
-238.132303
 20
57.137711
 30
0.0
 40
4.5
100
AcDbArc
 50
278.0
 51
360.0
  0
ARC
  5
6D
100
AcDbEntity
  8
1
370
    25
100
AcDbCircle
 10
-246.518481
 20
34.735709
 30
0.0
 40
0.8
100
AcDbArc
 50
183.15407
 51
265.0
  0
ARC
  5
6E
100
AcDbEntity
  8
1
370
    25
100
AcDbCircle
 10
-246.518479
 20
207.06207
 30
0.0
 40
0.8
100
AcDbArc
 50
95.0
 51
176.845925
  0
LINE
  5
6F
100
AcDbEntity
  8
1
370
    25
100
AcDbLine
 10
-237.506024
 20
153.116275
 30
0.0
 11
-240.132303
 21
153.485374
 31
0.0
  0
ARC
  5
70
100
AcDbEntity
  8
1
370
    25
100
AcDbCircle
 10
-315.932303
 20
65.898893
 30
0.0
 40
11.401179
100
AcDbArc
 50
180.0
 51
360.0
  0
LINE
  5
71
100
AcDbEntity
  8
1
370
    25
100
AcDbLine
 10
-327.333482
 20
65.898893
 30
0.0
 11
-327.333482
 21
139.898893
 31
0.0
  0
LINE
  5
72
100
AcDbEntity
  8
1
370
    25
100
AcDbLine
 10
-304.531125
 20
65.898893
 30
0.0
 11
-304.531125
 21
139.898893
 31
0.0
  0
ARC
  5
73
100
AcDbEntity
  8
1
370
    25
100
AcDbCircle
 10
-315.932303
 20
139.898893
 30
0.0
 40
11.401179
100
AcDbArc
 50
0.0
 51
180.0
  0
LINE
  5
74
100
AcDbEntity
  8
1
370
    25
100
AcDbLine
 10
-240.632303
 20
197.351103
 30
0.0
 11
-241.132303
 21
197.351103
 31
0.0
  0
LINE
  5
75
100
AcDbEntity
  8
1
370
    25
100
AcDbLine
 10
-240.632303
 20
194.162559
 30
0.0
 11
-241.132303
 21
194.162559
 31
0.0
  0
LINE
  5
76
100
AcDbEntity
  8
1
370
    25
100
AcDbLine
 10
-241.132303
 20
194.162559
 30
0.0
 11
-241.132303
 21
197.351103
 31
0.0
  0
LINE
  5
77
100
AcDbEntity
  8
1
370
    25
100
AcDbLine
 10
-240.132303
 20
197.851103
 30
0.0
 11
-240.132303
 21
202.254696
 31
0.0
  0
ARC
  5
78
100
AcDbEntity
  8
1
370
    25
100
AcDbCircle
 10
-240.632303
 20
197.851103
 30
0.0
 40
0.5
100
AcDbArc
 50
270.0
 51
360.0
  0
ARC
  5
79
100
AcDbEntity
  8
1
370
    25
100
AcDbCircle
 10
-240.632303
 20
193.662559
 30
0.0
 40
0.5
100
AcDbArc
 50
0.0
 51
90.0
  0
LINE
  5
7A
100
AcDbEntity
  8
1
370
    25
100
AcDbLine
 10
-240.42445
 20
196.406518
 30
0.0
 11
-241.132303
 21
196.425053
 31
0.0
  0
ARC
  5
7B
100
AcDbEntity
  8
1
370
    25
100
AcDbCircle
 10
-240.432303
 20
196.10662
 30
0.0
 40
0.3
100
AcDbArc
 50
0.0
 51
88.5
  0
LINE
  5
7C
100
AcDbEntity
  8
1
370
    25
100
AcDbLine
 10
-225.132303
 20
192.898887
 30
0.0
 11
-225.132303
 21
199.898887
 31
0.0
  0
LINE
  5
7D
100
AcDbEntity
  8
1
370
    25
100
AcDbLine
 10
-225.632303
 20
200.048887
 30
0.0
 11
-225.132303
 21
199.898887
 31
0.0
  0
LINE
  5
7E
100
AcDbEntity
  8
1
370
    25
100
AcDbLine
 10
-225.632303
 20
200.048887
 30
0.0
 11
-239.132303
 21
200.198887
 31
0.0
  0
LINE
  5
7F
100
AcDbEntity
  8
1
370
    25
100
AcDbLine
 10
-239.132303
 20
200.198887
 30
0.0
 11
-240.132303
 21
200.233808
 31
0.0
  0
LINE
  5
80
100
AcDbEntity
  8
1
370
    25
100
AcDbLine
 10
-225.632303
 20
192.748887
 30
0.0
 11
-239.132303
 21
192.598887
 31
0.0
  0
LINE
  5
81
100
AcDbEntity
  8
1
370
    25
100
AcDbLine
 10
-239.132303
 20
192.598887
 30
0.0
 11
-240.132303
 21
192.563966
 31
0.0
  0
LINE
  5
82
100
AcDbEntity
  8
1
370
    25
100
AcDbLine
 10
-225.132303
 20
192.898887
 30
0.0
 11
-225.632303
 21
192.748887
 31
0.0
  0
LINE
  5
83
100
AcDbEntity
  8
1
370
    25
100
AcDbLine
 10
-225.132303
 20
41.898887
 30
0.0
 11
-225.132303
 21
48.898887
 31
0.0
  0
LINE
  5
84
100
AcDbEntity
  8
1
370
    25
100
AcDbLine
 10
-225.632303
 20
49.048887
 30
0.0
 11
-225.132303
 21
48.898887
 31
0.0
  0
LINE
  5
85
100
AcDbEntity
  8
1
370
    25
100
AcDbLine
 10
-225.132303
 20
41.898887
 30
0.0
 11
-225.632303
 21
41.748887
 31
0.0
  0
LINE
  5
86
100
AcDbEntity
  8
1
370
    25
100
AcDbLine
 10
-225.632303
 20
49.048887
 30
0.0
 11
-239.132303
 21
49.198887
 31
0.0
  0
LINE
  5
87
100
AcDbEntity
  8
1
370
    25
100
AcDbLine
 10
-239.132303
 20
49.198887
 30
0.0
 11
-240.132303
 21
49.233808
 31
0.0
  0
LINE
  5
88
100
AcDbEntity
  8
1
370
    25
100
AcDbLine
 10
-225.632303
 20
41.748887
 30
0.0
 11
-239.132303
 21
41.598887
 31
0.0
  0
LINE
  5
89
100
AcDbEntity
  8
1
370
    25
100
AcDbLine
 10
-239.132303
 20
41.598887
 30
0.0
 11
-240.132303
 21
41.563966
 31
0.0
  0
LINE
  5
8A
100
AcDbEntity
  8
1
370
    18
  6
CENTER
100
AcDbLine
 10
-251.877886
 20
45.39889
 30
0.0
 11
-218.50746
 21
45.39889
 31
0.0
  0
LINE
  5
8B
100
AcDbEntity
  8
1
370
    25
100
AcDbLine
 10
-240.132303
 20
140.543061
 30
0.0
 11
-240.132303
 21
196.10662
 31
0.0
  0
LINE
  5
8C
100
AcDbEntity
  8
1
370
    18
  6
CENTER
100
AcDbLine
 10
-245.848109
 20
165.39888
 30
0.0
 11
-222.497446
 21
165.39888
 31
0.0
  0
LINE
  5
8D
100
AcDbEntity
  8
1
370
    25
100
AcDbLine
 10
-225.132303
 20
167.831067
 30
0.0
 11
-225.132303
 21
162.966692
 31
0.0
  0
LINE
  5
8E
100
AcDbEntity
  8
1
370
    25
100
AcDbLine
 10
-239.132303
 20
168.44888
 30
0.0
 11
-225.632303
 21
168.331067
 31
0.0
  0
LINE
  5
8F
100
AcDbEntity
  8
1
370
    25
100
AcDbLine
 10
-225.632303
 20
168.331067
 30
0.0
 11
-225.132303
 21
167.831067
 31
0.0
  0
LINE
  5
90
100
AcDbEntity
  8
1
370
    25
100
AcDbLine
 10
-239.132303
 20
162.34888
 30
0.0
 11
-225.632303
 21
162.466692
 31
0.0
  0
LINE
  5
91
100
AcDbEntity
  8
1
370
    25
100
AcDbLine
 10
-225.632303
 20
162.466692
 30
0.0
 11
-225.132303
 21
162.966692
 31
0.0
  0
LINE
  5
92
100
AcDbEntity
  8
1
370
    25
100
AcDbLine
 10
-239.132303
 20
168.44888
 30
0.0
 11
-240.132303
 21
168.483801
 31
0.0
  0
LINE
  5
93
100
AcDbEntity
  8
1
370
    25
100
AcDbLine
 10
-239.132303
 20
162.34888
 30
0.0
 11
-240.132303
 21
162.313959
 31
0.0
  0
LINE
  5
94
100
AcDbEntity
  8
1
370
    18
100
AcDbLine
 10
-245.932303
 20
33.89889
 30
0.0
 11
-245.932303
 21
207.89889
 31
0.0
  0
LINE
  5
95
100
AcDbEntity
  8
1
370
    18
100
AcDbLine
 10
-246.132303
 20
207.89889
 30
0.0
 11
-245.932303
 21
207.89889
 31
0.0
  0
ARC
  5
96
100
AcDbEntity
  8
1
370
    25
100
AcDbCircle
 10
-245.632303
 20
203.383149
 30
0.0
 40
0.3
100
AcDbArc
 50
180.0
 51
224.415309
  0
ARC
  5
97
100
AcDbEntity
  8
1
370
    25
100
AcDbCircle
 10
-245.632303
 20
38.414631
 30
0.0
 40
0.3
100
AcDbArc
 50
135.584691
 51
180.0
  0
ARC
  5
98
100
AcDbEntity
  8
1
370
    25
100
AcDbCircle
 10
-145.932303
 20
53.398893
 30
0.0
 40
19.5
100
AcDbArc
 50
180.0
 51
360.0
  0
ARC
  5
99
100
AcDbEntity
  8
1
370
    25
100
AcDbCircle
 10
-145.932303
 20
188.398893
 30
0.0
 40
19.5
100
AcDbArc
 50
0.0
 51
180.0
  0
LINE
  5
9A
100
AcDbEntity
  8
1
370
    25
100
AcDbLine
 10
-126.432303
 20
53.398893
 30
0.0
 11
-126.432303
 21
188.398893
 31
0.0
  0
LINE
  5
9B
100
AcDbEntity
  8
1
370
    25
100
AcDbLine
 10
-165.432303
 20
53.398893
 30
0.0
 11
-165.432303
 21
188.398893
 31
0.0
  0
ARC
  5
9C
100
AcDbEntity
  8
1
370
    25
100
AcDbCircle
 10
-145.932303
 20
65.898893
 30
0.0
 40
13.2
100
AcDbArc
 50
180.0
 51
360.0
  0
ARC
  5
9D
100
AcDbEntity
  8
1
370
    25
100
AcDbCircle
 10
-145.932303
 20
139.898893
 30
0.0
 40
13.2
100
AcDbArc
 50
0.0
 51
180.0
  0
LINE
  5
9E
100
AcDbEntity
  8
1
370
    25
100
AcDbLine
 10
-132.732303
 20
65.898893
 30
0.0
 11
-132.732303
 21
139.898893
 31
0.0
  0
LINE
  5
9F
100
AcDbEntity
  8
1
370
    25
100
AcDbLine
 10
-159.132303
 20
65.898893
 30
0.0
 11
-159.132303
 21
139.898893
 31
0.0
  0
LINE
  5
A0
100
AcDbEntity
  8
1
370
    18
  6
CENTER
100
AcDbLine
 10
-152.931562
 20
196.398893
 30
0.0
 11
-138.932205
 21
196.398893
 31
0.0
  0
LINE
  5
A1
100
AcDbEntity
  8
1
370
    18
  6
CENTER
100
AcDbLine
 10
-152.932303
 20
45.398893
 30
0.0
 11
-138.932303
 21
45.398893
 31
0.0
  0
LINE
  5
A2
100
AcDbEntity
  8
1
370
    25
100
AcDbLine
 10
-216.706127
 20
38.92439
 30
0.0
 11
-221.245392
 21
39.043255
 31
0.0
  0
ARC
  5
A3
100
AcDbEntity
  8
1
370
    25
100
AcDbCircle
 10
-221.232303
 20
39.543084
 30
0.0
 40
0.5
100
AcDbArc
 50
180.0
 51
268.5
  0
LINE
  5
A4
100
AcDbEntity
  8
1
370
    25
100
AcDbLine
 10
-216.706127
 20
202.873389
 30
0.0
 11
-221.245392
 21
202.754524
 31
0.0
  0
ARC
  5
A5
100
AcDbEntity
  8
1
370
    25
100
AcDbCircle
 10
-221.232303
 20
202.254696
 30
0.0
 40
0.5
100
AcDbArc
 50
91.5
 51
180.0
  0
LINE
  5
A6
100
AcDbEntity
  8
1
370
    25
100
AcDbLine
 10
-221.732303
 20
39.543084
 30
0.0
 11
-221.732303
 21
65.254696
 31
0.0
  0
LINE
  5
A7
100
AcDbEntity
  8
1
370
    25
100
AcDbLine
 10
-221.245392
 20
65.754524
 30
0.0
 11
-215.932303
 21
65.893652
 31
0.0
  0
ARC
  5
A8
100
AcDbEntity
  8
1
370
    25
100
AcDbCircle
 10
-221.232303
 20
65.254696
 30
0.0
 40
0.5
100
AcDbArc
 50
91.5
 51
180.0
  0
LINE
  5
A9
100
AcDbEntity
  8
1
370
    25
100
AcDbLine
 10
-221.245392
 20
140.043233
 30
0.0
 11
-215.932303
 21
139.904105
 31
0.0
  0
ARC
  5
AA
100
AcDbEntity
  8
1
370
    25
100
AcDbCircle
 10
-221.232303
 20
140.543061
 30
0.0
 40
0.5
100
AcDbArc
 50
180.0
 51
268.5
  0
POINT
  5
AB
100
AcDbEntity
  8
1
370
    50
100
AcDbPoint
 10
-221.732303
 20
39.056005
 30
0.0
  0
LINE
  5
AC
100
AcDbEntity
  8
1
370
    25
100
AcDbLine
 10
-221.732303
 20
52.312405
 30
0.0
 11
-224.358582
 21
52.681504
 31
0.0
  0
ARC
  5
AD
100
AcDbEntity
  8
1
370
    25
100
AcDbCircle
 10
-216.732303
 20
203.873046
 30
0.0
 40
1.0
100
AcDbArc
 50
271.5
 51
315.584691
  0
ARC
  5
AE
100
AcDbEntity
  8
1
370
    25
100
AcDbCircle
 10
-216.732303
 20
37.924733
 30
0.0
 40
1.0
100
AcDbArc
 50
44.415309
 51
88.5
  0
LINE
  5
AF
100
AcDbEntity
  8
1
370
    25
100
AcDbLine
 10
-215.732303
 20
207.898912
 30
0.0
 11
-215.276403
 21
207.859026
 31
0.0
  0
ARC
  5
B0
100
AcDbEntity
  8
1
370
    25
100
AcDbCircle
 10
-554.032303
 20
53.398867
 30
0.0
 40
340.0
100
AcDbArc
 50
356.84593
 51
360.0
  0
LINE
  5
B1
100
AcDbEntity
  8
1
370
    25
100
AcDbLine
 10
-215.732303
 20
33.898867
 30
0.0
 11
-215.276402
 21
33.938754
 31
0.0
  0
ARC
  5
B2
100
AcDbEntity
  8
1
370
    25
100
AcDbCircle
 10
-554.032303
 20
188.398884
 30
0.0
 40
340.0
100
AcDbArc
 50
0.0
 51
3.154075
  0
LINE
  5
B3
100
AcDbEntity
  8
1
370
    25
100
AcDbLine
 10
-214.032303
 20
53.398867
 30
0.0
 11
-214.032303
 21
188.398884
 31
0.0
  0
POINT
  5
B4
100
AcDbEntity
  8
1
370
    50
100
AcDbPoint
 10
-214.032303
 20
153.098867
 30
0.0
  0
LINE
  5
B5
100
AcDbEntity
  8
1
370
    18
  6
DASHED
100
AcDbLine
 10
-226.832303
 20
57.105549
 30
0.0
 11
-226.832303
 21
148.692085
 31
0.0
  0
LINE
  5
B6
100
AcDbEntity
  8
1
370
    25
100
AcDbLine
 10
-228.232303
 20
57.137711
 30
0.0
 11
-228.232303
 21
148.660068
 31
0.0
  0
ARC
  5
B7
100
AcDbEntity
  8
1
370
    25
100
AcDbCircle
 10
-223.732303
 20
148.660068
 30
0.0
 40
4.5
100
AcDbArc
 50
98.0
 51
180.0
  0
ARC
  5
B8
100
AcDbEntity
  8
1
370
    25
100
AcDbCircle
 10
-223.732303
 20
57.137711
 30
0.0
 40
4.5
100
AcDbArc
 50
180.0
 51
262.0
  0
ARC
  5
B9
100
AcDbEntity
  8
1
370
    25
100
AcDbCircle
 10
-215.346126
 20
34.735709
 30
0.0
 40
0.8
100
AcDbArc
 50
275.0
 51
356.84593
  0
ARC
  5
BA
100
AcDbEntity
  8
1
370
    25
100
AcDbCircle
 10
-215.346128
 20
207.06207
 30
0.0
 40
0.8
100
AcDbArc
 50
3.154075
 51
85.0
  0
LINE
  5
BB
100
AcDbEntity
  8
1
370
    25
100
AcDbLine
 10
-224.358582
 20
153.116275
 30
0.0
 11
-221.732303
 21
153.485374
 31
0.0
  0
LINE
  5
BC
100
AcDbEntity
  8
1
370
    18
  6
CENTER
100
AcDbLine
 10
-209.408463
 20
196.39889
 30
0.0
 11
-252.456144
 21
196.39889
 31
0.0
  0
ARC
  5
BD
100
AcDbEntity
  8
1
370
    25
100
AcDbCircle
 10
-145.932303
 20
65.898893
 30
0.0
 40
11.401179
100
AcDbArc
 50
180.0
 51
360.0
  0
LINE
  5
BE
100
AcDbEntity
  8
1
370
    25
100
AcDbLine
 10
-157.333482
 20
65.898893
 30
0.0
 11
-157.333482
 21
139.898893
 31
0.0
  0
LINE
  5
BF
100
AcDbEntity
  8
1
370
    25
100
AcDbLine
 10
-134.531125
 20
65.898893
 30
0.0
 11
-134.531125
 21
139.898893
 31
0.0
  0
ARC
  5
C0
100
AcDbEntity
  8
1
370
    25
100
AcDbCircle
 10
-145.932303
 20
139.898893
 30
0.0
 40
11.401179
100
AcDbArc
 50
0.0
 51
180.0
  0
LINE
  5
C1
100
AcDbEntity
  8
1
370
    25
100
AcDbLine
 10
-221.232303
 20
197.351103
 30
0.0
 11
-220.732303
 21
197.351103
 31
0.0
  0
LINE
  5
C2
100
AcDbEntity
  8
1
370
    25
100
AcDbLine
 10
-221.232303
 20
194.162559
 30
0.0
 11
-220.732303
 21
194.162559
 31
0.0
  0
LINE
  5
C3
100
AcDbEntity
  8
1
370
    25
100
AcDbLine
 10
-220.732303
 20
194.162559
 30
0.0
 11
-220.732303
 21
197.351103
 31
0.0
  0
LINE
  5
C4
100
AcDbEntity
  8
1
370
    25
100
AcDbLine
 10
-221.732303
 20
197.851103
 30
0.0
 11
-221.732303
 21
202.254696
 31
0.0
  0
ARC
  5
C5
100
AcDbEntity
  8
1
370
    25
100
AcDbCircle
 10
-221.232303
 20
197.851103
 30
0.0
 40
0.5
100
AcDbArc
 50
180.0
 51
270.0
  0
ARC
  5
C6
100
AcDbEntity
  8
1
370
    25
100
AcDbCircle
 10
-221.232303
 20
193.662559
 30
0.0
 40
0.5
100
AcDbArc
 50
90.0
 51
180.0
  0
LINE
  5
C7
100
AcDbEntity
  8
1
370
    25
100
AcDbLine
 10
-221.440157
 20
196.406518
 30
0.0
 11
-220.732303
 21
196.425053
 31
0.0
  0
ARC
  5
C8
100
AcDbEntity
  8
1
370
    25
100
AcDbCircle
 10
-221.432303
 20
196.10662
 30
0.0
 40
0.3
100
AcDbArc
 50
91.5
 51
180.0
  0
LINE
  5
C9
100
AcDbEntity
  8
1
370
    25
100
AcDbLine
 10
-221.232303
 20
167.203738
 30
0.0
 11
-220.732303
 21
167.203738
 31
0.0
  0
LINE
  5
CA
100
AcDbEntity
  8
1
370
    25
100
AcDbLine
 10
-221.232303
 20
163.594017
 30
0.0
 11
-220.732303
 21
163.594017
 31
0.0
  0
ARC
  5
CB
100
AcDbEntity
  8
1
370
    25
100
AcDbCircle
 10
-221.232303
 20
167.703738
 30
0.0
 40
0.5
100
AcDbArc
 50
180.0
 51
270.0
  0
ARC
  5
CC
100
AcDbEntity
  8
1
370
    25
100
AcDbCircle
 10
-221.232303
 20
163.094017
 30
0.0
 40
0.5
100
AcDbArc
 50
90.0
 51
180.0
  0
LINE
  5
CD
100
AcDbEntity
  8
1
370
    25
100
AcDbLine
 10
-221.732303
 20
140.543061
 30
0.0
 11
-221.732303
 21
163.094017
 31
0.0
  0
LINE
  5
CE
100
AcDbEntity
  8
1
370
    25
100
AcDbLine
 10
-221.732303
 20
167.703738
 30
0.0
 11
-221.732303
 21
196.10662
 31
0.0
  0
LINE
  5
CF
100
AcDbEntity
  8
1
370
    25
100
AcDbLine
 10
-220.732303
 20
167.203738
 30
0.0
 11
-220.732303
 21
163.594017
 31
0.0
  0
LINE
  5
D0
100
AcDbEntity
  8
1
370
    25
100
AcDbLine
 10
-215.932303
 20
33.89889
 30
0.0
 11
-215.932303
 21
207.89889
 31
0.0
  0
LINE
  5
D1
100
AcDbEntity
  8
1
370
    25
100
AcDbLine
 10
-215.732303
 20
33.89889
 30
0.0
 11
-215.932303
 21
33.89889
 31
0.0
  0
LINE
  5
D2
100
AcDbEntity
  8
1
370
    25
100
AcDbLine
 10
-215.732303
 20
207.89889
 30
0.0
 11
-215.932303
 21
207.89889
 31
0.0
  0
ARC
  5
D3
100
AcDbEntity
  8
1
370
    25
100
AcDbCircle
 10
-216.232303
 20
38.414631
 30
0.0
 40
0.3
100
AcDbArc
 50
0.0
 51
44.415309
  0
ARC
  5
D4
100
AcDbEntity
  8
1
370
    25
100
AcDbCircle
 10
-216.232303
 20
203.383149
 30
0.0
 40
0.3
100
AcDbArc
 50
315.584691
 51
360.0
  0
ARC
  5
D5
100
AcDbEntity
  8
1
370
    25
100
AcDbCircle
 10
-148.082303
 20
198.548893
 30
0.0
 40
1.658571
100
AcDbArc
 50
270.0
 51
360.0
  0
ARC
  5
D6
100
AcDbEntity
  8
1
370
    25
100
AcDbCircle
 10
-143.782303
 20
198.548893
 30
0.0
 40
1.658571
100
AcDbArc
 50
180.0
 51
270.0
  0
ARC
  5
D7
100
AcDbEntity
  8
1
370
    25
100
AcDbCircle
 10
-143.782303
 20
194.248893
 30
0.0
 40
1.658571
100
AcDbArc
 50
90.0
 51
180.0
  0
ARC
  5
D8
100
AcDbEntity
  8
1
370
    25
100
AcDbCircle
 10
-148.082303
 20
194.248893
 30
0.0
 40
1.658571
100
AcDbArc
 50
0.0
 51
90.0
  0
LINE
  5
D9
100
AcDbEntity
  8
1
370
    25
100
AcDbLine
 10
-145.932303
 20
194.248893
 30
0.0
 11
-146.423732
 21
194.248893
 31
0.0
  0
LINE
  5
DA
100
AcDbEntity
  8
1
370
    25
100
AcDbLine
 10
-145.932303
 20
194.248893
 30
0.0
 11
-145.440875
 21
194.248893
 31
0.0
  0
LINE
  5
DB
100
AcDbEntity
  8
1
370
    25
100
AcDbLine
 10
-143.782303
 20
195.907464
 30
0.0
 11
-143.782303
 21
196.398893
 31
0.0
  0
LINE
  5
DC
100
AcDbEntity
  8
1
370
    25
100
AcDbLine
 10
-143.782303
 20
196.890322
 30
0.0
 11
-143.782303
 21
196.398893
 31
0.0
  0
LINE
  5
DD
100
AcDbEntity
  8
1
370
    25
100
AcDbLine
 10
-145.932303
 20
198.548893
 30
0.0
 11
-145.440875
 21
198.548893
 31
0.0
  0
LINE
  5
DE
100
AcDbEntity
  8
1
370
    25
100
AcDbLine
 10
-145.932303
 20
198.548893
 30
0.0
 11
-146.423732
 21
198.548893
 31
0.0
  0
LINE
  5
DF
100
AcDbEntity
  8
1
370
    25
100
AcDbLine
 10
-148.082303
 20
196.890322
 30
0.0
 11
-148.082303
 21
196.398893
 31
0.0
  0
LINE
  5
E0
100
AcDbEntity
  8
1
370
    25
100
AcDbLine
 10
-148.082303
 20
195.907464
 30
0.0
 11
-148.082303
 21
196.398893
 31
0.0
  0
CIRCLE
  5
E1
100
AcDbEntity
  8
1
370
    25
100
AcDbCircle
 10
-145.932303
 20
196.398893
 30
0.0
 40
4.0
  0
ARC
  5
E2
100
AcDbEntity
  8
1
370
    25
100
AcDbCircle
 10
-148.082303
 20
47.548888
 30
0.0
 40
1.658571
100
AcDbArc
 50
270.0
 51
360.0
  0
ARC
  5
E3
100
AcDbEntity
  8
1
370
    25
100
AcDbCircle
 10
-143.782303
 20
47.548888
 30
0.0
 40
1.658571
100
AcDbArc
 50
180.0
 51
270.0
  0
ARC
  5
E4
100
AcDbEntity
  8
1
370
    25
100
AcDbCircle
 10
-143.782303
 20
43.248888
 30
0.0
 40
1.658571
100
AcDbArc
 50
90.0
 51
180.0
  0
ARC
  5
E5
100
AcDbEntity
  8
1
370
    25
100
AcDbCircle
 10
-148.082303
 20
43.248888
 30
0.0
 40
1.658571
100
AcDbArc
 50
0.0
 51
90.0
  0
LINE
  5
E6
100
AcDbEntity
  8
1
370
    25
100
AcDbLine
 10
-145.932303
 20
43.248888
 30
0.0
 11
-146.423732
 21
43.248888
 31
0.0
  0
LINE
  5
E7
100
AcDbEntity
  8
1
370
    25
100
AcDbLine
 10
-145.932303
 20
43.248888
 30
0.0
 11
-145.440875
 21
43.248888
 31
0.0
  0
LINE
  5
E8
100
AcDbEntity
  8
1
370
    25
100
AcDbLine
 10
-143.782303
 20
44.907459
 30
0.0
 11
-143.782303
 21
45.398888
 31
0.0
  0
LINE
  5
E9
100
AcDbEntity
  8
1
370
    25
100
AcDbLine
 10
-143.782303
 20
45.890316
 30
0.0
 11
-143.782303
 21
45.398888
 31
0.0
  0
LINE
  5
EA
100
AcDbEntity
  8
1
370
    25
100
AcDbLine
 10
-145.932303
 20
47.548888
 30
0.0
 11
-145.440875
 21
47.548888
 31
0.0
  0
LINE
  5
EB
100
AcDbEntity
  8
1
370
    25
100
AcDbLine
 10
-145.932303
 20
47.548888
 30
0.0
 11
-146.423732
 21
47.548888
 31
0.0
  0
LINE
  5
EC
100
AcDbEntity
  8
1
370
    25
100
AcDbLine
 10
-148.082303
 20
45.890316
 30
0.0
 11
-148.082303
 21
45.398888
 31
0.0
  0
LINE
  5
ED
100
AcDbEntity
  8
1
370
    25
100
AcDbLine
 10
-148.082303
 20
44.907459
 30
0.0
 11
-148.082303
 21
45.398888
 31
0.0
  0
CIRCLE
  5
EE
100
AcDbEntity
  8
1
370
    25
100
AcDbCircle
 10
-145.932303
 20
45.398888
 30
0.0
 40
4.0
  0
LINE
  5
EF
100
AcDbEntity
  8
1
370
    25
100
AcDbLine
 10
-222.282303
 20
198.171393
 30
0.0
 11
-221.732303
 21
198.171393
 31
0.0
  0
LINE
  5
F0
100
AcDbEntity
  8
1
370
    25
100
AcDbLine
 10
-222.282303
 20
194.626393
 30
0.0
 11
-221.732303
 21
194.626393
 31
0.0
  0
LINE
  5
F1
100
AcDbEntity
  8
1
370
    25
100
AcDbLine
 10
-222.282303
 20
198.171393
 30
0.0
 11
-225.132303
 21
198.171393
 31
0.0
  0
LINE
  5
F2
100
AcDbEntity
  8
1
370
    25
100
AcDbLine
 10
-222.282303
 20
194.626393
 30
0.0
 11
-225.132303
 21
194.626393
 31
0.0
  0
LINE
  5
F3
100
AcDbEntity
  8
1
370
    25
100
AcDbLine
 10
-222.282303
 20
47.171393
 30
0.0
 11
-221.732303
 21
47.171393
 31
0.0
  0
LINE
  5
F4
100
AcDbEntity
  8
1
370
    25
100
AcDbLine
 10
-222.282303
 20
43.626393
 30
0.0
 11
-221.732303
 21
43.626393
 31
0.0
  0
LINE
  5
F5
100
AcDbEntity
  8
1
370
    25
100
AcDbLine
 10
-222.282303
 20
47.171393
 30
0.0
 11
-225.132303
 21
47.171393
 31
0.0
  0
LINE
  5
F6
100
AcDbEntity
  8
1
370
    25
100
AcDbLine
 10
-222.282303
 20
43.626393
 30
0.0
 11
-225.132303
 21
43.626393
 31
0.0
  0
LINE
  5
F7
100
AcDbEntity
  8
1
370
    25
100
AcDbLine
 10
-240.132303
 20
266.272216
 30
0.0
 11
-240.132303
 21
238.560603
 31
0.0
  0
LINE
  5
F8
100
AcDbEntity
  8
1
370
    25
100
AcDbLine
 10
-245.15848
 20
266.890909
 30
0.0
 11
-240.619215
 21
266.772044
 31
0.0
  0
ARC
  5
F9
100
AcDbEntity
  8
1
370
    25
100
AcDbCircle
 10
-240.632303
 20
266.272216
 30
0.0
 40
0.5
100
AcDbArc
 50
0.0
 51
88.5
  0
ARC
  5
FA
100
AcDbEntity
  8
1
370
    25
100
AcDbCircle
 10
92.167697
 20
252.416409
 30
0.0
 40
340.0
100
AcDbArc
 50
176.845932
 51
183.154071
  0
LINE
  5
FB
100
AcDbEntity
  8
1
370
    25
100
AcDbLine
 10
-246.132303
 20
271.916409
 30
0.0
 11
-246.588205
 21
271.876523
 31
0.0
  0
LINE
  5
FC
100
AcDbEntity
  8
1
370
    25
100
AcDbLine
 10
-240.132303
 20
266.073164
 30
0.0
 11
-237.506024
 21
265.704065
 31
0.0
  0
ARC
  5
FD
100
AcDbEntity
  8
1
370
    25
100
AcDbCircle
 10
-238.132303
 20
261.247859
 30
0.0
 40
4.5
100
AcDbArc
 50
55.025067
 51
82.0
  0
ARC
  5
FE
100
AcDbEntity
  8
1
370
    25
100
AcDbCircle
 10
-246.518481
 20
271.079567
 30
0.0
 40
0.8
100
AcDbArc
 50
95.0
 51
176.84593
  0
ARC
  5
FF
100
AcDbEntity
  8
1
370
    25
100
AcDbCircle
 10
-245.132303
 20
267.890566
 30
0.0
 40
1.0
100
AcDbArc
 50
224.415309
 51
268.5
  0
LINE
  5
100
100
AcDbEntity
  8
1
370
    25
100
AcDbLine
 10
-233.632303
 20
256.155295
 30
0.0
 11
-233.632303
 21
258.914407
 31
0.0
  0
LINE
  5
101
100
AcDbEntity
  8
1
370
    25
100
AcDbLine
 10
-225.132303
 20
255.916406
 30
0.0
 11
-225.132303
 21
248.916413
 31
0.0
  0
LINE
  5
102
100
AcDbEntity
  8
1
370
    25
100
AcDbLine
 10
-225.632303
 20
256.066406
 30
0.0
 11
-225.132303
 21
255.916406
 31
0.0
  0
LINE
  5
103
100
AcDbEntity
  8
1
370
    25
100
AcDbLine
 10
-225.632303
 20
256.066406
 30
0.0
 11
-239.132303
 21
256.216406
 31
0.0
  0
LINE
  5
104
100
AcDbEntity
  8
1
370
    25
100
AcDbLine
 10
-239.132303
 20
256.216406
 30
0.0
 11
-240.132303
 21
256.251327
 31
0.0
  0
LINE
  5
105
100
AcDbEntity
  8
1
370
    18
100
AcDbLine
 10
-245.932303
 20
271.916409
 30
0.0
 11
-245.932303
 21
232.916409
 31
0.0
  0
LINE
  5
106
100
AcDbEntity
  8
1
370
    18
100
AcDbLine
 10
-245.932303
 20
271.916409
 30
0.0
 11
-246.132303
 21
271.916409
 31
0.0
  0
ARC
  5
107
100
AcDbEntity
  8
1
370
    18
100
AcDbCircle
 10
-245.632303
 20
267.400668
 30
0.0
 40
0.3
100
AcDbArc
 50
180.0
 51
224.415309
  0
LINE
  5
108
100
AcDbEntity
  8
1
370
    25
100
AcDbLine
 10
-225.132303
 20
264.348597
 30
0.0
 11
-225.132303
 21
259.484222
 31
0.0
  0
LINE
  5
109
100
AcDbEntity
  8
1
370
    25
100
AcDbLine
 10
-239.132303
 20
264.966409
 30
0.0
 11
-225.632303
 21
264.848597
 31
0.0
  0
LINE
  5
10A
100
AcDbEntity
  8
1
370
    25
100
AcDbLine
 10
-225.632303
 20
264.848597
 30
0.0
 11
-225.132303
 21
264.348597
 31
0.0
  0
LINE
  5
10B
100
AcDbEntity
  8
1
370
    25
100
AcDbLine
 10
-239.132303
 20
258.866409
 30
0.0
 11
-225.632303
 21
258.984222
 31
0.0
  0
LINE
  5
10C
100
AcDbEntity
  8
1
370
    25
100
AcDbLine
 10
-225.632303
 20
258.984222
 30
0.0
 11
-225.132303
 21
259.484222
 31
0.0
  0
LINE
  5
10D
100
AcDbEntity
  8
1
370
    25
100
AcDbLine
 10
-239.132303
 20
264.966409
 30
0.0
 11
-240.132303
 21
265.00133
 31
0.0
  0
LINE
  5
10E
100
AcDbEntity
  8
1
370
    25
100
AcDbLine
 10
-239.132303
 20
258.866409
 30
0.0
 11
-240.132303
 21
258.831489
 31
0.0
  0
LINE
  5
10F
100
AcDbEntity
  8
1
370
    25
100
AcDbLine
 10
-245.15848
 20
237.94191
 30
0.0
 11
-240.619215
 21
238.060775
 31
0.0
  0
ARC
  5
110
100
AcDbEntity
  8
1
370
    25
100
AcDbCircle
 10
-240.632303
 20
238.560603
 30
0.0
 40
0.5
100
AcDbArc
 50
271.5
 51
360.0
  0
LINE
  5
111
100
AcDbEntity
  8
1
370
    25
100
AcDbLine
 10
-246.132303
 20
232.916409
 30
0.0
 11
-246.588205
 21
232.956296
 31
0.0
  0
LINE
  5
112
100
AcDbEntity
  8
1
370
    25
100
AcDbLine
 10
-240.132303
 20
238.759654
 30
0.0
 11
-237.506024
 21
239.128754
 31
0.0
  0
ARC
  5
113
100
AcDbEntity
  8
1
370
    25
100
AcDbCircle
 10
-238.132303
 20
243.58496
 30
0.0
 40
4.5
100
AcDbArc
 50
278.0
 51
304.974933
  0
ARC
  5
114
100
AcDbEntity
  8
1
370
    25
100
AcDbCircle
 10
-246.518481
 20
233.753251
 30
0.0
 40
0.8
100
AcDbArc
 50
183.15407
 51
265.0
  0
ARC
  5
115
100
AcDbEntity
  8
1
370
    25
100
AcDbCircle
 10
-245.132303
 20
236.942253
 30
0.0
 40
1.0
100
AcDbArc
 50
91.5
 51
135.584691
  0
LINE
  5
116
100
AcDbEntity
  8
1
370
    25
100
AcDbLine
 10
-233.632303
 20
248.677524
 30
0.0
 11
-233.632303
 21
245.918412
 31
0.0
  0
LINE
  5
117
100
AcDbEntity
  8
1
370
    25
100
AcDbLine
 10
-225.632303
 20
248.766413
 30
0.0
 11
-225.132303
 21
248.916413
 31
0.0
  0
LINE
  5
118
100
AcDbEntity
  8
1
370
    25
100
AcDbLine
 10
-225.632303
 20
248.766413
 30
0.0
 11
-239.132303
 21
248.616413
 31
0.0
  0
LINE
  5
119
100
AcDbEntity
  8
1
370
    25
100
AcDbLine
 10
-239.132303
 20
248.616413
 30
0.0
 11
-240.132303
 21
248.581492
 31
0.0
  0
LINE
  5
11A
100
AcDbEntity
  8
1
370
    18
100
AcDbLine
 10
-245.932303
 20
232.916409
 30
0.0
 11
-246.132303
 21
232.916409
 31
0.0
  0
ARC
  5
11B
100
AcDbEntity
  8
1
370
    18
100
AcDbCircle
 10
-245.632303
 20
237.432151
 30
0.0
 40
0.3
100
AcDbArc
 50
135.584691
 51
180.0
  0
LINE
  5
11C
100
AcDbEntity
  8
1
370
    25
100
AcDbLine
 10
-225.132303
 20
240.484222
 30
0.0
 11
-225.132303
 21
245.348597
 31
0.0
  0
LINE
  5
11D
100
AcDbEntity
  8
1
370
    25
100
AcDbLine
 10
-239.132303
 20
239.866409
 30
0.0
 11
-225.632303
 21
239.984222
 31
0.0
  0
LINE
  5
11E
100
AcDbEntity
  8
1
370
    25
100
AcDbLine
 10
-225.632303
 20
239.984222
 30
0.0
 11
-225.132303
 21
240.484222
 31
0.0
  0
LINE
  5
11F
100
AcDbEntity
  8
1
370
    25
100
AcDbLine
 10
-239.132303
 20
245.966409
 30
0.0
 11
-225.632303
 21
245.848597
 31
0.0
  0
LINE
  5
120
100
AcDbEntity
  8
1
370
    25
100
AcDbLine
 10
-225.632303
 20
245.848597
 30
0.0
 11
-225.132303
 21
245.348597
 31
0.0
  0
LINE
  5
121
100
AcDbEntity
  8
1
370
    25
100
AcDbLine
 10
-239.132303
 20
239.866409
 30
0.0
 11
-240.132303
 21
239.831489
 31
0.0
  0
LINE
  5
122
100
AcDbEntity
  8
1
370
    25
100
AcDbLine
 10
-239.132303
 20
245.966409
 30
0.0
 11
-240.132303
 21
246.00133
 31
0.0
  0
LINE
  5
123
100
AcDbEntity
  8
1
370
    25
100
AcDbLine
 10
-216.706127
 20
266.890909
 30
0.0
 11
-221.245392
 21
266.772044
 31
0.0
  0
LINE
  5
124
100
AcDbEntity
  8
1
370
    25
100
AcDbLine
 10
-221.732303
 20
238.560603
 30
0.0
 11
-221.732303
 21
266.272216
 31
0.0
  0
ARC
  5
125
100
AcDbEntity
  8
1
370
    25
100
AcDbCircle
 10
-221.232303
 20
266.272216
 30
0.0
 40
0.5
100
AcDbArc
 50
91.5
 51
180.0
  0
LINE
  5
126
100
AcDbEntity
  8
1
370
    25
100
AcDbLine
 10
-216.706127
 20
237.94191
 30
0.0
 11
-221.245392
 21
238.060775
 31
0.0
  0
ARC
  5
127
100
AcDbEntity
  8
1
370
    25
100
AcDbCircle
 10
-221.232303
 20
238.560603
 30
0.0
 40
0.5
100
AcDbArc
 50
180.0
 51
268.5
  0
ARC
  5
128
100
AcDbEntity
  8
1
370
    25
100
AcDbCircle
 10
-554.032303
 20
252.416409
 30
0.0
 40
340.0
100
AcDbArc
 50
356.84593
 51
3.15407
  0
LINE
  5
129
100
AcDbEntity
  8
1
370
    25
100
AcDbLine
 10
-215.732303
 20
271.916409
 30
0.0
 11
-215.276402
 21
271.876523
 31
0.0
  0
LINE
  5
12A
100
AcDbEntity
  8
1
370
    25
100
AcDbLine
 10
-215.732303
 20
232.916409
 30
0.0
 11
-215.276402
 21
232.956296
 31
0.0
  0
LINE
  5
12B
100
AcDbEntity
  8
1
370
    25
100
AcDbLine
 10
-221.732303
 20
266.073164
 30
0.0
 11
-224.358582
 21
265.704065
 31
0.0
  0
LINE
  5
12C
100
AcDbEntity
  8
1
370
    25
100
AcDbLine
 10
-221.732303
 20
238.759654
 30
0.0
 11
-224.358582
 21
239.128754
 31
0.0
  0
ARC
  5
12D
100
AcDbEntity
  8
1
370
    25
100
AcDbCircle
 10
-223.732303
 20
261.247859
 30
0.0
 40
4.5
100
AcDbArc
 50
98.0
 51
126.707667
  0
ARC
  5
12E
100
AcDbEntity
  8
1
370
    25
100
AcDbCircle
 10
-223.732303
 20
243.58496
 30
0.0
 40
4.5
100
AcDbArc
 50
233.292333
 51
262.0
  0
ARC
  5
12F
100
AcDbEntity
  8
1
370
    25
100
AcDbCircle
 10
-215.346126
 20
233.753251
 30
0.0
 40
0.8
100
AcDbArc
 50
275.0
 51
356.84593
  0
ARC
  5
130
100
AcDbEntity
  8
1
370
    25
100
AcDbCircle
 10
-215.346126
 20
271.079567
 30
0.0
 40
0.8
100
AcDbArc
 50
3.15407
 51
85.0
  0
ARC
  5
131
100
AcDbEntity
  8
1
370
    25
100
AcDbCircle
 10
-216.732303
 20
267.890566
 30
0.0
 40
1.0
100
AcDbArc
 50
271.5
 51
315.584691
  0
ARC
  5
132
100
AcDbEntity
  8
1
370
    25
100
AcDbCircle
 10
-216.732303
 20
236.942253
 30
0.0
 40
1.0
100
AcDbArc
 50
44.415309
 51
88.5
  0
ARC
  5
133
100
AcDbEntity
  8
1
370
    25
100
AcDbCircle
 10
-216.232303
 20
237.432151
 30
0.0
 40
0.3
100
AcDbArc
 50
0.0
 51
44.415309
  0
ARC
  5
134
100
AcDbEntity
  8
1
370
    25
100
AcDbCircle
 10
-216.232303
 20
267.400668
 30
0.0
 40
0.3
100
AcDbArc
 50
315.584691
 51
360.0
  0
LINE
  5
135
100
AcDbEntity
  8
1
370
    25
100
AcDbLine
 10
-215.932303
 20
232.916409
 30
0.0
 11
-215.932303
 21
271.916409
 31
0.0
  0
LINE
  5
136
100
AcDbEntity
  8
1
370
    25
100
AcDbLine
 10
-215.932303
 20
232.916409
 30
0.0
 11
-215.732303
 21
232.916409
 31
0.0
  0
LINE
  5
137
100
AcDbEntity
  8
1
370
    25
100
AcDbLine
 10
-215.932303
 20
271.916409
 30
0.0
 11
-215.732303
 21
271.916409
 31
0.0
  0
LINE
  5
138
100
AcDbEntity
  8
1
370
    25
100
AcDbLine
 10
-222.282303
 20
254.188912
 30
0.0
 11
-221.732303
 21
254.188912
 31
0.0
  0
LINE
  5
139
100
AcDbEntity
  8
1
370
    25
100
AcDbLine
 10
-222.282303
 20
250.643912
 30
0.0
 11
-221.732303
 21
250.643912
 31
0.0
  0
LINE
  5
13A
100
AcDbEntity
  8
1
370
    25
100
AcDbLine
 10
-222.282303
 20
254.188912
 30
0.0
 11
-225.132303
 21
254.188912
 31
0.0
  0
LINE
  5
13B
100
AcDbEntity
  8
1
370
    25
100
AcDbLine
 10
-222.282303
 20
250.643912
 30
0.0
 11
-225.132303
 21
250.643912
 31
0.0
  0
LINE
  5
13C
100
AcDbEntity
  8
1
370
    25
100
AcDbLine
 10
-228.232303
 20
256.155295
 30
0.0
 11
-228.232303
 21
258.914407
 31
0.0
  0
LINE
  5
13D
100
AcDbEntity
  8
1
370
    25
100
AcDbLine
 10
-228.232303
 20
248.677524
 30
0.0
 11
-228.232303
 21
245.918412
 31
0.0
  0
LINE
  5
13E
100
AcDbEntity
  8
1
370
    25
100
AcDbLine
 10
-240.619215
 20
263.230377
 30
0.0
 11
-241.132303
 21
263.243812
 31
0.0
  0
LINE
  5
13F
100
AcDbEntity
  8
1
370
    25
100
AcDbLine
 10
-241.132303
 20
263.243812
 30
0.0
 11
-241.132303
 21
265.852524
 31
0.0
  0
ARC
  5
140
100
AcDbEntity
  8
1
370
    25
100
AcDbCircle
 10
-240.632303
 20
262.730548
 30
0.0
 40
0.5
100
AcDbArc
 50
360.0
 51
88.5
  0
LINE
  5
141
100
AcDbEntity
  8
1
370
    25
100
AcDbLine
 10
-241.132303
 20
264.305775
 30
0.0
 11
-240.619215
 21
264.319211
 31
0.0
  0
ARC
  5
142
100
AcDbEntity
  8
1
370
    25
100
AcDbCircle
 10
-240.632303
 20
264.819039
 30
0.0
 40
0.5
100
AcDbArc
 50
271.5
 51
360.0
  0
LINE
  5
143
100
AcDbEntity
  8
1
370
    25
100
AcDbLine
 10
-240.619215
 20
241.602442
 30
0.0
 11
-241.132303
 21
241.589007
 31
0.0
  0
LINE
  5
144
100
AcDbEntity
  8
1
370
    25
100
AcDbLine
 10
-241.132303
 20
241.589007
 30
0.0
 11
-241.132303
 21
238.980295
 31
0.0
  0
ARC
  5
145
100
AcDbEntity
  8
1
370
    25
100
AcDbCircle
 10
-240.632303
 20
242.102271
 30
0.0
 40
0.5
100
AcDbArc
 50
271.5
 51
0.0
  0
LINE
  5
146
100
AcDbEntity
  8
1
370
    25
100
AcDbLine
 10
-241.132303
 20
240.527044
 30
0.0
 11
-240.619215
 21
240.513608
 31
0.0
  0
ARC
  5
147
100
AcDbEntity
  8
1
370
    25
100
AcDbCircle
 10
-240.632303
 20
240.01378
 30
0.0
 40
0.5
100
AcDbArc
 50
0.0
 51
88.5
  0
LINE
  5
148
100
AcDbEntity
  8
1
370
    25
100
AcDbLine
 10
-221.245392
 20
263.230377
 30
0.0
 11
-220.732303
 21
263.243812
 31
0.0
  0
LINE
  5
149
100
AcDbEntity
  8
1
370
    25
100
AcDbLine
 10
-220.732303
 20
263.243812
 30
0.0
 11
-220.732303
 21
265.852524
 31
0.0
  0
ARC
  5
14A
100
AcDbEntity
  8
1
370
    25
100
AcDbCircle
 10
-221.232303
 20
262.730548
 30
0.0
 40
0.5
100
AcDbArc
 50
91.5
 51
180.0
  0
LINE
  5
14B
100
AcDbEntity
  8
1
370
    25
100
AcDbLine
 10
-220.732303
 20
264.305775
 30
0.0
 11
-221.245392
 21
264.319211
 31
0.0
  0
ARC
  5
14C
100
AcDbEntity
  8
1
370
    25
100
AcDbCircle
 10
-221.232303
 20
264.819039
 30
0.0
 40
0.5
100
AcDbArc
 50
180.0
 51
268.5
  0
LINE
  5
14D
100
AcDbEntity
  8
1
370
    25
100
AcDbLine
 10
-221.245392
 20
241.602442
 30
0.0
 11
-220.732303
 21
241.589007
 31
0.0
  0
LINE
  5
14E
100
AcDbEntity
  8
1
370
    25
100
AcDbLine
 10
-220.732303
 20
241.589007
 30
0.0
 11
-220.732303
 21
238.980295
 31
0.0
  0
ARC
  5
14F
100
AcDbEntity
  8
1
370
    25
100
AcDbCircle
 10
-221.232303
 20
242.102271
 30
0.0
 40
0.5
100
AcDbArc
 50
180.0
 51
268.5
  0
LINE
  5
150
100
AcDbEntity
  8
1
370
    25
100
AcDbLine
 10
-220.732303
 20
240.527044
 30
0.0
 11
-221.245392
 21
240.513608
 31
0.0
  0
ARC
  5
151
100
AcDbEntity
  8
1
370
    25
100
AcDbCircle
 10
-221.232303
 20
240.01378
 30
0.0
 40
0.5
100
AcDbArc
 50
91.5
 51
180.0
  0
LINE
  5
152
100
AcDbEntity
  8
1
370
    18
  6
CENTER
100
AcDbLine
 10
-230.932303
 20
207.916409
 30
0.0
 11
-230.932303
 21
33.881369
 31
0.0
  0
LINE
  5
153
100
AcDbEntity
  8
1
370
    18
  6
CENTER
100
AcDbLine
 10
-145.932303
 20
28.899641
 30
0.0
 11
-145.932303
 21
91.056352
 31
0.0
  0
LINE
  5
154
100
AcDbEntity
  8
1
370
    18
  6
CENTER
100
AcDbLine
 10
-145.932303
 20
100.305634
 30
0.0
 11
-145.932303
 21
215.046918
 31
0.0
  0
LINE
  5
155
100
AcDbEntity
  8
1
370
    18
  6
CENTER
100
AcDbLine
 10
-299.14212
 20
-166.172148
 30
0.0
 11
-250.958631
 21
-166.172148
 31
0.0
  0
LINE
  5
156
100
AcDbEntity
  8
1
370
    18
  6
CENTER
100
AcDbLine
 10
-155.625765
 20
-33.154137
 30
0.0
 11
-172.854563
 21
-33.154137
 31
0.0
  0
ARC
  5
157
100
AcDbEntity
  8
1
370
    25
100
AcDbCircle
 10
-1107.591924
 20
-33.150388
 30
0.0
 40
950.359516
100
AcDbArc
 50
359.999774
 51
1.175483
  0
LINE
  5
158
100
AcDbEntity
  8
1
370
    25
100
AcDbLine
 10
-299.978704
 20
36.252384
 30
0.0
 11
-299.478809
 21
36.262641
 31
0.0
  0
LINE
  5
159
100
AcDbEntity
  8
1
370
    25
100
AcDbLine
 10
-170.432457
 20
-33.154137
 30
0.0
 11
-170.432457
 21
-23.532387
 31
0.0
  0
LINE
  5
15A
100
AcDbEntity
  8
1
370
    25
100
AcDbLine
 10
-255.478704
 20
-238.672149
 30
0.0
 11
-255.478704
 21
-93.672147
 31
0.0
  0
LINE
  5
15B
100
AcDbEntity
  8
1
370
    25
100
AcDbLine
 10
-294.478704
 20
-238.672149
 30
0.0
 11
-294.478704
 21
-93.672147
 31
0.0
  0
ARC
  5
15C
100
AcDbEntity
  8
1
370
    25
100
AcDbCircle
 10
-274.978704
 20
-238.672149
 30
0.0
 40
19.5
100
AcDbArc
 50
180.0
 51
360.0
  0
ARC
  5
15D
100
AcDbEntity
  8
1
370
    25
100
AcDbCircle
 10
-274.978704
 20
-93.672147
 30
0.0
 40
19.5
100
AcDbArc
 50
0.0
 51
180.0
  0
LINE
  5
15E
100
AcDbEntity
  8
1
370
    25
100
AcDbLine
 10
-184.632198
 20
-238.675898
 30
0.0
 11
-184.632198
 21
-93.668402
 31
0.0
  0
ARC
  5
15F
100
AcDbEntity
  8
1
370
    25
100
AcDbCircle
 10
765.727317
 20
-238.675898
 30
0.0
 40
950.359516
100
AcDbArc
 50
179.999774
 51
181.175483
  0
LINE
  5
160
100
AcDbEntity
  8
1
370
    25
100
AcDbLine
 10
-183.932303
 20
-258.161892
 30
0.0
 11
-184.432198
 21
-258.172149
 31
0.0
  0
LINE
  5
161
100
AcDbEntity
  8
1
370
    25
100
AcDbLine
 10
-171.432198
 20
-241.978622
 30
0.0
 11
-171.432198
 21
-90.365678
 31
0.0
  0
LINE
  5
162
100
AcDbEntity
  8
1
370
    25
100
AcDbLine
 10
-183.336791
 20
-247.854093
 30
0.0
 11
-174.026332
 21
-245.359363
 31
0.0
  0
ARC
  5
163
100
AcDbEntity
  8
1
370
    25
100
AcDbCircle
 10
-183.077972
 20
-248.820019
 30
0.0
 40
1.0
100
AcDbArc
 50
105.0
 51
148.685953
  0
ARC
  5
164
100
AcDbEntity
  8
1
370
    25
100
AcDbCircle
 10
-174.932198
 20
-241.978622
 30
0.0
 40
3.5
100
AcDbArc
 50
285.0
 51
360.0
  0
ARC
  5
165
100
AcDbEntity
  8
1
370
    25
100
AcDbCircle
 10
765.727317
 20
-93.668402
 30
0.0
 40
950.359516
100
AcDbArc
 50
178.824517
 51
180.000226
  0
LINE
  5
166
100
AcDbEntity
  8
1
370
    25
100
AcDbLine
 10
-183.932303
 20
-74.182408
 30
0.0
 11
-184.432198
 21
-74.172151
 31
0.0
  0
LINE
  5
167
100
AcDbEntity
  8
1
370
    25
100
AcDbLine
 10
-183.336791
 20
-84.490208
 30
0.0
 11
-174.026332
 21
-86.984938
 31
0.0
  0
ARC
  5
168
100
AcDbEntity
  8
1
370
    25
100
AcDbCircle
 10
-183.077972
 20
-83.524282
 30
0.0
 40
1.0
100
AcDbArc
 50
211.314047
 51
255.0
  0
ARC
  5
169
100
AcDbEntity
  8
1
370
    25
100
AcDbCircle
 10
-174.932198
 20
-90.365678
 30
0.0
 40
3.5
100
AcDbArc
 50
0.0
 51
75.0
  0
LINE
  5
16A
100
AcDbEntity
  8
1
370
    18
  6
CENTER
100
AcDbLine
 10
-274.978704
 20
-260.726528
 30
0.0
 11
-274.978704
 21
-183.733326
 31
0.0
  0
LINE
  5
16B
100
AcDbEntity
  8
1
370
    18
  6
CENTER
100
AcDbLine
 10
-274.978704
 20
-178.848415
 30
0.0
 11
-274.978704
 21
-68.536239
 31
0.0
  0
LINE
  5
16C
100
AcDbEntity
  8
1
370
    25
100
AcDbLine
 10
-158.716554
 20
-18.84332
 30
0.0
 11
-167.419563
 21
-20.066449
 31
0.0
  0
ARC
  5
16D
100
AcDbEntity
  8
1
370
    25
100
AcDbCircle
 10
-158.855727
 20
-17.853052
 30
0.0
 40
1.0
100
AcDbArc
 50
278.0
 51
337.431839
  0
ARC
  5
16E
100
AcDbEntity
  8
1
370
    25
100
AcDbCircle
 10
-166.932457
 20
-23.532387
 30
0.0
 40
3.5
100
AcDbArc
 50
98.0
 51
180.0
  0
ARC
  5
16F
100
AcDbEntity
  8
1
370
    25
100
AcDbCircle
 10
-1107.591924
 20
-33.157886
 30
0.0
 40
950.359516
100
AcDbArc
 50
358.824517
 51
0.000226
  0
LINE
  5
170
100
AcDbEntity
  8
1
370
    25
100
AcDbLine
 10
-157.932303
 20
-52.643879
 30
0.0
 11
-157.432409
 21
-52.654137
 31
0.0
  0
LINE
  5
171
100
AcDbEntity
  8
1
370
    25
100
AcDbLine
 10
-170.432457
 20
-33.154137
 30
0.0
 11
-170.432457
 21
-42.775886
 31
0.0
  0
LINE
  5
172
100
AcDbEntity
  8
1
370
    25
100
AcDbLine
 10
-158.716554
 20
-47.464953
 30
0.0
 11
-167.419563
 21
-46.241825
 31
0.0
  0
ARC
  5
173
100
AcDbEntity
  8
1
370
    25
100
AcDbCircle
 10
-158.855727
 20
-48.455221
 30
0.0
 40
1.0
100
AcDbArc
 50
22.568161
 51
82.0
  0
ARC
  5
174
100
AcDbEntity
  8
1
370
    25
100
AcDbCircle
 10
-166.932457
 20
-42.775886
 30
0.0
 40
3.5
100
AcDbArc
 50
180.0
 51
262.0
  0
ARC
  5
175
100
AcDbEntity
  8
1
370
    25
100
AcDbCircle
 10
-274.978704
 20
-233.672148
 30
0.0
 40
14.0
100
AcDbArc
 50
180.0
 51
360.0
  0
LINE
  5
176
100
AcDbEntity
  8
1
370
    25
100
AcDbLine
 10
-260.978704
 20
-98.672148
 30
0.0
 11
-260.978704
 21
-233.672148
 31
0.0
  0
LINE
  5
177
100
AcDbEntity
  8
1
370
    25
100
AcDbLine
 10
-288.978704
 20
-98.672148
 30
0.0
 11
-288.978704
 21
-233.672148
 31
0.0
  0
ARC
  5
178
100
AcDbEntity
  8
1
370
    25
100
AcDbCircle
 10
-274.978704
 20
-98.672148
 30
0.0
 40
14.0
100
AcDbArc
 50
0.0
 51
180.0
  0
LINE
  5
179
100
AcDbEntity
  8
1
370
    25
100
AcDbLine
 10
-262.749094
 20
-232.050993
 30
0.0
 11
-262.749094
 21
-100.293883
 31
0.0
  0
LINE
  5
17A
100
AcDbEntity
  8
1
370
    25
100
AcDbLine
 10
-287.208314
 20
-232.050993
 30
0.0
 11
-287.208314
 21
-100.293883
 31
0.0
  0
ARC
  5
17B
100
AcDbEntity
  8
1
370
    25
100
AcDbCircle
 10
-274.978704
 20
-100.293883
 30
0.0
 40
12.22961
100
AcDbArc
 50
0.0
 51
180.0
  0
ARC
  5
17C
100
AcDbEntity
  8
1
370
    25
100
AcDbCircle
 10
-274.978704
 20
-232.050993
 30
0.0
 40
12.22961
100
AcDbArc
 50
180.0
 51
360.0
  0
LINE
  5
17D
100
AcDbEntity
  8
1
370
    25
100
AcDbLine
 10
-157.932303
 20
-52.643879
 30
0.0
 11
-157.932303
 21
-13.664394
 31
0.0
  0
LINE
  5
17E
100
AcDbEntity
  8
1
370
    18
100
AcDbLine
 10
-157.432409
 20
-52.654137
 30
0.0
 11
-157.432409
 21
-13.654137
 31
0.0
  0
LINE
  5
17F
100
AcDbEntity
  8
1
370
    25
100
AcDbLine
 10
-183.932303
 20
-74.182408
 30
0.0
 11
-183.932303
 21
-258.161892
 31
0.0
  0
LINE
  5
180
100
AcDbEntity
  8
1
370
    18
100
AcDbLine
 10
-184.432198
 20
-74.172151
 30
0.0
 11
-184.432198
 21
-258.172149
 31
0.0
  0
ELLIPSE
  5
181
100
AcDbEntity
  8
1
370
    25
100
AcDbEllipse
 10
-274.978704
 20
-86.188025
 30
0.0
 11
2.6499999999999999
 21
0.0
 31
0.0
210
0.0
220
0.0
230
1.0
 40
0.258819
 41
0.0
 42
6.2831849999999996
  0
LINE
  5
182
100
AcDbEntity
  8
1
370
    18
  6
CENTER
100
AcDbLine
 10
-271.240995
 20
-86.188025
 30
0.0
 11
-279.500623
 21
-86.188025
 31
0.0
  0
ELLIPSE
  5
183
100
AcDbEntity
  8
1
370
    25
100
AcDbEllipse
 10
-274.978704
 20
-246.156272
 30
0.0
 11
2.6499999999999999
 21
0.0
 31
0.0
210
0.0
220
0.0
230
1.0
 40
0.258819
 41
0.0
 42
6.2831849999999996
  0
LINE
  5
184
100
AcDbEntity
  8
1
370
    18
  6
CENTER
100
AcDbLine
 10
-271.240995
 20
-246.156272
 30
0.0
 11
-279.500623
 21
-246.156272
 31
0.0
  0
LINE
  5
185
100
AcDbEntity
  8
1
370
    25
100
AcDbLine
 10
-181.562647
 20
-84.965588
 30
0.0
 11
-180.33355
 21
-84.255969
 31
0.0
  0
LINE
  5
186
100
AcDbEntity
  8
1
370
    25
100
AcDbLine
 10
-176.043141
 20
-86.444535
 30
0.0
 11
-176.75276
 21
-85.215439
 31
0.0
  0
LINE
  5
187
100
AcDbEntity
  8
1
370
    25
100
AcDbLine
 10
-176.75276
 20
-85.215439
 30
0.0
 11
-180.33355
 21
-84.255969
 31
0.0
  0
LINE
  5
188
100
AcDbEntity
  8
1
370
    25
100
AcDbLine
 10
-181.562647
 20
-247.378712
 30
0.0
 11
-180.33355
 21
-248.088332
 31
0.0
  0
LINE
  5
189
100
AcDbEntity
  8
1
370
    25
100
AcDbLine
 10
-176.043141
 20
-245.899765
 30
0.0
 11
-176.75276
 21
-247.128862
 31
0.0
  0
LINE
  5
18A
100
AcDbEntity
  8
1
370
    25
100
AcDbLine
 10
-176.75276
 20
-247.128862
 30
0.0
 11
-180.33355
 21
-248.088332
 31
0.0
  0
ELLIPSE
  5
18B
100
AcDbEntity
  8
1
370
    25
100
AcDbEllipse
 10
-163.321452
 20
-33.154137
 30
0.0
 11
0.0
 21
1.8534999999999999
 31
0.0
210
0.0
220
0.0
230
1.0
 40
0.965954
 41
0.0
 42
6.2831849999999996
  0
ELLIPSE
  5
18C
100
AcDbEntity
  8
1
370
    25
100
AcDbEllipse
 10
-163.061713
 20
-33.154137
 30
0.0
 11
0.0
 21
2.8570000000000002
 31
0.0
210
0.0
220
0.0
230
1.0
 40
0.965962
 41
0.0
 42
6.2831849999999996
  0
ELLIPSE
  5
18D
100
AcDbEntity
  8
1
370
    25
100
AcDbEllipse
 10
-163.229945
 20
-33.154137
 30
0.0
 11
0.0
 21
1.5
 31
0.0
210
0.0
220
0.0
230
1.0
 40
0.965926
 41
0.0
 42
6.2831849999999996
  0
LINE
  5
18E
100
AcDbEntity
  8
1
370
    18
  6
CENTER
100
AcDbLine
 10
-162.932303
 20
-37.171803
 30
0.0
 11
-162.932303
 21
-28.803883
 31
0.0
  0
LINE
  5
18F
100
AcDbEntity
  8
1
370
    18
  6
CENTER
100
AcDbLine
 10
-291.978704
 20
-98.672148
 30
0.0
 11
-257.978704
 21
-98.672148
 31
0.0
  0
LINE
  5
190
100
AcDbEntity
  8
1
370
    18
  6
CENTER
100
AcDbLine
 10
-279.66336
 20
-93.672147
 30
0.0
 11
-270.059149
 21
-93.672147
 31
0.0
  0
LINE
  5
191
100
AcDbEntity
  8
1
370
    25
100
AcDbLine
 10
12.518904
 20
52.658157
 30
0.0
 11
12.518904
 21
222.658157
 31
0.0
  0
LINE
  5
192
100
AcDbEntity
  8
1
370
    25
100
AcDbLine
 10
5.218904
 20
68.658157
 30
0.0
 11
5.218904
 21
206.658157
 31
0.0
  0
LINE
  5
193
100
AcDbEntity
  8
1
370
    25
100
AcDbLine
 10
-21.181096
 20
68.658157
 30
0.0
 11
-21.181096
 21
206.658157
 31
0.0
  0
LINE
  5
194
100
AcDbEntity
  8
1
370
    25
100
AcDbLine
 10
-26.981096
 20
224.158157
 30
0.0
 11
11.018904
 21
224.158157
 31
0.0
  0
LINE
  5
195
100
AcDbEntity
  8
1
370
    25
100
AcDbLine
 10
-26.981096
 20
51.158157
 30
0.0
 11
11.018904
 21
51.158157
 31
0.0
  0
LINE
  5
196
100
AcDbEntity
  8
1
370
    25
100
AcDbLine
 10
-20.181096
 20
207.658157
 30
0.0
 11
4.218904
 21
207.658157
 31
0.0
  0
LINE
  5
197
100
AcDbEntity
  8
1
370
    25
100
AcDbLine
 10
-20.181096
 20
67.658157
 30
0.0
 11
4.218904
 21
67.658157
 31
0.0
  0
ARC
  5
198
100
AcDbEntity
  8
1
370
    25
100
AcDbCircle
 10
4.218904
 20
206.658157
 30
0.0
 40
1.0
100
AcDbArc
 50
0.0
 51
90.0
  0
ARC
  5
199
100
AcDbEntity
  8
1
370
    25
100
AcDbCircle
 10
-20.181096
 20
206.658157
 30
0.0
 40
1.0
100
AcDbArc
 50
90.0
 51
180.0
  0
ARC
  5
19A
100
AcDbEntity
  8
1
370
    25
100
AcDbCircle
 10
4.218904
 20
68.658157
 30
0.0
 40
1.0
100
AcDbArc
 50
270.0
 51
360.0
  0
ARC
  5
19B
100
AcDbEntity
  8
1
370
    25
100
AcDbCircle
 10
-20.181096
 20
68.658157
 30
0.0
 40
1.0
100
AcDbArc
 50
180.0
 51
270.0
  0
LINE
  5
19C
100
AcDbEntity
  8
1
370
    18
100
AcDbLine
 10
0.336356
 20
73.388567
 30
0.0
 11
-16.298547
 21
73.388567
 31
0.0
  0
LINE
  5
19D
100
AcDbEntity
  8
1
370
    18
100
AcDbLine
 10
3.336356
 20
76.388567
 30
0.0
 11
3.336356
 21
198.927747
 31
0.0
  0
LINE
  5
19E
100
AcDbEntity
  8
1
370
    18
100
AcDbLine
 10
-19.298547
 20
76.388567
 30
0.0
 11
-19.298547
 21
198.927747
 31
0.0
  0
ARC
  5
19F
100
AcDbEntity
  8
1
370
    18
100
AcDbCircle
 10
0.336356
 20
76.388567
 30
0.0
 40
3.0
100
AcDbArc
 50
270.0
 51
360.0
  0
ARC
  5
1A0
100
AcDbEntity
  8
1
370
    18
100
AcDbCircle
 10
-16.298547
 20
76.388567
 30
0.0
 40
3.0
100
AcDbArc
 50
180.0
 51
270.0
  0
LINE
  5
1A1
100
AcDbEntity
  8
1
370
    18
100
AcDbLine
 10
-16.298547
 20
201.927747
 30
0.0
 11
0.336356
 21
201.927747
 31
0.0
  0
ARC
  5
1A2
100
AcDbEntity
  8
1
370
    18
100
AcDbCircle
 10
0.336356
 20
198.927747
 30
0.0
 40
3.0
100
AcDbArc
 50
0.0
 51
90.0
  0
ARC
  5
1A3
100
AcDbEntity
  8
1
370
    18
100
AcDbCircle
 10
-16.298547
 20
198.927747
 30
0.0
 40
3.0
100
AcDbArc
 50
90.0
 51
180.0
  0
LINE
  5
1A4
100
AcDbEntity
  8
1
370
    18
  6
CENTER
100
AcDbLine
 10
-30.312752
 20
137.658157
 30
0.0
 11
14.984818
 21
137.658157
 31
0.0
  0
LINE
  5
1A5
100
AcDbEntity
  8
1
370
    18
  6
CENTER
100
AcDbLine
 10
42.37413
 20
137.658157
 30
0.0
 11
61.594986
 21
137.658157
 31
0.0
  0
LINE
  5
1A6
100
AcDbEntity
  8
1
370
    18
  6
CENTER
100
AcDbLine
 10
-7.981096
 20
49.136269
 30
0.0
 11
-7.981096
 21
226.180046
 31
0.0
  0
LINE
  5
1A7
100
AcDbEntity
  8
1
370
    18
100
AcDbLine
 10
4.218904
 20
207.658157
 30
0.0
 11
0.336356
 21
201.927747
 31
0.0
  0
LINE
  5
1A8
100
AcDbEntity
  8
1
370
    18
100
AcDbLine
 10
5.218904
 20
206.658157
 30
0.0
 11
3.336356
 21
198.927747
 31
0.0
  0
LINE
  5
1A9
100
AcDbEntity
  8
1
370
    18
100
AcDbLine
 10
-20.181096
 20
207.658157
 30
0.0
 11
-16.298547
 21
201.927747
 31
0.0
  0
LINE
  5
1AA
100
AcDbEntity
  8
1
370
    18
100
AcDbLine
 10
-21.181096
 20
206.658157
 30
0.0
 11
-19.298547
 21
198.927747
 31
0.0
  0
LINE
  5
1AB
100
AcDbEntity
  8
1
370
    18
100
AcDbLine
 10
5.218904
 20
68.658157
 30
0.0
 11
3.336356
 21
76.388567
 31
0.0
  0
LINE
  5
1AC
100
AcDbEntity
  8
1
370
    18
100
AcDbLine
 10
0.336356
 20
73.388567
 30
0.0
 11
4.218904
 21
67.658157
 31
0.0
  0
LINE
  5
1AD
100
AcDbEntity
  8
1
370
    18
100
AcDbLine
 10
-20.181096
 20
67.658157
 30
0.0
 11
-16.298547
 21
73.388567
 31
0.0
  0
LINE
  5
1AE
100
AcDbEntity
  8
1
370
    18
100
AcDbLine
 10
-19.298547
 20
76.388567
 30
0.0
 11
-21.181096
 21
68.658157
 31
0.0
  0
ARC
  5
1AF
100
AcDbEntity
  8
1
370
    25
100
AcDbCircle
 10
11.018904
 20
222.658157
 30
0.0
 40
1.5
100
AcDbArc
 50
0.0
 51
90.0
  0
ARC
  5
1B0
100
AcDbEntity
  8
1
370
    25
100
AcDbCircle
 10
-26.981096
 20
222.658157
 30
0.0
 40
1.5
100
AcDbArc
 50
90.0
 51
180.0
  0
ARC
  5
1B1
100
AcDbEntity
  8
1
370
    25
100
AcDbCircle
 10
11.018904
 20
52.658157
 30
0.0
 40
1.5
100
AcDbArc
 50
270.0
 51
360.0
  0
ARC
  5
1B2
100
AcDbEntity
  8
1
370
    25
100
AcDbCircle
 10
-26.981096
 20
52.658157
 30
0.0
 40
1.5
100
AcDbArc
 50
180.0
 51
270.0
  0
LINE
  5
1B3
100
AcDbEntity
  8
1
370
    25
100
AcDbLine
 10
46.065305
 20
137.658157
 30
0.0
 11
46.065305
 21
224.158157
 31
0.0
  0
LINE
  5
1B4
100
AcDbEntity
  8
1
370
    25
100
AcDbLine
 10
44.565305
 20
137.658157
 30
0.0
 11
44.565305
 21
223.293859
 31
0.0
  0
LINE
  5
1B5
100
AcDbEntity
  8
1
370
    25
100
AcDbLine
 10
46.065305
 20
224.158157
 30
0.0
 11
45.29558
 21
224.090815
 31
0.0
  0
ARC
  5
1B6
100
AcDbEntity
  8
1
370
    25
100
AcDbCircle
 10
45.365305
 20
223.293859
 30
0.0
 40
0.8
100
AcDbArc
 50
95.0
 51
180.0
  0
LINE
  5
1B7
100
AcDbEntity
  8
1
370
    25
100
AcDbLine
 10
47.039128
 20
218.432657
 30
0.0
 11
56.578394
 21
218.182862
 31
0.0
  0
LINE
  5
1B8
100
AcDbEntity
  8
1
370
    25
100
AcDbLine
 10
57.065305
 20
217.683034
 30
0.0
 11
57.065305
 21
203.895985
 31
0.0
  0
ARC
  5
1B9
100
AcDbEntity
  8
1
370
    25
100
AcDbCircle
 10
56.565305
 20
217.683034
 30
0.0
 40
0.5
100
AcDbArc
 50
0.0
 51
88.5
  0
ARC
  5
1BA
100
AcDbEntity
  8
1
370
    25
100
AcDbCircle
 10
47.065305
 20
219.432314
 30
0.0
 40
1.0
100
AcDbArc
 50
180.0
 51
268.5
  0
ARC
  5
1BB
100
AcDbEntity
  8
1
370
    25
100
AcDbCircle
 10
56.565305
 20
210.441241
 30
0.0
 40
0.5
100
AcDbArc
 50
271.5
 51
360.0
  0
ARC
  5
1BC
100
AcDbEntity
  8
1
370
    25
100
AcDbCircle
 10
56.565305
 20
214.467084
 30
0.0
 40
0.5
100
AcDbArc
 50
0.0
 51
88.5
  0
LINE
  5
1BD
100
AcDbEntity
  8
1
370
    25
100
AcDbLine
 10
56.578394
 20
209.941413
 30
0.0
 11
47.62871
 21
209.707057
 31
0.0
  0
LINE
  5
1BE
100
AcDbEntity
  8
1
370
    25
100
AcDbLine
 10
56.323595
 20
204.2966
 30
0.0
 11
47.565305
 21
208.014273
 31
0.0
  0
LINE
  5
1BF
100
AcDbEntity
  8
1
370
    25
100
AcDbLine
 10
52.065305
 20
206.104137
 30
0.0
 11
52.065305
 21
208.615273
 31
0.0
  0
ARC
  5
1C0
100
AcDbEntity
  8
1
370
    25
100
AcDbCircle
 10
56.565305
 20
209.233281
 30
0.0
 40
0.5
100
AcDbArc
 50
271.5
 51
360.0
  0
LINE
  5
1C1
100
AcDbEntity
  8
1
370
    25
100
AcDbLine
 10
56.578394
 20
208.733452
 30
0.0
 11
52.065305
 21
208.615273
 31
0.0
  0
LINE
  5
1C2
100
AcDbEntity
  8
1
370
    25
100
AcDbLine
 10
47.565305
 20
208.014273
 30
0.0
 11
46.065305
 21
210.61235
 31
0.0
  0
LINE
  5
1C3
100
AcDbEntity
  8
1
370
    25
100
AcDbLine
 10
59.065305
 20
137.658157
 30
0.0
 11
59.065305
 21
200.154328
 31
0.0
  0
ARC
  5
1C4
100
AcDbEntity
  8
1
370
    25
100
AcDbCircle
 10
54.565305
 20
200.154328
 30
0.0
 40
4.5
100
AcDbArc
 50
0.0
 51
67.0
  0
ARC
  5
1C5
100
AcDbEntity
  8
1
370
    25
100
AcDbCircle
 10
47.654887
 20
208.7074
 30
0.0
 40
1.0
100
AcDbArc
 50
91.5
 51
145.096449
  0
LINE
  5
1C6
100
AcDbEntity
  8
1
370
    25
100
AcDbLine
 10
48.065305
 20
216.462878
 30
0.0
 11
46.552217
 21
216.502499
 31
0.0
  0
LINE
  5
1C7
100
AcDbEntity
  8
1
370
    25
100
AcDbLine
 10
48.065305
 20
213.126862
 30
0.0
 11
46.065305
 21
213.126862
 31
0.0
  0
LINE
  5
1C8
100
AcDbEntity
  8
1
370
    25
100
AcDbLine
 10
48.065305
 20
213.126862
 30
0.0
 11
48.065305
 21
216.462878
 31
0.0
  0
LINE
  5
1C9
100
AcDbEntity
  8
1
370
    25
100
AcDbLine
 10
48.065305
 20
215.029876
 30
0.0
 11
46.552217
 21
215.069497
 31
0.0
  0
ARC
  5
1CA
100
AcDbEntity
  8
1
370
    25
100
AcDbCircle
 10
46.565305
 20
217.002328
 30
0.0
 40
0.5
100
AcDbArc
 50
180.0
 51
268.5
  0
ARC
  5
1CB
100
AcDbEntity
  8
1
370
    25
100
AcDbCircle
 10
46.565305
 20
215.569326
 30
0.0
 40
0.5
100
AcDbArc
 50
180.0
 51
268.5
  0
LINE
  5
1CC
100
AcDbEntity
  8
1
370
    25
100
AcDbLine
 10
56.578394
 20
214.966913
 30
0.0
 11
48.065305
 21
215.189836
 31
0.0
  0
LINE
  5
1CD
100
AcDbEntity
  8
1
370
    25
100
AcDbLine
 10
46.065305
 20
216.954163
 30
0.0
 11
46.27077
 21
216.598287
 31
0.0
  0
LINE
  5
1CE
100
AcDbEntity
  8
1
370
    25
100
AcDbLine
 10
46.065305
 20
137.658157
 30
0.0
 11
46.065305
 21
51.158157
 31
0.0
  0
LINE
  5
1CF
100
AcDbEntity
  8
1
370
    25
100
AcDbLine
 10
44.565305
 20
137.658157
 30
0.0
 11
44.565305
 21
52.022455
 31
0.0
  0
LINE
  5
1D0
100
AcDbEntity
  8
1
370
    25
100
AcDbLine
 10
46.065305
 20
51.158157
 30
0.0
 11
45.29558
 21
51.2255
 31
0.0
  0
ARC
  5
1D1
100
AcDbEntity
  8
1
370
    25
100
AcDbCircle
 10
45.365305
 20
52.022455
 30
0.0
 40
0.8
100
AcDbArc
 50
180.0
 51
265.0
  0
LINE
  5
1D2
100
AcDbEntity
  8
1
370
    25
100
AcDbLine
 10
47.039128
 20
56.883658
 30
0.0
 11
56.578394
 21
57.133452
 31
0.0
  0
LINE
  5
1D3
100
AcDbEntity
  8
1
370
    25
100
AcDbLine
 10
57.065305
 20
57.633281
 30
0.0
 11
57.065305
 21
71.420329
 31
0.0
  0
ARC
  5
1D4
100
AcDbEntity
  8
1
370
    25
100
AcDbCircle
 10
56.565305
 20
57.633281
 30
0.0
 40
0.5
100
AcDbArc
 50
271.5
 51
360.0
  0
ARC
  5
1D5
100
AcDbEntity
  8
1
370
    25
100
AcDbCircle
 10
47.065305
 20
55.884
 30
0.0
 40
1.0
100
AcDbArc
 50
91.5
 51
180.0
  0
ARC
  5
1D6
100
AcDbEntity
  8
1
370
    25
100
AcDbCircle
 10
56.565305
 20
64.875073
 30
0.0
 40
0.5
100
AcDbArc
 50
0.0
 51
88.5
  0
ARC
  5
1D7
100
AcDbEntity
  8
1
370
    25
100
AcDbCircle
 10
56.565305
 20
60.84923
 30
0.0
 40
0.5
100
AcDbArc
 50
271.5
 51
360.0
  0
LINE
  5
1D8
100
AcDbEntity
  8
1
370
    25
100
AcDbLine
 10
56.578394
 20
65.374902
 30
0.0
 11
47.62871
 21
65.609258
 31
0.0
  0
LINE
  5
1D9
100
AcDbEntity
  8
1
370
    18
  6
CENTER
100
AcDbLine
 10
44.19875
 20
62.862152
 30
0.0
 11
58.858489
 21
62.862152
 31
0.0
  0
LINE
  5
1DA
100
AcDbEntity
  8
1
370
    25
100
AcDbLine
 10
56.323595
 20
71.019715
 30
0.0
 11
47.565305
 21
67.302041
 31
0.0
  0
LINE
  5
1DB
100
AcDbEntity
  8
1
370
    25
100
AcDbLine
 10
52.065305
 20
69.212178
 30
0.0
 11
52.065305
 21
66.701042
 31
0.0
  0
ARC
  5
1DC
100
AcDbEntity
  8
1
370
    25
100
AcDbCircle
 10
56.565305
 20
66.083034
 30
0.0
 40
0.5
100
AcDbArc
 50
0.0
 51
88.5
  0
LINE
  5
1DD
100
AcDbEntity
  8
1
370
    25
100
AcDbLine
 10
56.578394
 20
66.582862
 30
0.0
 11
52.065305
 21
66.701042
 31
0.0
  0
LINE
  5
1DE
100
AcDbEntity
  8
1
370
    25
100
AcDbLine
 10
47.565305
 20
67.302041
 30
0.0
 11
46.065305
 21
64.703965
 31
0.0
  0
LINE
  5
1DF
100
AcDbEntity
  8
1
370
    25
100
AcDbLine
 10
59.065305
 20
137.658157
 30
0.0
 11
59.065305
 21
75.161987
 31
0.0
  0
ARC
  5
1E0
100
AcDbEntity
  8
1
370
    25
100
AcDbCircle
 10
54.565305
 20
75.161987
 30
0.0
 40
4.5
100
AcDbArc
 50
293.0
 51
360.0
  0
LINE
  5
1E1
100
AcDbEntity
  8
1
370
    18
100
AcDbLine
 10
47.068875
 20
60.100386
 30
0.0
 11
47.068875
 21
65.623918
 31
0.0
  0
ARC
  5
1E2
100
AcDbEntity
  8
1
370
    25
100
AcDbCircle
 10
47.654887
 20
66.608915
 30
0.0
 40
1.0
100
AcDbArc
 50
214.903551
 51
268.5
  0
LINE
  5
1E3
100
AcDbEntity
  8
1
370
    25
100
AcDbLine
 10
48.065305
 20
58.853437
 30
0.0
 11
46.552217
 21
58.813815
 31
0.0
  0
LINE
  5
1E4
100
AcDbEntity
  8
1
370
    25
100
AcDbLine
 10
48.065305
 20
62.189453
 30
0.0
 11
46.065305
 21
62.189453
 31
0.0
  0
LINE
  5
1E5
100
AcDbEntity
  8
1
370
    25
100
AcDbLine
 10
48.065305
 20
62.189453
 30
0.0
 11
48.065305
 21
58.853437
 31
0.0
  0
LINE
  5
1E6
100
AcDbEntity
  8
1
370
    25
100
AcDbLine
 10
48.065305
 20
60.286439
 30
0.0
 11
46.552217
 21
60.246817
 31
0.0
  0
ARC
  5
1E7
100
AcDbEntity
  8
1
370
    25
100
AcDbCircle
 10
46.565305
 20
58.313987
 30
0.0
 40
0.5
100
AcDbArc
 50
91.5
 51
180.0
  0
ARC
  5
1E8
100
AcDbEntity
  8
1
370
    25
100
AcDbCircle
 10
46.565305
 20
59.746989
 30
0.0
 40
0.5
100
AcDbArc
 50
91.5
 51
180.0
  0
LINE
  5
1E9
100
AcDbEntity
  8
1
370
    25
100
AcDbLine
 10
56.578394
 20
60.349402
 30
0.0
 11
48.065305
 21
60.126479
 31
0.0
  0
LINE
  5
1EA
100
AcDbEntity
  8
1
370
    25
100
AcDbLine
 10
46.065305
 20
58.362152
 30
0.0
 11
46.27077
 21
58.718028
 31
0.0
  0
LINE
  5
1EB
100
AcDbEntity
  8
1
370
    18
  6
CENTER
100
AcDbLine
 10
82.75648
 20
137.658157
 30
0.0
 11
63.535624
 21
137.658157
 31
0.0
  0
LINE
  5
1EC
100
AcDbEntity
  8
1
370
    25
100
AcDbLine
 10
79.065305
 20
137.658157
 30
0.0
 11
79.065305
 21
224.158157
 31
0.0
  0
LINE
  5
1ED
100
AcDbEntity
  8
1
370
    25
100
AcDbLine
 10
80.565305
 20
137.658157
 30
0.0
 11
80.565305
 21
223.293859
 31
0.0
  0
LINE
  5
1EE
100
AcDbEntity
  8
1
370
    25
100
AcDbLine
 10
79.065305
 20
224.158157
 30
0.0
 11
79.83503
 21
224.090815
 31
0.0
  0
ARC
  5
1EF
100
AcDbEntity
  8
1
370
    25
100
AcDbCircle
 10
79.765305
 20
223.293859
 30
0.0
 40
0.8
100
AcDbArc
 50
360.0
 51
85.0
  0
LINE
  5
1F0
100
AcDbEntity
  8
1
370
    25
100
AcDbLine
 10
78.091482
 20
218.432657
 30
0.0
 11
68.552217
 21
218.182862
 31
0.0
  0
LINE
  5
1F1
100
AcDbEntity
  8
1
370
    25
100
AcDbLine
 10
68.065305
 20
217.683034
 30
0.0
 11
68.065305
 21
203.895985
 31
0.0
  0
ARC
  5
1F2
100
AcDbEntity
  8
1
370
    25
100
AcDbCircle
 10
68.565305
 20
217.683034
 30
0.0
 40
0.5
100
AcDbArc
 50
91.5
 51
180.0
  0
ARC
  5
1F3
100
AcDbEntity
  8
1
370
    25
100
AcDbCircle
 10
78.065305
 20
219.432314
 30
0.0
 40
1.0
100
AcDbArc
 50
271.5
 51
360.0
  0
ARC
  5
1F4
100
AcDbEntity
  8
1
370
    25
100
AcDbCircle
 10
68.565305
 20
210.441241
 30
0.0
 40
0.5
100
AcDbArc
 50
180.0
 51
268.5
  0
ARC
  5
1F5
100
AcDbEntity
  8
1
370
    25
100
AcDbCircle
 10
68.565305
 20
214.467084
 30
0.0
 40
0.5
100
AcDbArc
 50
91.5
 51
180.0
  0
LINE
  5
1F6
100
AcDbEntity
  8
1
370
    25
100
AcDbLine
 10
68.552217
 20
209.941413
 30
0.0
 11
77.5019
 21
209.707057
 31
0.0
  0
LINE
  5
1F7
100
AcDbEntity
  8
1
370
    25
100
AcDbLine
 10
68.807015
 20
204.2966
 30
0.0
 11
77.565305
 21
208.014273
 31
0.0
  0
LINE
  5
1F8
100
AcDbEntity
  8
1
370
    25
100
AcDbLine
 10
73.065305
 20
206.104137
 30
0.0
 11
73.065305
 21
208.615273
 31
0.0
  0
ARC
  5
1F9
100
AcDbEntity
  8
1
370
    25
100
AcDbCircle
 10
68.565305
 20
209.233281
 30
0.0
 40
0.5
100
AcDbArc
 50
180.0
 51
268.5
  0
LINE
  5
1FA
100
AcDbEntity
  8
1
370
    25
100
AcDbLine
 10
68.552217
 20
208.733452
 30
0.0
 11
73.065305
 21
208.615273
 31
0.0
  0
LINE
  5
1FB
100
AcDbEntity
  8
1
370
    25
100
AcDbLine
 10
77.565305
 20
208.014273
 30
0.0
 11
79.065305
 21
210.61235
 31
0.0
  0
LINE
  5
1FC
100
AcDbEntity
  8
1
370
    25
100
AcDbLine
 10
66.065305
 20
137.658157
 30
0.0
 11
66.065305
 21
200.154328
 31
0.0
  0
LINE
  5
1FD
100
AcDbEntity
  8
1
370
    18
  6
DASHED
100
AcDbLine
 10
67.565305
 20
137.658157
 30
0.0
 11
67.565305
 21
200.154328
 31
0.0
  0
ARC
  5
1FE
100
AcDbEntity
  8
1
370
    25
100
AcDbCircle
 10
70.565305
 20
200.154328
 30
0.0
 40
4.5
100
AcDbArc
 50
113.0
 51
180.0
  0
ARC
  5
1FF
100
AcDbEntity
  8
1
370
    25
100
AcDbCircle
 10
77.475723
 20
208.7074
 30
0.0
 40
1.0
100
AcDbArc
 50
34.903551
 51
88.5
  0
LINE
  5
200
100
AcDbEntity
  8
1
370
    25
100
AcDbLine
 10
77.065305
 20
216.462878
 30
0.0
 11
78.578394
 21
216.502499
 31
0.0
  0
LINE
  5
201
100
AcDbEntity
  8
1
370
    25
100
AcDbLine
 10
77.065305
 20
213.126862
 30
0.0
 11
79.065305
 21
213.126862
 31
0.0
  0
LINE
  5
202
100
AcDbEntity
  8
1
370
    25
100
AcDbLine
 10
77.065305
 20
213.126862
 30
0.0
 11
77.065305
 21
216.462878
 31
0.0
  0
LINE
  5
203
100
AcDbEntity
  8
1
370
    25
100
AcDbLine
 10
77.065305
 20
215.029876
 30
0.0
 11
78.578394
 21
215.069497
 31
0.0
  0
ARC
  5
204
100
AcDbEntity
  8
1
370
    25
100
AcDbCircle
 10
78.565305
 20
217.002328
 30
0.0
 40
0.5
100
AcDbArc
 50
271.5
 51
360.0
  0
ARC
  5
205
100
AcDbEntity
  8
1
370
    25
100
AcDbCircle
 10
78.565305
 20
215.569326
 30
0.0
 40
0.5
100
AcDbArc
 50
271.5
 51
360.0
  0
LINE
  5
206
100
AcDbEntity
  8
1
370
    25
100
AcDbLine
 10
68.552217
 20
214.966913
 30
0.0
 11
77.065305
 21
215.189836
 31
0.0
  0
LINE
  5
207
100
AcDbEntity
  8
1
370
    25
100
AcDbLine
 10
79.065305
 20
216.954163
 30
0.0
 11
78.85984
 21
216.598287
 31
0.0
  0
LINE
  5
208
100
AcDbEntity
  8
1
370
    25
100
AcDbLine
 10
79.065305
 20
137.658157
 30
0.0
 11
79.065305
 21
51.158157
 31
0.0
  0
LINE
  5
209
100
AcDbEntity
  8
1
370
    25
100
AcDbLine
 10
80.565305
 20
137.658157
 30
0.0
 11
80.565305
 21
52.022455
 31
0.0
  0
LINE
  5
20A
100
AcDbEntity
  8
1
370
    25
100
AcDbLine
 10
79.065305
 20
51.158157
 30
0.0
 11
79.83503
 21
51.2255
 31
0.0
  0
ARC
  5
20B
100
AcDbEntity
  8
1
370
    25
100
AcDbCircle
 10
79.765305
 20
52.022455
 30
0.0
 40
0.8
100
AcDbArc
 50
275.0
 51
0.0
  0
LINE
  5
20C
100
AcDbEntity
  8
1
370
    25
100
AcDbLine
 10
78.091482
 20
56.883658
 30
0.0
 11
68.552217
 21
57.133452
 31
0.0
  0
LINE
  5
20D
100
AcDbEntity
  8
1
370
    25
100
AcDbLine
 10
68.065305
 20
57.633281
 30
0.0
 11
68.065305
 21
71.420329
 31
0.0
  0
ARC
  5
20E
100
AcDbEntity
  8
1
370
    25
100
AcDbCircle
 10
68.565305
 20
57.633281
 30
0.0
 40
0.5
100
AcDbArc
 50
180.0
 51
268.5
  0
ARC
  5
20F
100
AcDbEntity
  8
1
370
    25
100
AcDbCircle
 10
78.065305
 20
55.884
 30
0.0
 40
1.0
100
AcDbArc
 50
0.0
 51
88.5
  0
ARC
  5
210
100
AcDbEntity
  8
1
370
    25
100
AcDbCircle
 10
68.565305
 20
64.875073
 30
0.0
 40
0.5
100
AcDbArc
 50
91.5
 51
180.0
  0
ARC
  5
211
100
AcDbEntity
  8
1
370
    25
100
AcDbCircle
 10
68.565305
 20
60.84923
 30
0.0
 40
0.5
100
AcDbArc
 50
180.0
 51
268.5
  0
LINE
  5
212
100
AcDbEntity
  8
1
370
    25
100
AcDbLine
 10
68.552217
 20
65.374902
 30
0.0
 11
77.5019
 21
65.609258
 31
0.0
  0
LINE
  5
213
100
AcDbEntity
  8
1
370
    18
  6
CENTER
100
AcDbLine
 10
80.931861
 20
62.862152
 30
0.0
 11
66.272121
 21
62.862152
 31
0.0
  0
LINE
  5
214
100
AcDbEntity
  8
1
370
    25
100
AcDbLine
 10
68.807015
 20
71.019715
 30
0.0
 11
77.565305
 21
67.302041
 31
0.0
  0
LINE
  5
215
100
AcDbEntity
  8
1
370
    25
100
AcDbLine
 10
73.065305
 20
69.212178
 30
0.0
 11
73.065305
 21
66.701042
 31
0.0
  0
ARC
  5
216
100
AcDbEntity
  8
1
370
    25
100
AcDbCircle
 10
68.565305
 20
66.083034
 30
0.0
 40
0.5
100
AcDbArc
 50
91.5
 51
180.0
  0
LINE
  5
217
100
AcDbEntity
  8
1
370
    25
100
AcDbLine
 10
68.552217
 20
66.582862
 30
0.0
 11
73.065305
 21
66.701042
 31
0.0
  0
LINE
  5
218
100
AcDbEntity
  8
1
370
    25
100
AcDbLine
 10
77.565305
 20
67.302041
 30
0.0
 11
79.065305
 21
64.703965
 31
0.0
  0
LINE
  5
219
100
AcDbEntity
  8
1
370
    25
100
AcDbLine
 10
66.065305
 20
137.658157
 30
0.0
 11
66.065305
 21
75.161987
 31
0.0
  0
LINE
  5
21A
100
AcDbEntity
  8
1
370
    18
  6
DASHED
100
AcDbLine
 10
67.565305
 20
137.658157
 30
0.0
 11
67.565305
 21
75.161987
 31
0.0
  0
ARC
  5
21B
100
AcDbEntity
  8
1
370
    25
100
AcDbCircle
 10
70.565305
 20
75.161987
 30
0.0
 40
4.5
100
AcDbArc
 50
180.0
 51
247.0
  0
LINE
  5
21C
100
AcDbEntity
  8
1
370
    18
100
AcDbLine
 10
78.061735
 20
60.100386
 30
0.0
 11
78.061735
 21
65.623918
 31
0.0
  0
ARC
  5
21D
100
AcDbEntity
  8
1
370
    25
100
AcDbCircle
 10
77.475723
 20
66.608915
 30
0.0
 40
1.0
100
AcDbArc
 50
271.5
 51
325.096449
  0
LINE
  5
21E
100
AcDbEntity
  8
1
370
    25
100
AcDbLine
 10
77.065305
 20
58.853437
 30
0.0
 11
78.578394
 21
58.813815
 31
0.0
  0
LINE
  5
21F
100
AcDbEntity
  8
1
370
    25
100
AcDbLine
 10
77.065305
 20
62.189453
 30
0.0
 11
79.065305
 21
62.189453
 31
0.0
  0
LINE
  5
220
100
AcDbEntity
  8
1
370
    25
100
AcDbLine
 10
77.065305
 20
62.189453
 30
0.0
 11
77.065305
 21
58.853437
 31
0.0
  0
LINE
  5
221
100
AcDbEntity
  8
1
370
    25
100
AcDbLine
 10
77.065305
 20
60.286439
 30
0.0
 11
78.578394
 21
60.246817
 31
0.0
  0
ARC
  5
222
100
AcDbEntity
  8
1
370
    25
100
AcDbCircle
 10
78.565305
 20
58.313987
 30
0.0
 40
0.5
100
AcDbArc
 50
0.0
 51
88.5
  0
ARC
  5
223
100
AcDbEntity
  8
1
370
    25
100
AcDbCircle
 10
78.565305
 20
59.746989
 30
0.0
 40
0.5
100
AcDbArc
 50
0.0
 51
88.5
  0
LINE
  5
224
100
AcDbEntity
  8
1
370
    25
100
AcDbLine
 10
68.552217
 20
60.349402
 30
0.0
 11
77.065305
 21
60.126479
 31
0.0
  0
LINE
  5
225
100
AcDbEntity
  8
1
370
    25
100
AcDbLine
 10
79.065305
 20
58.362152
 30
0.0
 11
78.85984
 21
58.718028
 31
0.0
  0
ARC
  5
226
100
AcDbEntity
  8
1
370
    25
100
AcDbCircle
 10
874.565305
 20
253.658157
 30
0.0
 40
830.0
100
AcDbArc
 50
180.0
 51
181.358318
  0
LINE
  5
227
100
AcDbEntity
  8
1
370
    25
100
AcDbLine
 10
46.065305
 20
253.658157
 30
0.0
 11
46.065305
 21
233.158157
 31
0.0
  0
LINE
  5
228
100
AcDbEntity
  8
1
370
    25
100
AcDbLine
 10
59.065305
 20
249.549524
 30
0.0
 11
59.065305
 21
244.896979
 31
0.0
  0
LINE
  5
229
100
AcDbEntity
  8
1
370
    25
100
AcDbLine
 10
57.065305
 20
248.766014
 30
0.0
 11
57.065305
 21
243.870112
 31
0.0
  0
LINE
  5
22A
100
AcDbEntity
  8
1
370
    25
100
AcDbLine
 10
55.565305
 20
253.658157
 30
0.0
 11
55.565305
 21
248.909391
 31
0.0
  0
LINE
  5
22B
100
AcDbEntity
  8
1
370
    25
100
AcDbLine
 10
45.528586
 20
233.205114
 30
0.0
 11
46.065305
 21
233.158157
 31
0.0
  0
ARC
  5
22C
100
AcDbEntity
  8
1
370
    25
100
AcDbCircle
 10
45.59831
 20
234.00207
 30
0.0
 40
0.8
100
AcDbArc
 50
181.358317
 51
265.0
  0
ARC
  5
22D
100
AcDbEntity
  8
1
370
    25
100
AcDbCircle
 10
47.065305
 20
238.288871
 30
0.0
 40
1.0
100
AcDbArc
 50
98.0
 51
180.0
  0
LINE
  5
22E
100
AcDbEntity
  8
1
370
    25
100
AcDbLine
 10
56.578394
 20
246.933452
 30
0.0
 11
46.065305
 21
246.658157
 31
0.0
  0
ARC
  5
22F
100
AcDbEntity
  8
1
370
    25
100
AcDbCircle
 10
56.565305
 20
247.433281
 30
0.0
 40
0.5
100
AcDbArc
 50
271.5
 51
360.0
  0
ARC
  5
230
100
AcDbEntity
  8
1
370
    25
100
AcDbCircle
 10
56.565305
 20
248.383034
 30
0.0
 40
0.5
100
AcDbArc
 50
0.0
 51
88.5
  0
LINE
  5
231
100
AcDbEntity
  8
1
370
    25
100
AcDbLine
 10
56.578394
 20
248.882862
 30
0.0
 11
55.565305
 21
248.909391
 31
0.0
  0
LINE
  5
232
100
AcDbEntity
  8
1
370
    25
100
AcDbLine
 10
55.565819
 20
251.054809
 30
0.0
 11
55.673815
 21
251.051981
 31
0.0
  0
LINE
  5
233
100
AcDbEntity
  8
1
370
    18
100
AcDbLine
 10
47.039128
 20
249.88324
 30
0.0
 11
55.065305
 21
249.88324
 31
0.0
  0
LINE
  5
234
100
AcDbEntity
  8
1
370
    25
100
AcDbLine
 10
55.191584
 20
240.440772
 30
0.0
 11
46.926132
 21
239.279139
 31
0.0
  0
LINE
  5
235
100
AcDbEntity
  8
1
370
    25
100
AcDbLine
 10
48.065305
 20
243.14736
 30
0.0
 11
56.578394
 21
243.370284
 31
0.0
  0
ARC
  5
236
100
AcDbEntity
  8
1
370
    25
100
AcDbCircle
 10
56.565305
 20
243.870112
 30
0.0
 40
0.5
100
AcDbArc
 50
271.5
 51
360.0
  0
ARC
  5
237
100
AcDbEntity
  8
1
370
    25
100
AcDbCircle
 10
54.565305
 20
244.896979
 30
0.0
 40
4.5
100
AcDbArc
 50
278.0
 51
360.0
  0
LINE
  5
238
100
AcDbEntity
  8
1
370
    18
100
AcDbLine
 10
47.068875
 20
244.748582
 30
0.0
 11
47.068875
 21
246.684437
 31
0.0
  0
LINE
  5
239
100
AcDbEntity
  8
1
370
    25
100
AcDbLine
 10
48.065305
 20
244.748582
 30
0.0
 11
48.065305
 21
242.059304
 31
0.0
  0
LINE
  5
23A
100
AcDbEntity
  8
1
370
    25
100
AcDbLine
 10
46.552217
 20
241.532604
 30
0.0
 11
47.578394
 21
241.559475
 31
0.0
  0
LINE
  5
23B
100
AcDbEntity
  8
1
370
    25
100
AcDbLine
 10
46.552217
 20
242.928029
 30
0.0
 11
47.578394
 21
242.9549
 31
0.0
  0
ARC
  5
23C
100
AcDbEntity
  8
1
370
    25
100
AcDbCircle
 10
46.565305
 20
241.032775
 30
0.0
 40
0.5
100
AcDbArc
 50
91.5
 51
180.0
  0
ARC
  5
23D
100
AcDbEntity
  8
1
370
    25
100
AcDbCircle
 10
46.565305
 20
242.4282
 30
0.0
 40
0.5
100
AcDbArc
 50
91.5
 51
180.0
  0
ARC
  5
23E
100
AcDbEntity
  8
1
370
    25
100
AcDbCircle
 10
47.565305
 20
243.454729
 30
0.0
 40
0.5
100
AcDbArc
 50
271.5
 51
360.0
  0
ARC
  5
23F
100
AcDbEntity
  8
1
370
    25
100
AcDbCircle
 10
47.565305
 20
242.059304
 30
0.0
 40
0.5
100
AcDbArc
 50
271.5
 51
360.0
  0
LINE
  5
240
100
AcDbEntity
  8
1
370
    25
100
AcDbLine
 10
48.065305
 20
244.748582
 30
0.0
 11
46.065305
 21
244.748582
 31
0.0
  0
ARC
  5
241
100
AcDbEntity
  8
1
370
    25
100
AcDbCircle
 10
874.565305
 20
253.658157
 30
0.0
 40
830.0
100
AcDbArc
 50
178.641682
 51
180.0
  0
LINE
  5
242
100
AcDbEntity
  8
1
370
    25
100
AcDbLine
 10
46.065305
 20
253.658157
 30
0.0
 11
46.065305
 21
274.158157
 31
0.0
  0
LINE
  5
243
100
AcDbEntity
  8
1
370
    25
100
AcDbLine
 10
59.065305
 20
257.766791
 30
0.0
 11
59.065305
 21
262.419336
 31
0.0
  0
LINE
  5
244
100
AcDbEntity
  8
1
370
    25
100
AcDbLine
 10
57.065305
 20
258.550302
 30
0.0
 11
57.065305
 21
263.446202
 31
0.0
  0
LINE
  5
245
100
AcDbEntity
  8
1
370
    25
100
AcDbLine
 10
55.565305
 20
253.658157
 30
0.0
 11
55.565305
 21
258.406924
 31
0.0
  0
LINE
  5
246
100
AcDbEntity
  8
1
370
    25
100
AcDbLine
 10
45.528586
 20
274.1112
 30
0.0
 11
46.065305
 21
274.158157
 31
0.0
  0
ARC
  5
247
100
AcDbEntity
  8
1
370
    25
100
AcDbCircle
 10
45.59831
 20
273.314245
 30
0.0
 40
0.8
100
AcDbArc
 50
95.0
 51
178.641683
  0
ARC
  5
248
100
AcDbEntity
  8
1
370
    25
100
AcDbCircle
 10
47.065305
 20
269.027444
 30
0.0
 40
1.0
100
AcDbArc
 50
180.0
 51
262.0
  0
LINE
  5
249
100
AcDbEntity
  8
1
370
    25
100
AcDbLine
 10
56.578394
 20
260.382862
 30
0.0
 11
46.065305
 21
260.658157
 31
0.0
  0
ARC
  5
24A
100
AcDbEntity
  8
1
370
    25
100
AcDbCircle
 10
56.565305
 20
259.883034
 30
0.0
 40
0.5
100
AcDbArc
 50
0.0
 51
88.5
  0
ARC
  5
24B
100
AcDbEntity
  8
1
370
    25
100
AcDbCircle
 10
56.565305
 20
258.933281
 30
0.0
 40
0.5
100
AcDbArc
 50
271.5
 51
360.0
  0
LINE
  5
24C
100
AcDbEntity
  8
1
370
    25
100
AcDbLine
 10
56.578394
 20
258.433452
 30
0.0
 11
55.565305
 21
258.406924
 31
0.0
  0
LINE
  5
24D
100
AcDbEntity
  8
1
370
    25
100
AcDbLine
 10
55.565819
 20
256.261506
 30
0.0
 11
55.669094
 21
256.26421
 31
0.0
  0
LINE
  5
24E
100
AcDbEntity
  8
1
370
    18
100
AcDbLine
 10
47.039128
 20
257.433075
 30
0.0
 11
55.065305
 21
257.433075
 31
0.0
  0
LINE
  5
24F
100
AcDbEntity
  8
1
370
    25
100
AcDbLine
 10
55.191584
 20
266.875542
 30
0.0
 11
46.926132
 21
268.037176
 31
0.0
  0
LINE
  5
250
100
AcDbEntity
  8
1
370
    25
100
AcDbLine
 10
48.065305
 20
264.168954
 30
0.0
 11
56.578394
 21
263.946031
 31
0.0
  0
ARC
  5
251
100
AcDbEntity
  8
1
370
    25
100
AcDbCircle
 10
56.565305
 20
263.446202
 30
0.0
 40
0.5
100
AcDbArc
 50
0.0
 51
88.5
  0
ARC
  5
252
100
AcDbEntity
  8
1
370
    25
100
AcDbCircle
 10
54.565305
 20
262.419336
 30
0.0
 40
4.5
100
AcDbArc
 50
0.0
 51
82.0
  0
LINE
  5
253
100
AcDbEntity
  8
1
370
    18
100
AcDbLine
 10
47.068875
 20
262.567733
 30
0.0
 11
47.068875
 21
260.631878
 31
0.0
  0
LINE
  5
254
100
AcDbEntity
  8
1
370
    25
100
AcDbLine
 10
48.065305
 20
262.567733
 30
0.0
 11
48.065305
 21
265.257011
 31
0.0
  0
LINE
  5
255
100
AcDbEntity
  8
1
370
    25
100
AcDbLine
 10
46.552217
 20
265.783711
 30
0.0
 11
47.578394
 21
265.756839
 31
0.0
  0
LINE
  5
256
100
AcDbEntity
  8
1
370
    25
100
AcDbLine
 10
46.552217
 20
264.388286
 30
0.0
 11
47.578394
 21
264.361414
 31
0.0
  0
ARC
  5
257
100
AcDbEntity
  8
1
370
    25
100
AcDbCircle
 10
46.565305
 20
266.283539
 30
0.0
 40
0.5
100
AcDbArc
 50
180.0
 51
268.5
  0
ARC
  5
258
100
AcDbEntity
  8
1
370
    25
100
AcDbCircle
 10
46.565305
 20
264.888115
 30
0.0
 40
0.5
100
AcDbArc
 50
180.0
 51
268.5
  0
ARC
  5
259
100
AcDbEntity
  8
1
370
    25
100
AcDbCircle
 10
47.565305
 20
263.861586
 30
0.0
 40
0.5
100
AcDbArc
 50
0.0
 51
88.5
  0
ARC
  5
25A
100
AcDbEntity
  8
1
370
    25
100
AcDbCircle
 10
47.565305
 20
265.257011
 30
0.0
 40
0.5
100
AcDbArc
 50
0.0
 51
88.5
  0
LINE
  5
25B
100
AcDbEntity
  8
1
370
    25
100
AcDbLine
 10
48.065305
 20
262.567733
 30
0.0
 11
46.065305
 21
262.567733
 31
0.0
  0
ARC
  5
25C
100
AcDbEntity
  8
1
370
    25
100
AcDbCircle
 10
-749.434695
 20
253.658157
 30
0.0
 40
830.0
100
AcDbArc
 50
358.641682
 51
0.0
  0
LINE
  5
25D
100
AcDbEntity
  8
1
370
    25
100
AcDbLine
 10
79.065305
 20
253.658157
 30
0.0
 11
79.065305
 21
233.158157
 31
0.0
  0
LINE
  5
25E
100
AcDbEntity
  8
1
370
    25
100
AcDbLine
 10
66.065305
 20
249.658157
 30
0.0
 11
66.065305
 21
244.896979
 31
0.0
  0
LINE
  5
25F
100
AcDbEntity
  8
1
370
    25
100
AcDbLine
 10
68.065305
 20
248.766014
 30
0.0
 11
68.065305
 21
243.870112
 31
0.0
  0
LINE
  5
260
100
AcDbEntity
  8
1
370
    25
100
AcDbLine
 10
69.565305
 20
253.658157
 30
0.0
 11
69.565305
 21
248.909391
 31
0.0
  0
LINE
  5
261
100
AcDbEntity
  8
1
370
    25
100
AcDbLine
 10
79.602024
 20
233.205114
 30
0.0
 11
79.065305
 21
233.158157
 31
0.0
  0
ARC
  5
262
100
AcDbEntity
  8
1
370
    25
100
AcDbCircle
 10
79.5323
 20
234.00207
 30
0.0
 40
0.8
100
AcDbArc
 50
275.0
 51
358.641683
  0
ARC
  5
263
100
AcDbEntity
  8
1
370
    25
100
AcDbCircle
 10
78.065305
 20
238.288871
 30
0.0
 40
1.0
100
AcDbArc
 50
0.0
 51
82.0
  0
LINE
  5
264
100
AcDbEntity
  8
1
370
    25
100
AcDbLine
 10
68.552217
 20
246.933452
 30
0.0
 11
79.065305
 21
246.658157
 31
0.0
  0
ARC
  5
265
100
AcDbEntity
  8
1
370
    25
100
AcDbCircle
 10
68.565305
 20
247.433281
 30
0.0
 40
0.5
100
AcDbArc
 50
180.0
 51
268.5
  0
ARC
  5
266
100
AcDbEntity
  8
1
370
    25
100
AcDbCircle
 10
68.565305
 20
248.383034
 30
0.0
 40
0.5
100
AcDbArc
 50
91.5
 51
180.0
  0
LINE
  5
267
100
AcDbEntity
  8
1
370
    25
100
AcDbLine
 10
68.552217
 20
248.882862
 30
0.0
 11
69.565305
 21
248.909391
 31
0.0
  0
LINE
  5
268
100
AcDbEntity
  8
1
370
    25
100
AcDbLine
 10
69.564791
 20
251.054809
 30
0.0
 11
69.456795
 21
251.051981
 31
0.0
  0
LINE
  5
269
100
AcDbEntity
  8
1
370
    18
100
AcDbLine
 10
78.091482
 20
249.88324
 30
0.0
 11
70.065305
 21
249.88324
 31
0.0
  0
LINE
  5
26A
100
AcDbEntity
  8
1
370
    25
100
AcDbLine
 10
69.939026
 20
240.440772
 30
0.0
 11
78.204478
 21
239.279139
 31
0.0
  0
LINE
  5
26B
100
AcDbEntity
  8
1
370
    25
100
AcDbLine
 10
77.065305
 20
243.14736
 30
0.0
 11
68.552217
 21
243.370284
 31
0.0
  0
ARC
  5
26C
100
AcDbEntity
  8
1
370
    25
100
AcDbCircle
 10
68.565305
 20
243.870112
 30
0.0
 40
0.5
100
AcDbArc
 50
180.0
 51
268.5
  0
ARC
  5
26D
100
AcDbEntity
  8
1
370
    25
100
AcDbCircle
 10
70.565305
 20
244.896979
 30
0.0
 40
4.5
100
AcDbArc
 50
180.0
 51
262.0
  0
LINE
  5
26E
100
AcDbEntity
  8
1
370
    18
100
AcDbLine
 10
78.061735
 20
244.748582
 30
0.0
 11
78.061735
 21
246.684437
 31
0.0
  0
LINE
  5
26F
100
AcDbEntity
  8
1
370
    25
100
AcDbLine
 10
77.065305
 20
244.748582
 30
0.0
 11
77.065305
 21
242.059304
 31
0.0
  0
LINE
  5
270
100
AcDbEntity
  8
1
370
    25
100
AcDbLine
 10
78.578394
 20
241.532604
 30
0.0
 11
77.552217
 21
241.559475
 31
0.0
  0
LINE
  5
271
100
AcDbEntity
  8
1
370
    25
100
AcDbLine
 10
78.578394
 20
242.928029
 30
0.0
 11
77.552217
 21
242.9549
 31
0.0
  0
ARC
  5
272
100
AcDbEntity
  8
1
370
    25
100
AcDbCircle
 10
78.565305
 20
241.032775
 30
0.0
 40
0.5
100
AcDbArc
 50
0.0
 51
88.5
  0
ARC
  5
273
100
AcDbEntity
  8
1
370
    25
100
AcDbCircle
 10
78.565305
 20
242.4282
 30
0.0
 40
0.5
100
AcDbArc
 50
0.0
 51
88.5
  0
ARC
  5
274
100
AcDbEntity
  8
1
370
    25
100
AcDbCircle
 10
77.565305
 20
243.454729
 30
0.0
 40
0.5
100
AcDbArc
 50
180.0
 51
268.5
  0
ARC
  5
275
100
AcDbEntity
  8
1
370
    25
100
AcDbCircle
 10
77.565305
 20
242.059304
 30
0.0
 40
0.5
100
AcDbArc
 50
180.0
 51
268.5
  0
LINE
  5
276
100
AcDbEntity
  8
1
370
    25
100
AcDbLine
 10
77.065305
 20
244.748582
 30
0.0
 11
79.065305
 21
244.748582
 31
0.0
  0
ARC
  5
277
100
AcDbEntity
  8
1
370
    25
100
AcDbCircle
 10
-749.434695
 20
253.658157
 30
0.0
 40
830.0
100
AcDbArc
 50
0.0
 51
1.358318
  0
LINE
  5
278
100
AcDbEntity
  8
1
370
    25
100
AcDbLine
 10
79.065305
 20
253.658157
 30
0.0
 11
79.065305
 21
274.158157
 31
0.0
  0
LINE
  5
279
100
AcDbEntity
  8
1
370
    25
100
AcDbLine
 10
66.065305
 20
257.658157
 30
0.0
 11
66.065305
 21
262.419336
 31
0.0
  0
LINE
  5
27A
100
AcDbEntity
  8
1
370
    25
100
AcDbLine
 10
68.065305
 20
258.550302
 30
0.0
 11
68.065305
 21
263.446202
 31
0.0
  0
LINE
  5
27B
100
AcDbEntity
  8
1
370
    25
100
AcDbLine
 10
69.565305
 20
253.658157
 30
0.0
 11
69.565305
 21
258.406924
 31
0.0
  0
LINE
  5
27C
100
AcDbEntity
  8
1
370
    25
100
AcDbLine
 10
79.602024
 20
274.1112
 30
0.0
 11
79.065305
 21
274.158157
 31
0.0
  0
ARC
  5
27D
100
AcDbEntity
  8
1
370
    25
100
AcDbCircle
 10
79.5323
 20
273.314245
 30
0.0
 40
0.8
100
AcDbArc
 50
1.358317
 51
85.0
  0
ARC
  5
27E
100
AcDbEntity
  8
1
370
    25
100
AcDbCircle
 10
78.065305
 20
269.027444
 30
0.0
 40
1.0
100
AcDbArc
 50
278.0
 51
360.0
  0
LINE
  5
27F
100
AcDbEntity
  8
1
370
    25
100
AcDbLine
 10
68.552217
 20
260.382862
 30
0.0
 11
79.065305
 21
260.658157
 31
0.0
  0
ARC
  5
280
100
AcDbEntity
  8
1
370
    25
100
AcDbCircle
 10
68.565305
 20
259.883034
 30
0.0
 40
0.5
100
AcDbArc
 50
91.5
 51
180.0
  0
ARC
  5
281
100
AcDbEntity
  8
1
370
    25
100
AcDbCircle
 10
68.565305
 20
258.933281
 30
0.0
 40
0.5
100
AcDbArc
 50
180.0
 51
268.5
  0
LINE
  5
282
100
AcDbEntity
  8
1
370
    25
100
AcDbLine
 10
68.552217
 20
258.433452
 30
0.0
 11
69.565305
 21
258.406924
 31
0.0
  0
LINE
  5
283
100
AcDbEntity
  8
1
370
    25
100
AcDbLine
 10
69.564791
 20
256.261506
 30
0.0
 11
69.461516
 21
256.26421
 31
0.0
  0
LINE
  5
284
100
AcDbEntity
  8
1
370
    18
100
AcDbLine
 10
78.091482
 20
257.433075
 30
0.0
 11
70.065305
 21
257.433075
 31
0.0
  0
LINE
  5
285
100
AcDbEntity
  8
1
370
    25
100
AcDbLine
 10
69.939026
 20
266.875542
 30
0.0
 11
78.204478
 21
268.037176
 31
0.0
  0
LINE
  5
286
100
AcDbEntity
  8
1
370
    25
100
AcDbLine
 10
77.065305
 20
264.168954
 30
0.0
 11
68.552217
 21
263.946031
 31
0.0
  0
ARC
  5
287
100
AcDbEntity
  8
1
370
    25
100
AcDbCircle
 10
68.565305
 20
263.446202
 30
0.0
 40
0.5
100
AcDbArc
 50
91.5
 51
180.0
  0
ARC
  5
288
100
AcDbEntity
  8
1
370
    25
100
AcDbCircle
 10
70.565305
 20
262.419336
 30
0.0
 40
4.5
100
AcDbArc
 50
98.0
 51
180.0
  0
LINE
  5
289
100
AcDbEntity
  8
1
370
    18
100
AcDbLine
 10
78.061735
 20
262.567733
 30
0.0
 11
78.061735
 21
260.631878
 31
0.0
  0
LINE
  5
28A
100
AcDbEntity
  8
1
370
    25
100
AcDbLine
 10
77.065305
 20
262.567733
 30
0.0
 11
77.065305
 21
265.257011
 31
0.0
  0
LINE
  5
28B
100
AcDbEntity
  8
1
370
    25
100
AcDbLine
 10
78.578394
 20
265.783711
 30
0.0
 11
77.552217
 21
265.756839
 31
0.0
  0
LINE
  5
28C
100
AcDbEntity
  8
1
370
    25
100
AcDbLine
 10
78.578394
 20
264.388286
 30
0.0
 11
77.552217
 21
264.361414
 31
0.0
  0
ARC
  5
28D
100
AcDbEntity
  8
1
370
    25
100
AcDbCircle
 10
78.565305
 20
266.283539
 30
0.0
 40
0.5
100
AcDbArc
 50
271.5
 51
360.0
  0
ARC
  5
28E
100
AcDbEntity
  8
1
370
    25
100
AcDbCircle
 10
78.565305
 20
264.888115
 30
0.0
 40
0.5
100
AcDbArc
 50
271.5
 51
0.0
  0
ARC
  5
28F
100
AcDbEntity
  8
1
370
    25
100
AcDbCircle
 10
77.565305
 20
263.861586
 30
0.0
 40
0.5
100
AcDbArc
 50
91.5
 51
180.0
  0
ARC
  5
290
100
AcDbEntity
  8
1
370
    25
100
AcDbCircle
 10
77.565305
 20
265.257011
 30
0.0
 40
0.5
100
AcDbArc
 50
91.5
 51
180.0
  0
LINE
  5
291
100
AcDbEntity
  8
1
370
    25
100
AcDbLine
 10
77.065305
 20
262.567733
 30
0.0
 11
79.065305
 21
262.567733
 31
0.0
  0
LINE
  5
292
100
AcDbEntity
  8
1
370
    25
100
AcDbLine
 10
117.611706
 20
52.658157
 30
0.0
 11
117.611706
 21
222.658157
 31
0.0
  0
LINE
  5
293
100
AcDbEntity
  8
1
370
    25
100
AcDbLine
 10
158.611706
 20
52.658157
 30
0.0
 11
158.611706
 21
222.658157
 31
0.0
  0
LINE
  5
294
100
AcDbEntity
  8
1
370
    25
100
AcDbLine
 10
151.311706
 20
68.658157
 30
0.0
 11
151.311706
 21
206.658157
 31
0.0
  0
LINE
  5
295
100
AcDbEntity
  8
1
370
    25
100
AcDbLine
 10
124.911706
 20
68.658157
 30
0.0
 11
124.911706
 21
206.658157
 31
0.0
  0
LINE
  5
296
100
AcDbEntity
  8
1
370
    25
100
AcDbLine
 10
119.111706
 20
224.158157
 30
0.0
 11
157.111706
 21
224.158157
 31
0.0
  0
LINE
  5
297
100
AcDbEntity
  8
1
370
    25
100
AcDbLine
 10
119.111706
 20
51.158157
 30
0.0
 11
157.111706
 21
51.158157
 31
0.0
  0
LINE
  5
298
100
AcDbEntity
  8
1
370
    25
100
AcDbLine
 10
125.911706
 20
207.658157
 30
0.0
 11
150.311706
 21
207.658157
 31
0.0
  0
LINE
  5
299
100
AcDbEntity
  8
1
370
    25
100
AcDbLine
 10
125.911706
 20
67.658157
 30
0.0
 11
150.311706
 21
67.658157
 31
0.0
  0
ARC
  5
29A
100
AcDbEntity
  8
1
370
    25
100
AcDbCircle
 10
150.311706
 20
206.658157
 30
0.0
 40
1.0
100
AcDbArc
 50
0.0
 51
90.0
  0
ARC
  5
29B
100
AcDbEntity
  8
1
370
    25
100
AcDbCircle
 10
125.911706
 20
206.658157
 30
0.0
 40
1.0
100
AcDbArc
 50
90.0
 51
180.0
  0
ARC
  5
29C
100
AcDbEntity
  8
1
370
    25
100
AcDbCircle
 10
150.311706
 20
68.658157
 30
0.0
 40
1.0
100
AcDbArc
 50
270.0
 51
360.0
  0
ARC
  5
29D
100
AcDbEntity
  8
1
370
    25
100
AcDbCircle
 10
125.911706
 20
68.658157
 30
0.0
 40
1.0
100
AcDbArc
 50
180.0
 51
270.0
  0
LINE
  5
29E
100
AcDbEntity
  8
1
370
    18
100
AcDbLine
 10
146.429157
 20
73.388567
 30
0.0
 11
129.794254
 21
73.388567
 31
0.0
  0
LINE
  5
29F
100
AcDbEntity
  8
1
370
    18
100
AcDbLine
 10
149.429157
 20
76.388567
 30
0.0
 11
149.429157
 21
198.927747
 31
0.0
  0
LINE
  5
2A0
100
AcDbEntity
  8
1
370
    18
100
AcDbLine
 10
126.794254
 20
76.388567
 30
0.0
 11
126.794254
 21
198.927747
 31
0.0
  0
ARC
  5
2A1
100
AcDbEntity
  8
1
370
    18
100
AcDbCircle
 10
146.429157
 20
76.388567
 30
0.0
 40
3.0
100
AcDbArc
 50
270.0
 51
360.0
  0
ARC
  5
2A2
100
AcDbEntity
  8
1
370
    18
100
AcDbCircle
 10
129.794254
 20
76.388567
 30
0.0
 40
3.0
100
AcDbArc
 50
180.0
 51
270.0
  0
LINE
  5
2A3
100
AcDbEntity
  8
1
370
    18
100
AcDbLine
 10
129.794254
 20
201.927747
 30
0.0
 11
146.429157
 21
201.927747
 31
0.0
  0
ARC
  5
2A4
100
AcDbEntity
  8
1
370
    18
100
AcDbCircle
 10
146.429157
 20
198.927747
 30
0.0
 40
3.0
100
AcDbArc
 50
0.0
 51
90.0
  0
ARC
  5
2A5
100
AcDbEntity
  8
1
370
    18
100
AcDbCircle
 10
129.794254
 20
198.927747
 30
0.0
 40
3.0
100
AcDbArc
 50
90.0
 51
180.0
  0
LINE
  5
2A6
100
AcDbEntity
  8
1
370
    18
  6
CENTER
100
AcDbLine
 10
115.78005
 20
137.658157
 30
0.0
 11
161.077619
 21
137.658157
 31
0.0
  0
LINE
  5
2A7
100
AcDbEntity
  8
1
370
    18
100
AcDbLine
 10
150.311706
 20
207.658157
 30
0.0
 11
146.429157
 21
201.927747
 31
0.0
  0
LINE
  5
2A8
100
AcDbEntity
  8
1
370
    18
100
AcDbLine
 10
151.311706
 20
206.658157
 30
0.0
 11
149.429157
 21
198.927747
 31
0.0
  0
LINE
  5
2A9
100
AcDbEntity
  8
1
370
    18
100
AcDbLine
 10
125.911706
 20
207.658157
 30
0.0
 11
129.794254
 21
201.927747
 31
0.0
  0
LINE
  5
2AA
100
AcDbEntity
  8
1
370
    18
100
AcDbLine
 10
124.911706
 20
206.658157
 30
0.0
 11
126.794254
 21
198.927747
 31
0.0
  0
LINE
  5
2AB
100
AcDbEntity
  8
1
370
    18
100
AcDbLine
 10
151.311706
 20
68.658157
 30
0.0
 11
149.429157
 21
76.388567
 31
0.0
  0
LINE
  5
2AC
100
AcDbEntity
  8
1
370
    18
100
AcDbLine
 10
146.429157
 20
73.388567
 30
0.0
 11
150.311706
 21
67.658157
 31
0.0
  0
LINE
  5
2AD
100
AcDbEntity
  8
1
370
    18
100
AcDbLine
 10
125.911706
 20
67.658157
 30
0.0
 11
129.794254
 21
73.388567
 31
0.0
  0
LINE
  5
2AE
100
AcDbEntity
  8
1
370
    18
100
AcDbLine
 10
126.794254
 20
76.388567
 30
0.0
 11
124.911706
 21
68.658157
 31
0.0
  0
ARC
  5
2AF
100
AcDbEntity
  8
1
370
    25
100
AcDbCircle
 10
157.111706
 20
222.658157
 30
0.0
 40
1.5
100
AcDbArc
 50
0.0
 51
90.0
  0
ARC
  5
2B0
100
AcDbEntity
  8
1
370
    25
100
AcDbCircle
 10
119.111706
 20
222.658157
 30
0.0
 40
1.5
100
AcDbArc
 50
90.0
 51
180.0
  0
ARC
  5
2B1
100
AcDbEntity
  8
1
370
    25
100
AcDbCircle
 10
157.111706
 20
52.658157
 30
0.0
 40
1.5
100
AcDbArc
 50
270.0
 51
360.0
  0
ARC
  5
2B2
100
AcDbEntity
  8
1
370
    25
100
AcDbCircle
 10
119.111706
 20
52.658157
 30
0.0
 40
1.5
100
AcDbArc
 50
180.0
 51
270.0
  0
ELLIPSE
  5
2B3
100
AcDbEntity
  8
1
370
    25
100
AcDbEllipse
 10
138.111706
 20
204.050121
 30
0.0
 11
3.1000000000000001
 21
0.0
 31
0.0
210
0.0
220
0.0
230
1.0
 40
0.390731
 41
0.0
 42
6.2831849999999996
  0
LINE
  5
2B4
100
AcDbEntity
  8
1
370
    18
  6
CENTER
100
AcDbLine
 10
132.011706
 20
204.050121
 30
0.0
 11
144.211706
 21
204.050121
 31
0.0
  0
ELLIPSE
  5
2B5
100
AcDbEntity
  8
1
370
    25
100
AcDbEllipse
 10
138.111706
 20
204.418323
 30
0.0
 11
3.1000000000000001
 21
0.0
 31
0.0
210
0.0
220
0.0
230
1.0
 40
0.390731
 41
3.2941739999999999
 42
6.1306029999999998
  0
ELLIPSE
  5
2B6
100
AcDbEntity
  8
1
370
    25
100
AcDbEllipse
 10
138.111706
 20
71.266193
 30
0.0
 11
3.1000000000000001
 21
0.0
 31
0.0
210
0.0
220
0.0
230
1.0
 40
0.390731
 41
0.0
 42
6.2831849999999996
  0
LINE
  5
2B7
100
AcDbEntity
  8
1
370
    18
  6
CENTER
100
AcDbLine
 10
132.011706
 20
71.266193
 30
0.0
 11
144.211706
 21
71.266193
 31
0.0
  0
ELLIPSE
  5
2B8
100
AcDbEntity
  8
1
370
    25
100
AcDbEllipse
 10
138.111706
 20
70.897991
 30
0.0
 11
3.1000000000000001
 21
0.0
 31
0.0
210
0.0
220
0.0
230
1.0
 40
0.390731
 41
0.152582
 42
2.9890110000000001
  0
LINE
  5
2B9
100
AcDbEntity
  8
1
370
    18
  6
CENTER
100
AcDbLine
 10
41.60715
 20
253.658157
 30
0.0
 11
88.721617
 21
253.658157
 31
0.0
  0
LINE
  5
2BA
100
AcDbEntity
  8
1
370
    25
100
AcDbLine
 10
-157.232409
 20
-238.675898
 30
0.0
 11
-157.232409
 21
-93.668402
 31
0.0
  0
ARC
  5
2BB
100
AcDbEntity
  8
1
370
    25
100
AcDbCircle
 10
-1107.591924
 20
-238.675898
 30
0.0
 40
950.359516
100
AcDbArc
 50
358.824517
 51
0.000226
  0
LINE
  5
2BC
100
AcDbEntity
  8
1
370
    25
100
AcDbLine
 10
-157.932303
 20
-258.161892
 30
0.0
 11
-157.432409
 21
-258.172149
 31
0.0
  0
LINE
  5
2BD
100
AcDbEntity
  8
1
370
    25
100
AcDbLine
 10
-170.432409
 20
-241.978622
 30
0.0
 11
-170.432409
 21
-90.365678
 31
0.0
  0
LINE
  5
2BE
100
AcDbEntity
  8
1
370
    18
  6
CENTER
100
AcDbLine
 10
-148.046063
 20
-166.17215
 30
0.0
 11
-193.278219
 21
-166.17215
 31
0.0
  0
LINE
  5
2BF
100
AcDbEntity
  8
1
370
    25
100
AcDbLine
 10
-158.527816
 20
-247.854093
 30
0.0
 11
-167.838275
 21
-245.359363
 31
0.0
  0
ARC
  5
2C0
100
AcDbEntity
  8
1
370
    25
100
AcDbCircle
 10
-158.786635
 20
-248.820019
 30
0.0
 40
1.0
100
AcDbArc
 50
31.314047
 51
75.0
  0
ARC
  5
2C1
100
AcDbEntity
  8
1
370
    25
100
AcDbCircle
 10
-166.932409
 20
-241.978622
 30
0.0
 40
3.5
100
AcDbArc
 50
180.0
 51
255.0
  0
ARC
  5
2C2
100
AcDbEntity
  8
1
370
    25
100
AcDbCircle
 10
-1107.591924
 20
-93.668402
 30
0.0
 40
950.359516
100
AcDbArc
 50
359.999774
 51
1.175483
  0
LINE
  5
2C3
100
AcDbEntity
  8
1
370
    25
100
AcDbLine
 10
-157.932303
 20
-74.182408
 30
0.0
 11
-157.432409
 21
-74.172151
 31
0.0
  0
LINE
  5
2C4
100
AcDbEntity
  8
1
370
    25
100
AcDbLine
 10
-158.527816
 20
-84.490208
 30
0.0
 11
-167.838275
 21
-86.984938
 31
0.0
  0
ARC
  5
2C5
100
AcDbEntity
  8
1
370
    25
100
AcDbCircle
 10
-158.786635
 20
-83.524282
 30
0.0
 40
1.0
100
AcDbArc
 50
285.0
 51
328.685953
  0
ARC
  5
2C6
100
AcDbEntity
  8
1
370
    25
100
AcDbCircle
 10
-166.932409
 20
-90.365678
 30
0.0
 40
3.5
100
AcDbArc
 50
105.0
 51
180.0
  0
LINE
  5
2C7
100
AcDbEntity
  8
1
370
    25
100
AcDbLine
 10
-157.932303
 20
-74.182408
 30
0.0
 11
-157.932303
 21
-258.161892
 31
0.0
  0
LINE
  5
2C8
100
AcDbEntity
  8
1
370
    18
100
AcDbLine
 10
-157.432409
 20
-74.172151
 30
0.0
 11
-157.432409
 21
-258.172149
 31
0.0
  0
LINE
  5
2C9
100
AcDbEntity
  8
1
370
    25
100
AcDbLine
 10
-160.30196
 20
-84.965588
 30
0.0
 11
-161.531057
 21
-84.255969
 31
0.0
  0
LINE
  5
2CA
100
AcDbEntity
  8
1
370
    25
100
AcDbLine
 10
-165.821466
 20
-86.444535
 30
0.0
 11
-165.111847
 21
-85.215439
 31
0.0
  0
LINE
  5
2CB
100
AcDbEntity
  8
1
370
    25
100
AcDbLine
 10
-165.111847
 20
-85.215439
 30
0.0
 11
-161.531057
 21
-84.255969
 31
0.0
  0
LINE
  5
2CC
100
AcDbEntity
  8
1
370
    25
100
AcDbLine
 10
-160.30196
 20
-247.378712
 30
0.0
 11
-161.531057
 21
-248.088332
 31
0.0
  0
LINE
  5
2CD
100
AcDbEntity
  8
1
370
    25
100
AcDbLine
 10
-165.821466
 20
-245.899765
 30
0.0
 11
-165.111847
 21
-247.128862
 31
0.0
  0
LINE
  5
2CE
100
AcDbEntity
  8
1
370
    25
100
AcDbLine
 10
-165.111847
 20
-247.128862
 30
0.0
 11
-161.531057
 21
-248.088332
 31
0.0
  0
LINE
  5
2CF
100
AcDbEntity
  8
1
370
    18
  6
CENTER
100
AcDbLine
 10
-186.238842
 20
-33.154137
 30
0.0
 11
-169.010044
 21
-33.154137
 31
0.0
  0
ARC
  5
2D0
100
AcDbEntity
  8
1
370
    25
100
AcDbCircle
 10
765.727317
 20
-33.150388
 30
0.0
 40
950.359516
100
AcDbArc
 50
178.824517
 51
180.000226
  0
LINE
  5
2D1
100
AcDbEntity
  8
1
370
    25
100
AcDbLine
 10
-171.43215
 20
-33.154137
 30
0.0
 11
-171.43215
 21
-23.532387
 31
0.0
  0
LINE
  5
2D2
100
AcDbEntity
  8
1
370
    25
100
AcDbLine
 10
-183.148053
 20
-18.84332
 30
0.0
 11
-174.445044
 21
-20.066449
 31
0.0
  0
ARC
  5
2D3
100
AcDbEntity
  8
1
370
    25
100
AcDbCircle
 10
-183.00888
 20
-17.853052
 30
0.0
 40
1.0
100
AcDbArc
 50
202.568161
 51
262.0
  0
ARC
  5
2D4
100
AcDbEntity
  8
1
370
    25
100
AcDbCircle
 10
-174.93215
 20
-23.532387
 30
0.0
 40
3.5
100
AcDbArc
 50
360.0
 51
82.0
  0
ARC
  5
2D5
100
AcDbEntity
  8
1
370
    25
100
AcDbCircle
 10
765.727317
 20
-33.157886
 30
0.0
 40
950.359516
100
AcDbArc
 50
179.999774
 51
181.175483
  0
LINE
  5
2D6
100
AcDbEntity
  8
1
370
    25
100
AcDbLine
 10
-183.932303
 20
-52.643879
 30
0.0
 11
-184.432198
 21
-52.654137
 31
0.0
  0
LINE
  5
2D7
100
AcDbEntity
  8
1
370
    25
100
AcDbLine
 10
-171.43215
 20
-33.154137
 30
0.0
 11
-171.43215
 21
-42.775886
 31
0.0
  0
LINE
  5
2D8
100
AcDbEntity
  8
1
370
    25
100
AcDbLine
 10
-183.148053
 20
-47.464953
 30
0.0
 11
-174.445044
 21
-46.241825
 31
0.0
  0
ARC
  5
2D9
100
AcDbEntity
  8
1
370
    25
100
AcDbCircle
 10
-183.00888
 20
-48.455221
 30
0.0
 40
1.0
100
AcDbArc
 50
98.0
 51
157.431839
  0
ARC
  5
2DA
100
AcDbEntity
  8
1
370
    25
100
AcDbCircle
 10
-174.93215
 20
-42.775886
 30
0.0
 40
3.5
100
AcDbArc
 50
278.0
 51
0.0
  0
LINE
  5
2DB
100
AcDbEntity
  8
1
370
    25
100
AcDbLine
 10
-183.932303
 20
-52.643879
 30
0.0
 11
-183.932303
 21
-13.664394
 31
0.0
  0
LINE
  5
2DC
100
AcDbEntity
  8
1
370
    18
100
AcDbLine
 10
-184.432198
 20
-52.654137
 30
0.0
 11
-184.432198
 21
-13.654137
 31
0.0
  0
ELLIPSE
  5
2DD
100
AcDbEntity
  8
1
370
    25
100
AcDbEllipse
 10
-178.543155
 20
-33.154137
 30
0.0
 11
0.0
 21
1.8534999999999999
 31
0.0
210
0.0
220
0.0
230
1.0
 40
0.965954
 41
0.0
 42
6.2831849999999996
  0
ELLIPSE
  5
2DE
100
AcDbEntity
  8
1
370
    25
100
AcDbEllipse
 10
-178.802894
 20
-33.154137
 30
0.0
 11
0.0
 21
2.8570000000000002
 31
0.0
210
0.0
220
0.0
230
1.0
 40
0.965962
 41
0.0
 42
6.2831849999999996
  0
ELLIPSE
  5
2DF
100
AcDbEntity
  8
1
370
    25
100
AcDbEllipse
 10
-178.634662
 20
-33.154137
 30
0.0
 11
0.0
 21
1.5
 31
0.0
210
0.0
220
0.0
230
1.0
 40
0.965926
 41
0.0
 42
6.2831849999999996
  0
LINE
  5
2E0
100
AcDbEntity
  8
1
370
    18
  6
CENTER
100
AcDbLine
 10
-178.932303
 20
-37.171803
 30
0.0
 11
-178.932303
 21
-28.803883
 31
0.0
  0
LINE
  5
2E1
100
AcDbEntity
  8
1
370
    25
100
AcDbLine
 10
-157.932303
 20
-13.664394
 30
0.0
 11
-157.432409
 21
-13.654137
 31
0.0
  0
LINE
  5
2E2
100
AcDbEntity
  8
1
370
    25
100
AcDbLine
 10
-183.932303
 20
-13.664394
 30
0.0
 11
-184.432198
 21
-13.654137
 31
0.0
  0
LINE
  5
2E3
100
AcDbEntity
  8
1
370
    18
  6
CENTER
100
AcDbLine
 10
52.165305
 20
249.408157
 30
0.0
 11
52.165305
 21
257.908157
 31
0.0
  0
ELLIPSE
  5
2E4
100
AcDbEntity
  8
1
370
    25
100
AcDbEllipse
 10
69.525505
 20
253.658157
 30
0.0
 11
0.0
 21
-1.6000000000000001
 31
0.0
210
0.0
220
0.0
230
1.0
 40
0.920475
 41
3.9103859999999999
 42
4.581696
  0
ELLIPSE
  5
2E5
100
AcDbEntity
  8
1
370
    25
100
AcDbEllipse
 10
69.525505
 20
253.658157
 30
0.0
 11
0.0
 21
-1.6000000000000001
 31
0.0
210
0.0
220
0.0
230
1.0
 40
0.920475
 41
4.8430819999999999
 42
5.514392
  0
LINE
  5
2E6
100
AcDbEntity
  8
1
370
    25
100
AcDbLine
 10
69.565305
 20
257.658157
 30
0.0
 11
59.865305
 21
257.658157
 31
0.0
  0
LINE
  5
2E7
100
AcDbEntity
  8
1
370
    25
100
AcDbLine
 10
69.565305
 20
249.658157
 30
0.0
 11
59.865305
 21
249.658157
 31
0.0
  0
LINE
  5
2E8
100
AcDbEntity
  8
1
370
    25
100
AcDbLine
 10
56.065305
 20
249.958157
 30
0.0
 11
56.065305
 21
257.358157
 31
0.0
  0
LINE
  5
2E9
100
AcDbEntity
  8
1
370
    25
100
AcDbLine
 10
55.795543
 20
249.682635
 30
0.0
 11
55.795543
 21
257.633677
 31
0.0
  0
LINE
  5
2EA
100
AcDbEntity
  8
1
370
    25
100
AcDbLine
 10
57.965305
 20
257.358157
 30
0.0
 11
56.065305
 21
257.358157
 31
0.0
  0
LINE
  5
2EB
100
AcDbEntity
  8
1
370
    25
100
AcDbLine
 10
57.965305
 20
249.958157
 30
0.0
 11
56.065305
 21
249.958157
 31
0.0
  0
LINE
  5
2EC
100
AcDbEntity
  8
1
370
    25
100
AcDbLine
 10
57.965305
 20
249.958157
 30
0.0
 11
57.965305
 21
257.358157
 31
0.0
  0
LINE
  5
2ED
100
AcDbEntity
  8
1
370
    25
100
AcDbLine
 10
58.228347
 20
257.633677
 30
0.0
 11
55.795543
 21
257.633677
 31
0.0
  0
LINE
  5
2EE
100
AcDbEntity
  8
1
370
    25
100
AcDbLine
 10
58.228347
 20
249.682635
 30
0.0
 11
55.795543
 21
249.682635
 31
0.0
  0
LINE
  5
2EF
100
AcDbEntity
  8
1
370
    25
100
AcDbLine
 10
57.965305
 20
257.358157
 30
0.0
 11
58.228347
 21
257.633677
 31
0.0
  0
LINE
  5
2F0
100
AcDbEntity
  8
1
370
    25
100
AcDbLine
 10
56.065305
 20
257.358156
 30
0.0
 11
55.795543
 21
257.633677
 31
0.0
  0
LINE
  5
2F1
100
AcDbEntity
  8
1
370
    25
100
AcDbLine
 10
56.065305
 20
249.958157
 30
0.0
 11
55.795543
 21
249.682635
 31
0.0
  0
LINE
  5
2F2
100
AcDbEntity
  8
1
370
    25
100
AcDbLine
 10
57.965305
 20
249.958157
 30
0.0
 11
58.228347
 21
249.682635
 31
0.0
  0
LINE
  5
2F3
100
AcDbEntity
  8
1
370
    25
100
AcDbLine
 10
58.065305
 20
258.258157
 30
0.0
 11
58.065305
 21
257.633677
 31
0.0
  0
LINE
  5
2F4
100
AcDbEntity
  8
1
370
    25
100
AcDbLine
 10
58.065305
 20
249.058157
 30
0.0
 11
58.065305
 21
249.682635
 31
0.0
  0
LINE
  5
2F5
100
AcDbEntity
  8
1
370
    25
100
AcDbLine
 10
59.262767
 20
250.570666
 30
0.0
 11
59.262767
 21
256.745649
 31
0.0
  0
LINE
  5
2F6
100
AcDbEntity
  8
1
370
    25
100
AcDbLine
 10
60.065305
 20
252.508157
 30
0.0
 11
69.365305
 21
252.508157
 31
0.0
  0
LINE
  5
2F7
100
AcDbEntity
  8
1
370
    25
100
AcDbLine
 10
60.065305
 20
254.808157
 30
0.0
 11
69.365305
 21
254.808157
 31
0.0
  0
ARC
  5
2F8
100
AcDbEntity
  8
1
370
    25
100
AcDbCircle
 10
59.865305
 20
260.658157
 30
0.0
 40
3.0
100
AcDbArc
 50
233.130102
 51
270.0
  0
ARC
  5
2F9
100
AcDbEntity
  8
1
370
    25
100
AcDbCircle
 10
59.865305
 20
246.658157
 30
0.0
 40
3.0
100
AcDbArc
 50
90.0
 51
126.869898
  0
ARC
  5
2FA
100
AcDbEntity
  8
1
370
    25
100
AcDbCircle
 10
69.365305
 20
254.008157
 30
0.0
 40
0.8
100
AcDbArc
 50
75.522495
 51
90.0
  0
ARC
  5
2FB
100
AcDbEntity
  8
1
370
    25
100
AcDbCircle
 10
69.365305
 20
253.308157
 30
0.0
 40
0.8
100
AcDbArc
 50
270.0
 51
284.477505
  0
ARC
  5
2FC
100
AcDbEntity
  8
1
370
    25
100
AcDbCircle
 10
60.065305
 20
254.008157
 30
0.0
 40
0.8
100
AcDbArc
 50
90.0
 51
180.0
  0
ARC
  5
2FD
100
AcDbEntity
  8
1
370
    25
100
AcDbCircle
 10
60.065305
 20
253.308157
 30
0.0
 40
0.8
100
AcDbArc
 50
180.0
 51
270.0
  0
LINE
  5
2FE
100
AcDbEntity
  8
1
370
    25
100
AcDbLine
 10
58.065305
 20
258.258157
 30
0.0
 11
55.565305
 21
258.192693
 31
0.0
  0
LINE
  5
2FF
100
AcDbEntity
  8
1
370
    25
100
AcDbLine
 10
58.065305
 20
249.058157
 30
0.0
 11
55.565305
 21
249.123622
 31
0.0
  0
LINE
  5
300
100
AcDbEntity
  8
1
370
    25
100
AcDbLine
 10
59.262767
 20
250.658157
 30
0.0
 11
58.175611
 21
250.658157
 31
0.0
  0
LINE
  5
301
100
AcDbEntity
  8
1
370
    25
100
AcDbLine
 10
59.262767
 20
256.658157
 30
0.0
 11
58.175611
 21
256.658157
 31
0.0
  0
LINE
  5
302
100
AcDbEntity
  8
1
370
    25
100
AcDbLine
 10
58.175611
 20
250.570666
 30
0.0
 11
58.175611
 21
256.745649
 31
0.0
  0
LINE
  5
303
100
AcDbEntity
  8
1
370
    25
100
AcDbLine
 10
58.228347
 20
249.682635
 30
0.0
 11
58.228347
 21
250.570666
 31
0.0
  0
LINE
  5
304
100
AcDbEntity
  8
1
370
    25
100
AcDbLine
 10
58.228347
 20
256.745649
 30
0.0
 11
58.228347
 21
257.633677
 31
0.0
  0
LINE
  5
305
100
AcDbEntity
  8
1
370
    25
100
AcDbLine
 10
59.262767
 20
250.570666
 30
0.0
 11
58.175611
 21
250.570666
 31
0.0
  0
LINE
  5
306
100
AcDbEntity
  8
1
370
    25
100
AcDbLine
 10
59.262767
 20
256.745649
 30
0.0
 11
58.175611
 21
256.745649
 31
0.0
  0
CIRCLE
  5
307
100
AcDbEntity
  8
1
370
    25
100
AcDbCircle
 10
52.165305
 20
253.658157
 30
0.0
 40
1.25
  0
LINE
  5
308
100
AcDbEntity
  8
1
370
    18
  6
CENTER
100
AcDbLine
 10
62.565305
 20
230.216569
 30
0.0
 11
62.565305
 21
44.069645
 31
0.0
  0
LINE
  5
309
100
AcDbEntity
  8
1
370
    25
100
AcDbLine
 10
58.041752
 20
59.208815
 30
0.0
 11
57.065305
 21
59.236192
 31
0.0
  0
LINE
  5
30A
100
AcDbEntity
  8
1
370
    25
100
AcDbLine
 10
57.996391
 20
64.506222
 30
0.0
 11
57.065305
 21
64.480117
 31
0.0
  0
LINE
  5
30B
100
AcDbEntity
  8
1
370
    25
100
AcDbLine
 10
56.312373
 20
56.158154
 30
0.0
 11
57.690406
 21
56.158154
 31
0.0
  0
LINE
  5
30C
100
AcDbEntity
  8
1
370
    25
100
AcDbLine
 10
56.013515
 20
56.432007
 30
0.0
 11
55.953578
 21
57.117091
 31
0.0
  0
ARC
  5
30D
100
AcDbEntity
  8
1
370
    25
100
AcDbCircle
 10
56.312373
 20
56.458154
 30
0.0
 40
0.3
100
AcDbArc
 50
185.0
 51
270.0
  0
LINE
  5
30E
100
AcDbEntity
  8
1
370
    25
100
AcDbLine
 10
58.04785
 20
59.558154
 30
0.0
 11
68.065305
 21
59.558154
 31
0.0
  0
LINE
  5
30F
100
AcDbEntity
  8
1
370
    25
100
AcDbLine
 10
58.065305
 20
64.158154
 30
0.0
 11
68.065305
 21
64.158154
 31
0.0
  0
LINE
  5
310
100
AcDbEntity
  8
1
370
    25
100
AcDbLine
 10
57.989264
 20
56.432007
 30
0.0
 11
58.262767
 21
59.558154
 31
0.0
  0
LINE
  5
311
100
AcDbEntity
  8
1
370
    25
100
AcDbLine
 10
58.175611
 20
58.561959
 30
0.0
 11
59.262767
 21
59.558154
 31
0.0
  0
ARC
  5
312
100
AcDbEntity
  8
1
370
    25
100
AcDbCircle
 10
57.690406
 20
56.458154
 30
0.0
 40
0.3
100
AcDbArc
 50
270.0
 51
355.0
  0
LINE
  5
313
100
AcDbEntity
  8
1
370
    25
100
AcDbLine
 10
58.065305
 20
60.558154
 30
0.0
 11
58.041752
 21
59.208815
 31
0.0
  0
LINE
  5
314
100
AcDbEntity
  8
1
370
    25
100
AcDbLine
 10
58.065305
 20
60.558154
 30
0.0
 11
57.996391
 21
64.506222
 31
0.0
  0
LINE
  5
315
100
AcDbEntity
  8
1
370
    25
100
AcDbLine
 10
67.744489
 20
64.158154
 30
0.0
 11
68.065305
 21
64.913949
 31
0.0
  0
LINE
  5
316
100
AcDbEntity
  8
1
370
    25
100
AcDbLine
 10
63.651387
 20
55.283203
 30
0.0
 11
66.098814
 21
53.371064
 31
0.0
  0
LINE
  5
317
100
AcDbEntity
  8
1
370
    25
100
AcDbLine
 10
63.065291
 20
53.902445
 30
0.0
 11
65.512717
 21
51.990306
 31
0.0
  0
LINE
  5
318
100
AcDbEntity
  8
1
370
    25
100
AcDbLine
 10
62.479194
 20
52.521688
 30
0.0
 11
64.92662
 21
50.609549
 31
0.0
  0
LINE
  5
319
100
AcDbEntity
  8
1
370
    25
100
AcDbLine
 10
61.893097
 20
51.140931
 30
0.0
 11
64.340524
 21
49.228792
 31
0.0
  0
LINE
  5
31A
100
AcDbEntity
  8
1
370
    25
100
AcDbLine
 10
61.307001
 20
49.760173
 30
0.0
 11
63.754427
 21
47.848035
 31
0.0
  0
LINE
  5
31B
100
AcDbEntity
  8
1
370
    25
100
AcDbLine
 10
60.720904
 20
48.379416
 30
0.0
 11
63.16833
 21
46.467277
 31
0.0
  0
LINE
  5
31C
100
AcDbEntity
  8
1
370
    25
100
AcDbLine
 10
60.134807
 20
46.998659
 30
0.0
 11
62.463237
 21
45.179491
 31
0.0
  0
LINE
  5
31D
100
AcDbEntity
  8
1
370
    25
100
AcDbLine
 10
59.962032
 20
45.29498
 30
0.0
 11
61.182456
 21
44.34148
 31
0.0
  0
LINE
  5
31E
100
AcDbEntity
  8
1
370
    25
100
AcDbLine
 10
60.245688
 20
43.420921
 30
0.0
 11
60.273053
 21
46.556553
 31
0.0
  0
LINE
  5
31F
100
AcDbEntity
  8
1
370
    25
100
AcDbLine
 10
60.245688
 20
43.420921
 30
0.0
 11
62.482264
 21
45.618798
 31
0.0
  0
LINE
  5
320
100
AcDbEntity
  8
1
370
    25
100
AcDbLine
 10
62.482264
 20
45.618798
 30
0.0
 11
68.065305
 21
58.771618
 31
0.0
  0
LINE
  5
321
100
AcDbEntity
  8
1
370
    18
  6
CENTER
100
AcDbLine
 10
59.450642
 20
41.547909
 30
0.0
 11
72.914471
 21
73.266703
 31
0.0
  0
LINE
  5
322
100
AcDbEntity
  8
1
370
    25
100
AcDbLine
 10
64.237484
 20
56.66396
 30
0.0
 11
66.68491
 21
54.751821
 31
0.0
  0
LINE
  5
323
100
AcDbEntity
  8
1
370
    25
100
AcDbLine
 10
64.823581
 20
58.044717
 30
0.0
 11
67.271007
 21
56.132578
 31
0.0
  0
LINE
  5
324
100
AcDbEntity
  8
1
370
    25
100
AcDbLine
 10
65.409678
 20
59.425474
 30
0.0
 11
67.857104
 21
57.513335
 31
0.0
  0
LINE
  5
325
100
AcDbEntity
  8
1
370
    25
100
AcDbLine
 10
67.593241
 20
59.558154
 30
0.0
 11
68.065305
 21
59.189337
 31
0.0
  0
LINE
  5
326
100
AcDbEntity
  8
1
370
    25
100
AcDbLine
 10
60.273053
 20
46.556553
 30
0.0
 11
65.791905
 21
59.558154
 31
0.0
  0
LINE
  5
327
100
AcDbEntity
  8
1
370
    25
100
AcDbLine
 10
67.744489
 20
64.158154
 30
0.0
 11
68.065305
 21
64.913949
 31
0.0
  0
LINE
  5
328
100
AcDbEntity
  8
1
370
    25
100
AcDbLine
 10
58.041752
 20
216.1075
 30
0.0
 11
57.065305
 21
216.080123
 31
0.0
  0
LINE
  5
329
100
AcDbEntity
  8
1
370
    25
100
AcDbLine
 10
57.996391
 20
210.810092
 30
0.0
 11
57.065305
 21
210.836197
 31
0.0
  0
LINE
  5
32A
100
AcDbEntity
  8
1
370
    25
100
AcDbLine
 10
56.312373
 20
219.158161
 30
0.0
 11
57.690406
 21
219.158161
 31
0.0
  0
LINE
  5
32B
100
AcDbEntity
  8
1
370
    25
100
AcDbLine
 10
56.013515
 20
218.884307
 30
0.0
 11
55.953578
 21
218.199224
 31
0.0
  0
ARC
  5
32C
100
AcDbEntity
  8
1
370
    25
100
AcDbCircle
 10
56.312373
 20
218.858161
 30
0.0
 40
0.3
100
AcDbArc
 50
90.0
 51
175.0
  0
LINE
  5
32D
100
AcDbEntity
  8
1
370
    25
100
AcDbLine
 10
58.04785
 20
215.758161
 30
0.0
 11
68.065305
 21
215.758161
 31
0.0
  0
LINE
  5
32E
100
AcDbEntity
  8
1
370
    25
100
AcDbLine
 10
58.065305
 20
211.158161
 30
0.0
 11
68.065305
 21
211.158161
 31
0.0
  0
LINE
  5
32F
100
AcDbEntity
  8
1
370
    25
100
AcDbLine
 10
57.989264
 20
218.884307
 30
0.0
 11
58.262767
 21
215.758161
 31
0.0
  0
LINE
  5
330
100
AcDbEntity
  8
1
370
    25
100
AcDbLine
 10
58.175611
 20
216.754355
 30
0.0
 11
59.262767
 21
215.758161
 31
0.0
  0
ARC
  5
331
100
AcDbEntity
  8
1
370
    25
100
AcDbCircle
 10
57.690406
 20
218.858161
 30
0.0
 40
0.3
100
AcDbArc
 50
5.0
 51
90.0
  0
LINE
  5
332
100
AcDbEntity
  8
1
370
    25
100
AcDbLine
 10
58.065305
 20
214.758161
 30
0.0
 11
58.041752
 21
216.1075
 31
0.0
  0
LINE
  5
333
100
AcDbEntity
  8
1
370
    25
100
AcDbLine
 10
58.065305
 20
214.758161
 30
0.0
 11
57.996391
 21
210.810092
 31
0.0
  0
LINE
  5
334
100
AcDbEntity
  8
1
370
    25
100
AcDbLine
 10
67.744489
 20
211.158161
 30
0.0
 11
68.065305
 21
210.402365
 31
0.0
  0
LINE
  5
335
100
AcDbEntity
  8
1
370
    25
100
AcDbLine
 10
63.651387
 20
220.033112
 30
0.0
 11
66.098814
 21
221.945251
 31
0.0
  0
LINE
  5
336
100
AcDbEntity
  8
1
370
    25
100
AcDbLine
 10
63.065291
 20
221.413869
 30
0.0
 11
65.512717
 21
223.326008
 31
0.0
  0
LINE
  5
337
100
AcDbEntity
  8
1
370
    25
100
AcDbLine
 10
62.479194
 20
222.794627
 30
0.0
 11
64.92662
 21
224.706766
 31
0.0
  0
LINE
  5
338
100
AcDbEntity
  8
1
370
    25
100
AcDbLine
 10
61.893097
 20
224.175384
 30
0.0
 11
64.340524
 21
226.087523
 31
0.0
  0
LINE
  5
339
100
AcDbEntity
  8
1
370
    25
100
AcDbLine
 10
61.307001
 20
225.556141
 30
0.0
 11
63.754427
 21
227.46828
 31
0.0
  0
LINE
  5
33A
100
AcDbEntity
  8
1
370
    25
100
AcDbLine
 10
60.720904
 20
226.936898
 30
0.0
 11
63.16833
 21
228.849037
 31
0.0
  0
LINE
  5
33B
100
AcDbEntity
  8
1
370
    25
100
AcDbLine
 10
60.134807
 20
228.317656
 30
0.0
 11
62.463237
 21
230.136824
 31
0.0
  0
LINE
  5
33C
100
AcDbEntity
  8
1
370
    25
100
AcDbLine
 10
59.962032
 20
230.021335
 30
0.0
 11
61.182456
 21
230.974835
 31
0.0
  0
LINE
  5
33D
100
AcDbEntity
  8
1
370
    25
100
AcDbLine
 10
60.245688
 20
231.895393
 30
0.0
 11
60.273053
 21
228.759762
 31
0.0
  0
LINE
  5
33E
100
AcDbEntity
  8
1
370
    25
100
AcDbLine
 10
60.245688
 20
231.895393
 30
0.0
 11
62.482264
 21
229.697516
 31
0.0
  0
LINE
  5
33F
100
AcDbEntity
  8
1
370
    25
100
AcDbLine
 10
62.482264
 20
229.697516
 30
0.0
 11
68.065305
 21
216.544697
 31
0.0
  0
LINE
  5
340
100
AcDbEntity
  8
1
370
    18
  6
CENTER
100
AcDbLine
 10
59.450642
 20
233.768406
 30
0.0
 11
72.914471
 21
202.049612
 31
0.0
  0
LINE
  5
341
100
AcDbEntity
  8
1
370
    25
100
AcDbLine
 10
64.237484
 20
218.652355
 30
0.0
 11
66.68491
 21
220.564494
 31
0.0
  0
LINE
  5
342
100
AcDbEntity
  8
1
370
    25
100
AcDbLine
 10
64.823581
 20
217.271598
 30
0.0
 11
67.271007
 21
219.183737
 31
0.0
  0
LINE
  5
343
100
AcDbEntity
  8
1
370
    25
100
AcDbLine
 10
65.409678
 20
215.89084
 30
0.0
 11
67.857104
 21
217.802979
 31
0.0
  0
POINT
  5
344
100
AcDbEntity
  8
1
370
    50
100
AcDbPoint
 10
63.274192
 20
224.760686
 30
0.0
  0
LINE
  5
345
100
AcDbEntity
  8
1
370
    25
100
AcDbLine
 10
67.593241
 20
215.758161
 30
0.0
 11
68.065305
 21
216.126978
 31
0.0
  0
LINE
  5
346
100
AcDbEntity
  8
1
370
    25
100
AcDbLine
 10
60.273053
 20
228.759762
 30
0.0
 11
65.791905
 21
215.758161
 31
0.0
  0
LINE
  5
347
100
AcDbEntity
  8
1
370
    25
100
AcDbLine
 10
67.744489
 20
211.158161
 30
0.0
 11
68.065305
 21
210.402365
 31
0.0
  0
LINE
  5
348
100
AcDbEntity
  8
1
370
    18
  6
CENTER
100
AcDbLine
 10
-169.989804
 20
-69.56395
 30
0.0
 11
-169.989804
 21
-265.12587
 31
0.0
  0
LINE
  5
349
100
AcDbEntity
  8
1
370
    25
100
AcDbLine
 10
-164.480563
 20
-247.298014
 30
0.0
 11
-165.440326
 21
-250.8799
 31
0.0
  0
LINE
  5
34A
100
AcDbEntity
  8
1
370
    25
100
AcDbLine
 10
-162.162341
 20
-247.91918
 30
0.0
 11
-163.288545
 21
-252.122231
 31
0.0
  0
LINE
  5
34B
100
AcDbEntity
  8
1
370
    25
100
AcDbLine
 10
-163.288545
 20
-252.122231
 30
0.0
 11
-165.440326
 21
-250.8799
 31
0.0
  0
LINE
  5
34C
100
AcDbEntity
  8
1
370
    25
100
AcDbLine
 10
-165.261011
 20
-250.983427
 30
0.0
 11
-167.379998
 21
-258.891596
 31
0.0
  0
LINE
  5
34D
100
AcDbEntity
  8
1
370
    25
100
AcDbLine
 10
-163.46786
 20
-252.018703
 30
0.0
 11
-165.448147
 21
-259.409234
 31
0.0
  0
LINE
  5
34E
100
AcDbEntity
  8
1
370
    25
100
AcDbLine
 10
-167.125172
 20
-261.804274
 30
0.0
 11
-167.379998
 21
-258.891596
 31
0.0
  0
LINE
  5
34F
100
AcDbEntity
  8
1
370
    25
100
AcDbLine
 10
-167.125172
 20
-261.804274
 30
0.0
 11
-165.448147
 21
-259.409234
 31
0.0
  0
LINE
  5
350
100
AcDbEntity
  8
1
370
    18
100
AcDbLine
 10
-163.573246
 20
-253.184749
 30
0.0
 11
-165.725027
 21
-251.942418
 31
0.0
  0
LINE
  5
351
100
AcDbEntity
  8
1
370
    18
100
AcDbLine
 10
-163.857947
 20
-254.247268
 30
0.0
 11
-166.009728
 21
-253.004936
 31
0.0
  0
LINE
  5
352
100
AcDbEntity
  8
1
370
    18
100
AcDbLine
 10
-164.142648
 20
-255.309786
 30
0.0
 11
-166.294429
 21
-254.067455
 31
0.0
  0
LINE
  5
353
100
AcDbEntity
  8
1
370
    18
100
AcDbLine
 10
-164.427349
 20
-256.372305
 30
0.0
 11
-166.57913
 21
-255.129973
 31
0.0
  0
LINE
  5
354
100
AcDbEntity
  8
1
370
    18
100
AcDbLine
 10
-164.71205
 20
-257.434823
 30
0.0
 11
-166.863831
 21
-256.192492
 31
0.0
  0
LINE
  5
355
100
AcDbEntity
  8
1
370
    18
100
AcDbLine
 10
-164.996751
 20
-258.497341
 30
0.0
 11
-167.148532
 21
-257.25501
 31
0.0
  0
LINE
  5
356
100
AcDbEntity
  8
1
370
    18
100
AcDbLine
 10
-165.281452
 20
-259.55986
 30
0.0
 11
-167.433233
 21
-258.317528
 31
0.0
  0
LINE
  5
357
100
AcDbEntity
  8
1
370
    18
100
AcDbLine
 10
-167.415408
 20
-260.781601
 30
0.0
 11
-166.524925
 21
-261.295722
 31
0.0
  0
LINE
  5
358
100
AcDbEntity
  8
1
370
    18
100
AcDbLine
 10
-167.528458
 20
-259.489441
 30
0.0
 11
-165.913161
 21
-260.422033
 31
0.0
  0
LINE
  5
359
100
AcDbEntity
  8
1
370
    18
  6
CENTER
100
AcDbLine
 10
-162.447773
 20
-244.347983
 30
0.0
 11
-167.467798
 21
-263.082973
 31
0.0
  0
LINE
  5
35A
100
AcDbEntity
  8
1
370
    25
100
AcDbLine
 10
-164.480563
 20
-85.046287
 30
0.0
 11
-165.440326
 21
-81.464401
 31
0.0
  0
LINE
  5
35B
100
AcDbEntity
  8
1
370
    25
100
AcDbLine
 10
-162.162341
 20
-84.425121
 30
0.0
 11
-163.288545
 21
-80.222069
 31
0.0
  0
LINE
  5
35C
100
AcDbEntity
  8
1
370
    25
100
AcDbLine
 10
-163.288545
 20
-80.222069
 30
0.0
 11
-165.440326
 21
-81.464401
 31
0.0
  0
LINE
  5
35D
100
AcDbEntity
  8
1
370
    25
100
AcDbLine
 10
-165.261011
 20
-81.360873
 30
0.0
 11
-167.379998
 21
-73.452705
 31
0.0
  0
LINE
  5
35E
100
AcDbEntity
  8
1
370
    25
100
AcDbLine
 10
-163.46786
 20
-80.325597
 30
0.0
 11
-165.448147
 21
-72.935067
 31
0.0
  0
LINE
  5
35F
100
AcDbEntity
  8
1
370
    25
100
AcDbLine
 10
-167.125172
 20
-70.540026
 30
0.0
 11
-167.379998
 21
-73.452705
 31
0.0
  0
LINE
  5
360
100
AcDbEntity
  8
1
370
    25
100
AcDbLine
 10
-167.125172
 20
-70.540026
 30
0.0
 11
-165.448147
 21
-72.935067
 31
0.0
  0
LINE
  5
361
100
AcDbEntity
  8
1
370
    18
100
AcDbLine
 10
-163.573246
 20
-79.159551
 30
0.0
 11
-165.725027
 21
-80.401882
 31
0.0
  0
LINE
  5
362
100
AcDbEntity
  8
1
370
    18
100
AcDbLine
 10
-163.857947
 20
-78.097033
 30
0.0
 11
-166.009728
 21
-79.339364
 31
0.0
  0
LINE
  5
363
100
AcDbEntity
  8
1
370
    18
100
AcDbLine
 10
-164.142648
 20
-77.034514
 30
0.0
 11
-166.294429
 21
-78.276846
 31
0.0
  0
LINE
  5
364
100
AcDbEntity
  8
1
370
    18
100
AcDbLine
 10
-164.427349
 20
-75.971996
 30
0.0
 11
-166.57913
 21
-77.214327
 31
0.0
  0
LINE
  5
365
100
AcDbEntity
  8
1
370
    18
100
AcDbLine
 10
-164.71205
 20
-74.909477
 30
0.0
 11
-166.863831
 21
-76.151809
 31
0.0
  0
LINE
  5
366
100
AcDbEntity
  8
1
370
    18
100
AcDbLine
 10
-164.996751
 20
-73.846959
 30
0.0
 11
-167.148532
 21
-75.08929
 31
0.0
  0
LINE
  5
367
100
AcDbEntity
  8
1
370
    18
100
AcDbLine
 10
-165.281452
 20
-72.784441
 30
0.0
 11
-167.433233
 21
-74.026772
 31
0.0
  0
LINE
  5
368
100
AcDbEntity
  8
1
370
    18
100
AcDbLine
 10
-167.415408
 20
-71.5627
 30
0.0
 11
-166.524925
 21
-71.048579
 31
0.0
  0
LINE
  5
369
100
AcDbEntity
  8
1
370
    18
100
AcDbLine
 10
-167.528458
 20
-72.85486
 30
0.0
 11
-165.913161
 21
-71.922268
 31
0.0
  0
LINE
  5
36A
100
AcDbEntity
  8
1
370
    18
  6
CENTER
100
AcDbLine
 10
-162.447773
 20
-87.996318
 30
0.0
 11
-167.467798
 21
-69.261327
 31
0.0
  0
LINE
  5
36B
100
AcDbEntity
  8
1
370
    25
100
AcDbLine
 10
-177.384044
 20
-247.298014
 30
0.0
 11
-176.424281
 21
-250.8799
 31
0.0
  0
LINE
  5
36C
100
AcDbEntity
  8
1
370
    25
100
AcDbLine
 10
-179.702266
 20
-247.91918
 30
0.0
 11
-178.576062
 21
-252.122231
 31
0.0
  0
LINE
  5
36D
100
AcDbEntity
  8
1
370
    25
100
AcDbLine
 10
-178.576062
 20
-252.122231
 30
0.0
 11
-176.424281
 21
-250.8799
 31
0.0
  0
LINE
  5
36E
100
AcDbEntity
  8
1
370
    25
100
AcDbLine
 10
-176.603596
 20
-250.983427
 30
0.0
 11
-174.484609
 21
-258.891596
 31
0.0
  0
LINE
  5
36F
100
AcDbEntity
  8
1
370
    25
100
AcDbLine
 10
-178.396747
 20
-252.018703
 30
0.0
 11
-176.41646
 21
-259.409234
 31
0.0
  0
LINE
  5
370
100
AcDbEntity
  8
1
370
    25
100
AcDbLine
 10
-174.739435
 20
-261.804274
 30
0.0
 11
-174.484609
 21
-258.891596
 31
0.0
  0
LINE
  5
371
100
AcDbEntity
  8
1
370
    25
100
AcDbLine
 10
-174.739435
 20
-261.804274
 30
0.0
 11
-176.41646
 21
-259.409234
 31
0.0
  0
LINE
  5
372
100
AcDbEntity
  8
1
370
    18
100
AcDbLine
 10
-178.291361
 20
-253.184749
 30
0.0
 11
-176.13958
 21
-251.942418
 31
0.0
  0
LINE
  5
373
100
AcDbEntity
  8
1
370
    18
100
AcDbLine
 10
-178.00666
 20
-254.247268
 30
0.0
 11
-175.854879
 21
-253.004936
 31
0.0
  0
LINE
  5
374
100
AcDbEntity
  8
1
370
    18
100
AcDbLine
 10
-177.721959
 20
-255.309786
 30
0.0
 11
-175.570178
 21
-254.067455
 31
0.0
  0
LINE
  5
375
100
AcDbEntity
  8
1
370
    18
100
AcDbLine
 10
-177.437258
 20
-256.372305
 30
0.0
 11
-175.285477
 21
-255.129973
 31
0.0
  0
LINE
  5
376
100
AcDbEntity
  8
1
370
    18
100
AcDbLine
 10
-177.152557
 20
-257.434823
 30
0.0
 11
-175.000776
 21
-256.192492
 31
0.0
  0
LINE
  5
377
100
AcDbEntity
  8
1
370
    18
100
AcDbLine
 10
-176.867856
 20
-258.497341
 30
0.0
 11
-174.716075
 21
-257.25501
 31
0.0
  0
LINE
  5
378
100
AcDbEntity
  8
1
370
    18
100
AcDbLine
 10
-176.583155
 20
-259.55986
 30
0.0
 11
-174.431374
 21
-258.317528
 31
0.0
  0
LINE
  5
379
100
AcDbEntity
  8
1
370
    18
100
AcDbLine
 10
-174.449199
 20
-260.781601
 30
0.0
 11
-175.339682
 21
-261.295722
 31
0.0
  0
LINE
  5
37A
100
AcDbEntity
  8
1
370
    18
100
AcDbLine
 10
-174.336149
 20
-259.489441
 30
0.0
 11
-175.951446
 21
-260.422033
 31
0.0
  0
LINE
  5
37B
100
AcDbEntity
  8
1
370
    18
  6
CENTER
100
AcDbLine
 10
-179.416834
 20
-244.347983
 30
0.0
 11
-174.396809
 21
-263.082973
 31
0.0
  0
LINE
  5
37C
100
AcDbEntity
  8
1
370
    25
100
AcDbLine
 10
-177.384044
 20
-85.046287
 30
0.0
 11
-176.424281
 21
-81.464401
 31
0.0
  0
LINE
  5
37D
100
AcDbEntity
  8
1
370
    25
100
AcDbLine
 10
-179.702266
 20
-84.425121
 30
0.0
 11
-178.576062
 21
-80.222069
 31
0.0
  0
LINE
  5
37E
100
AcDbEntity
  8
1
370
    25
100
AcDbLine
 10
-178.576062
 20
-80.222069
 30
0.0
 11
-176.424281
 21
-81.464401
 31
0.0
  0
LINE
  5
37F
100
AcDbEntity
  8
1
370
    25
100
AcDbLine
 10
-176.603596
 20
-81.360873
 30
0.0
 11
-174.484609
 21
-73.452705
 31
0.0
  0
LINE
  5
380
100
AcDbEntity
  8
1
370
    25
100
AcDbLine
 10
-178.396747
 20
-80.325597
 30
0.0
 11
-176.41646
 21
-72.935067
 31
0.0
  0
LINE
  5
381
100
AcDbEntity
  8
1
370
    25
100
AcDbLine
 10
-174.739435
 20
-70.540026
 30
0.0
 11
-174.484609
 21
-73.452705
 31
0.0
  0
LINE
  5
382
100
AcDbEntity
  8
1
370
    25
100
AcDbLine
 10
-174.739435
 20
-70.540026
 30
0.0
 11
-176.41646
 21
-72.935067
 31
0.0
  0
LINE
  5
383
100
AcDbEntity
  8
1
370
    18
100
AcDbLine
 10
-178.291361
 20
-79.159551
 30
0.0
 11
-176.13958
 21
-80.401882
 31
0.0
  0
LINE
  5
384
100
AcDbEntity
  8
1
370
    18
100
AcDbLine
 10
-178.00666
 20
-78.097033
 30
0.0
 11
-175.854879
 21
-79.339364
 31
0.0
  0
LINE
  5
385
100
AcDbEntity
  8
1
370
    18
100
AcDbLine
 10
-177.721959
 20
-77.034514
 30
0.0
 11
-175.570178
 21
-78.276846
 31
0.0
  0
LINE
  5
386
100
AcDbEntity
  8
1
370
    18
100
AcDbLine
 10
-177.437258
 20
-75.971996
 30
0.0
 11
-175.285477
 21
-77.214327
 31
0.0
  0
LINE
  5
387
100
AcDbEntity
  8
1
370
    18
100
AcDbLine
 10
-177.152557
 20
-74.909477
 30
0.0
 11
-175.000776
 21
-76.151809
 31
0.0
  0
LINE
  5
388
100
AcDbEntity
  8
1
370
    18
100
AcDbLine
 10
-176.867856
 20
-73.846959
 30
0.0
 11
-174.716075
 21
-75.08929
 31
0.0
  0
LINE
  5
389
100
AcDbEntity
  8
1
370
    18
100
AcDbLine
 10
-176.583155
 20
-72.784441
 30
0.0
 11
-174.431374
 21
-74.026772
 31
0.0
  0
LINE
  5
38A
100
AcDbEntity
  8
1
370
    18
100
AcDbLine
 10
-174.449199
 20
-71.5627
 30
0.0
 11
-175.339682
 21
-71.048579
 31
0.0
  0
LINE
  5
38B
100
AcDbEntity
  8
1
370
    18
100
AcDbLine
 10
-174.336149
 20
-72.85486
 30
0.0
 11
-175.951446
 21
-71.922268
 31
0.0
  0
LINE
  5
38C
100
AcDbEntity
  8
1
370
    18
  6
CENTER
100
AcDbLine
 10
-179.416834
 20
-87.996318
 30
0.0
 11
-174.396809
 21
-69.261327
 31
0.0
  0
POINT
  5
38D
100
AcDbEntity
  8
1
370
    50
100
AcDbPoint
 10
-157.932303
 20
-18.236835
 30
0.0
  0
LINE
  5
38E
100
AcDbEntity
  8
1
370
    18
  6
CENTER
100
AcDbLine
 10
-170.932303
 20
-11.762875
 30
0.0
 11
-170.932303
 21
-53.835497
 31
0.0
  0
POINT
  5
38F
100
AcDbEntity
  8
1
370
    50
100
AcDbPoint
 10
-183.932303
 20
-18.236835
 30
0.0
  0
POINT
  5
390
100
AcDbEntity
  8
1
370
    50
100
AcDbPoint
 10
-157.932303
 20
-48.071439
 30
0.0
  0
LINE
  5
391
100
AcDbEntity
  8
1
370
    18
  6
CENTER
100
AcDbLine
 10
323.466932
 20
137.658157
 30
0.0
 11
342.687787
 21
137.658157
 31
0.0
  0
LINE
  5
392
100
AcDbEntity
  8
1
370
    25
100
AcDbLine
 10
327.158107
 20
137.658157
 30
0.0
 11
327.158107
 21
224.158157
 31
0.0
  0
LINE
  5
393
100
AcDbEntity
  8
1
370
    25
100
AcDbLine
 10
325.658107
 20
137.658157
 30
0.0
 11
325.658107
 21
223.293859
 31
0.0
  0
LINE
  5
394
100
AcDbEntity
  8
1
370
    25
100
AcDbLine
 10
327.158107
 20
224.158157
 30
0.0
 11
326.388382
 21
224.090815
 31
0.0
  0
ARC
  5
395
100
AcDbEntity
  8
1
370
    25
100
AcDbCircle
 10
326.458107
 20
223.293859
 30
0.0
 40
0.8
100
AcDbArc
 50
95.0
 51
180.0
  0
LINE
  5
396
100
AcDbEntity
  8
1
370
    25
100
AcDbLine
 10
328.13193
 20
218.432657
 30
0.0
 11
337.671195
 21
218.182862
 31
0.0
  0
LINE
  5
397
100
AcDbEntity
  8
1
370
    25
100
AcDbLine
 10
338.158107
 20
217.683034
 30
0.0
 11
338.158107
 21
203.895985
 31
0.0
  0
ARC
  5
398
100
AcDbEntity
  8
1
370
    25
100
AcDbCircle
 10
337.658107
 20
217.683034
 30
0.0
 40
0.5
100
AcDbArc
 50
0.0
 51
88.5
  0
ARC
  5
399
100
AcDbEntity
  8
1
370
    25
100
AcDbCircle
 10
328.158107
 20
219.432314
 30
0.0
 40
1.0
100
AcDbArc
 50
180.0
 51
268.5
  0
ARC
  5
39A
100
AcDbEntity
  8
1
370
    25
100
AcDbCircle
 10
337.658107
 20
210.441241
 30
0.0
 40
0.5
100
AcDbArc
 50
271.5
 51
360.0
  0
ARC
  5
39B
100
AcDbEntity
  8
1
370
    25
100
AcDbCircle
 10
337.658107
 20
214.467084
 30
0.0
 40
0.5
100
AcDbArc
 50
0.0
 51
88.5
  0
LINE
  5
39C
100
AcDbEntity
  8
1
370
    25
100
AcDbLine
 10
337.671195
 20
209.941413
 30
0.0
 11
328.721512
 21
209.707057
 31
0.0
  0
LINE
  5
39D
100
AcDbEntity
  8
1
370
    18
  6
CENTER
100
AcDbLine
 10
325.291551
 20
212.454163
 30
0.0
 11
339.95129
 21
212.454163
 31
0.0
  0
LINE
  5
39E
100
AcDbEntity
  8
1
370
    25
100
AcDbLine
 10
337.416397
 20
204.2966
 30
0.0
 11
328.658107
 21
208.014273
 31
0.0
  0
LINE
  5
39F
100
AcDbEntity
  8
1
370
    25
100
AcDbLine
 10
333.158107
 20
206.104137
 30
0.0
 11
333.158107
 21
208.615273
 31
0.0
  0
ARC
  5
3A0
100
AcDbEntity
  8
1
370
    25
100
AcDbCircle
 10
337.658107
 20
209.233281
 30
0.0
 40
0.5
100
AcDbArc
 50
271.5
 51
360.0
  0
LINE
  5
3A1
100
AcDbEntity
  8
1
370
    25
100
AcDbLine
 10
337.671195
 20
208.733452
 30
0.0
 11
333.158107
 21
208.615273
 31
0.0
  0
LINE
  5
3A2
100
AcDbEntity
  8
1
370
    25
100
AcDbLine
 10
328.658107
 20
208.014273
 30
0.0
 11
327.158107
 21
210.61235
 31
0.0
  0
LINE
  5
3A3
100
AcDbEntity
  8
1
370
    25
100
AcDbLine
 10
340.158107
 20
137.658157
 30
0.0
 11
340.158107
 21
200.154328
 31
0.0
  0
LINE
  5
3A4
100
AcDbEntity
  8
1
370
    18
  6
DASHED
100
AcDbLine
 10
338.658107
 20
137.658157
 30
0.0
 11
338.658107
 21
200.154328
 31
0.0
  0
ARC
  5
3A5
100
AcDbEntity
  8
1
370
    25
100
AcDbCircle
 10
335.658107
 20
200.154328
 30
0.0
 40
4.5
100
AcDbArc
 50
0.0
 51
67.0
  0
LINE
  5
3A6
100
AcDbEntity
  8
1
370
    18
100
AcDbLine
 10
328.161677
 20
215.215929
 30
0.0
 11
328.161677
 21
209.692397
 31
0.0
  0
ARC
  5
3A7
100
AcDbEntity
  8
1
370
    25
100
AcDbCircle
 10
328.747688
 20
208.7074
 30
0.0
 40
1.0
100
AcDbArc
 50
91.5
 51
145.096449
  0
LINE
  5
3A8
100
AcDbEntity
  8
1
370
    25
100
AcDbLine
 10
329.158107
 20
216.462878
 30
0.0
 11
327.645018
 21
216.502499
 31
0.0
  0
LINE
  5
3A9
100
AcDbEntity
  8
1
370
    25
100
AcDbLine
 10
329.158107
 20
213.126862
 30
0.0
 11
327.158107
 21
213.126862
 31
0.0
  0
LINE
  5
3AA
100
AcDbEntity
  8
1
370
    25
100
AcDbLine
 10
329.158107
 20
213.126862
 30
0.0
 11
329.158107
 21
216.462878
 31
0.0
  0
LINE
  5
3AB
100
AcDbEntity
  8
1
370
    25
100
AcDbLine
 10
329.158107
 20
215.029876
 30
0.0
 11
327.645018
 21
215.069497
 31
0.0
  0
ARC
  5
3AC
100
AcDbEntity
  8
1
370
    25
100
AcDbCircle
 10
327.658107
 20
217.002328
 30
0.0
 40
0.5
100
AcDbArc
 50
180.0
 51
268.5
  0
ARC
  5
3AD
100
AcDbEntity
  8
1
370
    25
100
AcDbCircle
 10
327.658107
 20
215.569326
 30
0.0
 40
0.5
100
AcDbArc
 50
180.0
 51
268.5
  0
LINE
  5
3AE
100
AcDbEntity
  8
1
370
    25
100
AcDbLine
 10
337.671195
 20
214.966913
 30
0.0
 11
329.158107
 21
215.189836
 31
0.0
  0
LINE
  5
3AF
100
AcDbEntity
  8
1
370
    25
100
AcDbLine
 10
327.158107
 20
216.954163
 30
0.0
 11
327.363571
 21
216.598287
 31
0.0
  0
LINE
  5
3B0
100
AcDbEntity
  8
1
370
    25
100
AcDbLine
 10
327.158107
 20
137.658157
 30
0.0
 11
327.158107
 21
51.158157
 31
0.0
  0
LINE
  5
3B1
100
AcDbEntity
  8
1
370
    25
100
AcDbLine
 10
325.658107
 20
137.658157
 30
0.0
 11
325.658107
 21
52.022455
 31
0.0
  0
LINE
  5
3B2
100
AcDbEntity
  8
1
370
    25
100
AcDbLine
 10
327.158107
 20
51.158157
 30
0.0
 11
326.388382
 21
51.2255
 31
0.0
  0
ARC
  5
3B3
100
AcDbEntity
  8
1
370
    25
100
AcDbCircle
 10
326.458107
 20
52.022455
 30
0.0
 40
0.8
100
AcDbArc
 50
180.0
 51
265.0
  0
LINE
  5
3B4
100
AcDbEntity
  8
1
370
    25
100
AcDbLine
 10
328.13193
 20
56.883658
 30
0.0
 11
337.671195
 21
57.133452
 31
0.0
  0
LINE
  5
3B5
100
AcDbEntity
  8
1
370
    25
100
AcDbLine
 10
338.158107
 20
57.633281
 30
0.0
 11
338.158107
 21
71.420329
 31
0.0
  0
ARC
  5
3B6
100
AcDbEntity
  8
1
370
    25
100
AcDbCircle
 10
337.658107
 20
57.633281
 30
0.0
 40
0.5
100
AcDbArc
 50
271.5
 51
360.0
  0
ARC
  5
3B7
100
AcDbEntity
  8
1
370
    25
100
AcDbCircle
 10
328.158107
 20
55.884
 30
0.0
 40
1.0
100
AcDbArc
 50
91.5
 51
180.0
  0
ARC
  5
3B8
100
AcDbEntity
  8
1
370
    25
100
AcDbCircle
 10
337.658107
 20
64.875073
 30
0.0
 40
0.5
100
AcDbArc
 50
0.0
 51
88.5
  0
ARC
  5
3B9
100
AcDbEntity
  8
1
370
    25
100
AcDbCircle
 10
337.658107
 20
60.84923
 30
0.0
 40
0.5
100
AcDbArc
 50
271.5
 51
360.0
  0
LINE
  5
3BA
100
AcDbEntity
  8
1
370
    25
100
AcDbLine
 10
337.671195
 20
65.374902
 30
0.0
 11
328.721512
 21
65.609258
 31
0.0
  0
LINE
  5
3BB
100
AcDbEntity
  8
1
370
    18
  6
CENTER
100
AcDbLine
 10
325.291551
 20
62.862152
 30
0.0
 11
339.95129
 21
62.862152
 31
0.0
  0
LINE
  5
3BC
100
AcDbEntity
  8
1
370
    25
100
AcDbLine
 10
337.416397
 20
71.019715
 30
0.0
 11
328.658107
 21
67.302041
 31
0.0
  0
LINE
  5
3BD
100
AcDbEntity
  8
1
370
    25
100
AcDbLine
 10
333.158107
 20
69.212178
 30
0.0
 11
333.158107
 21
66.701042
 31
0.0
  0
ARC
  5
3BE
100
AcDbEntity
  8
1
370
    25
100
AcDbCircle
 10
337.658107
 20
66.083034
 30
0.0
 40
0.5
100
AcDbArc
 50
0.0
 51
88.5
  0
LINE
  5
3BF
100
AcDbEntity
  8
1
370
    25
100
AcDbLine
 10
337.671195
 20
66.582862
 30
0.0
 11
333.158107
 21
66.701042
 31
0.0
  0
LINE
  5
3C0
100
AcDbEntity
  8
1
370
    25
100
AcDbLine
 10
328.658107
 20
67.302041
 30
0.0
 11
327.158107
 21
64.703965
 31
0.0
  0
LINE
  5
3C1
100
AcDbEntity
  8
1
370
    25
100
AcDbLine
 10
340.158107
 20
137.658157
 30
0.0
 11
340.158107
 21
75.161987
 31
0.0
  0
LINE
  5
3C2
100
AcDbEntity
  8
1
370
    18
  6
DASHED
100
AcDbLine
 10
338.658107
 20
137.658157
 30
0.0
 11
338.658107
 21
75.161987
 31
0.0
  0
ARC
  5
3C3
100
AcDbEntity
  8
1
370
    25
100
AcDbCircle
 10
335.658107
 20
75.161987
 30
0.0
 40
4.5
100
AcDbArc
 50
293.0
 51
360.0
  0
LINE
  5
3C4
100
AcDbEntity
  8
1
370
    18
100
AcDbLine
 10
328.161677
 20
60.100386
 30
0.0
 11
328.161677
 21
65.623918
 31
0.0
  0
ARC
  5
3C5
100
AcDbEntity
  8
1
370
    25
100
AcDbCircle
 10
328.747688
 20
66.608915
 30
0.0
 40
1.0
100
AcDbArc
 50
214.903551
 51
268.5
  0
LINE
  5
3C6
100
AcDbEntity
  8
1
370
    25
100
AcDbLine
 10
329.158107
 20
58.853437
 30
0.0
 11
327.645018
 21
58.813815
 31
0.0
  0
LINE
  5
3C7
100
AcDbEntity
  8
1
370
    25
100
AcDbLine
 10
329.158107
 20
62.189453
 30
0.0
 11
327.158107
 21
62.189453
 31
0.0
  0
LINE
  5
3C8
100
AcDbEntity
  8
1
370
    25
100
AcDbLine
 10
329.158107
 20
62.189453
 30
0.0
 11
329.158107
 21
58.853437
 31
0.0
  0
LINE
  5
3C9
100
AcDbEntity
  8
1
370
    25
100
AcDbLine
 10
329.158107
 20
60.286439
 30
0.0
 11
327.645018
 21
60.246817
 31
0.0
  0
ARC
  5
3CA
100
AcDbEntity
  8
1
370
    25
100
AcDbCircle
 10
327.658107
 20
58.313987
 30
0.0
 40
0.5
100
AcDbArc
 50
91.5
 51
180.0
  0
ARC
  5
3CB
100
AcDbEntity
  8
1
370
    25
100
AcDbCircle
 10
327.658107
 20
59.746989
 30
0.0
 40
0.5
100
AcDbArc
 50
91.5
 51
180.0
  0
LINE
  5
3CC
100
AcDbEntity
  8
1
370
    25
100
AcDbLine
 10
337.671195
 20
60.349402
 30
0.0
 11
329.158107
 21
60.126479
 31
0.0
  0
LINE
  5
3CD
100
AcDbEntity
  8
1
370
    25
100
AcDbLine
 10
327.158107
 20
58.362152
 30
0.0
 11
327.363571
 21
58.718028
 31
0.0
  0
ARC
  5
3CE
100
AcDbEntity
  8
1
370
    25
100
AcDbCircle
 10
1155.658107
 20
253.658157
 30
0.0
 40
830.0
100
AcDbArc
 50
180.0
 51
181.358318
  0
LINE
  5
3CF
100
AcDbEntity
  8
1
370
    25
100
AcDbLine
 10
327.158107
 20
253.658157
 30
0.0
 11
327.158107
 21
233.158157
 31
0.0
  0
LINE
  5
3D0
100
AcDbEntity
  8
1
370
    25
100
AcDbLine
 10
340.158107
 20
244.896979
 30
0.0
 11
340.158107
 21
262.419336
 31
0.0
  0
LINE
  5
3D1
100
AcDbEntity
  8
1
370
    25
100
AcDbLine
 10
336.658107
 20
253.658157
 30
0.0
 11
336.658107
 21
248.909391
 31
0.0
  0
LINE
  5
3D2
100
AcDbEntity
  8
1
370
    25
100
AcDbLine
 10
326.621387
 20
233.205114
 30
0.0
 11
327.158107
 21
233.158157
 31
0.0
  0
ARC
  5
3D3
100
AcDbEntity
  8
1
370
    25
100
AcDbCircle
 10
326.691112
 20
234.00207
 30
0.0
 40
0.8
100
AcDbArc
 50
181.358317
 51
265.0
  0
ARC
  5
3D4
100
AcDbEntity
  8
1
370
    25
100
AcDbCircle
 10
328.158107
 20
238.288871
 30
0.0
 40
1.0
100
AcDbArc
 50
98.0
 51
180.0
  0
LINE
  5
3D5
100
AcDbEntity
  8
1
370
    25
100
AcDbLine
 10
337.671195
 20
246.933452
 30
0.0
 11
327.158107
 21
246.658157
 31
0.0
  0
ARC
  5
3D6
100
AcDbEntity
  8
1
370
    25
100
AcDbCircle
 10
337.658107
 20
247.433281
 30
0.0
 40
0.5
100
AcDbArc
 50
271.5
 51
360.0
  0
ARC
  5
3D7
100
AcDbEntity
  8
1
370
    25
100
AcDbCircle
 10
337.658107
 20
248.383034
 30
0.0
 40
0.5
100
AcDbArc
 50
0.0
 51
88.5
  0
LINE
  5
3D8
100
AcDbEntity
  8
1
370
    25
100
AcDbLine
 10
337.671195
 20
248.882862
 30
0.0
 11
336.658107
 21
248.909391
 31
0.0
  0
LINE
  5
3D9
100
AcDbEntity
  8
1
370
    25
100
AcDbLine
 10
336.658621
 20
251.054809
 30
0.0
 11
338.158107
 21
251.015543
 31
0.0
  0
LINE
  5
3DA
100
AcDbEntity
  8
1
370
    18
100
AcDbLine
 10
328.13193
 20
249.88324
 30
0.0
 11
336.158107
 21
249.88324
 31
0.0
  0
LINE
  5
3DB
100
AcDbEntity
  8
1
370
    25
100
AcDbLine
 10
336.284385
 20
240.440772
 30
0.0
 11
328.018933
 21
239.279139
 31
0.0
  0
LINE
  5
3DC
100
AcDbEntity
  8
1
370
    25
100
AcDbLine
 10
329.158107
 20
243.14736
 30
0.0
 11
337.671195
 21
243.370284
 31
0.0
  0
ARC
  5
3DD
100
AcDbEntity
  8
1
370
    25
100
AcDbCircle
 10
337.658107
 20
243.870112
 30
0.0
 40
0.5
100
AcDbArc
 50
271.5
 51
360.0
  0
ARC
  5
3DE
100
AcDbEntity
  8
1
370
    25
100
AcDbCircle
 10
335.658107
 20
244.896979
 30
0.0
 40
4.5
100
AcDbArc
 50
278.0
 51
360.0
  0
LINE
  5
3DF
100
AcDbEntity
  8
1
370
    18
100
AcDbLine
 10
328.161677
 20
244.748582
 30
0.0
 11
328.161677
 21
246.684437
 31
0.0
  0
LINE
  5
3E0
100
AcDbEntity
  8
1
370
    25
100
AcDbLine
 10
329.158107
 20
244.748582
 30
0.0
 11
329.158107
 21
242.059304
 31
0.0
  0
LINE
  5
3E1
100
AcDbEntity
  8
1
370
    25
100
AcDbLine
 10
327.645018
 20
241.532604
 30
0.0
 11
328.671195
 21
241.559475
 31
0.0
  0
LINE
  5
3E2
100
AcDbEntity
  8
1
370
    25
100
AcDbLine
 10
327.645018
 20
242.928029
 30
0.0
 11
328.671195
 21
242.9549
 31
0.0
  0
ARC
  5
3E3
100
AcDbEntity
  8
1
370
    25
100
AcDbCircle
 10
327.658107
 20
241.032775
 30
0.0
 40
0.5
100
AcDbArc
 50
91.5
 51
180.0
  0
ARC
  5
3E4
100
AcDbEntity
  8
1
370
    25
100
AcDbCircle
 10
327.658107
 20
242.4282
 30
0.0
 40
0.5
100
AcDbArc
 50
91.5
 51
180.0
  0
ARC
  5
3E5
100
AcDbEntity
  8
1
370
    25
100
AcDbCircle
 10
328.658107
 20
243.454729
 30
0.0
 40
0.5
100
AcDbArc
 50
271.5
 51
360.0
  0
ARC
  5
3E6
100
AcDbEntity
  8
1
370
    25
100
AcDbCircle
 10
328.658107
 20
242.059304
 30
0.0
 40
0.5
100
AcDbArc
 50
271.5
 51
360.0
  0
LINE
  5
3E7
100
AcDbEntity
  8
1
370
    25
100
AcDbLine
 10
329.158107
 20
244.748582
 30
0.0
 11
327.158107
 21
244.748582
 31
0.0
  0
ARC
  5
3E8
100
AcDbEntity
  8
1
370
    25
100
AcDbCircle
 10
1155.658107
 20
253.658157
 30
0.0
 40
830.0
100
AcDbArc
 50
178.641682
 51
180.0
  0
LINE
  5
3E9
100
AcDbEntity
  8
1
370
    25
100
AcDbLine
 10
327.158107
 20
253.658157
 30
0.0
 11
327.158107
 21
274.158157
 31
0.0
  0
LINE
  5
3EA
100
AcDbEntity
  8
1
370
    25
100
AcDbLine
 10
338.158107
 20
263.446202
 30
0.0
 11
338.158107
 21
243.870112
 31
0.0
  0
LINE
  5
3EB
100
AcDbEntity
  8
1
370
    25
100
AcDbLine
 10
336.658107
 20
253.658157
 30
0.0
 11
336.658107
 21
258.406924
 31
0.0
  0
ARC
  5
3EC
100
AcDbEntity
  8
1
370
    25
100
AcDbCircle
 10
328.158107
 20
269.027444
 30
0.0
 40
1.0
100
AcDbArc
 50
180.0
 51
262.0
  0
LINE
  5
3ED
100
AcDbEntity
  8
1
370
    25
100
AcDbLine
 10
337.671195
 20
260.382862
 30
0.0
 11
327.158107
 21
260.658157
 31
0.0
  0
ARC
  5
3EE
100
AcDbEntity
  8
1
370
    25
100
AcDbCircle
 10
337.658107
 20
259.883034
 30
0.0
 40
0.5
100
AcDbArc
 50
360.0
 51
88.5
  0
ARC
  5
3EF
100
AcDbEntity
  8
1
370
    25
100
AcDbCircle
 10
337.658107
 20
258.933281
 30
0.0
 40
0.5
100
AcDbArc
 50
271.5
 51
360.0
  0
LINE
  5
3F0
100
AcDbEntity
  8
1
370
    25
100
AcDbLine
 10
337.671195
 20
258.433452
 30
0.0
 11
336.658107
 21
258.406924
 31
0.0
  0
LINE
  5
3F1
100
AcDbEntity
  8
1
370
    25
100
AcDbLine
 10
336.658621
 20
256.261506
 30
0.0
 11
338.158107
 21
256.300771
 31
0.0
  0
LINE
  5
3F2
100
AcDbEntity
  8
1
370
    18
100
AcDbLine
 10
328.13193
 20
257.433075
 30
0.0
 11
336.158107
 21
257.433075
 31
0.0
  0
LINE
  5
3F3
100
AcDbEntity
  8
1
370
    25
100
AcDbLine
 10
336.284385
 20
266.875542
 30
0.0
 11
328.018933
 21
268.037176
 31
0.0
  0
LINE
  5
3F4
100
AcDbEntity
  8
1
370
    25
100
AcDbLine
 10
329.158107
 20
264.168954
 30
0.0
 11
337.671195
 21
263.946031
 31
0.0
  0
ARC
  5
3F5
100
AcDbEntity
  8
1
370
    25
100
AcDbCircle
 10
337.658107
 20
263.446202
 30
0.0
 40
0.5
100
AcDbArc
 50
360.0
 51
88.5
  0
ARC
  5
3F6
100
AcDbEntity
  8
1
370
    25
100
AcDbCircle
 10
335.658107
 20
262.419336
 30
0.0
 40
4.5
100
AcDbArc
 50
360.0
 51
82.0
  0
LINE
  5
3F7
100
AcDbEntity
  8
1
370
    18
100
AcDbLine
 10
328.161677
 20
262.567733
 30
0.0
 11
328.161677
 21
260.631878
 31
0.0
  0
LINE
  5
3F8
100
AcDbEntity
  8
1
370
    25
100
AcDbLine
 10
329.158107
 20
262.567733
 30
0.0
 11
329.158107
 21
265.257011
 31
0.0
  0
LINE
  5
3F9
100
AcDbEntity
  8
1
370
    25
100
AcDbLine
 10
327.645018
 20
265.783711
 30
0.0
 11
328.671195
 21
265.756839
 31
0.0
  0
LINE
  5
3FA
100
AcDbEntity
  8
1
370
    25
100
AcDbLine
 10
327.645018
 20
264.388286
 30
0.0
 11
328.671195
 21
264.361414
 31
0.0
  0
ARC
  5
3FB
100
AcDbEntity
  8
1
370
    25
100
AcDbCircle
 10
327.658107
 20
266.283539
 30
0.0
 40
0.5
100
AcDbArc
 50
180.0
 51
268.5
  0
ARC
  5
3FC
100
AcDbEntity
  8
1
370
    25
100
AcDbCircle
 10
327.658107
 20
264.888115
 30
0.0
 40
0.5
100
AcDbArc
 50
180.0
 51
268.5
  0
ARC
  5
3FD
100
AcDbEntity
  8
1
370
    25
100
AcDbCircle
 10
328.658107
 20
263.861586
 30
0.0
 40
0.5
100
AcDbArc
 50
360.0
 51
88.5
  0
ARC
  5
3FE
100
AcDbEntity
  8
1
370
    25
100
AcDbCircle
 10
328.658107
 20
265.257011
 30
0.0
 40
0.5
100
AcDbArc
 50
360.0
 51
88.5
  0
LINE
  5
3FF
100
AcDbEntity
  8
1
370
    25
100
AcDbLine
 10
329.158107
 20
262.567733
 30
0.0
 11
327.158107
 21
262.567733
 31
0.0
  0
LINE
  5
400
100
AcDbEntity
  8
1
370
    25
100
AcDbLine
 10
247.611706
 20
52.658157
 30
0.0
 11
247.611706
 21
222.658157
 31
0.0
  0
LINE
  5
401
100
AcDbEntity
  8
1
370
    25
100
AcDbLine
 10
288.611706
 20
52.658157
 30
0.0
 11
288.611706
 21
222.658157
 31
0.0
  0
LINE
  5
402
100
AcDbEntity
  8
1
370
    25
100
AcDbLine
 10
281.311706
 20
68.658157
 30
0.0
 11
281.311706
 21
206.658157
 31
0.0
  0
LINE
  5
403
100
AcDbEntity
  8
1
370
    25
100
AcDbLine
 10
254.911706
 20
68.658157
 30
0.0
 11
254.911706
 21
206.658157
 31
0.0
  0
LINE
  5
404
100
AcDbEntity
  8
1
370
    25
100
AcDbLine
 10
249.111706
 20
224.158157
 30
0.0
 11
287.111706
 21
224.158157
 31
0.0
  0
LINE
  5
405
100
AcDbEntity
  8
1
370
    25
100
AcDbLine
 10
249.111706
 20
51.158157
 30
0.0
 11
287.111706
 21
51.158157
 31
0.0
  0
LINE
  5
406
100
AcDbEntity
  8
1
370
    25
100
AcDbLine
 10
255.911706
 20
207.658157
 30
0.0
 11
280.311706
 21
207.658157
 31
0.0
  0
LINE
  5
407
100
AcDbEntity
  8
1
370
    25
100
AcDbLine
 10
255.911706
 20
67.658157
 30
0.0
 11
280.311706
 21
67.658157
 31
0.0
  0
ARC
  5
408
100
AcDbEntity
  8
1
370
    25
100
AcDbCircle
 10
280.311706
 20
206.658157
 30
0.0
 40
1.0
100
AcDbArc
 50
0.0
 51
90.0
  0
ARC
  5
409
100
AcDbEntity
  8
1
370
    25
100
AcDbCircle
 10
255.911706
 20
206.658157
 30
0.0
 40
1.0
100
AcDbArc
 50
90.0
 51
180.0
  0
ARC
  5
40A
100
AcDbEntity
  8
1
370
    25
100
AcDbCircle
 10
280.311706
 20
68.658157
 30
0.0
 40
1.0
100
AcDbArc
 50
270.0
 51
360.0
  0
ARC
  5
40B
100
AcDbEntity
  8
1
370
    25
100
AcDbCircle
 10
255.911706
 20
68.658157
 30
0.0
 40
1.0
100
AcDbArc
 50
180.0
 51
270.0
  0
LINE
  5
40C
100
AcDbEntity
  8
1
370
    18
100
AcDbLine
 10
276.429157
 20
73.388567
 30
0.0
 11
259.794254
 21
73.388567
 31
0.0
  0
LINE
  5
40D
100
AcDbEntity
  8
1
370
    18
100
AcDbLine
 10
279.429157
 20
76.388567
 30
0.0
 11
279.429157
 21
198.927747
 31
0.0
  0
LINE
  5
40E
100
AcDbEntity
  8
1
370
    18
100
AcDbLine
 10
256.794254
 20
76.388567
 30
0.0
 11
256.794254
 21
198.927747
 31
0.0
  0
ARC
  5
40F
100
AcDbEntity
  8
1
370
    18
100
AcDbCircle
 10
276.429157
 20
76.388567
 30
0.0
 40
3.0
100
AcDbArc
 50
270.0
 51
360.0
  0
ARC
  5
410
100
AcDbEntity
  8
1
370
    18
100
AcDbCircle
 10
259.794254
 20
76.388567
 30
0.0
 40
3.0
100
AcDbArc
 50
180.0
 51
270.0
  0
LINE
  5
411
100
AcDbEntity
  8
1
370
    18
100
AcDbLine
 10
259.794254
 20
201.927747
 30
0.0
 11
276.429157
 21
201.927747
 31
0.0
  0
ARC
  5
412
100
AcDbEntity
  8
1
370
    18
100
AcDbCircle
 10
276.429157
 20
198.927747
 30
0.0
 40
3.0
100
AcDbArc
 50
0.0
 51
90.0
  0
ARC
  5
413
100
AcDbEntity
  8
1
370
    18
100
AcDbCircle
 10
259.794254
 20
198.927747
 30
0.0
 40
3.0
100
AcDbArc
 50
90.0
 51
180.0
  0
LINE
  5
414
100
AcDbEntity
  8
1
370
    18
  6
CENTER
100
AcDbLine
 10
245.78005
 20
137.658157
 30
0.0
 11
291.077619
 21
137.658157
 31
0.0
  0
LINE
  5
415
100
AcDbEntity
  8
1
370
    18
  6
CENTER
100
AcDbLine
 10
268.111706
 20
49.136269
 30
0.0
 11
268.111706
 21
226.180046
 31
0.0
  0
LINE
  5
416
100
AcDbEntity
  8
1
370
    18
100
AcDbLine
 10
280.311706
 20
207.658157
 30
0.0
 11
276.429157
 21
201.927747
 31
0.0
  0
LINE
  5
417
100
AcDbEntity
  8
1
370
    18
100
AcDbLine
 10
281.311706
 20
206.658157
 30
0.0
 11
279.429157
 21
198.927747
 31
0.0
  0
LINE
  5
418
100
AcDbEntity
  8
1
370
    18
100
AcDbLine
 10
255.911706
 20
207.658157
 30
0.0
 11
259.794254
 21
201.927747
 31
0.0
  0
LINE
  5
419
100
AcDbEntity
  8
1
370
    18
100
AcDbLine
 10
254.911706
 20
206.658157
 30
0.0
 11
256.794254
 21
198.927747
 31
0.0
  0
LINE
  5
41A
100
AcDbEntity
  8
1
370
    18
100
AcDbLine
 10
281.311706
 20
68.658157
 30
0.0
 11
279.429157
 21
76.388567
 31
0.0
  0
LINE
  5
41B
100
AcDbEntity
  8
1
370
    18
100
AcDbLine
 10
276.429157
 20
73.388567
 30
0.0
 11
280.311706
 21
67.658157
 31
0.0
  0
LINE
  5
41C
100
AcDbEntity
  8
1
370
    18
100
AcDbLine
 10
255.911706
 20
67.658157
 30
0.0
 11
259.794254
 21
73.388567
 31
0.0
  0
LINE
  5
41D
100
AcDbEntity
  8
1
370
    18
100
AcDbLine
 10
256.794254
 20
76.388567
 30
0.0
 11
254.911706
 21
68.658157
 31
0.0
  0
ARC
  5
41E
100
AcDbEntity
  8
1
370
    25
100
AcDbCircle
 10
287.111706
 20
222.658157
 30
0.0
 40
1.5
100
AcDbArc
 50
0.0
 51
90.0
  0
ARC
  5
41F
100
AcDbEntity
  8
1
370
    25
100
AcDbCircle
 10
249.111706
 20
222.658157
 30
0.0
 40
1.5
100
AcDbArc
 50
90.0
 51
180.0
  0
ARC
  5
420
100
AcDbEntity
  8
1
370
    25
100
AcDbCircle
 10
287.111706
 20
52.658157
 30
0.0
 40
1.5
100
AcDbArc
 50
270.0
 51
360.0
  0
ARC
  5
421
100
AcDbEntity
  8
1
370
    25
100
AcDbCircle
 10
249.111706
 20
52.658157
 30
0.0
 40
1.5
100
AcDbArc
 50
180.0
 51
270.0
  0
ELLIPSE
  5
422
100
AcDbEntity
  8
1
370
    25
100
AcDbEllipse
 10
268.111706
 20
204.050121
 30
0.0
 11
3.1000000000000001
 21
0.0
 31
0.0
210
0.0
220
0.0
230
1.0
 40
0.390731
 41
0.0
 42
6.2831849999999996
  0
LINE
  5
423
100
AcDbEntity
  8
1
370
    18
  6
CENTER
100
AcDbLine
 10
262.011706
 20
204.050121
 30
0.0
 11
274.211706
 21
204.050121
 31
0.0
  0
ELLIPSE
  5
424
100
AcDbEntity
  8
1
370
    25
100
AcDbEllipse
 10
268.111706
 20
204.418323
 30
0.0
 11
3.1000000000000001
 21
0.0
 31
0.0
210
0.0
220
0.0
230
1.0
 40
0.390731
 41
3.2941739999999999
 42
6.1306029999999998
  0
ELLIPSE
  5
425
100
AcDbEntity
  8
1
370
    25
100
AcDbEllipse
 10
268.111706
 20
71.266193
 30
0.0
 11
3.1000000000000001
 21
0.0
 31
0.0
210
0.0
220
0.0
230
1.0
 40
0.390731
 41
0.0
 42
6.2831849999999996
  0
LINE
  5
426
100
AcDbEntity
  8
1
370
    18
  6
CENTER
100
AcDbLine
 10
262.011706
 20
71.266193
 30
0.0
 11
274.211706
 21
71.266193
 31
0.0
  0
ELLIPSE
  5
427
100
AcDbEntity
  8
1
370
    25
100
AcDbEllipse
 10
268.111706
 20
70.897991
 30
0.0
 11
3.1000000000000001
 21
0.0
 31
0.0
210
0.0
220
0.0
230
1.0
 40
0.390731
 41
0.152582
 42
2.9890110000000001
  0
LINE
  5
428
100
AcDbEntity
  8
1
370
    25
100
AcDbLine
 10
326.621387
 20
274.1112
 30
0.0
 11
327.158107
 21
274.158157
 31
0.0
  0
ARC
  5
429
100
AcDbEntity
  8
1
370
    25
100
AcDbCircle
 10
326.691112
 20
273.314245
 30
0.0
 40
0.8
100
AcDbArc
 50
95.0
 51
178.641683
  0
POINT
  5
42A
100
AcDbEntity
  8
1
370
    50
100
AcDbPoint
 10
327.158107
 20
268.158157
 30
0.0
  0
POINT
  5
42B
100
AcDbEntity
  8
1
370
    50
100
AcDbPoint
 10
327.158107
 20
239.158157
 30
0.0
  0
LINE
  5
42C
100
AcDbEntity
  8
1
370
    18
  6
CENTER
100
AcDbLine
 10
321.278573
 20
253.658157
 30
0.0
 11
346.661172
 21
253.658157
 31
0.0
  0
LINE
  5
42D
100
AcDbEntity
  8
1
370
    25
100
AcDbLine
 10
342.572024
 20
54.283203
 30
0.0
 11
340.124598
 21
52.371064
 31
0.0
  0
LINE
  5
42E
100
AcDbEntity
  8
1
370
    25
100
AcDbLine
 10
343.744217
 20
51.521688
 30
0.0
 11
341.296791
 21
49.609549
 31
0.0
  0
LINE
  5
42F
100
AcDbEntity
  8
1
370
    25
100
AcDbLine
 10
344.330314
 20
50.140931
 30
0.0
 11
341.882888
 21
48.228792
 31
0.0
  0
LINE
  5
430
100
AcDbEntity
  8
1
370
    25
100
AcDbLine
 10
344.916411
 20
48.760173
 30
0.0
 11
342.468985
 21
46.848035
 31
0.0
  0
LINE
  5
431
100
AcDbEntity
  8
1
370
    25
100
AcDbLine
 10
345.502508
 20
47.379416
 30
0.0
 11
343.055081
 21
45.467277
 31
0.0
  0
LINE
  5
432
100
AcDbEntity
  8
1
370
    25
100
AcDbLine
 10
346.088604
 20
45.998659
 30
0.0
 11
343.760175
 21
44.179491
 31
0.0
  0
LINE
  5
433
100
AcDbEntity
  8
1
370
    25
100
AcDbLine
 10
346.26138
 20
44.29498
 30
0.0
 11
345.040956
 21
43.34148
 31
0.0
  0
LINE
  5
434
100
AcDbEntity
  8
1
370
    25
100
AcDbLine
 10
345.977723
 20
42.420921
 30
0.0
 11
345.950359
 21
45.556553
 31
0.0
  0
LINE
  5
435
100
AcDbEntity
  8
1
370
    25
100
AcDbLine
 10
345.977723
 20
42.420921
 30
0.0
 11
343.741147
 21
44.618798
 31
0.0
  0
LINE
  5
436
100
AcDbEntity
  8
1
370
    18
  6
CENTER
100
AcDbLine
 10
346.951449
 20
235.189347
 30
0.0
 11
333.308941
 21
203.049612
 31
0.0
  0
LINE
  5
437
100
AcDbEntity
  8
1
370
    25
100
AcDbLine
 10
341.985927
 20
55.66396
 30
0.0
 11
339.538501
 21
53.751821
 31
0.0
  0
LINE
  5
438
100
AcDbEntity
  8
1
370
    25
100
AcDbLine
 10
341.399831
 20
57.044717
 30
0.0
 11
338.952404
 21
55.132578
 31
0.0
  0
LINE
  5
439
100
AcDbEntity
  8
1
370
    25
100
AcDbLine
 10
340.729474
 20
58.359643
 30
0.0
 11
338.366308
 21
56.513335
 31
0.0
  0
LINE
  5
43A
100
AcDbEntity
  8
1
370
    25
100
AcDbLine
 10
343.741147
 20
44.618798
 30
0.0
 11
338.158107
 21
57.771618
 31
0.0
  0
LINE
  5
43B
100
AcDbEntity
  8
1
370
    18
  6
CENTER
100
AcDbLine
 10
325.291551
 20
213.454163
 30
0.0
 11
339.95129
 21
213.454163
 31
0.0
  0
LINE
  5
43C
100
AcDbEntity
  8
1
370
    18
  6
CENTER
100
AcDbLine
 10
325.291551
 20
61.862152
 30
0.0
 11
339.95129
 21
61.862152
 31
0.0
  0
LINE
  5
43D
100
AcDbEntity
  8
1
370
    25
100
AcDbLine
 10
338.158107
 20
211.707932
 30
0.0
 11
338.58807
 21
211.647504
 31
0.0
  0
LINE
  5
43E
100
AcDbEntity
  8
1
370
    25
100
AcDbLine
 10
339.81051
 20
222.205305
 30
0.0
 11
342.886112
 21
221.773058
 31
0.0
  0
LINE
  5
43F
100
AcDbEntity
  8
1
370
    25
100
AcDbLine
 10
340.396606
 20
223.586063
 30
0.0
 11
343.472209
 21
223.153815
 31
0.0
  0
LINE
  5
440
100
AcDbEntity
  8
1
370
    25
100
AcDbLine
 10
340.982703
 20
224.96682
 30
0.0
 11
344.058306
 21
224.534572
 31
0.0
  0
LINE
  5
441
100
AcDbEntity
  8
1
370
    25
100
AcDbLine
 10
341.5688
 20
226.347577
 30
0.0
 11
344.644402
 21
225.91533
 31
0.0
  0
LINE
  5
442
100
AcDbEntity
  8
1
370
    25
100
AcDbLine
 10
342.154896
 20
227.728335
 30
0.0
 11
345.230499
 21
227.296087
 31
0.0
  0
LINE
  5
443
100
AcDbEntity
  8
1
370
    25
100
AcDbLine
 10
342.740993
 20
229.109092
 30
0.0
 11
345.816596
 21
228.676844
 31
0.0
  0
LINE
  5
444
100
AcDbEntity
  8
1
370
    25
100
AcDbLine
 10
343.32709
 20
230.489849
 30
0.0
 11
346.253153
 21
230.078618
 31
0.0
  0
LINE
  5
445
100
AcDbEntity
  8
1
370
    25
100
AcDbLine
 10
344.432594
 20
231.797608
 30
0.0
 11
345.966262
 21
231.582065
 31
0.0
  0
LINE
  5
446
100
AcDbEntity
  8
1
370
    25
100
AcDbLine
 10
345.977723
 20
232.895393
 30
0.0
 11
343.741147
 21
230.697516
 31
0.0
  0
LINE
  5
447
100
AcDbEntity
  8
1
370
    25
100
AcDbLine
 10
345.977723
 20
232.895393
 30
0.0
 11
345.950359
 21
229.759762
 31
0.0
  0
LINE
  5
448
100
AcDbEntity
  8
1
370
    25
100
AcDbLine
 10
343.741147
 20
230.697516
 30
0.0
 11
338.158107
 21
217.544697
 31
0.0
  0
LINE
  5
449
100
AcDbEntity
  8
1
370
    25
100
AcDbLine
 10
339.224413
 20
220.824548
 30
0.0
 11
342.300016
 21
220.3923
 31
0.0
  0
LINE
  5
44A
100
AcDbEntity
  8
1
370
    25
100
AcDbLine
 10
338.638316
 20
219.443791
 30
0.0
 11
341.713919
 21
219.011543
 31
0.0
  0
LINE
  5
44B
100
AcDbEntity
  8
1
370
    25
100
AcDbLine
 10
338.158107
 20
218.048152
 30
0.0
 11
341.127822
 21
217.630786
 31
0.0
  0
LINE
  5
44C
100
AcDbEntity
  8
1
370
    25
100
AcDbLine
 10
345.950359
 20
229.759762
 30
0.0
 11
338.158107
 21
211.402365
 31
0.0
  0
LINE
  5
44D
100
AcDbEntity
  8
1
370
    18
  6
CENTER
100
AcDbLine
 10
346.246903
 20
41.786773
 30
0.0
 11
337.482821
 21
62.433656
 31
0.0
  0
LINE
  5
44E
100
AcDbEntity
  8
1
370
    25
100
AcDbLine
 10
338.158107
 20
63.913949
 30
0.0
 11
345.950359
 21
45.556553
 31
0.0
  0
LINE
  5
44F
100
AcDbEntity
  8
1
370
    25
100
AcDbLine
 10
338.385087
 20
63.882672
 30
0.0
 11
338.158107
 21
63.705336
 31
0.0
  0
LINE
  5
450
100
AcDbEntity
  8
1
370
    25
100
AcDbLine
 10
340.143377
 20
59.7404
 30
0.0
 11
338.158107
 21
58.189337
 31
0.0
  0
LINE
  5
451
100
AcDbEntity
  8
1
370
    25
100
AcDbLine
 10
338.158107
 20
216.585024
 30
0.0
 11
340.541726
 21
216.250029
 31
0.0
  0
LINE
  5
452
100
AcDbEntity
  8
1
370
    25
100
AcDbLine
 10
338.158107
 20
215.121897
 30
0.0
 11
339.955629
 21
214.869271
 31
0.0
  0
LINE
  5
453
100
AcDbEntity
  8
1
370
    25
100
AcDbLine
 10
338.158107
 20
213.658769
 30
0.0
 11
339.369532
 21
213.488514
 31
0.0
  0
LINE
  5
454
100
AcDbEntity
  8
1
370
    25
100
AcDbLine
 10
339.55728
 20
61.121158
 30
0.0
 11
338.158107
 21
60.028003
 31
0.0
  0
LINE
  5
455
100
AcDbEntity
  8
1
370
    25
100
AcDbLine
 10
338.971184
 20
62.501915
 30
0.0
 11
338.158107
 21
61.86667
 31
0.0
  0
LINE
  5
456
100
AcDbEntity
  8
1
370
    25
100
AcDbLine
 10
343.158121
 20
52.902445
 30
0.0
 11
340.710695
 21
50.990306
 31
0.0
  0
LINE
  5
457
100
AcDbEntity
  8
1
370
    18
  6
CENTER
100
AcDbLine
 10
138.111706
 20
49.136269
 30
0.0
 11
138.111706
 21
120.806587
 31
0.0
  0
LINE
  5
458
100
AcDbEntity
  8
1
370
    18
  6
CENTER
100
AcDbLine
 10
138.111706
 20
134.552048
 30
0.0
 11
138.111706
 21
226.180046
 31
0.0
  0
LINE
  5
459
100
AcDbEntity
  8
1
370
    25
100
AcDbLine
 10
-28.481096
 20
52.658157
 30
0.0
 11
-28.481096
 21
222.658157
 31
0.0
  0
LINE
  5
45A
100
AcDbEntity
  8
1
370
    18
  6
CENTER
100
AcDbLine
 10
-211.404068
 20
252.416403
 30
0.0
 11
-252.333084
 21
252.416403
 31
0.0
  0
DIMENSION
  5
45B
100
AcDbEntity
  8
2
370
    25
100
AcDbDimension
  2
*D0
 10
-183.134903
 20
202.893652
 30
0.0
 11
-191.634903
 21
118.39889
 31
0.0
 71
     0
 72
     0
 41
0.0
 42
0.0
  3
Standard
100
AcDbAlignedDimension
 13
-215.932303
 23
38.904127
 33
0.0
 14
-215.932303
 24
202.893652
 34
0.0
 50
90.0
100
AcDbRotatedDimension
  0
DIMENSION
  5
45C
100
AcDbEntity
  8
2
370
    25
100
AcDbDimension
  2
*D1
 10
-106.946808
 20
196.398893
 30
0.0
 11
-115.446808
 21
118.398893
 31
0.0
 71
     0
 72
     0
 41
0.0
 42
0.0
  3
Standard
100
AcDbAlignedDimension
 13
-138.932303
 23
45.398893
 33
0.0
 14
-138.932205
 24
196.398893
 34
0.0
 50
90.0
100
AcDbRotatedDimension
  0
DIMENSION
  5
45D
100
AcDbEntity
  8
2
370
    25
100
AcDbDimension
  2
*D2
 10
-116.025284
 20
153.098893
 30
0.0
 11
-124.525284
 21
100.398893
 31
0.0
 71
     0
 72
     0
 41
0.0
 42
0.0
  3
Standard
100
AcDbAlignedDimension
 13
-145.932303
 23
52.698893
 33
0.0
 14
-145.932303
 24
153.098893
 34
0.0
 50
90.0
100
AcDbRotatedDimension
  0
DIMENSION
  5
45E
100
AcDbEntity
  8
2
370
    25
100
AcDbDimension
  2
*D3
 10
-97.282677
 20
207.898893
 30
0.0
 11
-105.782677
 21
118.398893
 31
0.0
 71
     0
 72
     0
 41
0.0
 42
0.0
  3
Standard
100
AcDbAlignedDimension
 13
-145.932303
 23
33.898893
 33
0.0
 14
-145.932303
 24
207.898893
 34
0.0
 50
90.0
100
AcDbRotatedDimension
  0
DIMENSION
  5
45F
100
AcDbEntity
  8
2
370
    25
100
AcDbDimension
  2
*D4
 10
-126.432303
 20
218.008255
 30
0.0
 11
-145.932303
 21
221.508255
 31
0.0
 71
     0
 72
     0
 41
0.0
 42
0.0
  3
Standard
100
AcDbAlignedDimension
 13
-165.432303
 23
188.398893
 33
0.0
 14
-126.432303
 24
188.398893
 34
0.0
100
AcDbRotatedDimension
  0
DIMENSION
  5
460
100
AcDbEntity
  8
2
370
    25
100
AcDbDimension
  2
*D5
 10
-132.732303
 20
92.676927
 30
0.0
 11
-145.932303
 21
96.176927
 31
0.0
 71
     0
 72
     0
 41
0.0
 42
0.0
  3
Standard
100
AcDbAlignedDimension
 13
-159.132303
 23
93.541242
 33
0.0
 14
-132.732303
 24
93.541242
 34
0.0
100
AcDbRotatedDimension
  0
DIMENSION
  5
461
100
AcDbEntity
  8
2
370
    25
100
AcDbDimension
  2
*D6
 10
-214.032303
 20
101.445412
 30
0.0
 11
-200.032303
 21
104.945412
 31
0.0
 71
     0
 72
     0
 41
0.0
 42
0.0
  3
Standard
100
AcDbAlignedDimension
 13
-226.832303
 23
101.347732
 33
0.0
 14
-214.032303
 24
101.347732
 34
0.0
100
AcDbRotatedDimension
  0
DIMENSION
  5
462
100
AcDbEntity
  8
2
370
    25
100
AcDbDimension
  2
*D7
 10
-201.743149
 20
266.911172
 30
0.0
 11
-207.743149
 21
252.416409
 31
0.0
 71
     0
 72
     0
 41
0.0
 42
0.0
  3
Standard
100
AcDbAlignedDimension
 13
-215.932303
 23
237.921647
 33
0.0
 14
-215.932303
 24
266.911172
 34
0.0
 50
90.0
100
AcDbRotatedDimension
  0
TEXT
  5
463
100
AcDbEntity
  8
2
370
    18
100
AcDbText
 10
-248.432303
 20
219.008255
 30
0.0
 40
5.0
  1
扉厚２６～４０
 72
     5
 11
-214.432303
 21
219.008255
 31
0.0
100
AcDbText
  0
DIMENSION
  5
464
100
AcDbEntity
  8
2
370
    25
100
AcDbDimension
  2
*D8
 10
-215.932303
 20
218.008255
 30
0.0
 11
-230.932303
 21
220.008255
 31
0.0
 71
     0
 72
     0
 41
0.0
 42
0.0
  3
Standard
100
AcDbAlignedDimension
 13
-245.932303
 23
207.89889
 33
0.0
 14
-215.932303
 24
207.89889
 34
0.0
100
AcDbRotatedDimension
  0
DIMENSION
  5
465
100
AcDbEntity
  8
2
370
    25
100
AcDbDimension
  2
*D9
 10
-214.032303
 20
218.008255
 30
0.0
 11
-202.532303
 21
221.508255
 31
0.0
 71
     0
 72
     0
 41
0.0
 42
0.0
  3
Standard
100
AcDbAlignedDimension
 13
-215.932303
 23
207.89889
 33
0.0
 14
-214.032303
 24
188.398884
 34
0.0
100
AcDbRotatedDimension
  0
DIMENSION
  5
466
100
AcDbEntity
  8
2
370
    25
100
AcDbDimension
  2
*D10
 10
-304.587507
 20
-84.672148
 30
0.0
 11
-314.087507
 21
-164.672148
 31
0.0
 71
     0
 72
     0
 41
0.0
 42
0.0
  3
Standard
100
AcDbAlignedDimension
 13
-274.978704
 23
-247.672148
 33
0.0
 14
-274.978704
 24
-84.672148
 34
0.0
 50
90.0
100
AcDbRotatedDimension
  0
LINE
  5
467
100
AcDbEntity
  8
2
370
    50
100
AcDbLine
 10
-274.978704
 20
-264.726528
 30
0.0
 11
-274.978704
 21
-260.726528
 31
0.0
  0
DIMENSION
  5
468
100
AcDbEntity
  8
2
370
    25
100
AcDbDimension
  2
*D11
 10
-260.978704
 20
-183.733326
 30
0.0
 11
-274.978704
 21
-179.733326
 31
0.0
 71
     0
 72
     0
 41
0.0
 42
0.0
  3
Standard
100
AcDbAlignedDimension
 13
-288.978704
 23
-183.4086
 33
0.0
 14
-260.978704
 24
-183.4086
 34
0.0
100
AcDbRotatedDimension
  0
DIMENSION
  5
469
100
AcDbEntity
  8
2
370
    25
100
AcDbDimension
  2
*D12
 10
-255.478704
 20
-64.871929
 30
0.0
 11
-274.978704
 21
-60.871929
 31
0.0
 71
     0
 72
     0
 41
0.0
 42
0.0
  3
Standard
100
AcDbAlignedDimension
 13
-294.478704
 23
-93.672147
 33
0.0
 14
-255.478704
 24
-93.672147
 34
0.0
100
AcDbRotatedDimension
  0
DIMENSION
  5
46A
100
AcDbEntity
  8
2
370
    25
100
AcDbDimension
  2
*D13
 10
-312.666937
 20
-74.172147
 30
0.0
 11
-322.166937
 21
-164.672148
 31
0.0
 71
     0
 72
     0
 41
0.0
 42
0.0
  3
Standard
100
AcDbAlignedDimension
 13
-274.978704
 23
-258.172149
 33
0.0
 14
-274.978704
 24
-74.172147
 34
0.0
 50
90.0
100
AcDbRotatedDimension
  0
DIMENSION
  5
46B
100
AcDbEntity
  8
2
370
    25
100
AcDbDimension
  2
*D14
 10
-183.932303
 20
-64.044066
 30
0.0
 11
-197.432198
 21
-60.044066
 31
0.0
 71
     0
 72
     0
 41
0.0
 42
0.0
  3
Standard
100
AcDbAlignedDimension
 13
-184.432198
 23
-74.172151
 33
0.0
 14
-183.932303
 24
-74.182408
 34
0.0
100
AcDbRotatedDimension
  0
DIMENSION
  5
46C
100
AcDbEntity
  8
2
370
    25
100
AcDbDimension
  2
*D15
 10
-171.432198
 20
-64.044066
 30
0.0
 11
-155.432198
 21
-60.044066
 31
0.0
 71
     0
 72
     0
 41
0.0
 42
0.0
  3
Standard
100
AcDbAlignedDimension
 13
-183.932303
 23
-74.182408
 33
0.0
 14
-171.432198
 24
-90.365678
 34
0.0
100
AcDbRotatedDimension
  0
DIMENSION
  5
46D
100
AcDbEntity
  8
2
370
    25
100
AcDbDimension
  2
*D16
 10
-197.475191
 20
-84.04401
 30
0.0
 11
-206.975191
 21
-164.67215
 31
0.0
 71
     0
 72
     0
 41
0.0
 42
0.0
  3
Standard
100
AcDbAlignedDimension
 13
-183.932303
 23
-248.30029
 33
0.0
 14
-183.932303
 24
-84.04401
 34
0.0
 50
90.0
100
AcDbRotatedDimension
  0
DIMENSION
  5
46E
100
AcDbEntity
  8
2
370
    25
100
AcDbDimension
  2
*D17
 10
46.065305
 20
32.521461
 30
0.0
 11
31.565305
 21
36.521461
 31
0.0
 71
     0
 72
     0
 41
0.0
 42
0.0
  3
Standard
100
AcDbAlignedDimension
 13
44.565305
 23
52.022455
 33
0.0
 14
46.065305
 24
51.158157
 34
0.0
100
AcDbRotatedDimension
  0
DIMENSION
  5
46F
100
AcDbEntity
  8
2
370
    25
100
AcDbDimension
  2
*D18
 10
80.565305
 20
32.521461
 30
0.0
 11
93.565305
 21
36.521461
 31
0.0
 71
     0
 72
     0
 41
0.0
 42
0.0
  3
Standard
100
AcDbAlignedDimension
 13
79.065305
 23
51.158157
 33
0.0
 14
80.565305
 24
52.022455
 34
0.0
100
AcDbRotatedDimension
  0
DIMENSION
  5
470
100
AcDbEntity
  8
2
370
    25
100
AcDbDimension
  2
*D19
 10
158.611706
 20
32.521461
 30
0.0
 11
138.111706
 21
36.521461
 31
0.0
 71
     0
 72
     0
 41
0.0
 42
0.0
  3
Standard
100
AcDbAlignedDimension
 13
117.611706
 23
52.658157
 33
0.0
 14
158.611706
 24
52.658157
 34
0.0
100
AcDbRotatedDimension
  0
DIMENSION
  5
471
100
AcDbEntity
  8
2
370
    25
100
AcDbDimension
  2
*D20
 10
188.553711
 20
224.158157
 30
0.0
 11
178.553711
 21
134.658157
 31
0.0
 71
     0
 72
     0
 41
0.0
 42
0.0
  3
Standard
100
AcDbAlignedDimension
 13
157.111706
 23
51.158157
 33
0.0
 14
157.111706
 24
224.158157
 34
0.0
 50
90.0
100
AcDbRotatedDimension
  0
DIMENSION
  5
472
100
AcDbEntity
  8
2
370
    25
100
AcDbDimension
  2
*D21
 10
151.311706
 20
125.330032
 30
0.0
 11
138.111706
 21
129.330032
 31
0.0
 71
     0
 72
     0
 41
0.0
 42
0.0
  3
Standard
100
AcDbAlignedDimension
 13
124.911706
 23
125.330032
 33
0.0
 14
151.311706
 24
125.330032
 34
0.0
100
AcDbRotatedDimension
  0
DIMENSION
  5
473
100
AcDbEntity
  8
2
370
    25
100
AcDbDimension
  2
*D22
 10
175.457672
 20
207.658157
 30
0.0
 11
165.457672
 21
134.658157
 31
0.0
 71
     0
 72
     0
 41
0.0
 42
0.0
  3
Standard
100
AcDbAlignedDimension
 13
150.311706
 23
67.658157
 33
0.0
 14
150.311706
 24
207.658157
 34
0.0
 50
90.0
100
AcDbRotatedDimension
  0
DIMENSION
  5
474
100
AcDbEntity
  8
2
370
    25
100
AcDbDimension
  2
*D23
 10
79.065305
 20
32.521461
 30
0.0
 11
72.565305
 21
36.521461
 31
0.0
 71
     0
 72
     0
 41
0.0
 42
0.0
  3
Standard
100
AcDbAlignedDimension
 13
66.065305
 23
75.161987
 33
0.0
 14
79.065305
 24
51.158157
 34
0.0
100
AcDbRotatedDimension
  0
DIMENSION
  5
475
100
AcDbEntity
  8
2
370
    25
100
AcDbDimension
  2
*D24
 10
34.505408
 20
219.158161
 30
0.0
 11
25.005408
 21
139.158157
 31
0.0
 71
     0
 72
     0
 41
0.0
 42
0.0
  3
Standard
100
AcDbAlignedDimension
 13
56.312373
 23
56.158154
 33
0.0
 14
56.312373
 24
219.158161
 34
0.0
 50
90.0
100
AcDbRotatedDimension
  0
POINT
  5
476
100
AcDbEntity
  8
2
370
    50
100
AcDbPoint
 10
79.065305
 20
218.458157
 30
0.0
  0
POINT
  5
477
100
AcDbEntity
  8
2
370
    50
100
AcDbPoint
 10
79.065305
 20
56.858157
 30
0.0
  0
DIMENSION
  5
478
100
AcDbEntity
  8
2
370
    25
100
AcDbDimension
  2
*D25
 10
100.064514
 20
218.458157
 30
0.0
 11
90.064514
 21
134.658157
 31
0.0
 71
     0
 72
     0
 41
0.0
 42
0.0
  3
Standard
100
AcDbAlignedDimension
 13
79.065305
 23
56.858157
 33
0.0
 14
79.065305
 24
218.458157
 34
0.0
 50
90.0
100
AcDbRotatedDimension
  0
POINT
  5
479
100
AcDbEntity
  8
2
370
    50
100
AcDbPoint
 10
79.065305
 20
268.158157
 30
0.0
  0
POINT
  5
47A
100
AcDbEntity
  8
2
370
    50
100
AcDbPoint
 10
79.065305
 20
239.158157
 30
0.0
  0
DIMENSION
  5
47B
100
AcDbEntity
  8
2
370
    25
100
AcDbDimension
  2
*D26
 10
100.064514
 20
268.158157
 30
0.0
 11
93.064514
 21
253.658157
 31
0.0
 71
     0
 72
     0
 41
0.0
 42
0.0
  3
Standard
100
AcDbAlignedDimension
 13
79.065305
 23
239.158157
 33
0.0
 14
79.065305
 24
268.158157
 34
0.0
 50
90.0
100
AcDbRotatedDimension
  0
DIMENSION
  5
47C
100
AcDbEntity
  8
2
370
    25
100
AcDbDimension
  2
*D27
 10
-143.800359
 20
-18.236835
 30
0.0
 11
-149.80036
 21
-33.154137
 31
0.0
 71
     0
 72
     0
 41
0.0
 42
0.0
  3
Standard
100
AcDbAlignedDimension
 13
-157.932303
 23
-48.071439
 33
0.0
 14
-157.932303
 24
-18.236835
 34
0.0
 50
90.0
100
AcDbRotatedDimension
  0
DIMENSION
  5
47D
100
AcDbEntity
  8
2
370
    25
100
AcDbDimension
  2
*D28
 10
-157.932303
 20
-8.999878
 30
0.0
 11
-151.432303
 21
-5.499878
 31
0.0
 71
     0
 72
     0
 41
0.0
 42
0.0
  3
Standard
100
AcDbAlignedDimension
 13
-162.932303
 23
-28.803883
 33
0.0
 14
-157.932303
 24
-13.664394
 34
0.0
100
AcDbRotatedDimension
  0
POINT
  5
47E
100
AcDbEntity
  8
2
370
    50
100
AcDbPoint
 10
80.332074
 20
233.983083
 30
0.0
  0
LINE
  5
47F
100
AcDbEntity
  8
2
370
    18
  6
PHANTOM
100
AcDbLine
 10
-371.983337
 20
0.389403
 30
0.0
 11
379.472931
 21
0.389403
 31
0.0
  0
LINE
  5
480
100
AcDbEntity
  8
2
370
    18
  6
PHANTOM
100
AcDbLine
 10
-65.294196
 20
0.389403
 30
0.0
 11
-65.294196
 21
258.704254
 31
0.0
  0
DIMENSION
  5
481
100
AcDbEntity
  8
2
370
    25
100
AcDbDimension
  2
*D29
 10
325.658107
 20
34.732933
 30
0.0
 11
312.658107
 21
38.732933
 31
0.0
 70
     1
 71
     0
 72
     0
 41
0.0
 42
0.0
 51
270.0
  3
Standard
100
AcDbAlignedDimension
 13
327.158107
 23
51.158157
 33
0.0
 14
325.658107
 24
52.022455
 34
0.0
 50
180.0
  0
DIMENSION
  5
482
100
AcDbEntity
  8
2
370
    25
100
AcDbDimension
  2
*D30
 10
288.611706
 20
38.274879
 30
0.0
 11
268.111706
 21
42.274879
 31
0.0
 71
     0
 72
     0
 41
0.0
 42
0.0
  3
Standard
100
AcDbAlignedDimension
 13
247.611706
 23
52.658157
 33
0.0
 14
288.611706
 24
52.658157
 34
0.0
100
AcDbRotatedDimension
  0
DIMENSION
  5
483
100
AcDbEntity
  8
2
370
    25
100
AcDbDimension
  2
*D31
 10
307.359662
 20
224.158157
 30
0.0
 11
297.359662
 21
134.658157
 31
0.0
 71
     0
 72
     0
 41
0.0
 42
0.0
  3
Standard
100
AcDbAlignedDimension
 13
287.111706
 23
51.158157
 33
0.0
 14
287.111706
 24
224.158157
 34
0.0
 50
90.0
100
AcDbRotatedDimension
  0
DIMENSION
  5
484
100
AcDbEntity
  8
2
370
    25
100
AcDbDimension
  2
*D32
 10
281.311706
 20
125.193062
 30
0.0
 11
268.111706
 21
129.193062
 31
0.0
 71
     0
 72
     0
 41
0.0
 42
0.0
  3
Standard
100
AcDbAlignedDimension
 13
254.911706
 23
125.330032
 33
0.0
 14
281.311706
 24
125.330032
 34
0.0
100
AcDbRotatedDimension
  0
DIMENSION
  5
485
100
AcDbEntity
  8
2
370
    25
100
AcDbDimension
  2
*D33
 10
300.549398
 20
207.658157
 30
0.0
 11
290.549398
 21
134.658157
 31
0.0
 71
     0
 72
     0
 41
0.0
 42
0.0
  3
Standard
100
AcDbAlignedDimension
 13
280.311706
 23
67.658157
 33
0.0
 14
280.311706
 24
207.658157
 34
0.0
 50
90.0
100
AcDbRotatedDimension
  0
DIMENSION
  5
486
100
AcDbEntity
  8
2
370
    25
100
AcDbDimension
  2
*D34
 10
327.158107
 20
34.732933
 30
0.0
 11
333.658107
 21
38.732933
 31
0.0
 70
     1
 71
     0
 72
     0
 41
0.0
 42
0.0
 51
270.0
  3
Standard
100
AcDbAlignedDimension
 13
340.158107
 23
75.161987
 33
0.0
 14
327.158107
 24
51.158157
 34
0.0
 50
180.0
  0
DIMENSION
  5
487
100
AcDbEntity
  8
2
370
    25
100
AcDbDimension
  2
*D35
 10
319.93745
 20
268.158157
 30
0.0
 11
313.93745
 21
253.658157
 31
0.0
 71
     0
 72
     0
 41
0.0
 42
0.0
  3
Standard
100
AcDbAlignedDimension
 13
327.158107
 23
239.158157
 33
0.0
 14
327.158107
 24
268.158157
 34
0.0
 50
90.0
100
AcDbRotatedDimension
  0
TEXT
  5
488
100
AcDbEntity
  8
2
370
    18
100
AcDbText
 10
-356.690201
 20
251.36726
 30
0.0
 40
6.4
  1
１Ａ-色記号
 72
     5
 11
-322.7702
 21
251.36726
 31
0.0
100
AcDbText
  0
TEXT
  5
489
100
AcDbEntity
  8
2
370
    18
100
AcDbText
 10
-356.690201
 20
-35.257607
 30
0.0
 40
6.4
  1
ＰＡ１-１８-色記号
 72
     5
 11
-300.3702
 21
-35.257607
 31
0.0
100
AcDbText
  0
TEXT
  5
48A
100
AcDbEntity
  8
2
370
    18
100
AcDbText
 10
-42.510414
 20
256.832397
 30
0.0
 40
6.4
  1
１ＣＬ・１ＣＬＷ-色記号
 72
     5
 11
29.809587
 21
256.832397
 31
0.0
100
AcDbText
  0
TEXT
  5
48B
100
AcDbEntity
  8
2
370
    18
100
AcDbText
 10
27.612473
 20
11.826879
 30
0.0
 40
6.0
  1
１ＣＬ…扉厚２８～３３
 72
     5
 11
92.412473
 21
11.826879
 31
0.0
100
AcDbText
  0
DIMENSION
  5
48C
100
AcDbEntity
  8
2
370
    25
100
AcDbDimension
  2
*D36
 10
79.065305
 20
21.195782
 30
0.0
 11
62.565305
 21
23.195782
 31
0.0
 71
     0
 72
     0
 41
0.0
 42
0.0
  3
Standard
100
AcDbAlignedDimension
 13
46.065305
 23
51.158157
 33
0.0
 14
79.065305
 24
51.158157
 34
0.0
100
AcDbRotatedDimension
  0
TEXT
  5
48D
100
AcDbEntity
  8
2
370
    18
100
AcDbText
 10
27.612473
 20
4.426878
 30
0.0
 40
6.0
  1
１ＣＬＷ…扉厚３３～３８
 72
     5
 11
98.412473
 21
4.426878
 31
0.0
100
AcDbText
  0
LINE
  5
48E
100
AcDbEntity
  8
2
370
    18
  6
PHANTOM
100
AcDbLine
 10
214.705804
 20
0.389403
 30
0.0
 11
214.705804
 21
258.704254
 31
0.0
  0
TEXT
  5
48F
100
AcDbEntity
  8
2
370
    18
100
AcDbText
 10
233.582387
 20
256.832397
 30
0.0
 40
6.4
  1
Ｋ－１ＣＬ-色記号
 72
     5
 11
286.702388
 21
256.832397
 31
0.0
100
AcDbText
  0
LWPOLYLINE
  5
490
100
AcDbEntity
  8
2
370
    18
100
AcDbPolyline
 90
        2
 70
     0
 10
-143.346344
 20
197.618622
 10
-117.202174
 20
215.886748
  0
LINE
  5
494
100
AcDbEntity
  8
2
370
    25
100
AcDbLine
 10
-143.819606
 20
197.287932
 30
0.0
 11
-143.246834
 21
196.468217
 31
0.0
  0
LINE
  5
495
100
AcDbEntity
  8
2
370
    25
100
AcDbLine
 10
-143.246834
 20
196.468217
 30
0.0
 11
-142.399819
 21
198.280002
 31
0.0
  0
LINE
  5
496
100
AcDbEntity
  8
2
370
    25
100
AcDbLine
 10
-142.399819
 20
198.280002
 30
0.0
 11
-144.392379
 21
198.107646
 31
0.0
  0
LINE
  5
497
100
AcDbEntity
  8
2
370
    25
100
AcDbLine
 10
-144.392379
 20
198.107646
 30
0.0
 11
-143.819606
 21
197.287932
 31
0.0
  0
CIRCLE
  5
498
100
AcDbEntity
  8
2
370
    18
100
AcDbCircle
 10
-294.103601
 20
218.750608
 30
0.0
 40
5.0
  0
LWPOLYLINE
  5
499
100
AcDbEntity
  8
2
370
    18
100
AcDbPolyline
 90
        2
 70
     0
 10
-312.948181
 20
198.869682
 10
-297.543288
 20
215.121758
  0
LINE
  5
49D
100
AcDbEntity
  8
2
370
    25
100
AcDbLine
 10
-313.345362
 20
198.450659
 30
0.0
 11
-312.619592
 21
197.762721
 31
0.0
  0
LINE
  5
49E
100
AcDbEntity
  8
2
370
    25
100
AcDbLine
 10
-312.619592
 20
197.762721
 30
0.0
 11
-312.153819
 21
199.707729
 31
0.0
  0
LINE
  5
49F
100
AcDbEntity
  8
2
370
    25
100
AcDbLine
 10
-312.153819
 20
199.707729
 30
0.0
 11
-314.071132
 21
199.138596
 31
0.0
  0
LINE
  5
4A0
100
AcDbEntity
  8
2
370
    25
100
AcDbLine
 10
-314.071132
 20
199.138596
 30
0.0
 11
-313.345362
 21
198.450659
 31
0.0
  0
CIRCLE
  5
4A1
100
AcDbEntity
  8
2
370
    18
100
AcDbCircle
 10
-113.103601
 20
218.750608
 30
0.0
 40
5.0
  0
TEXT
  5
4A2
100
AcDbEntity
  8
2
370
    18
100
AcDbText
 10
-296.603601
 20
216.250608
 30
0.0
 40
5.0
  1
１
 72
     5
 11
-292.603601
 21
216.250608
 31
0.0
100
AcDbText
  0
TEXT
  5
4A3
100
AcDbEntity
  8
2
370
    18
100
AcDbText
 10
-115.603601
 20
216.250608
 30
0.0
 40
5.0
  1
２
 72
     5
 11
-111.603601
 21
216.250608
 31
0.0
100
AcDbText
  0
LWPOLYLINE
  5
4A4
100
AcDbEntity
  8
2
370
    18
100
AcDbPolyline
 90
        2
 70
     0
 10
-163.229602
 20
-83.238951
 10
-137.085433
 20
-64.970826
  0
LINE
  5
4A8
100
AcDbEntity
  8
2
370
    25
100
AcDbLine
 10
-163.702865
 20
-83.569642
 30
0.0
 11
-163.130093
 21
-84.389356
 31
0.0
  0
LINE
  5
4A9
100
AcDbEntity
  8
2
370
    25
100
AcDbLine
 10
-163.130093
 20
-84.389356
 30
0.0
 11
-162.283077
 21
-82.577571
 31
0.0
  0
LINE
  5
4AA
100
AcDbEntity
  8
2
370
    25
100
AcDbLine
 10
-162.283077
 20
-82.577571
 30
0.0
 11
-164.275637
 21
-82.749927
 31
0.0
  0
LINE
  5
4AB
100
AcDbEntity
  8
2
370
    25
100
AcDbLine
 10
-164.275637
 20
-82.749927
 30
0.0
 11
-163.702865
 21
-83.569642
 31
0.0
  0
CIRCLE
  5
4AC
100
AcDbEntity
  8
2
370
    18
100
AcDbCircle
 10
-132.986859
 20
-62.106965
 30
0.0
 40
5.0
  0
LWPOLYLINE
  5
4AD
100
AcDbEntity
  8
2
370
    18
100
AcDbPolyline
 90
        2
 70
     0
 10
-163.229602
 20
-113.238951
 10
-137.085433
 20
-94.970826
  0
LINE
  5
4B1
100
AcDbEntity
  8
2
370
    25
100
AcDbLine
 10
-163.702865
 20
-113.569642
 30
0.0
 11
-163.130093
 21
-114.389356
 31
0.0
  0
LINE
  5
4B2
100
AcDbEntity
  8
2
370
    25
100
AcDbLine
 10
-163.130093
 20
-114.389356
 30
0.0
 11
-162.283077
 21
-112.577571
 31
0.0
  0
LINE
  5
4B3
100
AcDbEntity
  8
2
370
    25
100
AcDbLine
 10
-162.283077
 20
-112.577571
 30
0.0
 11
-164.275637
 21
-112.749927
 31
0.0
  0
LINE
  5
4B4
100
AcDbEntity
  8
2
370
    25
100
AcDbLine
 10
-164.275637
 20
-112.749927
 30
0.0
 11
-163.702865
 21
-113.569642
 31
0.0
  0
CIRCLE
  5
4B5
100
AcDbEntity
  8
2
370
    18
100
AcDbCircle
 10
-132.986859
 20
-92.106965
 30
0.0
 40
5.0
  0
TEXT
  5
4B6
100
AcDbEntity
  8
2
370
    18
100
AcDbText
 10
-135.486859
 20
-94.606965
 30
0.0
 40
5.0
  1
３
 72
     5
 11
-131.486859
 21
-94.606965
 31
0.0
100
AcDbText
  0
TEXT
  5
4B7
100
AcDbEntity
  8
2
370
    18
100
AcDbText
 10
-135.486859
 20
-64.606965
 30
0.0
 40
5.0
  1
４
 72
     5
 11
-131.486859
 21
-64.606965
 31
0.0
100
AcDbText
  0
CIRCLE
  5
4B8
100
AcDbEntity
  8
2
370
    18
100
AcDbCircle
 10
-34.770747
 20
237.344177
 30
0.0
 40
5.0
  0
LWPOLYLINE
  5
4B9
100
AcDbEntity
  8
2
370
    18
100
AcDbPolyline
 90
        2
 70
     0
 10
-15.926167
 20
217.463252
 10
-31.33106
 20
233.715327
  0
LINE
  5
4BD
100
AcDbEntity
  8
2
370
    25
100
AcDbLine
 10
-15.528986
 20
217.044228
 30
0.0
 11
-14.803216
 21
217.732165
 31
0.0
  0
LINE
  5
4BE
100
AcDbEntity
  8
2
370
    25
100
AcDbLine
 10
-14.803216
 20
217.732165
 30
0.0
 11
-16.720528
 21
218.301299
 31
0.0
  0
LINE
  5
4BF
100
AcDbEntity
  8
2
370
    25
100
AcDbLine
 10
-16.720528
 20
218.301299
 30
0.0
 11
-16.254756
 21
216.356291
 31
0.0
  0
LINE
  5
4C0
100
AcDbEntity
  8
2
370
    25
100
AcDbLine
 10
-16.254756
 20
216.356291
 30
0.0
 11
-15.528986
 21
217.044228
 31
0.0
  0
CIRCLE
  5
4C1
100
AcDbEntity
  8
2
370
    18
100
AcDbCircle
 10
25.229253
 20
237.344177
 30
0.0
 40
5.0
  0
LWPOLYLINE
  5
4C2
100
AcDbEntity
  8
2
370
    18
100
AcDbPolyline
 90
        2
 70
     0
 10
62.177094
 20
225.278152
 10
29.982227
 20
235.792003
  0
LINE
  5
4C6
100
AcDbEntity
  8
2
370
    25
100
AcDbLine
 10
62.72592
 20
225.098923
 30
0.0
 11
63.036354
 21
226.049517
 31
0.0
  0
LINE
  5
4C7
100
AcDbEntity
  8
2
370
    25
100
AcDbLine
 10
63.036354
 20
226.049517
 30
0.0
 11
61.079441
 21
225.636612
 31
0.0
  0
LINE
  5
4C8
100
AcDbEntity
  8
2
370
    25
100
AcDbLine
 10
61.079441
 20
225.636612
 30
0.0
 11
62.415485
 21
224.148328
 31
0.0
  0
LINE
  5
4C9
100
AcDbEntity
  8
2
370
    25
100
AcDbLine
 10
62.415485
 20
224.148328
 30
0.0
 11
62.72592
 21
225.098923
 31
0.0
  0
TEXT
  5
4CA
100
AcDbEntity
  8
2
370
    18
100
AcDbText
 10
-37.270747
 20
234.844177
 30
0.0
 40
5.0
  1
５
 72
     5
 11
-33.270747
 21
234.844177
 31
0.0
100
AcDbText
  0
CIRCLE
  5
4CB
100
AcDbEntity
  8
2
370
    18
100
AcDbCircle
 10
241.322055
 20
237.344177
 30
0.0
 40
5.0
  0
LWPOLYLINE
  5
4CC
100
AcDbEntity
  8
2
370
    18
100
AcDbPolyline
 90
        2
 70
     0
 10
260.166635
 20
217.463252
 10
244.761742
 20
233.715327
  0
LINE
  5
4D0
100
AcDbEntity
  8
2
370
    25
100
AcDbLine
 10
260.563816
 20
217.044228
 30
0.0
 11
261.289586
 21
217.732165
 31
0.0
  0
LINE
  5
4D1
100
AcDbEntity
  8
2
370
    25
100
AcDbLine
 10
261.289586
 20
217.732165
 30
0.0
 11
259.372273
 21
218.301299
 31
0.0
  0
LINE
  5
4D2
100
AcDbEntity
  8
2
370
    25
100
AcDbLine
 10
259.372273
 20
218.301299
 30
0.0
 11
259.838046
 21
216.356291
 31
0.0
  0
LINE
  5
4D3
100
AcDbEntity
  8
2
370
    25
100
AcDbLine
 10
259.838046
 20
216.356291
 30
0.0
 11
260.563816
 21
217.044228
 31
0.0
  0
CIRCLE
  5
4D4
100
AcDbEntity
  8
2
370
    18
100
AcDbCircle
 10
-44.770747
 20
237.344177
 30
0.0
 40
5.0
  0
TEXT
  5
4D5
100
AcDbEntity
  8
2
370
    18
100
AcDbText
 10
-47.270747
 20
234.844177
 30
0.0
 40
5.0
  1
６
 72
     5
 11
-43.270747
 21
234.844177
 31
0.0
100
AcDbText
  0
TEXT
  5
4D6
100
AcDbEntity
  8
2
370
    18
100
AcDbText
 10
238.822055
 20
234.844177
 30
0.0
 40
5.0
  1
７
 72
     5
 11
242.822055
 21
234.844177
 31
0.0
100
AcDbText
  0
TEXT
  5
4D7
100
AcDbEntity
  8
2
370
    18
100
AcDbText
 10
22.729253
 20
234.844177
 30
0.0
 40
5.0
  1
８
 72
     5
 11
26.729253
 21
234.844177
 31
0.0
100
AcDbText
  0
TEXT
  5
4D8
100
AcDbEntity
  8
2
370
    18
100
AcDbText
 10
-183.432303
 20
-271.155945
 30
0.0
 40
5.0
  1
扉厚
 72
     5
 11
-174.432303
 21
-271.155945
 31
0.0
100
AcDbText
  0
TEXT
  5
4D9
100
AcDbEntity
  8
2
370
    18
100
AcDbText
 10
-163.432303
 20
-271.155945
 30
0.0
 40
5.0
  1
～
 72
     5
 11
-159.432303
 21
-271.155945
 31
0.0
100
AcDbText
  0
DIMENSION
  5
4DA
100
AcDbEntity
  8
2
370
    25
100
AcDbDimension
  2
*D37
 10
-157.932303
 20
-272.155945
 30
0.0
 11
-168.432303
 21
-268.655945
 31
0.0
 71
     0
 72
     0
 41
0.0
 42
0.0
  3
Standard
100
AcDbAlignedDimension
 13
-183.932303
 23
-258.161892
 33
0.0
 14
-157.932303
 24
-258.161892
 34
0.0
100
AcDbRotatedDimension
  0
CIRCLE
  5
4DB
100
AcDbEntity
  8
2
370
    18
100
AcDbCircle
 10
358.901357
 20
237.344177
 30
0.0
 40
5.0
  0
LWPOLYLINE
  5
4DC
100
AcDbEntity
  8
2
370
    18
100
AcDbPolyline
 90
        2
 70
     0
 10
340.056777
 20
217.463252
 10
355.46167
 20
233.715327
  0
LINE
  5
4E0
100
AcDbEntity
  8
2
370
    25
100
AcDbLine
 10
339.659596
 20
217.044228
 30
0.0
 11
340.385366
 21
216.356291
 31
0.0
  0
LINE
  5
4E1
100
AcDbEntity
  8
2
370
    25
100
AcDbLine
 10
340.385366
 20
216.356291
 30
0.0
 11
340.851138
 21
218.301299
 31
0.0
  0
LINE
  5
4E2
100
AcDbEntity
  8
2
370
    25
100
AcDbLine
 10
340.851138
 20
218.301299
 30
0.0
 11
338.933826
 21
217.732165
 31
0.0
  0
LINE
  5
4E3
100
AcDbEntity
  8
2
370
    25
100
AcDbLine
 10
338.933826
 20
217.732165
 30
0.0
 11
339.659596
 21
217.044228
 31
0.0
  0
TEXT
  5
4E4
100
AcDbEntity
  8
2
370
    18
100
AcDbText
 10
356.401357
 20
234.844177
 30
0.0
 40
5.0
  1
８
 72
     5
 11
360.401357
 21
234.844177
 31
0.0
100
AcDbText
  0
DIMENSION
  5
4E5
100
AcDbEntity
  8
2
370
    25
100
AcDbDimension
  2
*D38
 10
80.565305
 20
168.763245
 30
0.0
 11
89.565305
 21
172.263245
 31
0.0
 71
     0
 72
     0
 41
0.0
 42
0.0
  3
Standard
100
AcDbAlignedDimension
 13
67.565305
 23
168.763245
 33
0.0
 14
80.565305
 24
168.763245
 34
0.0
100
AcDbRotatedDimension
  0
DIMENSION
  5
4E6
100
AcDbEntity
  8
2
370
    25
100
AcDbDimension
  2
*D39
 10
338.658107
 20
168.742645
 30
0.0
 11
316.658107
 21
172.242645
 31
0.0
 71
     0
 72
     0
 41
0.0
 42
0.0
  3
Standard
100
AcDbAlignedDimension
 13
325.658107
 23
168.742645
 33
0.0
 14
338.658107
 24
168.742645
 34
0.0
100
AcDbRotatedDimension
  0
LINE
  5
4E7
100
AcDbEntity
  8
3
370
    25
100
AcDbLine
 10
180.0
 20
-259.999729
 30
0.0
 11
216.001054
 21
-259.999729
 31
0.0
  0
LINE
  5
4E8
100
AcDbEntity
  8
3
370
    25
100
AcDbLine
 10
216.001054
 20
-259.999729
 30
0.0
 11
216.001054
 21
-250.0
 31
0.0
  0
TEXT
  5
4E9
100
AcDbEntity
  8
3
370
    25
100
AcDbText
 10
183.600527
 20
-224.59988
 30
0.0
 40
7.2
  1
図面名称
 72
     5
 11
210.960527
 21
-224.59988
 31
0.0
100
AcDbText
  0
TEXT
  5
4EA
100
AcDbEntity
  8
3
370
    25
100
AcDbText
 10
183.600527
 20
-258.599849
 30
0.0
 40
7.2
  1
図面番号
 72
     5
 11
210.960527
 21
-258.599849
 31
0.0
100
AcDbText
  0
TEXT
  5
4EB
100
AcDbEntity
  8
3
370
    18
100
AcDbText
 10
186.8
 20
-184.6
 30
0.0
 40
6.4
  1
２
 72
     5
 11
191.92
 21
-184.6
 31
0.0
100
AcDbText
  0
TEXT
  5
4EC
100
AcDbEntity
  8
3
370
    18
100
AcDbText
 10
186.8
 20
-198.6
 30
0.0
 40
6.4
  1
１
 72
     5
 11
191.92
 21
-198.6
 31
0.0
100
AcDbText
  0
LINE
  5
4ED
100
AcDbEntity
  8
3
370
   100
100
AcDbLine
 10
-380.0
 20
276.0
 30
0.0
 11
-380.0
 21
-276.0
 31
0.0
  0
LINE
  5
4EE
100
AcDbEntity
  8
3
370
   100
100
AcDbLine
 10
400.0
 20
276.0
 30
0.0
 11
400.0
 21
-276.0
 31
0.0
  0
LINE
  5
4EF
100
AcDbEntity
  8
3
370
   100
100
AcDbLine
 10
-380.0
 20
276.0
 30
0.0
 11
400.0
 21
276.0
 31
0.0
  0
LINE
  5
4F0
100
AcDbEntity
  8
3
370
   100
100
AcDbLine
 10
-380.0
 20
-276.0
 30
0.0
 11
400.0
 21
-276.0
 31
0.0
  0
LINE
  5
4F1
100
AcDbEntity
  8
3
370
    50
100
AcDbLine
 10
20.0
 20
-216.0
 30
0.0
 11
400.0
 21
-216.0
 31
0.0
  0
LINE
  5
4F2
100
AcDbEntity
  8
3
370
    25
100
AcDbLine
 10
20.0
 20
-225.999897
 30
0.0
 11
216.001054
 21
-225.999729
 31
0.0
  0
LINE
  5
4F3
100
AcDbEntity
  8
3
370
   100
100
AcDbLine
 10
-380.6
 20
276.6
 30
0.0
 11
400.6
 21
276.6
 31
0.0
  0
LINE
  5
4F4
100
AcDbEntity
  8
3
370
   100
100
AcDbLine
 10
400.6
 20
276.6
 30
0.0
 11
400.6
 21
-276.6
 31
0.0
  0
LINE
  5
4F5
100
AcDbEntity
  8
3
370
   100
100
AcDbLine
 10
400.6
 20
-276.6
 30
0.0
 11
-380.6
 21
-276.6
 31
0.0
  0
LINE
  5
4F6
100
AcDbEntity
  8
3
370
   100
100
AcDbLine
 10
-380.6
 20
-276.6
 30
0.0
 11
-380.6
 21
276.6
 31
0.0
  0
LINE
  5
4F7
100
AcDbEntity
  8
3
370
    25
100
AcDbLine
 10
216.001054
 20
-225.999729
 30
0.0
 11
216.001054
 21
-216.0
 31
0.0
  0
LINE
  5
4F8
100
AcDbEntity
  8
3
370
    25
100
AcDbLine
 10
180.0
 20
-259.999729
 30
0.0
 11
216.001054
 21
-259.999729
 31
0.0
  0
LINE
  5
4F9
100
AcDbEntity
  8
3
370
    25
100
AcDbLine
 10
216.001054
 20
-259.999729
 30
0.0
 11
216.001054
 21
-250.0
 31
0.0
  0
LINE
  5
4FA
100
AcDbEntity
  8
3
370
    50
100
AcDbLine
 10
180.0
 20
-202.0
 30
0.0
 11
400.0
 21
-202.0
 31
0.0
  0
LINE
  5
4FB
100
AcDbEntity
  8
3
370
    50
100
AcDbLine
 10
380.0
 20
-216.0
 30
0.0
 11
380.0
 21
-90.0
 31
0.0
  0
TEXT
  5
4FC
100
AcDbEntity
  8
3
370
   100
100
AcDbText
 10
44.0
 20
-271.0
 30
0.0
 40
16.0
  1
（株）川口技研
 72
     5
 11
152.8
 21
-271.0
 31
0.0
100
AcDbText
  0
TEXT
  5
4FD
100
AcDbEntity
  8
3
370
    25
100
AcDbText
 10
183.600527
 20
-224.59988
 30
0.0
 40
7.2
  1
図面名称
 72
     5
 11
210.960527
 21
-224.59988
 31
0.0
100
AcDbText
  0
TEXT
  5
4FE
100
AcDbEntity
  8
3
370
    25
100
AcDbText
 10
183.600527
 20
-258.599849
 30
0.0
 40
7.2
  1
図面番号
 72
     5
 11
210.960527
 21
-258.599849
 31
0.0
100
AcDbText
  0
TEXT
  5
4FF
100
AcDbEntity
  8
3
370
    25
100
AcDbText
 10
32.266667
 20
-224.599983
 30
0.0
 40
7.2
  1
図　　法
 72
     5
 11
59.626667
 21
-224.599983
 31
0.0
100
AcDbText
  0
TEXT
  5
500
100
AcDbEntity
  8
3
370
    25
100
AcDbText
 10
85.6
 20
-224.599949
 30
0.0
 40
7.2
  1
単　　位
 72
     5
 11
112.96
 21
-224.599949
 31
0.0
100
AcDbText
  0
TEXT
  5
501
100
AcDbEntity
  8
3
370
    25
100
AcDbText
 10
138.933333
 20
-224.599914
 30
0.0
 40
7.2
  1
尺　　度
 72
     5
 11
166.293333
 21
-224.599914
 31
0.0
100
AcDbText
  0
TEXT
  5
502
100
AcDbEntity
  8
3
370
    25
100
AcDbText
 10
182.8
 20
-212.6
 30
0.0
 40
7.2
  1
品番
 72
     5
 11
195.76
 21
-212.6
 31
0.0
100
AcDbText
  0
TEXT
  5
503
100
AcDbEntity
  8
3
370
    25
100
AcDbText
 10
234.8
 20
-212.6
 30
0.0
 40
7.2
  1
品　　　　　名
 72
     5
 11
283.76
 21
-212.6
 31
0.0
100
AcDbText
  0
TEXT
  5
504
100
AcDbEntity
  8
3
370
    25
100
AcDbText
 10
382.8
 20
-212.6
 30
0.0
 40
7.2
  1
員数
 72
     5
 11
395.76
 21
-212.6
 31
0.0
100
AcDbText
  0
TEXT
  5
505
100
AcDbEntity
  8
3
370
    25
100
AcDbText
 10
92.0
 20
-241.999914
 30
0.0
 40
8.0
  1
ｍｍ
 72
     5
 11
106.4
 21
-241.999914
 31
0.0
100
AcDbText
  0
TEXT
  5
506
100
AcDbEntity
  8
3
370
    25
100
AcDbText
 10
34.666667
 20
-241.999914
 30
0.0
 40
8.0
  1
３角法
 72
     5
 11
57.066667
 21
-241.999914
 31
0.0
100
AcDbText
  0
LINE
  5
507
100
AcDbEntity
  8
3
370
    50
100
AcDbLine
 10
180.0
 20
-276.0
 30
0.0
 11
180.0
 21
-216.0
 31
0.0
  0
LINE
  5
508
100
AcDbEntity
  8
3
370
    50
100
AcDbLine
 10
320.0
 20
-216.0
 30
0.0
 11
320.0
 21
-90.0
 31
0.0
  0
LINE
  5
509
100
AcDbEntity
  8
3
370
    50
100
AcDbLine
 10
200.0
 20
-216.0
 30
0.0
 11
200.0
 21
-90.0
 31
0.0
  0
LINE
  5
50A
100
AcDbEntity
  8
3
370
    50
100
AcDbLine
 10
20.0
 20
-250.0
 30
0.0
 11
180.0
 21
-250.0
 31
0.0
  0
LINE
  5
50B
100
AcDbEntity
  8
3
370
    50
100
AcDbLine
 10
180.0
 20
-250.0
 30
0.0
 11
400.0
 21
-250.0
 31
0.0
  0
TEXT
  5
50C
100
AcDbEntity
  8
3
370
    25
100
AcDbText
 10
339.2
 20
-212.6
 30
0.0
 40
7.2
  1
寸　法
 72
     5
 11
359.36
 21
-212.6
 31
0.0
100
AcDbText
  0
LINE
  5
50D
100
AcDbEntity
  8
3
370
    50
100
AcDbLine
 10
180.0
 20
-188.0
 30
0.0
 11
400.0
 21
-188.0
 31
0.0
  0
LINE
  5
50E
100
AcDbEntity
  8
3
370
    50
100
AcDbLine
 10
180.0
 20
-174.0
 30
0.0
 11
400.0
 21
-174.0
 31
0.0
  0
LINE
  5
50F
100
AcDbEntity
  8
3
370
    50
100
AcDbLine
 10
180.0
 20
-90.0
 30
0.0
 11
180.0
 21
-216.0
 31
0.0
  0
LINE
  5
510
100
AcDbEntity
  8
3
370
    50
100
AcDbLine
 10
126.666667
 20
-250.0
 30
0.0
 11
126.666667
 21
-216.0
 31
0.0
  0
LINE
  5
511
100
AcDbEntity
  8
3
370
    50
100
AcDbLine
 10
73.333333
 20
-250.0
 30
0.0
 11
73.333333
 21
-216.0
 31
0.0
  0
LINE
  5
512
100
AcDbEntity
  8
3
370
   100
100
AcDbLine
 10
73.333333
 20
-250.0
 30
0.0
 11
73.333333
 21
-216.0
 31
0.0
  0
LINE
  5
513
100
AcDbEntity
  8
3
370
    50
100
AcDbLine
 10
20.0
 20
-276.0
 30
0.0
 11
20.0
 21
-216.0
 31
0.0
  0
TEXT
  5
514
100
AcDbEntity
  8
3
370
   100
100
AcDbText
 10
231.500099
 20
-269.477787
 30
0.0
 40
12.0
  1
ＤＺ－１９６８－００
 72
     5
 11
349.100099
 21
-269.477787
 31
0.0
100
AcDbText
  0
TEXT
  5
515
100
AcDbEntity
  8
3
370
    25
100
AcDbText
 10
141.333333
 20
-241.999914
 30
0.0
 40
8.0
  1
１/２
 72
     5
 11
159.733333
 21
-241.999914
 31
0.0
100
AcDbText
  0
LINE
  5
516
100
AcDbEntity
  8
3
370
    50
100
AcDbLine
 10
180.0
 20
-160.0
 30
0.0
 11
400.0
 21
-160.0
 31
0.0
  0
LINE
  5
517
100
AcDbEntity
  8
3
370
    50
100
AcDbLine
 10
180.0
 20
-146.0
 30
0.0
 11
400.0
 21
-146.0
 31
0.0
  0
LINE
  5
518
100
AcDbEntity
  8
3
370
    50
100
AcDbLine
 10
180.0
 20
-132.0
 30
0.0
 11
400.0
 21
-132.0
 31
0.0
  0
LINE
  5
519
100
AcDbEntity
  8
3
370
    50
100
AcDbLine
 10
180.0
 20
-118.0
 30
0.0
 11
400.0
 21
-118.0
 31
0.0
  0
LINE
  5
51A
100
AcDbEntity
  8
3
370
    50
100
AcDbLine
 10
180.0
 20
-104.0
 30
0.0
 11
400.0
 21
-104.0
 31
0.0
  0
LINE
  5
51B
100
AcDbEntity
  8
3
370
    50
100
AcDbLine
 10
180.0
 20
-90.0
 30
0.0
 11
400.0
 21
-90.0
 31
0.0
  0
TEXT
  5
51C
100
AcDbEntity
  8
3
370
    18
100
AcDbText
 10
186.8
 20
-170.6
 30
0.0
 40
6.4
  1
３
 72
     5
 11
191.92
 21
-170.6
 31
0.0
100
AcDbText
  0
TEXT
  5
51D
100
AcDbEntity
  8
3
370
    18
100
AcDbText
 10
186.8
 20
-156.6
 30
0.0
 40
6.4
  1
４
 72
     5
 11
191.92
 21
-156.6
 31
0.0
100
AcDbText
  0
TEXT
  5
51E
100
AcDbEntity
  8
3
370
    18
100
AcDbText
 10
186.8
 20
-142.6
 30
0.0
 40
6.4
  1
５
 72
     5
 11
191.92
 21
-142.6
 31
0.0
100
AcDbText
  0
TEXT
  5
51F
100
AcDbEntity
  8
3
370
    18
100
AcDbText
 10
186.8
 20
-128.6
 30
0.0
 40
6.4
  1
６
 72
     5
 11
191.92
 21
-128.6
 31
0.0
100
AcDbText
  0
TEXT
  5
520
100
AcDbEntity
  8
3
370
    18
100
AcDbText
 10
186.8
 20
-114.6
 30
0.0
 40
6.4
  1
７
 72
     5
 11
191.92
 21
-114.6
 31
0.0
100
AcDbText
  0
TEXT
  5
521
100
AcDbEntity
  8
3
370
    18
100
AcDbText
 10
186.8
 20
-100.6
 30
0.0
 40
6.4
  1
８
 72
     5
 11
191.92
 21
-100.6
 31
0.0
100
AcDbText
  0
TEXT
  5
522
100
AcDbEntity
  8
3
370
    18
100
AcDbText
 10
386.8
 20
-171.2
 30
0.0
 40
6.4
  1
２
 72
     5
 11
391.92
 21
-171.2
 31
0.0
100
AcDbText
  0
TEXT
  5
523
100
AcDbEntity
  8
3
370
    18
100
AcDbText
 10
386.8
 20
-158.2
 30
0.0
 40
6.4
  1
４
 72
     5
 11
391.92
 21
-158.2
 31
0.0
100
AcDbText
  0
TEXT
  5
524
100
AcDbEntity
  8
3
370
    18
100
AcDbText
 10
206.0
 20
-184.0
 30
0.0
 40
6.0
  1
引手取付ネジ
 72
     5
 11
240.8
 21
-184.0
 31
0.0
100
AcDbText
  0
TEXT
  5
525
100
AcDbEntity
  8
3
370
    18
100
AcDbText
 10
382.8
 20
-198.0
 30
0.0
 40
6.0
  1
１ｓｅｔ
 41
0.6
 72
     5
 11
396.48
 21
-198.0
 31
0.0
100
AcDbText
  0
TEXT
  5
526
100
AcDbEntity
  8
3
370
    18
100
AcDbText
 10
382.089015
 20
-143.433749
 30
0.0
 40
6.4
  1
１ｓｅｔ
 41
0.7
 72
     5
 11
399.113015
 21
-143.433749
 31
0.0
100
AcDbText
  0
TEXT
  5
527
100
AcDbEntity
  8
3
370
    18
100
AcDbText
 10
381.04
 20
-114.2
 30
0.0
 40
6.4
  1
１ｓｅｔ
 41
0.7
 72
     5
 11
398.064
 21
-114.2
 31
0.0
100
AcDbText
  0
TEXT
  5
528
100
AcDbEntity
  8
3
370
    18
100
AcDbText
 10
386.8
 20
-100.2
 30
0.0
 40
6.4
  1
２
 72
     5
 11
391.92
 21
-100.2
 31
0.0
100
AcDbText
  0
TEXT
  5
529
100
AcDbEntity
  8
3
370
    18
100
AcDbText
 10
387.849015
 20
-185.433749
 30
0.0
 40
6.4
  1
２
 72
     5
 11
392.969015
 21
-185.433749
 31
0.0
100
AcDbText
  0
TEXT
  5
52A
100
AcDbEntity
  8
3
370
    50
100
AcDbText
 10
181.352464
 20
-242.667454
 30
0.0
 40
9.0
  1
１Ａ/ＰＡ１－１８/１ＣＬ/１ＣＬＷ／ Ｋ-１ＣＬ－色記号　外観図
 41
0.8
 72
     5
 11
395.912464
 21
-242.667454
 31
0.0
100
AcDbText
  0
TEXT
  5
52B
100
AcDbEntity
  8
3
370
    18
100
AcDbText
 10
382.089015
 20
-129.433749
 30
0.0
 40
6.4
  1
１ｓｅｔ
 41
0.7
 72
     5
 11
399.113015
 21
-129.433749
 31
0.0
100
AcDbText
  0
TEXT
  5
52C
100
AcDbEntity
  8
3
370
    18
100
AcDbText
 10
206.0
 20
-156.0
 30
0.0
 40
6.0
  1
戸引手取付木ネジ
 72
     5
 11
252.8
 21
-156.0
 31
0.0
100
AcDbText
  0
TEXT
  5
52D
100
AcDbEntity
  8
3
370
    18
100
AcDbText
 10
206.0
 20
-128.0
 30
0.0
 40
6.0
  1
１ＣＬＷ－色記号
 72
     5
 11
252.8
 21
-128.0
 31
0.0
100
AcDbText
  0
TEXT
  5
52E
100
AcDbEntity
  8
3
370
    18
100
AcDbText
 10
206.0
 20
-114.0
 30
0.0
 40
6.0
  1
Ｋ－１ＣＬ－色記号
 72
     5
 11
258.8
 21
-114.0
 31
0.0
100
AcDbText
  0
TEXT
  5
52F
100
AcDbEntity
  8
3
370
    18
100
AcDbText
 10
206.0
 20
-100.0
 30
0.0
 40
6.0
  1
引手取付ネジ
 72
     5
 11
240.8
 21
-100.0
 31
0.0
100
AcDbText
  0
TEXT
  5
530
100
AcDbEntity
  8
3
370
    18
100
AcDbText
 10
322.0
 20
-100.0
 30
0.0
 40
6.0
  1
十字穴付タッピング１種φ３×３０
 41
0.6
 72
     5
 11
378.88
 21
-100.0
 31
0.0
100
AcDbText
  0
TEXT
  5
531
100
AcDbEntity
  8
3
370
    18
100
AcDbText
 10
322.0
 20
-156.0
 30
0.0
 40
6.0
  1
サラ木ネジ２．４×１６
 41
0.8
 72
     5
 11
373.84
 21
-156.0
 31
0.0
100
AcDbText
  0
TEXT
  5
532
100
AcDbEntity
  8
3
370
    18
100
AcDbText
 10
322.0
 20
-184.0
 30
0.0
 40
6.0
  1
サラ小ネジＭ４×２５
 41
0.8
 72
     5
 11
369.04
 21
-184.0
 31
0.0
100
AcDbText
  0
TEXT
  5
533
100
AcDbEntity
  8
3
370
    18
100
AcDbText
 10
206.0
 20
-142.0
 30
0.0
 40
6.0
  1
１ＣＬ－色記号
 72
     5
 11
246.8
 21
-142.0
 31
0.0
100
AcDbText
  0
TEXT
  5
534
100
AcDbEntity
  8
3
370
    18
100
AcDbText
 10
206.0
 20
-170.0
 30
0.0
 40
6.0
  1
ＰＡ１-１８－色記号
 72
     5
 11
261.8
 21
-170.0
 31
0.0
100
AcDbText
  0
TEXT
  5
535
100
AcDbEntity
  8
3
370
    18
100
AcDbText
 10
206.0
 20
-198.0
 30
0.0
 40
6.0
  1
１Ａ－色記号
 72
     5
 11
240.8
 21
-198.0
 31
0.0
100
AcDbText
  0
ENDSEC
  0
SECTION
  2
OBJECTS
  0
DICTIONARY
  5
6B6
100
AcDbDictionary
280
     0
281
     1
  3
ACAD_GROUP
350
6B7
  3
ACAD_MLINESTYLE
350
6B8
  0
DICTIONARY
  5
6B7
102
{ACAD_REACTORS
330
6B6
102
}
100
AcDbDictionary
280
     0
281
     1
  0
DICTIONARY
  5
6B8
102
{ACAD_REACTORS
330
6B6
102
}
100
AcDbDictionary
280
     0
281
     1
  3
Standard
350
6B9
  0
MLINESTYLE
  5
6B9
102
{ACAD_REACTORS
330
6B8
102
}
100
AcDbMlineStyle
  2
Standard
 70
     0
  3

 62
     0
 51
90.0
 52
90.0
 71
     2
 49
0.5
 62
   256
  6
ByLayer
 49
-0.5
 62
   256
  6
ByLayer
  0
ENDSEC
  0
EOF
