  0
SECTION
  2
HEADER
  9
$ACADVER
  1
AC1015
  9
$ACADMAINTVER
 70
     6
  9
$DWGCODEPAGE
  3
ANSI_932
  9
$INSBASE
 10
0.0
 20
0.0
 30
0.0
  9
$EXTMIN
 10
-105.0
 20
-148.5
 30
1.000000E+20
  9
$EXTMAX
 10
105.0
 20
148.5
 30
-1.000000E+20
  9
$LIMMIN
 10
-105.0
 20
-148.5
  9
$LIMMAX
 10
105.0
 20
148.5
  9
$ORTHOMODE
 70
     0
  9
$REGENMODE
 70
     1
  9
$FILLMODE
 70
     1
  9
$QTEXTMODE
 70
     0
  9
$MIRRTEXT
 70
     1
  9
$LTSCALE
 40
1.0
  9
$ATTMODE
 70
     1
  9
$TEXTSIZE
 40
0.2
  9
$TRACEWID
 40
0.05
  9
$TEXTSTYLE
  7
STANDARD
  9
$CLAYER
  8
0
  9
$CELTYPE
  6
CONTINUOUS
  9
$CECOLOR
 62
   256
  9
$CELTSCALE
 40
1.0
  9
$DISPSILH
 70
     0
  9
$DIMSCALE
 40
1.0
  9
$DIMASZ
 40
2.0
  9
$DIMEXO
 40
0.5
  9
$DIMDLI
 40
0.38
  9
$DIMRND
 40
0.0
  9
$DIMDLE
 40
0.0
  9
$DIMEXE
 40
2.0
  9
$DIMTP
 40
0.0
  9
$DIMTM
 40
0.0
  9
$DIMTXT
 40
4.0
  9
$DIMCEN
 40
0.09
  9
$DIMTSZ
 40
0.0
  9
$DIMTOL
 70
     0
  9
$DIMLIM
 70
     0
  9
$DIMTIH
 70
     0
  9
$DIMTOH
 70
     0
  9
$DIMSE1
 70
     0
  9
$DIMSE2
 70
     0
  9
$DIMTAD
 70
     1
  9
$DIMZIN
 70
     0
  9
$DIMBLK
  1

  9
$DIMASO
 70
     1
  9
$DIMSHO
 70
     1
  9
$DIMPOST
  1

  9
$DIMAPOST
  1

  9
$DIMALT
 70
     0
  9
$DIMALTD
 70
     2
  9
$DIMALTF
 40
25.4
  9
$DIMLFAC
 40
1.0
  9
$DIMTOFL
 70
     0
  9
$DIMTVP
 40
0.0
  9
$DIMTIX
 70
     0
  9
$DIMSOXD
 70
     0
  9
$DIMSAH
 70
     0
  9
$DIMBLK1
  1

  9
$DIMBLK2
  1

  9
$DIMSTYLE
  2
Standard
  9
$DIMCLRD
 70
     0
  9
$DIMCLRE
 70
     0
  9
$DIMCLRT
 70
     0
  9
$DIMTFAC
 40
1.0
  9
$DIMGAP
 40
0.5
  9
$DIMJUST
 70
     0
  9
$DIMSD1
 70
     0
  9
$DIMSD2
 70
     0
  9
$DIMTOLJ
 70
     1
  9
$DIMTZIN
 70
     0
  9
$DIMALTZ
 70
     0
  9
$DIMALTTZ
 70
     0
  9
$DIMUPT
 70
     0
  9
$DIMDEC
 70
     2
  9
$DIMTDEC
 70
     4
  9
$DIMALTU
 70
     2
  9
$DIMALTTD
 70
     2
  9
$DIMTXSTY
  7
STANDARD
  9
$DIMAUNIT
 70
     0
  9
$DIMADEC
 70
     2
  9
$DIMALTRND
 40
0.0
  9
$DIMAZIN
 70
     0
  9
$DIMDSEP
 70
     0
  9
$DIMATFIT
 70
     3
  9
$DIMFRAC
 70
     0
  9
$DIMLDRBLK
  1

  9
$DIMLUNIT
 70
     2
  9
$DIMLWD
 70
     0
  9
$DIMLWE
 70
     0
  9
$DIMTMOVE
 70
     0
  9
$LUNITS
 70
     2
  9
$LUPREC
 70
     4
  9
$SKETCHINC
 40
0.1
  9
$FILLETRAD
 40
0.0
  9
$AUNITS
 70
     0
  9
$AUPREC
 70
     0
  9
$MENU
  1
acad
  9
$ELEVATION
 40
0.0
  9
$PELEVATION
 40
0.0
  9
$THICKNESS
 40
0.0
  9
$LIMCHECK
 70
     0
  9
$CHAMFERA
 40
0.0
  9
$CHAMFERB
 40
0.0
  9
$CHAMFERC
 40
0.0
  9
$CHAMFERD
 40
0.0
  9
$SKPOLY
 70
     0
  9
$TDCREATE
 40
2452749.000000000
  9
$TDUCREATE
 40
0.000000000
  9
$TDUPDATE
 40
0.000000000
  9
$TDUUPDATE
 40
2447892.625000000
  9
$TDINDWG
 40
0.0000000000
  9
$TDUSRTIMER
 40
0.0000000000
  9
$USRTIMER
 70
     1
  9
$ANGBASE
 50
0.0
  9
$ANGDIR
 70
     0
  9
$PDMODE
 70
     0
  9
$PDSIZE
 40
0.0
  9
$PLINEWID
 40
0.0
  9
$SPLFRAME
 70
     0
  9
$SPLINETYPE
 70
     6
  9
$SPLINESEGS
 70
     8
  9
$HANDSEED
  5
E2
  9
$SURFTAB1
 70
     6
  9
$SURFTAB2
 70
     6
  9
$SURFTYPE
 70
     6
  9
$SURFU
 70
     6
  9
$SURFV
 70
     6
  9
$UCSBASE
  2

  9
$UCSNAME
  2

  9
$UCSORG
 10
0.0
 20
0.0
 30
0.0
  9
$UCSXDIR
 10
1.0
 20
0.0
 30
0.0
  9
$UCSYDIR
 10
0.0
 20
1.0
 30
0.0
  9
$UCSORTHOREF
  2

  9
$UCSORTHOVIEW
 70
     0
  9
$UCSORGTOP
 10
0.0
 20
0.0
 30
0.0
  9
$UCSORGBOTTOM
 10
0.0
 20
0.0
 30
0.0
  9
$UCSORGLEFT
 10
0.0
 20
0.0
 30
0.0
  9
$UCSORGRIGHT
 10
0.0
 20
0.0
 30
0.0
  9
$UCSORGFRONT
 10
0.0
 20
0.0
 30
0.0
  9
$UCSORGBACK
 10
0.0
 20
0.0
 30
0.0
  9
$PUCSBASE
  2

  9
$PUCSNAME
  2

  9
$PUCSORG
 10
0.0
 20
0.0
 30
0.0
  9
$PUCSXDIR
 10
1.0
 20
0.0
 30
0.0
  9
$PUCSYDIR
 10
0.0
 20
1.0
 30
0.0
  9
$PUCSORTHOREF
  2

  9
$PUCSORTHOVIEW
 70
     0
  9
$PUCSORGTOP
 10
0.0
 20
0.0
 30
0.0
  9
$PUCSORGBOTTOM
 10
0.0
 20
0.0
 30
0.0
  9
$PUCSORGLEFT
 10
0.0
 20
0.0
 30
0.0
  9
$PUCSORGRIGHT
 10
0.0
 20
0.0
 30
0.0
  9
$PUCSORGFRONT
 10
0.0
 20
0.0
 30
0.0
  9
$PUCSORGBACK
 10
0.0
 20
0.0
 30
0.0
  9
$USERI1
 70
     0
  9
$USERI2
 70
     0
  9
$USERI3
 70
     0
  9
$USERI4
 70
     0
  9
$USERI5
 70
     0
  9
$USERR1
 40
0.0
  9
$USERR2
 40
0.0
  9
$USERR3
 40
0.0
  9
$USERR4
 40
0.0
  9
$USERR5
 40
0.0
  9
$WORLDVIEW
 70
     1
  9
$SHADEDGE
 70
     3
  9
$SHADEDIF
 70
    70
  9
$TILEMODE
 70
     1
  9
$MAXACTVP
 70
    16
  9
$PINSBASE
 10
0.0
 20
0.0
 30
0.0
  9
$PLIMCHECK
 70
     0
  9
$PEXTMIN
 10
1.000000E+20
 20
1.000000E+20
 30
1.000000E+20
  9
$PEXTMAX
 10
-1.000000E+20
 20
-1.000000E+20
 30
-1.000000E+20
  9
$PLIMMIN
 10
0.0
 20
0.0
  9
$PLIMMAX
 10
12.0
 20
9.0
  9
$UNITMODE
 70
     0
  9
$VISRETAIN
 70
     0
  9
$PLINEGEN
 70
     1
  9
$PSLTSCALE
 70
     0
  9
$TREEDEPTH
 70
  3020
  9
$CMLSTYLE
  2
Standard
  9
$CMLJUST
 70
     0
  9
$CMLSCALE
 40
1.0
  9
$PROXYGRAPHICS
 70
     0
  9
$MEASUREMENT
 70
     0
  9
$CELWEIGHT
370
     0
  9
$ENDCAPS
280
     0
  9
$JOINSTYLE
280
     0
  9
$LWDISPLAY
290
     0
  9
$INSUNITS
 70
     0
  9
$HYPERLINKBASE
  1

  9
$STYLESHEET
  1

  9
$XEDIT
290
     1
  9
$CEPSNTYPE
380
     0
  9
$PSTYLEMODE
290
     1
  9
$FINGERPRINTGUID
  2

  9
$VERSIONGUID
  2

  9
$EXTNAMES
290
     1
  9
$PSVPSCALE
 40
0.0
  0
ENDSEC
  0
SECTION
  2
CLASSES
  0
CLASS
  1
LWPOLYLINE
  2
AcDbPolyline
  3
AutoCAD 2000
 90
        0
280
     0
281
     1
  0
CLASS
  1
IMAGE
  2
AcDbRasterImage
  3
ISM
 90
      127
280
     0
281
     1
  0
CLASS
  1
OLE2FRAME
  2
AcDbOle2Frame
  3
AutoCAD 2000
 90
        0
280
     0
281
     1
  0
CLASS
  1
HATCH
  2
AcDbHatch
  3
AutoCAD 2000
 90
        0
280
     0
281
     1
  0
CLASS
  1
DICTIONARYVAR
  2
AcDbDictionaryVar
  3
AutoCAD 2000
 90
        0
280
     0
281
     0
  0
CLASS
  1
RASTERVARIABLES
  2
AcDbRasterVariables
  3
ISM
 90
        0
280
     0
281
     0
  0
CLASS
  1
IMAGEDEF
  2
AcDbRasterImageDef
  3
ISM
 90
        0
280
     0
281
     0
  0
CLASS
  1
IMAGEDEF_REACTOR
  2
AcDbRasterImageDefReactor
  3
ISM
 90
        1
280
     0
281
     0
  0
CLASS
  1
IDBUFFER
  2
AcDbIdBuffer
  3
AutoCAD 2000
 90
        0
280
     0
281
     0
  0
CLASS
  1
SPATIAL_FILTER
  2
AcDbSpatialFilter
  3
AutoCAD 2000
 90
        0
280
     0
281
     0
  0
CLASS
  1
XRECORD
  2
AcDbXrecord
  3
AutoCAD 2000
 90
        0
280
     0
281
     0
  0
CLASS
  1
SORTENTSTABLE
  2
AcDbSortentsTable
  3
AutoCAD 2000
 90
        0
280
     0
281
     0
  0
CLASS
  1
LAYER_INDEX
  2
AcDbLayerIndex
  3
AutoCAD 2000
 90
        0
280
     0
281
     0
  0
CLASS
  1
SPATIAL_INDEX
  2
AcDbSpatialIndex
  3
AutoCAD 2000
 90
        0
280
     0
281
     0
  0
CLASS
  1
OBJECT_PTR
  2
CAseDLPNTableRecord
  3
"ASE-LPNTableRecord"
 90
        1
280
     0
281
     0
  0
CLASS
  1
LAYOUT
  2
AcDbLayout
  3
AutoCAD 2000
 90
        0
280
     0
281
     0
  0
CLASS
  1
PLOTSETTINGS
  2
AcDbPlotSettings
  3
AutoCAD 2000
 90
        0
280
     0
281
     0
  0
CLASS
  1
ACDBDICTIONARYWDFLT
  2
AcDbDictionaryWithDefault
  3
AutoCAD 2000
 90
        0
280
     0
281
     0
  0
CLASS
  1
ACDBPLACEHOLDER
  2
AcDbPlaceHolder
  3
AutoCAD 2000
 90
        0
280
     0
281
     0
  0
CLASS
  1
VBA_PROJECT
  2
AcDbVbaProject
  3
acadvba
 90
        0
280
     0
281
     0
  0
CLASS
  1
WIPEOUT
  2
AcDbWipeout
  3
WipeOut|AutoCAD Express Tool|expresstools@autodesk.com
 90
      127
280
     0
281
     1
  0
CLASS
  1
WIPEOUTVARIABLES
  2
AcDbWipeoutVariables
  3
WipeOut|AutoCAD Express Tool|expresstools@autodesk.com
 90
        0
280
     0
281
     0
  0
CLASS
  1
RTEXT
  2
RText
  3
RText|AutoCAD Express Tool|expresstools@autodesk.com
 90
        0
280
     0
281
     1
  0
CLASS
  1
ARCALIGNEDTEXT
  2
AcDbArcAlignedText
  3
ATEXT|AutoCAD Express Tool|expresstools@autodesk.com
 90
        0
280
     0
281
     1
  0
ENDSEC
  0
SECTION
  2
TABLES
  0
TABLE
  2
VPORT
  5
6
100
AcDbSymbolTable
 70
     1
  0
VPORT
  5
19
100
AcDbSymbolTableRecord
100
AcDbViewportTableRecord
  2
*ACTIVE
 70
     0
 10
0.0
 20
0.0
 11
1.0
 21
1.0
 12
0.0
 22
0.0
 13
0.0
 23
0.0
 14
1.0
 24
1.0
 15
0.0
 25
0.0
 16
0.0
 26
0.0
 36
1.0
 17
0.0
 27
0.0
 37
0.0
 40
297.0
 41
0.707071
 42
50.0
 43
0.0
 44
0.0
 50
0.0
 51
0.0
 71
     0
 72
   500
 73
     1
 74
     1
 75
     0
 76
     0
 77
     0
 78
     0
281
     0
 65
     0
110
0.0
120
0.0
130
0.0
111
1.0
121
0.0
131
0.0
112
0.0
122
1.0
132
0.0
345
0
346
0
 79
     0
146
0.0
  0
ENDTAB
  0
TABLE
  2
LTYPE
  5
3
100
AcDbSymbolTable
 70
     9
  0
LTYPE
  5
C
100
AcDbSymbolTableRecord
100
AcDbLinetypeTableRecord
  2
ByBlock
 70
    64
  3

 72
    65
 73
     0
 40
0.0
  0
LTYPE
  5
D
100
AcDbSymbolTableRecord
100
AcDbLinetypeTableRecord
  2
ByLayer
 70
    64
  3

 72
    65
 73
     0
 40
0.0
  0
LTYPE
  5
E
100
AcDbSymbolTableRecord
100
AcDbLinetypeTableRecord
  2
CONTINUOUS
 70
     0
  3
Solid line
 72
    65
 73
     0
 40
0.0
  0
LTYPE
  5
F
100
AcDbSymbolTableRecord
100
AcDbLinetypeTableRecord
  2
DASHED
 70
     0
  3
__ __ __ __ __ __ __ __ __ __ __ __ __ __ __
 72
    65
 73
     2
 40
2.0
 49
1.2
 74
     0
 49
-0.8
 74
     0
  0
LTYPE
  5
10
100
AcDbSymbolTableRecord
100
AcDbLinetypeTableRecord
  2
CENTER
 70
     0
  3
____ _ ____ _ ____ _ ____ _ ____ _ ____ _ ____
 72
    65
 73
     4
 40
12.0
 49
9.0
 74
     0
 49
-1.0
 74
     0
 49
1.0
 74
     0
 49
-1.0
 74
     0
  0
LTYPE
  5
11
100
AcDbSymbolTableRecord
100
AcDbLinetypeTableRecord
  2
HIDDEN
 70
     0
  3
_ _ _ _ _ _ _ _ _ _ _ _ _ _ _ _ _ _ _ _ _ _ _
 72
    65
 73
     2
 40
3.2
 49
1.3
 74
     0
 49
-1.9
 74
     0
  0
LTYPE
  5
12
100
AcDbSymbolTableRecord
100
AcDbLinetypeTableRecord
  2
PHANTOM
 70
     0
  3
_____ _ _ _____ _ _ _____ _ _ _____ _ _ _____
 72
    65
 73
     6
 40
12.5
 49
9.0
 74
     0
 49
-1.0
 74
     0
 49
0.5
 74
     0
 49
-0.5
 74
     0
 49
0.5
 74
     0
 49
-1.0
 74
     0
  0
LTYPE
  5
13
100
AcDbSymbolTableRecord
100
AcDbLinetypeTableRecord
  2
DOT
 70
     0
  3
...............................................
 72
    65
 73
     2
 40
1.0
 49
0.5
 74
     0
 49
-0.5
 74
     0
  0
LTYPE
  5
14
100
AcDbSymbolTableRecord
100
AcDbLinetypeTableRecord
  2
DASHDOT
 70
     0
  3
__ . __ . __ . __ . __ . __ . __ . __ . __ . __
 72
    65
 73
     4
 40
8.0
 49
5.0
 74
     0
 49
-1.0
 74
     0
 49
1.0
 74
     0
 49
-1.0
 74
     0
  0
ENDTAB
  0
TABLE
  2
LAYER
  5
1
100
AcDbSymbolTable
 70
     4
  0
LAYER
  5
15
100
AcDbSymbolTableRecord
100
AcDbLayerTableRecord
  2
0
 70
     0
 62
     8
  6
CONTINUOUS
290
     1
370
    -3
390
0
  0
LAYER
  5
16
100
AcDbSymbolTableRecord
100
AcDbLayerTableRecord
  2
1
 70
     0
 62
     2
  6
CONTINUOUS
290
     1
370
    -3
390
0
  0
LAYER
  5
17
100
AcDbSymbolTableRecord
100
AcDbLayerTableRecord
  2
2
 70
     0
 62
     3
  6
CONTINUOUS
290
     1
370
    -3
390
0
  0
LAYER
  5
18
100
AcDbSymbolTableRecord
100
AcDbLayerTableRecord
  2
3
 70
     0
 62
     4
  6
CONTINUOUS
290
     1
370
    -3
390
0
  0
ENDTAB
  0
TABLE
  2
STYLE
  5
2
100
AcDbSymbolTable
 70
     1
  0
STYLE
  5
1B
100
AcDbSymbolTableRecord
100
AcDbTextStyleTableRecord
  2
STANDARD
 70
    64
 40
0.0
 41
1.0
 50
0.0
 71
     0
 42
1.0
  3
txt
  4
BIGFONT
  0
ENDTAB
  0
TABLE
  2
VIEW
  5
4
100
AcDbSymbolTable
 70
     0
  0
ENDTAB
  0
TABLE
  2
UCS
  5
5
100
AcDbSymbolTable
 70
     0
  0
ENDTAB
  0
TABLE
  2
APPID
  5
7
100
AcDbSymbolTable
 70
     1
  0
APPID
  5
1A
100
AcDbSymbolTableRecord
100
AcDbRegAppTableRecord
  2
ACAD
 70
     0
  0
ENDTAB
  0
TABLE
  2
DIMSTYLE
  5
8
100
AcDbSymbolTable
 70
     1
100
AcDbDimStyleTable
 71
     0
  0
DIMSTYLE
105
2A
100
AcDbSymbolTableRecord
100
AcDbDimStyleTableRecord
  2
Standard
 70
     0
  3

  4

 40
1.0
 41
2.0
 42
0.5
 43
0.38
 44
2.0
 45
0.0
 46
0.0
 47
0.0
 48
0.0
 71
     0
 72
     0
 73
     0
 74
     0
 75
     0
 76
     0
 77
     1
 78
     0
 79
     0
140
4.0
141
0.09
142
0.0
143
25.4
144
1.0
145
0.0
146
1.0
147
0.5
148
0.0
170
     0
171
     2
172
     0
173
     0
174
     0
175
     0
176
     0
177
     0
178
     0
179
     0
271
     2
272
     4
273
     2
274
     2
275
     0
276
     0
277
     2
278
    46
279
     0
280
     0
281
     0
282
     0
283
     1
284
     0
285
     0
286
     0
288
     0
289
     3
340
1B
341
0
342
0
343
0
344
0
371
    -2
372
    -2
  0
ENDTAB
  0
TABLE
  2
BLOCK_RECORD
  5
25
100
AcDbSymbolTable
 70
     7
  0
BLOCK_RECORD
  5
23
100
AcDbSymbolTableRecord
100
AcDbBlockTableRecord
  2
*Model_Space
340
0
  0
BLOCK_RECORD
  5
24
100
AcDbSymbolTableRecord
100
AcDbBlockTableRecord
  2
*Paper_Space
340
0
  0
BLOCK_RECORD
  5
1C
100
AcDbSymbolTableRecord
100
AcDbBlockTableRecord
  2
*D0
340
0
  0
BLOCK_RECORD
  5
1D
100
AcDbSymbolTableRecord
100
AcDbBlockTableRecord
  2
*D1
340
0
  0
BLOCK_RECORD
  5
1E
100
AcDbSymbolTableRecord
100
AcDbBlockTableRecord
  2
*D2
340
0
  0
BLOCK_RECORD
  5
1F
100
AcDbSymbolTableRecord
100
AcDbBlockTableRecord
  2
*D3
340
0
  0
BLOCK_RECORD
  5
20
100
AcDbSymbolTableRecord
100
AcDbBlockTableRecord
  2
*D4
340
0
  0
BLOCK_RECORD
  5
21
100
AcDbSymbolTableRecord
100
AcDbBlockTableRecord
  2
*D5
340
0
  0
BLOCK_RECORD
  5
22
100
AcDbSymbolTableRecord
100
AcDbBlockTableRecord
  2
*D6
340
0
  0
ENDTAB
  0
ENDSEC
  0
SECTION
  2
BLOCKS
  0
BLOCK
  5
26
100
AcDbEntity
  8
0
390
0
100
AcDbBlockBegin
  2
*Model_Space
 70
     0
 10
0.0
 20
0.0
 30
0.0
  3
*Model_Space
  1

  0
ENDBLK
  5
27
100
AcDbEntity
  8
0
390
0
100
AcDbBlockEnd
  0
BLOCK
  5
28
100
AcDbEntity
 67
     1
  8
0
390
0
100
AcDbBlockBegin
  2
*Paper_Space
 70
     0
 10
0.0
 20
0.0
 30
0.0
  3
*Paper_Space
  1

  0
ENDBLK
  5
29
100
AcDbEntity
 67
     1
  8
0
390
0
100
AcDbBlockEnd
  0
BLOCK
  5
98
100
AcDbEntity
  8
2
100
AcDbBlockBegin
  2
*D0
 70
     1
 10
0.0
 20
0.0
 30
0.0
  3
*D0
  1

  0
TEXT
  5
99
100
AcDbEntity
  8
2
370
    25
100
AcDbText
 10
-26.080193
 20
7.767212
 30
0.0
 40
4.0
  1
φ２１
 50
90.0
 72
     5
 11
-26.080193
 21
18.967212
 31
0.0
100
AcDbText
  0
LINE
  5
9A
100
AcDbEntity
  8
2
370
    25
100
AcDbLine
 10
-47.522324
 20
24.267212
 30
0.0
 11
-24.580193
 21
24.267212
 31
0.0
  0
LINE
  5
9B
100
AcDbEntity
  8
2
370
    25
100
AcDbLine
 10
-25.580193
 20
24.267212
 30
0.0
 11
-26.097831
 21
22.335361
 31
0.0
  0
LINE
  5
9C
100
AcDbEntity
  8
2
370
    25
100
AcDbLine
 10
-25.580193
 20
24.267212
 30
0.0
 11
-25.062554
 21
22.335361
 31
0.0
  0
LINE
  5
9D
100
AcDbEntity
  8
2
370
    25
100
AcDbLine
 10
-25.580193
 20
24.267212
 30
0.0
 11
-25.580193
 21
3.267212
 31
0.0
  0
LINE
  5
9E
100
AcDbEntity
  8
2
370
    25
100
AcDbLine
 10
-25.580193
 20
3.267212
 30
0.0
 11
-25.062554
 21
5.199064
 31
0.0
  0
LINE
  5
9F
100
AcDbEntity
  8
2
370
    25
100
AcDbLine
 10
-25.580193
 20
3.267212
 30
0.0
 11
-26.097831
 21
5.199064
 31
0.0
  0
LINE
  5
A0
100
AcDbEntity
  8
2
370
    25
100
AcDbLine
 10
-47.522324
 20
3.267212
 30
0.0
 11
-24.580193
 21
3.267212
 31
0.0
  0
ENDBLK
  5
A1
100
AcDbEntity
  8
2
100
AcDbBlockEnd
  0
BLOCK
  5
A2
100
AcDbEntity
  8
2
100
AcDbBlockBegin
  2
*D1
 70
     1
 10
0.0
 20
0.0
 30
0.0
  3
*D1
  1

  0
TEXT
  5
A3
100
AcDbEntity
  8
2
370
    25
100
AcDbText
 10
-68.2089
 20
9.767212
 30
0.0
 40
4.0
  1
５７
 50
90.0
 72
     5
 11
-68.2089
 21
16.967212
 31
0.0
100
AcDbText
  0
LINE
  5
A4
100
AcDbEntity
  8
2
370
    25
100
AcDbLine
 10
-59.772324
 20
-14.732788
 30
0.0
 11
-68.7089
 21
-14.732788
 31
0.0
  0
LINE
  5
A5
100
AcDbEntity
  8
2
370
    25
100
AcDbLine
 10
-67.7089
 20
-14.732788
 30
0.0
 11
-67.191262
 21
-12.800936
 31
0.0
  0
LINE
  5
A6
100
AcDbEntity
  8
2
370
    25
100
AcDbLine
 10
-67.7089
 20
-14.732788
 30
0.0
 11
-68.226539
 21
-12.800936
 31
0.0
  0
LINE
  5
A7
100
AcDbEntity
  8
2
370
    25
100
AcDbLine
 10
-67.7089
 20
-14.732788
 30
0.0
 11
-67.7089
 21
42.267212
 31
0.0
  0
LINE
  5
A8
100
AcDbEntity
  8
2
370
    25
100
AcDbLine
 10
-67.7089
 20
42.267212
 30
0.0
 11
-68.226539
 21
40.335361
 31
0.0
  0
LINE
  5
A9
100
AcDbEntity
  8
2
370
    25
100
AcDbLine
 10
-67.7089
 20
42.267212
 30
0.0
 11
-67.191262
 21
40.335361
 31
0.0
  0
LINE
  5
AA
100
AcDbEntity
  8
2
370
    25
100
AcDbLine
 10
-59.772324
 20
42.267212
 30
0.0
 11
-68.7089
 21
42.267212
 31
0.0
  0
ENDBLK
  5
AB
100
AcDbEntity
  8
2
100
AcDbBlockEnd
  0
BLOCK
  5
AC
100
AcDbEntity
  8
2
100
AcDbBlockBegin
  2
*D2
 70
     1
 10
0.0
 20
0.0
 30
0.0
  3
*D2
  1

  0
TEXT
  5
AD
100
AcDbEntity
  8
2
370
    25
100
AcDbText
 10
-56.022324
 20
-26.30484
 30
0.0
 40
4.0
  1
２２．５
 72
     5
 11
-40.822324
 21
-26.30484
 31
0.0
100
AcDbText
  0
LINE
  5
AE
100
AcDbEntity
  8
2
370
    25
100
AcDbLine
 10
-59.272324
 20
-15.232788
 30
0.0
 11
-59.272324
 21
-27.80484
 31
0.0
  0
LINE
  5
AF
100
AcDbEntity
  8
2
370
    25
100
AcDbLine
 10
-59.272324
 20
-26.80484
 30
0.0
 11
-57.340472
 21
-27.322478
 31
0.0
  0
LINE
  5
B0
100
AcDbEntity
  8
2
370
    25
100
AcDbLine
 10
-59.272324
 20
-26.80484
 30
0.0
 11
-57.340472
 21
-26.287202
 31
0.0
  0
LINE
  5
B1
100
AcDbEntity
  8
2
370
    25
100
AcDbLine
 10
-59.272324
 20
-26.80484
 30
0.0
 11
-36.772324
 21
-26.80484
 31
0.0
  0
LINE
  5
B2
100
AcDbEntity
  8
2
370
    25
100
AcDbLine
 10
-36.772324
 20
-26.80484
 30
0.0
 11
-38.704176
 21
-26.287202
 31
0.0
  0
LINE
  5
B3
100
AcDbEntity
  8
2
370
    25
100
AcDbLine
 10
-36.772324
 20
-26.80484
 30
0.0
 11
-38.704176
 21
-27.322478
 31
0.0
  0
LINE
  5
B4
100
AcDbEntity
  8
2
370
    25
100
AcDbLine
 10
-36.772324
 20
-15.232788
 30
0.0
 11
-36.772324
 21
-27.80484
 31
0.0
  0
ENDBLK
  5
B5
100
AcDbEntity
  8
2
100
AcDbBlockEnd
  0
BLOCK
  5
B6
100
AcDbEntity
  8
2
100
AcDbBlockBegin
  2
*D3
 70
     1
 10
0.0
 20
0.0
 30
0.0
  3
*D3
  1

  0
TEXT
  5
B7
100
AcDbEntity
  8
2
370
    25
100
AcDbText
 10
-7.256591
 20
49.532738
 30
0.0
 40
4.0
  1
３．２
 72
     5
 11
3.943409
 21
49.532738
 31
0.0
100
AcDbText
  0
LINE
  5
B8
100
AcDbEntity
  8
2
370
    25
100
AcDbLine
 10
-12.456591
 20
46.610256
 30
0.0
 11
-12.456591
 21
50.032738
 31
0.0
  0
LINE
  5
B9
100
AcDbEntity
  8
2
370
    25
100
AcDbLine
 10
-12.456591
 20
49.032738
 30
0.0
 11
-14.388443
 21
49.550376
 31
0.0
  0
LINE
  5
BA
100
AcDbEntity
  8
2
370
    25
100
AcDbLine
 10
-12.456591
 20
49.032738
 30
0.0
 11
-14.388443
 21
48.5151
 31
0.0
  0
LINE
  5
BB
100
AcDbEntity
  8
2
370
    25
100
AcDbLine
 10
-17.456591
 20
49.032738
 30
0.0
 11
5.743409
 21
49.032738
 31
0.0
  0
LINE
  5
BC
100
AcDbEntity
  8
2
370
    25
100
AcDbLine
 10
-9.256591
 20
49.032738
 30
0.0
 11
-7.324739
 21
48.5151
 31
0.0
  0
LINE
  5
BD
100
AcDbEntity
  8
2
370
    25
100
AcDbLine
 10
-9.256591
 20
49.032738
 30
0.0
 11
-7.324739
 21
49.550376
 31
0.0
  0
LINE
  5
BE
100
AcDbEntity
  8
2
370
    25
100
AcDbLine
 10
-9.256591
 20
42.767212
 30
0.0
 11
-9.256591
 21
50.032738
 31
0.0
  0
ENDBLK
  5
BF
100
AcDbEntity
  8
2
100
AcDbBlockEnd
  0
BLOCK
  5
C0
100
AcDbEntity
  8
2
100
AcDbBlockBegin
  2
*D4
 70
     1
 10
0.0
 20
0.0
 30
0.0
  3
*D4
  1

  0
TEXT
  5
C1
100
AcDbEntity
  8
2
370
    25
100
AcDbText
 10
28.543409
 20
-28.227245
 30
0.0
 40
4.0
  1
９０
 72
     5
 11
35.743409
 21
-28.227245
 31
0.0
100
AcDbText
  0
LINE
  5
C2
100
AcDbEntity
  8
2
370
    25
100
AcDbLine
 10
-12.456591
 20
-24.547463
 30
0.0
 11
-12.456591
 21
-29.727245
 31
0.0
  0
LINE
  5
C3
100
AcDbEntity
  8
2
370
    25
100
AcDbLine
 10
-12.456591
 20
-28.727245
 30
0.0
 11
-10.524739
 21
-29.244883
 31
0.0
  0
LINE
  5
C4
100
AcDbEntity
  8
2
370
    25
100
AcDbLine
 10
-12.456591
 20
-28.727245
 30
0.0
 11
-10.524739
 21
-28.209607
 31
0.0
  0
LINE
  5
C5
100
AcDbEntity
  8
2
370
    25
100
AcDbLine
 10
-12.456591
 20
-28.727245
 30
0.0
 11
77.543409
 21
-28.727245
 31
0.0
  0
LINE
  5
C6
100
AcDbEntity
  8
2
370
    25
100
AcDbLine
 10
77.543409
 20
-28.727245
 30
0.0
 11
75.611557
 21
-28.209607
 31
0.0
  0
LINE
  5
C7
100
AcDbEntity
  8
2
370
    25
100
AcDbLine
 10
77.543409
 20
-28.727245
 30
0.0
 11
75.611557
 21
-29.244883
 31
0.0
  0
LINE
  5
C8
100
AcDbEntity
  8
2
370
    25
100
AcDbLine
 10
77.543409
 20
2.767212
 30
0.0
 11
77.543409
 21
-29.727245
 31
0.0
  0
ENDBLK
  5
C9
100
AcDbEntity
  8
2
100
AcDbBlockEnd
  0
BLOCK
  5
CA
100
AcDbEntity
  8
2
100
AcDbBlockBegin
  2
*D5
 70
     1
 10
0.0
 20
0.0
 30
0.0
  3
*D5
  1

  0
TEXT
  5
CB
100
AcDbEntity
  8
2
370
    25
100
AcDbText
 10
43.543409
 20
-9.649813
 30
0.0
 40
4.0
  1
１８
 72
     5
 11
50.743409
 21
-9.649813
 31
0.0
100
AcDbText
  0
LINE
  5
CC
100
AcDbEntity
  8
2
370
    25
100
AcDbLine
 10
38.543409
 20
-3.342814
 30
0.0
 11
38.543409
 21
-11.149813
 31
0.0
  0
LINE
  5
CD
100
AcDbEntity
  8
2
370
    25
100
AcDbLine
 10
38.543409
 20
-10.149813
 30
0.0
 11
40.475261
 21
-10.667451
 31
0.0
  0
LINE
  5
CE
100
AcDbEntity
  8
2
370
    25
100
AcDbLine
 10
38.543409
 20
-10.149813
 30
0.0
 11
40.475261
 21
-9.632175
 31
0.0
  0
LINE
  5
CF
100
AcDbEntity
  8
2
370
    25
100
AcDbLine
 10
38.543409
 20
-10.149813
 30
0.0
 11
56.543409
 21
-10.149813
 31
0.0
  0
LINE
  5
D0
100
AcDbEntity
  8
2
370
    25
100
AcDbLine
 10
56.543409
 20
-10.149813
 30
0.0
 11
54.611557
 21
-9.632175
 31
0.0
  0
LINE
  5
D1
100
AcDbEntity
  8
2
370
    25
100
AcDbLine
 10
56.543409
 20
-10.149813
 30
0.0
 11
54.611557
 21
-10.667451
 31
0.0
  0
LINE
  5
D2
100
AcDbEntity
  8
2
370
    25
100
AcDbLine
 10
56.543409
 20
-2.349592
 30
0.0
 11
56.543409
 21
-11.149813
 31
0.0
  0
ENDBLK
  5
D3
100
AcDbEntity
  8
2
100
AcDbBlockEnd
  0
BLOCK
  5
D4
100
AcDbEntity
  8
2
100
AcDbBlockBegin
  2
*D6
 70
     1
 10
0.0
 20
0.0
 30
0.0
  3
*D6
  1

  0
LINE
  5
D5
100
AcDbEntity
  8
2
370
    25
100
AcDbLine
 10
-12.456591
 20
-20.399865
 30
0.0
 11
-12.456591
 21
-22.296274
 31
0.0
  0
LINE
  5
D6
100
AcDbEntity
  8
2
370
    25
100
AcDbLine
 10
-12.456591
 20
-21.296274
 30
0.0
 11
-10.524739
 21
-21.813912
 31
0.0
  0
LINE
  5
D7
100
AcDbEntity
  8
2
370
    25
100
AcDbLine
 10
-12.456591
 20
-21.296274
 30
0.0
 11
-10.524739
 21
-20.778636
 31
0.0
  0
LINE
  5
D8
100
AcDbEntity
  8
2
370
    25
100
AcDbLine
 10
-12.456591
 20
-21.296274
 30
0.0
 11
47.543409
 21
-21.296274
 31
0.0
  0
LINE
  5
D9
100
AcDbEntity
  8
2
370
    25
100
AcDbLine
 10
47.543409
 20
-21.296274
 30
0.0
 11
45.611557
 21
-20.778636
 31
0.0
  0
LINE
  5
DA
100
AcDbEntity
  8
2
370
    25
100
AcDbLine
 10
47.543409
 20
-21.296274
 30
0.0
 11
45.611557
 21
-21.813912
 31
0.0
  0
LINE
  5
DB
100
AcDbEntity
  8
2
370
    25
100
AcDbLine
 10
47.543409
 20
-20.399865
 30
0.0
 11
47.543409
 21
-22.296274
 31
0.0
  0
ENDBLK
  5
DC
100
AcDbEntity
  8
2
100
AcDbBlockEnd
  0
ENDSEC
  0
SECTION
  2
ENTITIES
  0
LINE
  5
2B
100
AcDbEntity
  8
1
370
   100
100
AcDbLine
 10
-59.272324
 20
-14.732788
 30
0.0
 11
-36.772324
 21
-14.732788
 31
0.0
  0
LINE
  5
2C
100
AcDbEntity
  8
1
370
   100
100
AcDbLine
 10
-59.272324
 20
42.267212
 30
0.0
 11
-36.772324
 21
42.267212
 31
0.0
  0
LINE
  5
2D
100
AcDbEntity
  8
1
370
    50
  6
DASHED
100
AcDbLine
 10
-9.256591
 20
42.267212
 30
0.0
 11
-9.256591
 21
-14.732788
 31
0.0
  0
LINE
  5
2E
100
AcDbEntity
  8
1
370
    50
  6
DASHED
100
AcDbLine
 10
-12.456591
 20
42.267212
 30
0.0
 11
-9.256591
 21
42.267212
 31
0.0
  0
LINE
  5
2F
100
AcDbEntity
  8
1
370
    50
  6
DASHED
100
AcDbLine
 10
-12.456591
 20
-14.732788
 30
0.0
 11
-9.256591
 21
-14.732788
 31
0.0
  0
LINE
  5
30
100
AcDbEntity
  8
1
370
    50
  6
DASHED
100
AcDbLine
 10
-9.256591
 20
24.267212
 30
0.0
 11
77.543409
 21
24.267212
 31
0.0
  0
LINE
  5
31
100
AcDbEntity
  8
1
370
    50
  6
DASHED
100
AcDbLine
 10
-9.256591
 20
3.267212
 30
0.0
 11
77.543409
 21
3.267212
 31
0.0
  0
LINE
  5
32
100
AcDbEntity
  8
1
370
   100
100
AcDbLine
 10
-12.456591
 20
46.110256
 30
0.0
 11
-12.456591
 21
-24.047463
 31
0.0
  0
LINE
  5
33
100
AcDbEntity
  8
1
370
    25
  6
CENTER
100
AcDbLine
 10
-48.022324
 20
-18.079236
 30
0.0
 11
-48.022324
 21
26.716667
 31
0.0
  0
LINE
  5
34
100
AcDbEntity
  8
1
370
    25
  6
CENTER
100
AcDbLine
 10
-48.022324
 20
39.811944
 30
0.0
 11
-48.022324
 21
46.110256
 31
0.0
  0
LINE
  5
35
100
AcDbEntity
  8
1
370
    50
  6
DASHED
100
AcDbLine
 10
77.543409
 20
24.267212
 30
0.0
 11
77.543409
 21
3.267212
 31
0.0
  0
LINE
  5
36
100
AcDbEntity
  8
1
370
   100
100
AcDbLine
 10
-59.272324
 20
-14.732788
 30
0.0
 11
-59.272324
 21
42.267212
 31
0.0
  0
LINE
  5
37
100
AcDbEntity
  8
1
370
   100
100
AcDbLine
 10
-36.772324
 20
-14.732788
 30
0.0
 11
-36.772324
 21
42.267212
 31
0.0
  0
CIRCLE
  5
38
100
AcDbEntity
  8
1
370
   100
100
AcDbCircle
 10
-48.022324
 20
13.767212
 30
0.0
 40
10.5
  0
TEXT
  5
39
100
AcDbEntity
  8
1
370
    25
100
AcDbText
 10
-49.504692
 20
36.018798
 30
0.0
 40
3.0
  1
扉
 72
     5
 11
-47.104692
 21
36.018798
 31
0.0
100
AcDbText
  0
TEXT
  5
3A
100
AcDbEntity
  8
1
370
    25
100
AcDbText
 10
-49.504692
 20
33.018798
 30
0.0
 40
3.0
  1
厚
 72
     5
 11
-47.104692
 21
33.018798
 31
0.0
100
AcDbText
  0
TEXT
  5
3B
100
AcDbEntity
  8
1
370
    25
100
AcDbText
 10
-49.504692
 20
30.018798
 30
0.0
 40
3.0
  1
中
 72
     5
 11
-47.104692
 21
30.018798
 31
0.0
100
AcDbText
  0
TEXT
  5
3C
100
AcDbEntity
  8
1
370
    25
100
AcDbText
 10
-49.504692
 20
27.018798
 30
0.0
 40
3.0
  1
心
 72
     5
 11
-47.104692
 21
27.018798
 31
0.0
100
AcDbText
  0
LINE
  5
3D
100
AcDbEntity
  8
1
370
    25
  6
CENTER
100
AcDbLine
 10
47.543409
 20
40.435363
 30
0.0
 11
47.543409
 21
-23.049575
 31
0.0
  0
ARC
  5
3E
100
AcDbEntity
  8
1
370
   100
100
AcDbCircle
 10
38.543409
 20
13.767212
 30
0.0
 40
10.5
100
AcDbArc
 50
90.0
 51
270.0
  0
LINE
  5
3F
100
AcDbEntity
  8
1
370
    25
  6
CENTER
100
AcDbLine
 10
38.543409
 20
-2.842814
 30
0.0
 11
38.543409
 21
28.876829
 31
0.0
  0
ARC
  5
40
100
AcDbEntity
  8
1
370
    25
  6
DASHED
100
AcDbCircle
 10
38.543409
 20
13.767212
 30
0.0
 40
10.5
100
AcDbArc
 50
270.0
 51
90.0
  0
ARC
  5
41
100
AcDbEntity
  8
1
370
    25
  6
DASHED
100
AcDbCircle
 10
56.543409
 20
13.767212
 30
0.0
 40
10.5
100
AcDbArc
 50
90.0
 51
270.0
  0
LINE
  5
42
100
AcDbEntity
  8
1
370
   100
100
AcDbLine
 10
38.543409
 20
24.267212
 30
0.0
 11
56.543409
 21
24.267212
 31
0.0
  0
ARC
  5
43
100
AcDbEntity
  8
1
370
   100
100
AcDbCircle
 10
56.543409
 20
13.767212
 30
0.0
 40
10.5
100
AcDbArc
 50
270.0
 51
90.0
  0
LINE
  5
44
100
AcDbEntity
  8
1
370
   100
100
AcDbLine
 10
38.543409
 20
3.267212
 30
0.0
 11
56.543409
 21
3.267212
 31
0.0
  0
LINE
  5
45
100
AcDbEntity
  8
1
370
    25
  6
CENTER
100
AcDbLine
 10
56.543409
 20
-1.849592
 30
0.0
 11
56.543409
 21
29.500228
 31
0.0
  0
ARC
  5
46
100
AcDbEntity
  8
1
370
   100
100
AcDbCircle
 10
-42.772324
 20
36.267212
 30
0.0
 40
6.0
100
AcDbArc
 50
0.0
 51
90.0
  0
ARC
  5
47
100
AcDbEntity
  8
1
370
   100
100
AcDbCircle
 10
-42.772324
 20
-8.732788
 30
0.0
 40
6.0
100
AcDbArc
 50
270.0
 51
360.0
  0
ARC
  5
48
100
AcDbEntity
  8
1
370
   100
100
AcDbCircle
 10
-53.272324
 20
-8.732788
 30
0.0
 40
6.0
100
AcDbArc
 50
180.0
 51
270.0
  0
ARC
  5
49
100
AcDbEntity
  8
1
370
   100
100
AcDbCircle
 10
-53.272324
 20
36.267212
 30
0.0
 40
6.0
100
AcDbArc
 50
90.0
 51
180.0
  0
LINE
  5
4A
100
AcDbEntity
  8
1
370
    25
100
AcDbLine
 10
-40.303697
 20
41.735839
 30
0.0
 11
-39.772324
 21
42.267212
 31
0.0
  0
LINE
  5
4B
100
AcDbEntity
  8
1
370
    25
100
AcDbLine
 10
-39.397326
 20
41.227997
 30
0.0
 11
-38.35811
 21
42.267212
 31
0.0
  0
LINE
  5
4C
100
AcDbEntity
  8
1
370
    25
100
AcDbLine
 10
-38.616337
 20
40.594772
 30
0.0
 11
-36.943897
 21
42.267212
 31
0.0
  0
LINE
  5
4D
100
AcDbEntity
  8
1
370
    25
100
AcDbLine
 10
-36.772324
 20
41.024572
 30
0.0
 11
-37.954105
 21
39.842791
 31
0.0
  0
LINE
  5
4E
100
AcDbEntity
  8
1
370
    25
100
AcDbLine
 10
-36.772324
 20
39.610358
 30
0.0
 11
-37.414594
 21
38.968088
 31
0.0
  0
LINE
  5
4F
100
AcDbEntity
  8
1
370
    25
100
AcDbLine
 10
-36.772324
 20
38.196145
 30
0.0
 11
-37.014344
 21
37.954124
 31
0.0
  0
LINE
  5
50
100
AcDbEntity
  8
1
370
    25
100
AcDbLine
 10
-36.772324
 20
36.781931
 30
0.0
 11
-36.792721
 21
36.761534
 31
0.0
  0
LINE
  5
51
100
AcDbEntity
  8
1
370
    25
100
AcDbLine
 10
-41.356079
 20
42.097671
 30
0.0
 11
-41.186538
 21
42.267212
 31
0.0
  0
LINE
  5
52
100
AcDbEntity
  8
1
370
    25
100
AcDbLine
 10
-42.603137
 20
42.264827
 30
0.0
 11
-42.600751
 21
42.267212
 31
0.0
  0
HATCH
  5
53
100
AcDbEntity
  8
1
370
    25
100
AcDbHatch
 10
0.0
 20
0.0
 30
0.0
210
0.0
220
0.0
230
1.0
  2
_U
 70
     0
 71
     1
 91
        1
 92
        1
 93
        3
 72
     1
 10
-59.272323999999998
 20
42.267212000000001
 11
-53.272323999999998
 21
42.267212000000001
 72
     2
 10
-53.272323999999998
 20
36.267212000000001
 40
6.0
 50
90.0
 51
180.0
 73
     1
 72
     1
 10
-59.272323999999998
 20
36.267212000000001
 11
-59.272323999999998
 21
42.267212000000001
 97
        3
330
0
330
0
330
0
 75
     0
 76
     0
 52
45.0
 41
1.0
 77
     0
 78
     1
 53
45.0
 43
0.0
 44
0.0
 45
-0.707107
 46
0.707107
 79
     0
 98
        1
 10
0.0
 20
0.0
  0
LINE
  5
54
100
AcDbEntity
  8
1
370
    25
100
AcDbLine
 10
-55.740951
 20
-14.201415
 30
0.0
 11
-56.272324
 21
-14.732788
 31
0.0
  0
LINE
  5
55
100
AcDbEntity
  8
1
370
    25
100
AcDbLine
 10
-54.688569
 20
-14.563246
 30
0.0
 11
-54.85811
 21
-14.732788
 31
0.0
  0
LINE
  5
56
100
AcDbEntity
  8
1
370
    25
100
AcDbLine
 10
-53.441511
 20
-14.730402
 30
0.0
 11
-53.443897
 21
-14.732788
 31
0.0
  0
LINE
  5
57
100
AcDbEntity
  8
1
370
    25
100
AcDbLine
 10
-56.647322
 20
-13.693572
 30
0.0
 11
-57.686538
 21
-14.732788
 31
0.0
  0
LINE
  5
58
100
AcDbEntity
  8
1
370
    25
100
AcDbLine
 10
-57.428311
 20
-13.060347
 30
0.0
 11
-59.100751
 21
-14.732788
 31
0.0
  0
LINE
  5
59
100
AcDbEntity
  8
1
370
    25
100
AcDbLine
 10
-59.272324
 20
-13.490147
 30
0.0
 11
-58.090543
 21
-12.308366
 31
0.0
  0
LINE
  5
5A
100
AcDbEntity
  8
1
370
    25
100
AcDbLine
 10
-59.272324
 20
-12.075933
 30
0.0
 11
-58.630054
 21
-11.433663
 31
0.0
  0
LINE
  5
5B
100
AcDbEntity
  8
1
370
    25
100
AcDbLine
 10
-59.272324
 20
-10.66172
 30
0.0
 11
-59.030304
 21
-10.419699
 31
0.0
  0
LINE
  5
5C
100
AcDbEntity
  8
1
370
    25
100
AcDbLine
 10
-59.272324
 20
-9.247506
 30
0.0
 11
-59.251927
 21
-9.227109
 31
0.0
  0
HATCH
  5
5D
100
AcDbEntity
  8
1
370
    25
100
AcDbHatch
 10
0.0
 20
0.0
 30
0.0
210
0.0
220
0.0
230
1.0
  2
_U
 70
     0
 71
     1
 91
        1
 92
        1
 93
        3
 72
     1
 10
-36.772323999999998
 20
-14.732787999999999
 11
-42.772323999999998
 21
-14.732787999999999
 72
     2
 10
-42.772323999999998
 20
-8.7327879999999993
 40
6.0
 50
270.0
 51
0.0
 73
     1
 72
     1
 10
-36.772323999999998
 20
-8.7327879999999993
 11
-36.772323999999998
 21
-14.732787999999999
 97
        3
330
0
330
0
330
0
 75
     0
 76
     0
 52
45.0
 41
1.0
 77
     0
 78
     1
 53
45.0
 43
0.0
 44
0.0
 45
-0.707107
 46
0.707107
 79
     0
 98
        1
 10
0.0
 20
0.0
  0
HATCH
  5
5E
100
AcDbEntity
  8
1
370
    25
100
AcDbHatch
 10
0.0
 20
0.0
 30
0.0
210
0.0
220
0.0
230
1.0
  2
_U
 70
     0
 71
     1
 91
        1
 92
        1
 93
        4
 72
     2
 10
38.543408999999997
 20
13.767212000000001
 40
10.5
 50
90.0
 51
270.0
 73
     1
 72
     1
 10
38.543408999999997
 20
3.2672119999999998
 11
56.543408999999997
 21
3.2672119999999998
 72
     2
 10
56.543408999999997
 20
13.767212000000001
 40
10.5
 50
270.0
 51
90.0
 73
     1
 72
     1
 10
56.543408999999997
 20
24.267212000000001
 11
38.543408999999997
 21
24.267212000000001
 97
        4
330
0
330
0
330
0
330
0
 75
     0
 76
     0
 52
45.0
 41
1.0
 77
     0
 78
     1
 53
45.0
 43
0.0
 44
0.0
 45
-0.707107
 46
0.707107
 79
     0
 98
        1
 10
0.0
 20
0.0
  0
LINE
  5
5F
100
AcDbEntity
  8
1
370
    25
  6
CENTER
100
AcDbLine
 10
-64.135731
 20
13.767212
 30
0.0
 11
-31.936085
 21
13.767212
 31
0.0
  0
LINE
  5
60
100
AcDbEntity
  8
1
370
    25
  6
CENTER
100
AcDbLine
 10
-17.635309
 20
13.767212
 30
0.0
 11
83.287883
 21
13.767212
 31
0.0
  0
DIMENSION
  5
61
100
AcDbEntity
  8
2
370
    25
100
AcDbDimension
  2
*D0
 10
-25.580193
 20
3.267212
 30
0.0
 11
-32.080193
 21
11.767212
 31
0.0
 70
     1
 71
     0
 72
     0
 41
0.0
 42
0.0
  3
Standard
100
AcDbAlignedDimension
 13
-48.022324
 23
24.267212
 33
0.0
 14
-48.022324
 24
3.267212
 34
0.0
 50
90.0
  0
DIMENSION
  5
62
100
AcDbEntity
  8
2
370
    25
100
AcDbDimension
  2
*D1
 10
-67.7089
 20
42.267212
 30
0.0
 11
-72.2089
 21
13.767212
 31
0.0
 71
     0
 72
     0
 41
0.0
 42
0.0
  3
Standard
100
AcDbAlignedDimension
 13
-59.272324
 23
-14.732788
 33
0.0
 14
-59.272324
 24
42.267212
 34
0.0
 50
90.0
100
AcDbRotatedDimension
  0
DIMENSION
  5
63
100
AcDbEntity
  8
2
370
    25
100
AcDbDimension
  2
*D2
 10
-36.772324
 20
-26.80484
 30
0.0
 11
-48.022324
 21
-24.30484
 31
0.0
 71
     0
 72
     0
 41
0.0
 42
0.0
  3
Standard
100
AcDbAlignedDimension
 13
-59.272324
 23
-14.732788
 33
0.0
 14
-36.772324
 24
-14.732788
 34
0.0
100
AcDbRotatedDimension
  0
DIMENSION
  5
64
100
AcDbEntity
  8
2
370
    25
100
AcDbDimension
  2
*D3
 10
-9.256591
 20
49.032738
 30
0.0
 11
-1.256591
 21
51.532738
 31
0.0
 71
     0
 72
     0
 41
0.0
 42
0.0
  3
Standard
100
AcDbAlignedDimension
 13
-12.456591
 23
46.110256
 33
0.0
 14
-9.256591
 24
42.267212
 34
0.0
100
AcDbRotatedDimension
  0
DIMENSION
  5
65
100
AcDbEntity
  8
2
370
    25
100
AcDbDimension
  2
*D4
 10
77.543409
 20
-28.727245
 30
0.0
 11
32.543409
 21
-26.227245
 31
0.0
 71
     0
 72
     0
 41
0.0
 42
0.0
  3
Standard
100
AcDbAlignedDimension
 13
-12.456591
 23
-24.047463
 33
0.0
 14
77.543409
 24
3.267212
 34
0.0
100
AcDbRotatedDimension
  0
DIMENSION
  5
66
100
AcDbEntity
  8
2
370
    25
100
AcDbDimension
  2
*D5
 10
56.543409
 20
-10.149813
 30
0.0
 11
47.543409
 21
-7.649813
 31
0.0
 71
     0
 72
     0
 41
0.0
 42
0.0
  3
Standard
100
AcDbAlignedDimension
 13
38.543409
 23
-2.842814
 33
0.0
 14
56.543409
 24
-1.849592
 34
0.0
100
AcDbRotatedDimension
  0
TEXT
  5
67
100
AcDbEntity
  8
2
370
    18
100
AcDbText
 10
1.543409
 20
-20.796274
 30
0.0
 40
4.0
  1
バックセット６０
 72
     5
 11
32.743409
 21
-20.796274
 31
0.0
100
AcDbText
  0
DIMENSION
  5
68
100
AcDbEntity
  8
2
370
    25
100
AcDbDimension
  2
*D6
 10
47.543409
 20
-21.296274
 30
0.0
 11
17.543409
 21
-19.296274
 31
0.0
 71
     0
 72
     0
 41
0.0
 42
0.0
  3
Standard
100
AcDbAlignedDimension
 13
-12.456591
 23
-19.899865
 33
0.0
 14
47.543409
 24
-19.899865
 34
0.0
100
AcDbRotatedDimension
  0
TEXT
  5
69
100
AcDbEntity
  8
2
370
    18
100
AcDbText
 10
-32.289196
 20
54.902161
 30
0.0
 40
4.0
  1
角又は６Ｒ
 72
     5
 11
-13.089196
 21
54.902161
 31
0.0
100
AcDbText
  0
LWPOLYLINE
  5
6A
100
AcDbEntity
  8
2
370
    25
100
AcDbPolyline
 90
        3
 70
     0
 10
-36.772324
 20
42.267212
 10
-34.23127
 20
54.402161
 10
-9.678352
 20
54.402161
  0
LINE
  5
6F
100
AcDbEntity
  8
2
370
    25
100
AcDbLine
 10
-36.883032
 20
44.264146
 30
0.0
 11
-36.772324
 21
42.267212
 31
0.0
  0
LINE
  5
70
100
AcDbEntity
  8
2
370
    25
100
AcDbLine
 10
-36.772324
 20
42.267212
 30
0.0
 11
-35.869733
 21
44.051962
 31
0.0
  0
LWPOLYLINE
  5
71
100
AcDbEntity
  8
2
370
    25
100
AcDbPolyline
 90
        3
 70
     0
 10
33.800181
 20
23.134805
 10
28.232861
 20
34.129929
 10
5.232861
 20
34.129929
  0
LINE
  5
76
100
AcDbEntity
  8
2
370
    25
100
AcDbLine
 10
32.465682
 20
24.624473
 30
0.0
 11
33.800181
 21
23.134805
 31
0.0
  0
LINE
  5
77
100
AcDbEntity
  8
2
370
    25
100
AcDbLine
 10
33.800181
 20
23.134805
 30
0.0
 11
33.389305
 21
25.092145
 31
0.0
  0
TEXT
  5
78
100
AcDbEntity
  8
2
370
    18
100
AcDbText
 10
14.232861
 20
34.629929
 30
0.0
 40
4.0
  1
φ２１
 72
     5
 11
25.432861
 21
34.629929
 31
0.0
100
AcDbText
  0
TEXT
  5
79
100
AcDbEntity
  8
2
370
    18
100
AcDbText
 10
6.232861
 20
34.629929
 30
0.0
 40
4.0
  1
２－
 72
     5
 11
13.432861
 21
34.629929
 31
0.0
100
AcDbText
  0
LINE
  5
7A
100
AcDbEntity
  8
3
370
   100
100
AcDbLine
 10
-80.0
 20
138.0
 30
0.0
 11
-80.0
 21
-138.0
 31
0.0
  0
LINE
  5
7B
100
AcDbEntity
  8
3
370
   100
100
AcDbLine
 10
98.0
 20
-138.0
 30
0.0
 11
98.0
 21
138.0
 31
0.0
  0
LINE
  5
7C
100
AcDbEntity
  8
3
370
   100
100
AcDbLine
 10
-80.0
 20
-138.0
 30
0.0
 11
98.0
 21
-138.0
 31
0.0
  0
LINE
  5
7D
100
AcDbEntity
  8
3
370
   100
100
AcDbLine
 10
98.0
 20
138.0
 30
0.0
 11
-80.0
 21
138.0
 31
0.0
  0
LINE
  5
7E
100
AcDbEntity
  8
3
370
   100
100
AcDbLine
 10
-80.0
 20
138.3
 30
0.0
 11
98.3
 21
138.3
 31
0.0
  0
LINE
  5
7F
100
AcDbEntity
  8
3
370
   100
100
AcDbLine
 10
98.3
 20
138.3
 30
0.0
 11
98.3
 21
-138.3
 31
0.0
  0
LINE
  5
80
100
AcDbEntity
  8
3
370
   100
100
AcDbLine
 10
98.3
 20
-138.3
 30
0.0
 11
-80.3
 21
-138.3
 31
0.0
  0
LINE
  5
81
100
AcDbEntity
  8
3
370
   100
100
AcDbLine
 10
-80.3
 20
-138.3
 30
0.0
 11
-80.3
 21
138.0
 31
0.0
  0
LINE
  5
82
100
AcDbEntity
  8
3
370
    50
100
AcDbLine
 10
-80.0
 20
-108.0
 30
0.0
 11
98.0
 21
-108.0
 31
0.0
  0
LINE
  5
83
100
AcDbEntity
  8
3
370
    50
100
AcDbLine
 10
-2.0
 20
-108.0
 30
0.0
 11
-2.0
 21
-138.0
 31
0.0
  0
TEXT
  5
84
100
AcDbEntity
  8
3
370
    25
100
AcDbText
 10
-75.0
 20
-112.5
 30
0.0
 40
4.0
  1
図  法
 72
     5
 11
-59.8
 21
-112.5
 31
0.0
100
AcDbText
  0
TEXT
  5
85
100
AcDbEntity
  8
3
370
    25
100
AcDbText
 10
-49.0
 20
-112.5
 30
0.0
 40
4.0
  1
単  位
 72
     5
 11
-33.8
 21
-112.5
 31
0.0
100
AcDbText
  0
TEXT
  5
86
100
AcDbEntity
  8
3
370
    25
100
AcDbText
 10
-23.0
 20
-112.5
 30
0.0
 40
4.0
  1
尺  度
 72
     5
 11
-7.8
 21
-112.5
 31
0.0
100
AcDbText
  0
TEXT
  5
87
100
AcDbEntity
  8
3
370
   100
100
AcDbText
 10
-69.0
 20
-135.5
 30
0.0
 40
8.0
  1
（株）川口技研
 72
     5
 11
-14.6
 21
-135.5
 31
0.0
100
AcDbText
  0
TEXT
  5
88
100
AcDbEntity
  8
3
370
    25
100
AcDbText
 10
0.0
 20
-112.5
 30
0.0
 40
4.0
  1
図面名称
 72
     5
 11
15.2
 21
-112.5
 31
0.0
100
AcDbText
  0
TEXT
  5
89
100
AcDbEntity
  8
3
370
    25
100
AcDbText
 10
0.0
 20
-129.5
 30
0.0
 40
4.0
  1
図面番号
 72
     5
 11
15.2
 21
-129.5
 31
0.0
100
AcDbText
  0
LINE
  5
8A
100
AcDbEntity
  8
3
370
    25
100
AcDbLine
 10
-80.0
 20
-113.0
 30
0.0
 11
18.0
 21
-113.0
 31
0.0
  0
LINE
  5
8B
100
AcDbEntity
  8
3
370
    25
100
AcDbLine
 10
18.0
 20
-108.0
 30
0.0
 11
18.0
 21
-113.0
 31
0.0
  0
LINE
  5
8C
100
AcDbEntity
  8
3
370
    25
100
AcDbLine
 10
-2.0
 20
-130.0
 30
0.0
 11
18.0
 21
-130.0
 31
0.0
  0
LINE
  5
8D
100
AcDbEntity
  8
3
370
    25
100
AcDbLine
 10
18.0
 20
-125.0
 30
0.0
 11
18.0
 21
-130.0
 31
0.0
  0
TEXT
  5
8E
100
AcDbEntity
  8
3
370
    25
100
AcDbText
 10
-46.0
 20
-121.5
 30
0.0
 40
5.0
  1
ｍｍ
 72
     5
 11
-37.0
 21
-121.5
 31
0.0
100
AcDbText
  0
TEXT
  5
8F
100
AcDbEntity
  8
3
370
    25
100
AcDbText
 10
-21.0
 20
-121.5
 30
0.0
 40
4.0
  1
１／１
 72
     5
 11
-9.8
 21
-121.5
 31
0.0
100
AcDbText
  0
TEXT
  5
90
100
AcDbEntity
  8
3
370
    25
100
AcDbText
 10
-73.0
 20
-121.5
 30
0.0
 40
4.0
  1
３角法
 72
     5
 11
-61.8
 21
-121.5
 31
0.0
100
AcDbText
  0
LINE
  5
91
100
AcDbEntity
  8
3
370
    50
100
AcDbLine
 10
-80.0
 20
-125.0
 30
0.0
 11
-2.0
 21
-125.0
 31
0.0
  0
LINE
  5
92
100
AcDbEntity
  8
3
370
    50
100
AcDbLine
 10
-2.0
 20
-125.0
 30
0.0
 11
98.0
 21
-125.0
 31
0.0
  0
LINE
  5
93
100
AcDbEntity
  8
3
370
    50
100
AcDbLine
 10
-54.0
 20
-125.0
 30
0.0
 11
-54.0
 21
-108.0
 31
0.0
  0
LINE
  5
94
100
AcDbEntity
  8
3
370
    50
100
AcDbLine
 10
-28.0
 20
-125.0
 30
0.0
 11
-28.0
 21
-108.0
 31
0.0
  0
POINT
  5
95
100
AcDbEntity
  8
3
370
    50
100
AcDbPoint
 10
49.043409
 20
13.767212
 30
0.0
  0
TEXT
  5
96
100
AcDbEntity
  8
3
370
   100
100
AcDbText
 10
28.421455
 20
-134.545471
 30
0.0
 40
6.0
  1
ＥＺ－１４３５－０１
 72
     5
 11
87.221455
 21
-134.545471
 31
0.0
100
AcDbText
  0
TEXT
  5
97
100
AcDbEntity
  8
3
370
    50
100
AcDbText
 10
30.285025
 20
-120.275894
 30
0.0
 40
5.0
  1
戸襖錠切り欠図
 72
     5
 11
64.285025
 21
-120.275894
 31
0.0
100
AcDbText
  0
ENDSEC
  0
SECTION
  2
OBJECTS
  0
DICTIONARY
  5
DD
100
AcDbDictionary
280
     0
281
     1
  3
ACAD_GROUP
350
DE
  3
ACAD_MLINESTYLE
350
DF
  0
DICTIONARY
  5
DE
102
{ACAD_REACTORS
330
DD
102
}
100
AcDbDictionary
280
     0
281
     1
  0
DICTIONARY
  5
DF
102
{ACAD_REACTORS
330
DD
102
}
100
AcDbDictionary
280
     0
281
     1
  3
Standard
350
E0
  0
MLINESTYLE
  5
E0
102
{ACAD_REACTORS
330
DF
102
}
100
AcDbMlineStyle
  2
Standard
 70
     0
  3

 62
     0
 51
90.0
 52
90.0
 71
     2
 49
0.5
 62
   256
  6
ByLayer
 49
-0.5
 62
   256
  6
ByLayer
  0
ENDSEC
  0
EOF
