  0
SECTION
  2
HEADER
  9
$ACADVER
  1
AC1015
  9
$ACADMAINTVER
 70
     6
  9
$DWGCODEPAGE
  3
ANSI_932
  9
$INSBASE
 10
0.0
 20
0.0
 30
0.0
  9
$EXTMIN
 10
-105.0
 20
-148.5
 30
1.000000E+20
  9
$EXTMAX
 10
105.0
 20
148.5
 30
-1.000000E+20
  9
$LIMMIN
 10
-105.0
 20
-148.5
  9
$LIMMAX
 10
105.0
 20
148.5
  9
$ORTHOMODE
 70
     0
  9
$REGENMODE
 70
     1
  9
$FILLMODE
 70
     1
  9
$QTEXTMODE
 70
     0
  9
$MIRRTEXT
 70
     1
  9
$LTSCALE
 40
1.0
  9
$ATTMODE
 70
     1
  9
$TEXTSIZE
 40
0.2
  9
$TRACEWID
 40
0.05
  9
$TEXTSTYLE
  7
STANDARD
  9
$CLAYER
  8
0
  9
$CELTYPE
  6
CONTINUOUS
  9
$CECOLOR
 62
   256
  9
$CELTSCALE
 40
1.0
  9
$DISPSILH
 70
     0
  9
$DIMSCALE
 40
1.0
  9
$DIMASZ
 40
2.0
  9
$DIMEXO
 40
0.5
  9
$DIMDLI
 40
0.38
  9
$DIMRND
 40
0.0
  9
$DIMDLE
 40
0.0
  9
$DIMEXE
 40
2.0
  9
$DIMTP
 40
0.0
  9
$DIMTM
 40
0.0
  9
$DIMTXT
 40
4.0
  9
$DIMCEN
 40
0.09
  9
$DIMTSZ
 40
0.0
  9
$DIMTOL
 70
     0
  9
$DIMLIM
 70
     0
  9
$DIMTIH
 70
     0
  9
$DIMTOH
 70
     0
  9
$DIMSE1
 70
     0
  9
$DIMSE2
 70
     0
  9
$DIMTAD
 70
     1
  9
$DIMZIN
 70
     0
  9
$DIMBLK
  1

  9
$DIMASO
 70
     1
  9
$DIMSHO
 70
     1
  9
$DIMPOST
  1

  9
$DIMAPOST
  1

  9
$DIMALT
 70
     0
  9
$DIMALTD
 70
     2
  9
$DIMALTF
 40
25.4
  9
$DIMLFAC
 40
1.0
  9
$DIMTOFL
 70
     0
  9
$DIMTVP
 40
0.0
  9
$DIMTIX
 70
     0
  9
$DIMSOXD
 70
     0
  9
$DIMSAH
 70
     0
  9
$DIMBLK1
  1

  9
$DIMBLK2
  1

  9
$DIMSTYLE
  2
Standard
  9
$DIMCLRD
 70
     0
  9
$DIMCLRE
 70
     0
  9
$DIMCLRT
 70
     0
  9
$DIMTFAC
 40
1.0
  9
$DIMGAP
 40
0.5
  9
$DIMJUST
 70
     0
  9
$DIMSD1
 70
     0
  9
$DIMSD2
 70
     0
  9
$DIMTOLJ
 70
     1
  9
$DIMTZIN
 70
     0
  9
$DIMALTZ
 70
     0
  9
$DIMALTTZ
 70
     0
  9
$DIMUPT
 70
     0
  9
$DIMDEC
 70
     2
  9
$DIMTDEC
 70
     4
  9
$DIMALTU
 70
     2
  9
$DIMALTTD
 70
     2
  9
$DIMTXSTY
  7
STANDARD
  9
$DIMAUNIT
 70
     0
  9
$DIMADEC
 70
     2
  9
$DIMALTRND
 40
0.0
  9
$DIMAZIN
 70
     0
  9
$DIMDSEP
 70
     0
  9
$DIMATFIT
 70
     3
  9
$DIMFRAC
 70
     0
  9
$DIMLDRBLK
  1

  9
$DIMLUNIT
 70
     2
  9
$DIMLWD
 70
     0
  9
$DIMLWE
 70
     0
  9
$DIMTMOVE
 70
     0
  9
$LUNITS
 70
     2
  9
$LUPREC
 70
     4
  9
$SKETCHINC
 40
0.1
  9
$FILLETRAD
 40
0.0
  9
$AUNITS
 70
     0
  9
$AUPREC
 70
     0
  9
$MENU
  1
acad
  9
$ELEVATION
 40
0.0
  9
$PELEVATION
 40
0.0
  9
$THICKNESS
 40
0.0
  9
$LIMCHECK
 70
     0
  9
$CHAMFERA
 40
0.0
  9
$CHAMFERB
 40
0.0
  9
$CHAMFERC
 40
0.0
  9
$CHAMFERD
 40
0.0
  9
$SKPOLY
 70
     0
  9
$TDCREATE
 40
2452749.000000000
  9
$TDUCREATE
 40
0.000000000
  9
$TDUPDATE
 40
0.000000000
  9
$TDUUPDATE
 40
2447892.625000000
  9
$TDINDWG
 40
0.0000000000
  9
$TDUSRTIMER
 40
0.0000000000
  9
$USRTIMER
 70
     1
  9
$ANGBASE
 50
0.0
  9
$ANGDIR
 70
     0
  9
$PDMODE
 70
     0
  9
$PDSIZE
 40
0.0
  9
$PLINEWID
 40
0.0
  9
$SPLFRAME
 70
     0
  9
$SPLINETYPE
 70
     6
  9
$SPLINESEGS
 70
     8
  9
$HANDSEED
  5
191
  9
$SURFTAB1
 70
     6
  9
$SURFTAB2
 70
     6
  9
$SURFTYPE
 70
     6
  9
$SURFU
 70
     6
  9
$SURFV
 70
     6
  9
$UCSBASE
  2

  9
$UCSNAME
  2

  9
$UCSORG
 10
0.0
 20
0.0
 30
0.0
  9
$UCSXDIR
 10
1.0
 20
0.0
 30
0.0
  9
$UCSYDIR
 10
0.0
 20
1.0
 30
0.0
  9
$UCSORTHOREF
  2

  9
$UCSORTHOVIEW
 70
     0
  9
$UCSORGTOP
 10
0.0
 20
0.0
 30
0.0
  9
$UCSORGBOTTOM
 10
0.0
 20
0.0
 30
0.0
  9
$UCSORGLEFT
 10
0.0
 20
0.0
 30
0.0
  9
$UCSORGRIGHT
 10
0.0
 20
0.0
 30
0.0
  9
$UCSORGFRONT
 10
0.0
 20
0.0
 30
0.0
  9
$UCSORGBACK
 10
0.0
 20
0.0
 30
0.0
  9
$PUCSBASE
  2

  9
$PUCSNAME
  2

  9
$PUCSORG
 10
0.0
 20
0.0
 30
0.0
  9
$PUCSXDIR
 10
1.0
 20
0.0
 30
0.0
  9
$PUCSYDIR
 10
0.0
 20
1.0
 30
0.0
  9
$PUCSORTHOREF
  2

  9
$PUCSORTHOVIEW
 70
     0
  9
$PUCSORGTOP
 10
0.0
 20
0.0
 30
0.0
  9
$PUCSORGBOTTOM
 10
0.0
 20
0.0
 30
0.0
  9
$PUCSORGLEFT
 10
0.0
 20
0.0
 30
0.0
  9
$PUCSORGRIGHT
 10
0.0
 20
0.0
 30
0.0
  9
$PUCSORGFRONT
 10
0.0
 20
0.0
 30
0.0
  9
$PUCSORGBACK
 10
0.0
 20
0.0
 30
0.0
  9
$USERI1
 70
     0
  9
$USERI2
 70
     0
  9
$USERI3
 70
     0
  9
$USERI4
 70
     0
  9
$USERI5
 70
     0
  9
$USERR1
 40
0.0
  9
$USERR2
 40
0.0
  9
$USERR3
 40
0.0
  9
$USERR4
 40
0.0
  9
$USERR5
 40
0.0
  9
$WORLDVIEW
 70
     1
  9
$SHADEDGE
 70
     3
  9
$SHADEDIF
 70
    70
  9
$TILEMODE
 70
     1
  9
$MAXACTVP
 70
    16
  9
$PINSBASE
 10
0.0
 20
0.0
 30
0.0
  9
$PLIMCHECK
 70
     0
  9
$PEXTMIN
 10
1.000000E+20
 20
1.000000E+20
 30
1.000000E+20
  9
$PEXTMAX
 10
-1.000000E+20
 20
-1.000000E+20
 30
-1.000000E+20
  9
$PLIMMIN
 10
0.0
 20
0.0
  9
$PLIMMAX
 10
12.0
 20
9.0
  9
$UNITMODE
 70
     0
  9
$VISRETAIN
 70
     0
  9
$PLINEGEN
 70
     1
  9
$PSLTSCALE
 70
     0
  9
$TREEDEPTH
 70
  3020
  9
$CMLSTYLE
  2
Standard
  9
$CMLJUST
 70
     0
  9
$CMLSCALE
 40
1.0
  9
$PROXYGRAPHICS
 70
     0
  9
$MEASUREMENT
 70
     0
  9
$CELWEIGHT
370
     0
  9
$ENDCAPS
280
     0
  9
$JOINSTYLE
280
     0
  9
$LWDISPLAY
290
     0
  9
$INSUNITS
 70
     0
  9
$HYPERLINKBASE
  1

  9
$STYLESHEET
  1

  9
$XEDIT
290
     1
  9
$CEPSNTYPE
380
     0
  9
$PSTYLEMODE
290
     1
  9
$FINGERPRINTGUID
  2

  9
$VERSIONGUID
  2

  9
$EXTNAMES
290
     1
  9
$PSVPSCALE
 40
0.0
  0
ENDSEC
  0
SECTION
  2
CLASSES
  0
CLASS
  1
LWPOLYLINE
  2
AcDbPolyline
  3
AutoCAD 2000
 90
        0
280
     0
281
     1
  0
CLASS
  1
IMAGE
  2
AcDbRasterImage
  3
ISM
 90
      127
280
     0
281
     1
  0
CLASS
  1
OLE2FRAME
  2
AcDbOle2Frame
  3
AutoCAD 2000
 90
        0
280
     0
281
     1
  0
CLASS
  1
HATCH
  2
AcDbHatch
  3
AutoCAD 2000
 90
        0
280
     0
281
     1
  0
CLASS
  1
DICTIONARYVAR
  2
AcDbDictionaryVar
  3
AutoCAD 2000
 90
        0
280
     0
281
     0
  0
CLASS
  1
RASTERVARIABLES
  2
AcDbRasterVariables
  3
ISM
 90
        0
280
     0
281
     0
  0
CLASS
  1
IMAGEDEF
  2
AcDbRasterImageDef
  3
ISM
 90
        0
280
     0
281
     0
  0
CLASS
  1
IMAGEDEF_REACTOR
  2
AcDbRasterImageDefReactor
  3
ISM
 90
        1
280
     0
281
     0
  0
CLASS
  1
IDBUFFER
  2
AcDbIdBuffer
  3
AutoCAD 2000
 90
        0
280
     0
281
     0
  0
CLASS
  1
SPATIAL_FILTER
  2
AcDbSpatialFilter
  3
AutoCAD 2000
 90
        0
280
     0
281
     0
  0
CLASS
  1
XRECORD
  2
AcDbXrecord
  3
AutoCAD 2000
 90
        0
280
     0
281
     0
  0
CLASS
  1
SORTENTSTABLE
  2
AcDbSortentsTable
  3
AutoCAD 2000
 90
        0
280
     0
281
     0
  0
CLASS
  1
LAYER_INDEX
  2
AcDbLayerIndex
  3
AutoCAD 2000
 90
        0
280
     0
281
     0
  0
CLASS
  1
SPATIAL_INDEX
  2
AcDbSpatialIndex
  3
AutoCAD 2000
 90
        0
280
     0
281
     0
  0
CLASS
  1
OBJECT_PTR
  2
CAseDLPNTableRecord
  3
"ASE-LPNTableRecord"
 90
        1
280
     0
281
     0
  0
CLASS
  1
LAYOUT
  2
AcDbLayout
  3
AutoCAD 2000
 90
        0
280
     0
281
     0
  0
CLASS
  1
PLOTSETTINGS
  2
AcDbPlotSettings
  3
AutoCAD 2000
 90
        0
280
     0
281
     0
  0
CLASS
  1
ACDBDICTIONARYWDFLT
  2
AcDbDictionaryWithDefault
  3
AutoCAD 2000
 90
        0
280
     0
281
     0
  0
CLASS
  1
ACDBPLACEHOLDER
  2
AcDbPlaceHolder
  3
AutoCAD 2000
 90
        0
280
     0
281
     0
  0
CLASS
  1
VBA_PROJECT
  2
AcDbVbaProject
  3
acadvba
 90
        0
280
     0
281
     0
  0
CLASS
  1
WIPEOUT
  2
AcDbWipeout
  3
WipeOut|AutoCAD Express Tool|expresstools@autodesk.com
 90
      127
280
     0
281
     1
  0
CLASS
  1
WIPEOUTVARIABLES
  2
AcDbWipeoutVariables
  3
WipeOut|AutoCAD Express Tool|expresstools@autodesk.com
 90
        0
280
     0
281
     0
  0
CLASS
  1
RTEXT
  2
RText
  3
RText|AutoCAD Express Tool|expresstools@autodesk.com
 90
        0
280
     0
281
     1
  0
CLASS
  1
ARCALIGNEDTEXT
  2
AcDbArcAlignedText
  3
ATEXT|AutoCAD Express Tool|expresstools@autodesk.com
 90
        0
280
     0
281
     1
  0
ENDSEC
  0
SECTION
  2
TABLES
  0
TABLE
  2
VPORT
  5
6
100
AcDbSymbolTable
 70
     1
  0
VPORT
  5
1A
100
AcDbSymbolTableRecord
100
AcDbViewportTableRecord
  2
*ACTIVE
 70
     0
 10
0.0
 20
0.0
 11
1.0
 21
1.0
 12
0.0
 22
0.0
 13
0.0
 23
0.0
 14
1.0
 24
1.0
 15
0.0
 25
0.0
 16
0.0
 26
0.0
 36
1.0
 17
0.0
 27
0.0
 37
0.0
 40
297.0
 41
0.707071
 42
50.0
 43
0.0
 44
0.0
 50
0.0
 51
0.0
 71
     0
 72
   500
 73
     1
 74
     1
 75
     0
 76
     0
 77
     0
 78
     0
281
     0
 65
     0
110
0.0
120
0.0
130
0.0
111
1.0
121
0.0
131
0.0
112
0.0
122
1.0
132
0.0
345
0
346
0
 79
     0
146
0.0
  0
ENDTAB
  0
TABLE
  2
LTYPE
  5
3
100
AcDbSymbolTable
 70
     9
  0
LTYPE
  5
C
100
AcDbSymbolTableRecord
100
AcDbLinetypeTableRecord
  2
ByBlock
 70
    64
  3

 72
    65
 73
     0
 40
0.0
  0
LTYPE
  5
D
100
AcDbSymbolTableRecord
100
AcDbLinetypeTableRecord
  2
ByLayer
 70
    64
  3

 72
    65
 73
     0
 40
0.0
  0
LTYPE
  5
E
100
AcDbSymbolTableRecord
100
AcDbLinetypeTableRecord
  2
CONTINUOUS
 70
     0
  3
Solid line
 72
    65
 73
     0
 40
0.0
  0
LTYPE
  5
F
100
AcDbSymbolTableRecord
100
AcDbLinetypeTableRecord
  2
DASHED
 70
     0
  3
__ __ __ __ __ __ __ __ __ __ __ __ __ __ __
 72
    65
 73
     2
 40
2.0
 49
1.2
 74
     0
 49
-0.8
 74
     0
  0
LTYPE
  5
10
100
AcDbSymbolTableRecord
100
AcDbLinetypeTableRecord
  2
CENTER
 70
     0
  3
____ _ ____ _ ____ _ ____ _ ____ _ ____ _ ____
 72
    65
 73
     4
 40
12.0
 49
9.0
 74
     0
 49
-1.0
 74
     0
 49
1.0
 74
     0
 49
-1.0
 74
     0
  0
LTYPE
  5
11
100
AcDbSymbolTableRecord
100
AcDbLinetypeTableRecord
  2
HIDDEN
 70
     0
  3
_ _ _ _ _ _ _ _ _ _ _ _ _ _ _ _ _ _ _ _ _ _ _
 72
    65
 73
     2
 40
3.2
 49
1.3
 74
     0
 49
-1.9
 74
     0
  0
LTYPE
  5
12
100
AcDbSymbolTableRecord
100
AcDbLinetypeTableRecord
  2
PHANTOM
 70
     0
  3
_____ _ _ _____ _ _ _____ _ _ _____ _ _ _____
 72
    65
 73
     6
 40
12.5
 49
9.0
 74
     0
 49
-1.0
 74
     0
 49
0.5
 74
     0
 49
-0.5
 74
     0
 49
0.5
 74
     0
 49
-1.0
 74
     0
  0
LTYPE
  5
13
100
AcDbSymbolTableRecord
100
AcDbLinetypeTableRecord
  2
DOT
 70
     0
  3
...............................................
 72
    65
 73
     2
 40
1.0
 49
0.5
 74
     0
 49
-0.5
 74
     0
  0
LTYPE
  5
14
100
AcDbSymbolTableRecord
100
AcDbLinetypeTableRecord
  2
DASHDOT
 70
     0
  3
__ . __ . __ . __ . __ . __ . __ . __ . __ . __
 72
    65
 73
     4
 40
8.0
 49
5.0
 74
     0
 49
-1.0
 74
     0
 49
1.0
 74
     0
 49
-1.0
 74
     0
  0
ENDTAB
  0
TABLE
  2
LAYER
  5
1
100
AcDbSymbolTable
 70
     5
  0
LAYER
  5
15
100
AcDbSymbolTableRecord
100
AcDbLayerTableRecord
  2
0
 70
     0
 62
     8
  6
CONTINUOUS
290
     1
370
    -3
390
0
  0
LAYER
  5
16
100
AcDbSymbolTableRecord
100
AcDbLayerTableRecord
  2
1
 70
     0
 62
     2
  6
CONTINUOUS
290
     1
370
    -3
390
0
  0
LAYER
  5
17
100
AcDbSymbolTableRecord
100
AcDbLayerTableRecord
  2
2
 70
     0
 62
     3
  6
CONTINUOUS
290
     1
370
    -3
390
0
  0
LAYER
  5
18
100
AcDbSymbolTableRecord
100
AcDbLayerTableRecord
  2
3
 70
     0
 62
     4
  6
CONTINUOUS
290
     1
370
    -3
390
0
  0
LAYER
  5
19
100
AcDbSymbolTableRecord
100
AcDbLayerTableRecord
  2
4
 70
     0
 62
     1
  6
CONTINUOUS
290
     1
370
    -3
390
0
  0
ENDTAB
  0
TABLE
  2
STYLE
  5
2
100
AcDbSymbolTable
 70
     1
  0
STYLE
  5
1C
100
AcDbSymbolTableRecord
100
AcDbTextStyleTableRecord
  2
STANDARD
 70
    64
 40
0.0
 41
1.0
 50
0.0
 71
     0
 42
1.0
  3
txt
  4
BIGFONT
  0
ENDTAB
  0
TABLE
  2
VIEW
  5
4
100
AcDbSymbolTable
 70
     0
  0
ENDTAB
  0
TABLE
  2
UCS
  5
5
100
AcDbSymbolTable
 70
     0
  0
ENDTAB
  0
TABLE
  2
APPID
  5
7
100
AcDbSymbolTable
 70
     1
  0
APPID
  5
1B
100
AcDbSymbolTableRecord
100
AcDbRegAppTableRecord
  2
ACAD
 70
     0
  0
ENDTAB
  0
TABLE
  2
DIMSTYLE
  5
8
100
AcDbSymbolTable
 70
     1
100
AcDbDimStyleTable
 71
     0
  0
DIMSTYLE
105
37
100
AcDbSymbolTableRecord
100
AcDbDimStyleTableRecord
  2
Standard
 70
     0
  3

  4

 40
1.0
 41
2.0
 42
0.5
 43
0.38
 44
2.0
 45
0.0
 46
0.0
 47
0.0
 48
0.0
 71
     0
 72
     0
 73
     0
 74
     0
 75
     0
 76
     0
 77
     1
 78
     0
 79
     0
140
4.0
141
0.09
142
0.0
143
25.4
144
1.0
145
0.0
146
1.0
147
0.5
148
0.0
170
     0
171
     2
172
     0
173
     0
174
     0
175
     0
176
     0
177
     0
178
     0
179
     0
271
     2
272
     4
273
     2
274
     2
275
     0
276
     0
277
     2
278
    46
279
     0
280
     0
281
     0
282
     0
283
     1
284
     0
285
     0
286
     0
288
     0
289
     3
340
1C
341
0
342
0
343
0
344
0
371
    -2
372
    -2
  0
ENDTAB
  0
TABLE
  2
BLOCK_RECORD
  5
32
100
AcDbSymbolTable
 70
    19
  0
BLOCK_RECORD
  5
30
100
AcDbSymbolTableRecord
100
AcDbBlockTableRecord
  2
*Model_Space
340
0
  0
BLOCK_RECORD
  5
31
100
AcDbSymbolTableRecord
100
AcDbBlockTableRecord
  2
*Paper_Space
340
0
  0
BLOCK_RECORD
  5
1D
100
AcDbSymbolTableRecord
100
AcDbBlockTableRecord
  2
*D0
340
0
  0
BLOCK_RECORD
  5
1E
100
AcDbSymbolTableRecord
100
AcDbBlockTableRecord
  2
*D1
340
0
  0
BLOCK_RECORD
  5
1F
100
AcDbSymbolTableRecord
100
AcDbBlockTableRecord
  2
*D2
340
0
  0
BLOCK_RECORD
  5
20
100
AcDbSymbolTableRecord
100
AcDbBlockTableRecord
  2
*D3
340
0
  0
BLOCK_RECORD
  5
21
100
AcDbSymbolTableRecord
100
AcDbBlockTableRecord
  2
*D4
340
0
  0
BLOCK_RECORD
  5
22
100
AcDbSymbolTableRecord
100
AcDbBlockTableRecord
  2
*D5
340
0
  0
BLOCK_RECORD
  5
23
100
AcDbSymbolTableRecord
100
AcDbBlockTableRecord
  2
*D6
340
0
  0
BLOCK_RECORD
  5
24
100
AcDbSymbolTableRecord
100
AcDbBlockTableRecord
  2
*D7
340
0
  0
BLOCK_RECORD
  5
25
100
AcDbSymbolTableRecord
100
AcDbBlockTableRecord
  2
*D8
340
0
  0
BLOCK_RECORD
  5
26
100
AcDbSymbolTableRecord
100
AcDbBlockTableRecord
  2
*D9
340
0
  0
BLOCK_RECORD
  5
27
100
AcDbSymbolTableRecord
100
AcDbBlockTableRecord
  2
*D10
340
0
  0
BLOCK_RECORD
  5
28
100
AcDbSymbolTableRecord
100
AcDbBlockTableRecord
  2
*D11
340
0
  0
BLOCK_RECORD
  5
29
100
AcDbSymbolTableRecord
100
AcDbBlockTableRecord
  2
*D12
340
0
  0
BLOCK_RECORD
  5
2A
100
AcDbSymbolTableRecord
100
AcDbBlockTableRecord
  2
*D13
340
0
  0
BLOCK_RECORD
  5
2B
100
AcDbSymbolTableRecord
100
AcDbBlockTableRecord
  2
*D14
340
0
  0
BLOCK_RECORD
  5
2C
100
AcDbSymbolTableRecord
100
AcDbBlockTableRecord
  2
*D15
340
0
  0
BLOCK_RECORD
  5
2D
100
AcDbSymbolTableRecord
100
AcDbBlockTableRecord
  2
*D16
340
0
  0
BLOCK_RECORD
  5
2E
100
AcDbSymbolTableRecord
100
AcDbBlockTableRecord
  2
*D17
340
0
  0
BLOCK_RECORD
  5
2F
100
AcDbSymbolTableRecord
100
AcDbBlockTableRecord
  2
*D18
340
0
  0
ENDTAB
  0
ENDSEC
  0
SECTION
  2
BLOCKS
  0
BLOCK
  5
33
100
AcDbEntity
  8
0
390
0
100
AcDbBlockBegin
  2
*Model_Space
 70
     0
 10
0.0
 20
0.0
 30
0.0
  3
*Model_Space
  1

  0
ENDBLK
  5
34
100
AcDbEntity
  8
0
390
0
100
AcDbBlockEnd
  0
BLOCK
  5
35
100
AcDbEntity
 67
     1
  8
0
390
0
100
AcDbBlockBegin
  2
*Paper_Space
 70
     0
 10
0.0
 20
0.0
 30
0.0
  3
*Paper_Space
  1

  0
ENDBLK
  5
36
100
AcDbEntity
 67
     1
  8
0
390
0
100
AcDbBlockEnd
  0
BLOCK
  5
DA
100
AcDbEntity
  8
2
100
AcDbBlockBegin
  2
*D0
 70
     1
 10
0.0
 20
0.0
 30
0.0
  3
*D0
  1

  0
TEXT
  5
DB
100
AcDbEntity
  8
2
370
    25
100
AcDbText
 10
-60.3366
 20
1.664937
 30
0.0
 40
4.0
  1
19
 72
     5
 11
-53.1366
 21
1.664937
 31
0.0
100
AcDbText
  0
LINE
  5
DC
100
AcDbEntity
  8
2
370
    25
100
AcDbLine
 10
-65.8366
 20
1.631682
 30
0.0
 11
-65.8366
 21
0.164937
 31
0.0
  0
LINE
  5
DD
100
AcDbEntity
  8
2
370
    25
100
AcDbLine
 10
-65.8366
 20
1.164937
 30
0.0
 11
-63.904749
 21
0.647299
 31
0.0
  0
LINE
  5
DE
100
AcDbEntity
  8
2
370
    25
100
AcDbLine
 10
-65.8366
 20
1.164937
 30
0.0
 11
-63.904749
 21
1.682575
 31
0.0
  0
LINE
  5
DF
100
AcDbEntity
  8
2
370
    25
100
AcDbLine
 10
-65.8366
 20
1.164937
 30
0.0
 11
-46.8366
 21
1.164937
 31
0.0
  0
LINE
  5
E0
100
AcDbEntity
  8
2
370
    25
100
AcDbLine
 10
-46.8366
 20
1.164937
 30
0.0
 11
-48.768452
 21
1.682575
 31
0.0
  0
LINE
  5
E1
100
AcDbEntity
  8
2
370
    25
100
AcDbLine
 10
-46.8366
 20
1.164937
 30
0.0
 11
-48.768452
 21
0.647299
 31
0.0
  0
LINE
  5
E2
100
AcDbEntity
  8
2
370
    25
100
AcDbLine
 10
-46.8366
 20
1.631682
 30
0.0
 11
-46.8366
 21
0.164937
 31
0.0
  0
ENDBLK
  5
E3
100
AcDbEntity
  8
2
100
AcDbBlockEnd
  0
BLOCK
  5
E4
100
AcDbEntity
  8
2
100
AcDbBlockBegin
  2
*D1
 70
     1
 10
0.0
 20
0.0
 30
0.0
  3
*D1
  1

  0
TEXT
  5
E5
100
AcDbEntity
  8
2
370
    25
100
AcDbText
 10
10.708482
 20
-50.936951
 30
0.0
 40
4.0
  1
４
 72
     5
 11
13.908482
 21
-50.936951
 31
0.0
100
AcDbText
  0
LINE
  5
E6
100
AcDbEntity
  8
2
370
    25
100
AcDbLine
 10
2.708482
 20
-51.436951
 30
0.0
 11
0.77663
 21
-50.919313
 31
0.0
  0
LINE
  5
E7
100
AcDbEntity
  8
2
370
    25
100
AcDbLine
 10
2.708482
 20
-51.436951
 30
0.0
 11
0.77663
 21
-51.954589
 31
0.0
  0
LINE
  5
E8
100
AcDbEntity
  8
2
370
    25
100
AcDbLine
 10
-2.291518
 20
-51.436951
 30
0.0
 11
15.708482
 21
-51.436951
 31
0.0
  0
LINE
  5
E9
100
AcDbEntity
  8
2
370
    25
100
AcDbLine
 10
6.708482
 20
-51.436951
 30
0.0
 11
8.640334
 21
-51.954589
 31
0.0
  0
LINE
  5
EA
100
AcDbEntity
  8
2
370
    25
100
AcDbLine
 10
6.708482
 20
-51.436951
 30
0.0
 11
8.640334
 21
-50.919313
 31
0.0
  0
LINE
  5
EB
100
AcDbEntity
  8
2
370
    25
100
AcDbLine
 10
6.708482
 20
-43.652102
 30
0.0
 11
6.708482
 21
-52.436951
 31
0.0
  0
ENDBLK
  5
EC
100
AcDbEntity
  8
2
100
AcDbBlockEnd
  0
BLOCK
  5
ED
100
AcDbEntity
  8
2
100
AcDbBlockBegin
  2
*D2
 70
     1
 10
0.0
 20
0.0
 30
0.0
  3
*D2
  1

  0
TEXT
  5
EE
100
AcDbEntity
  8
2
370
    25
100
AcDbText
 10
36.208482
 20
-58.001839
 30
0.0
 40
4.0
  1
５１
 72
     5
 11
43.408482
 21
-58.001839
 31
0.0
100
AcDbText
  0
LINE
  5
EF
100
AcDbEntity
  8
2
370
    25
100
AcDbLine
 10
2.708482
 20
-58.501839
 30
0.0
 11
4.640334
 21
-59.019477
 31
0.0
  0
LINE
  5
F0
100
AcDbEntity
  8
2
370
    25
100
AcDbLine
 10
2.708482
 20
-58.501839
 30
0.0
 11
4.640334
 21
-57.984201
 31
0.0
  0
LINE
  5
F1
100
AcDbEntity
  8
2
370
    25
100
AcDbLine
 10
2.708482
 20
-58.501839
 30
0.0
 11
53.708482
 21
-58.501839
 31
0.0
  0
LINE
  5
F2
100
AcDbEntity
  8
2
370
    25
100
AcDbLine
 10
53.708482
 20
-58.501839
 30
0.0
 11
51.77663
 21
-57.984201
 31
0.0
  0
LINE
  5
F3
100
AcDbEntity
  8
2
370
    25
100
AcDbLine
 10
53.708482
 20
-58.501839
 30
0.0
 11
51.77663
 21
-59.019477
 31
0.0
  0
ENDBLK
  5
F4
100
AcDbEntity
  8
2
100
AcDbBlockEnd
  0
BLOCK
  5
F5
100
AcDbEntity
  8
2
100
AcDbBlockBegin
  2
*D3
 70
     1
 10
0.0
 20
0.0
 30
0.0
  3
*D3
  1

  0
TEXT
  5
F6
100
AcDbEntity
  8
2
370
    25
100
AcDbText
 10
-16.593849
 20
50.347898
 30
0.0
 40
4.0
  1
６５
 50
90.0
 72
     5
 11
-16.593849
 21
57.547898
 31
0.0
100
AcDbText
  0
LINE
  5
F7
100
AcDbEntity
  8
2
370
    25
100
AcDbLine
 10
-1.708563
 20
21.847898
 30
0.0
 11
-17.093849
 21
21.847898
 31
0.0
  0
LINE
  5
F8
100
AcDbEntity
  8
2
370
    25
100
AcDbLine
 10
-16.093849
 20
21.847898
 30
0.0
 11
-15.576211
 21
23.779749
 31
0.0
  0
LINE
  5
F9
100
AcDbEntity
  8
2
370
    25
100
AcDbLine
 10
-16.093849
 20
21.847898
 30
0.0
 11
-16.611487
 21
23.779749
 31
0.0
  0
LINE
  5
FA
100
AcDbEntity
  8
2
370
    25
100
AcDbLine
 10
-16.093849
 20
21.847898
 30
0.0
 11
-16.093849
 21
86.847898
 31
0.0
  0
LINE
  5
FB
100
AcDbEntity
  8
2
370
    25
100
AcDbLine
 10
-16.093849
 20
86.847898
 30
0.0
 11
-16.611487
 21
84.916046
 31
0.0
  0
LINE
  5
FC
100
AcDbEntity
  8
2
370
    25
100
AcDbLine
 10
-16.093849
 20
86.847898
 30
0.0
 11
-15.576211
 21
84.916046
 31
0.0
  0
LINE
  5
FD
100
AcDbEntity
  8
2
370
    25
100
AcDbLine
 10
2.208482
 20
86.847898
 30
0.0
 11
-17.093849
 21
86.847898
 31
0.0
  0
ENDBLK
  5
FE
100
AcDbEntity
  8
2
100
AcDbBlockEnd
  0
BLOCK
  5
FF
100
AcDbEntity
  8
2
100
AcDbBlockBegin
  2
*D4
 70
     1
 10
0.0
 20
0.0
 30
0.0
  3
*D4
  1

  0
TEXT
  5
100
100
AcDbEntity
  8
2
370
    25
100
AcDbText
 10
-16.593849
 20
-14.652102
 30
0.0
 40
4.0
  1
６５
 50
90.0
 72
     5
 11
-16.593849
 21
-7.452102
 31
0.0
100
AcDbText
  0
LINE
  5
101
100
AcDbEntity
  8
2
370
    25
100
AcDbLine
 10
2.208482
 20
-43.152102
 30
0.0
 11
-17.093849
 21
-43.152102
 31
0.0
  0
LINE
  5
102
100
AcDbEntity
  8
2
370
    25
100
AcDbLine
 10
-16.093849
 20
-43.152102
 30
0.0
 11
-15.576211
 21
-41.220251
 31
0.0
  0
LINE
  5
103
100
AcDbEntity
  8
2
370
    25
100
AcDbLine
 10
-16.093849
 20
-43.152102
 30
0.0
 11
-16.611487
 21
-41.220251
 31
0.0
  0
LINE
  5
104
100
AcDbEntity
  8
2
370
    25
100
AcDbLine
 10
-16.093849
 20
-43.152102
 30
0.0
 11
-16.093849
 21
21.847898
 31
0.0
  0
LINE
  5
105
100
AcDbEntity
  8
2
370
    25
100
AcDbLine
 10
-16.093849
 20
21.847898
 30
0.0
 11
-16.611487
 21
19.916046
 31
0.0
  0
LINE
  5
106
100
AcDbEntity
  8
2
370
    25
100
AcDbLine
 10
-16.093849
 20
21.847898
 30
0.0
 11
-15.576211
 21
19.916046
 31
0.0
  0
ENDBLK
  5
107
100
AcDbEntity
  8
2
100
AcDbBlockEnd
  0
BLOCK
  5
108
100
AcDbEntity
  8
2
100
AcDbBlockBegin
  2
*D5
 70
     1
 10
0.0
 20
0.0
 30
0.0
  3
*D5
  1

  0
TEXT
  5
109
100
AcDbEntity
  8
2
370
    25
100
AcDbText
 10
-11.453116
 20
26.847898
 30
0.0
 40
4.0
  1
１
 50
90.0
 72
     5
 11
-11.453116
 21
30.047898
 31
0.0
100
AcDbText
  0
LINE
  5
10A
100
AcDbEntity
  8
2
370
    25
100
AcDbLine
 10
-1.708563
 20
21.847898
 30
0.0
 11
-11.953116
 21
21.847898
 31
0.0
  0
LINE
  5
10B
100
AcDbEntity
  8
2
370
    25
100
AcDbLine
 10
-10.953116
 20
21.847898
 30
0.0
 11
-11.470755
 21
19.916046
 31
0.0
  0
LINE
  5
10C
100
AcDbEntity
  8
2
370
    25
100
AcDbLine
 10
-10.953116
 20
21.847898
 30
0.0
 11
-10.435478
 21
19.916046
 31
0.0
  0
LINE
  5
10D
100
AcDbEntity
  8
2
370
    25
100
AcDbLine
 10
-10.953116
 20
16.847898
 30
0.0
 11
-10.953116
 21
31.847898
 31
0.0
  0
LINE
  5
10E
100
AcDbEntity
  8
2
370
    25
100
AcDbLine
 10
-10.953116
 20
22.847898
 30
0.0
 11
-10.435478
 21
24.779749
 31
0.0
  0
LINE
  5
10F
100
AcDbEntity
  8
2
370
    25
100
AcDbLine
 10
-10.953116
 20
22.847898
 30
0.0
 11
-11.470755
 21
24.779749
 31
0.0
  0
ENDBLK
  5
110
100
AcDbEntity
  8
2
100
AcDbBlockEnd
  0
BLOCK
  5
111
100
AcDbEntity
  8
2
100
AcDbBlockBegin
  2
*D6
 70
     1
 10
0.0
 20
0.0
 30
0.0
  3
*D6
  1

  0
TEXT
  5
112
100
AcDbEntity
  8
2
370
    25
100
AcDbText
 10
23.461044
 20
-1.152102
 30
0.0
 40
4.0
  1
２３
 50
90.0
 72
     5
 11
23.461044
 21
6.047898
 31
0.0
100
AcDbText
  0
LINE
  5
113
100
AcDbEntity
  8
2
370
    25
100
AcDbLine
 10
42.208482
 20
-8.652102
 30
0.0
 11
22.961044
 21
-8.652102
 31
0.0
  0
LINE
  5
114
100
AcDbEntity
  8
2
370
    25
100
AcDbLine
 10
23.961044
 20
-8.652102
 30
0.0
 11
24.478682
 21
-6.720251
 31
0.0
  0
LINE
  5
115
100
AcDbEntity
  8
2
370
    25
100
AcDbLine
 10
23.961044
 20
-8.652102
 30
0.0
 11
23.443406
 21
-6.720251
 31
0.0
  0
LINE
  5
116
100
AcDbEntity
  8
2
370
    25
100
AcDbLine
 10
23.961044
 20
-8.652102
 30
0.0
 11
23.961044
 21
14.347898
 31
0.0
  0
LINE
  5
117
100
AcDbEntity
  8
2
370
    25
100
AcDbLine
 10
23.961044
 20
14.347898
 30
0.0
 11
23.443406
 21
12.416046
 31
0.0
  0
LINE
  5
118
100
AcDbEntity
  8
2
370
    25
100
AcDbLine
 10
23.961044
 20
14.347898
 30
0.0
 11
24.478682
 21
12.416046
 31
0.0
  0
LINE
  5
119
100
AcDbEntity
  8
2
370
    25
100
AcDbLine
 10
42.208482
 20
14.347898
 30
0.0
 11
22.961044
 21
14.347898
 31
0.0
  0
ENDBLK
  5
11A
100
AcDbEntity
  8
2
100
AcDbBlockEnd
  0
BLOCK
  5
11B
100
AcDbEntity
  8
2
100
AcDbBlockBegin
  2
*D7
 70
     1
 10
0.0
 20
0.0
 30
0.0
  3
*D7
  1

  0
TEXT
  5
11C
100
AcDbEntity
  8
2
370
    25
100
AcDbText
 10
49.708482
 20
-32.17963
 30
0.0
 40
4.0
  1
４２
 72
     5
 11
56.908482
 21
-32.17963
 31
0.0
100
AcDbText
  0
LINE
  5
11D
100
AcDbEntity
  8
2
370
    25
100
AcDbLine
 10
32.708482
 20
2.347898
 30
0.0
 11
32.708482
 21
-33.67963
 31
0.0
  0
LINE
  5
11E
100
AcDbEntity
  8
2
370
    25
100
AcDbLine
 10
32.708482
 20
-32.67963
 30
0.0
 11
34.640334
 21
-33.197268
 31
0.0
  0
LINE
  5
11F
100
AcDbEntity
  8
2
370
    25
100
AcDbLine
 10
32.708482
 20
-32.67963
 30
0.0
 11
34.640334
 21
-32.161992
 31
0.0
  0
LINE
  5
120
100
AcDbEntity
  8
2
370
    25
100
AcDbLine
 10
32.708482
 20
-32.67963
 30
0.0
 11
74.708482
 21
-32.67963
 31
0.0
  0
LINE
  5
121
100
AcDbEntity
  8
2
370
    25
100
AcDbLine
 10
74.708482
 20
-32.67963
 30
0.0
 11
72.77663
 21
-32.161992
 31
0.0
  0
LINE
  5
122
100
AcDbEntity
  8
2
370
    25
100
AcDbLine
 10
74.708482
 20
-32.67963
 30
0.0
 11
72.77663
 21
-33.197268
 31
0.0
  0
LINE
  5
123
100
AcDbEntity
  8
2
370
    25
100
AcDbLine
 10
74.708482
 20
2.347898
 30
0.0
 11
74.708482
 21
-33.67963
 31
0.0
  0
ENDBLK
  5
124
100
AcDbEntity
  8
2
100
AcDbBlockEnd
  0
BLOCK
  5
125
100
AcDbEntity
  8
2
100
AcDbBlockBegin
  2
*D8
 70
     1
 10
0.0
 20
0.0
 30
0.0
  3
*D8
  1

  0
TEXT
  5
126
100
AcDbEntity
  8
2
370
    25
100
AcDbText
 10
85.551414
 20
8.347898
 30
0.0
 40
4.0
  1
１９
 50
90.0
 72
     5
 11
85.551414
 21
15.547898
 31
0.0
100
AcDbText
  0
LINE
  5
127
100
AcDbEntity
  8
2
370
    25
100
AcDbLine
 10
77.053543
 20
2.847898
 30
0.0
 11
87.051414
 21
2.847898
 31
0.0
  0
LINE
  5
128
100
AcDbEntity
  8
2
370
    25
100
AcDbLine
 10
86.051414
 20
2.847898
 30
0.0
 11
86.569053
 21
4.779749
 31
0.0
  0
LINE
  5
129
100
AcDbEntity
  8
2
370
    25
100
AcDbLine
 10
86.051414
 20
2.847898
 30
0.0
 11
85.533776
 21
4.779749
 31
0.0
  0
LINE
  5
12A
100
AcDbEntity
  8
2
370
    25
100
AcDbLine
 10
86.051414
 20
2.847898
 30
0.0
 11
86.051414
 21
21.847898
 31
0.0
  0
LINE
  5
12B
100
AcDbEntity
  8
2
370
    25
100
AcDbLine
 10
86.051414
 20
21.847898
 30
0.0
 11
85.533776
 21
19.916046
 31
0.0
  0
LINE
  5
12C
100
AcDbEntity
  8
2
370
    25
100
AcDbLine
 10
86.051414
 20
21.847898
 30
0.0
 11
86.569053
 21
19.916046
 31
0.0
  0
LINE
  5
12D
100
AcDbEntity
  8
2
370
    25
100
AcDbLine
 10
85.348328
 20
21.847898
 30
0.0
 11
87.051414
 21
21.847898
 31
0.0
  0
ENDBLK
  5
12E
100
AcDbEntity
  8
2
100
AcDbBlockEnd
  0
BLOCK
  5
12F
100
AcDbEntity
  8
2
100
AcDbBlockBegin
  2
*D9
 70
     1
 10
0.0
 20
0.0
 30
0.0
  3
*D9
  1

  0
TEXT
  5
130
100
AcDbEntity
  8
2
370
    25
100
AcDbText
 10
85.551414
 20
34.347898
 30
0.0
 40
4.0
  1
３３
 50
90.0
 72
     5
 11
85.551414
 21
41.547898
 31
0.0
100
AcDbText
  0
LINE
  5
131
100
AcDbEntity
  8
2
370
    25
100
AcDbLine
 10
86.051414
 20
21.847898
 30
0.0
 11
86.569053
 21
23.779749
 31
0.0
  0
LINE
  5
132
100
AcDbEntity
  8
2
370
    25
100
AcDbLine
 10
86.051414
 20
21.847898
 30
0.0
 11
85.533776
 21
23.779749
 31
0.0
  0
LINE
  5
133
100
AcDbEntity
  8
2
370
    25
100
AcDbLine
 10
86.051414
 20
21.847898
 30
0.0
 11
86.051414
 21
54.847898
 31
0.0
  0
LINE
  5
134
100
AcDbEntity
  8
2
370
    25
100
AcDbLine
 10
86.051414
 20
54.847898
 30
0.0
 11
85.533776
 21
52.916046
 31
0.0
  0
LINE
  5
135
100
AcDbEntity
  8
2
370
    25
100
AcDbLine
 10
86.051414
 20
54.847898
 30
0.0
 11
86.569053
 21
52.916046
 31
0.0
  0
LINE
  5
136
100
AcDbEntity
  8
2
370
    25
100
AcDbLine
 10
71.208482
 20
54.847898
 30
0.0
 11
87.051414
 21
54.847898
 31
0.0
  0
ENDBLK
  5
137
100
AcDbEntity
  8
2
100
AcDbBlockEnd
  0
BLOCK
  5
138
100
AcDbEntity
  8
2
100
AcDbBlockBegin
  2
*D10
 70
     1
 10
0.0
 20
0.0
 30
0.0
  3
*D10
  1

  0
TEXT
  5
139
100
AcDbEntity
  8
2
370
    25
100
AcDbText
 10
-22.819269
 20
15.847898
 30
0.0
 40
4.0
  1
１３０
 50
90.0
 72
     5
 11
-22.819269
 21
27.047898
 31
0.0
100
AcDbText
  0
LINE
  5
13A
100
AcDbEntity
  8
2
370
    25
100
AcDbLine
 10
2.208482
 20
-43.152102
 30
0.0
 11
-23.319269
 21
-43.152102
 31
0.0
  0
LINE
  5
13B
100
AcDbEntity
  8
2
370
    25
100
AcDbLine
 10
-22.319269
 20
-43.152102
 30
0.0
 11
-21.801631
 21
-41.220251
 31
0.0
  0
LINE
  5
13C
100
AcDbEntity
  8
2
370
    25
100
AcDbLine
 10
-22.319269
 20
-43.152102
 30
0.0
 11
-22.836907
 21
-41.220251
 31
0.0
  0
LINE
  5
13D
100
AcDbEntity
  8
2
370
    25
100
AcDbLine
 10
-22.319269
 20
-43.152102
 30
0.0
 11
-22.319269
 21
86.847898
 31
0.0
  0
LINE
  5
13E
100
AcDbEntity
  8
2
370
    25
100
AcDbLine
 10
-22.319269
 20
86.847898
 30
0.0
 11
-22.836907
 21
84.916046
 31
0.0
  0
LINE
  5
13F
100
AcDbEntity
  8
2
370
    25
100
AcDbLine
 10
-22.319269
 20
86.847898
 30
0.0
 11
-21.801631
 21
84.916046
 31
0.0
  0
LINE
  5
140
100
AcDbEntity
  8
2
370
    25
100
AcDbLine
 10
2.208482
 20
86.847898
 30
0.0
 11
-23.319269
 21
86.847898
 31
0.0
  0
ENDBLK
  5
141
100
AcDbEntity
  8
2
100
AcDbBlockEnd
  0
BLOCK
  5
142
100
AcDbEntity
  8
2
100
AcDbBlockBegin
  2
*D11
 70
     1
 10
0.0
 20
0.0
 30
0.0
  3
*D11
  1

  0
TEXT
  5
143
100
AcDbEntity
  8
2
370
    25
100
AcDbText
 10
-37.236536
 20
93.712126
 30
0.0
 40
4.0
  1
Ｒ６
 50
44.003218
 72
     5
 11
-32.05757
 21
98.713957
 31
0.0
100
AcDbText
  0
LINE
  5
144
100
AcDbEntity
  8
2
370
    25
100
AcDbLine
 10
-49.8366
 20
80.847898
 30
0.0
 11
-30.415479
 21
99.604764
 31
0.0
  0
LINE
  5
145
100
AcDbEntity
  8
2
370
    25
100
AcDbLine
 10
-45.520796
 20
85.01609
 30
0.0
 11
-43.771611
 21
85.985808
 31
0.0
  0
LINE
  5
146
100
AcDbEntity
  8
2
370
    25
100
AcDbLine
 10
-45.520796
 20
85.01609
 30
0.0
 11
-44.490816
 21
86.730483
 31
0.0
  0
ENDBLK
  5
147
100
AcDbEntity
  8
2
100
AcDbBlockEnd
  0
BLOCK
  5
148
100
AcDbEntity
  8
2
100
AcDbBlockBegin
  2
*D12
 70
     1
 10
0.0
 20
0.0
 30
0.0
  3
*D12
  1

  0
TEXT
  5
149
100
AcDbEntity
  8
2
370
    25
100
AcDbText
 10
36.708482
 20
-67.781319
 30
0.0
 40
4.0
  1
７６
 72
     5
 11
43.908482
 21
-67.781319
 31
0.0
100
AcDbText
  0
LINE
  5
14A
100
AcDbEntity
  8
2
370
    25
100
AcDbLine
 10
2.708482
 20
-68.156389
 30
0.0
 11
2.708482
 21
-69.281319
 31
0.0
  0
LINE
  5
14B
100
AcDbEntity
  8
2
370
    25
100
AcDbLine
 10
2.708482
 20
-68.281319
 30
0.0
 11
4.640334
 21
-68.798957
 31
0.0
  0
LINE
  5
14C
100
AcDbEntity
  8
2
370
    25
100
AcDbLine
 10
2.708482
 20
-68.281319
 30
0.0
 11
4.640334
 21
-67.763681
 31
0.0
  0
LINE
  5
14D
100
AcDbEntity
  8
2
370
    25
100
AcDbLine
 10
2.708482
 20
-68.281319
 30
0.0
 11
78.708482
 21
-68.281319
 31
0.0
  0
LINE
  5
14E
100
AcDbEntity
  8
2
370
    25
100
AcDbLine
 10
78.708482
 20
-68.281319
 30
0.0
 11
76.77663
 21
-67.763681
 31
0.0
  0
LINE
  5
14F
100
AcDbEntity
  8
2
370
    25
100
AcDbLine
 10
78.708482
 20
-68.281319
 30
0.0
 11
76.77663
 21
-68.798957
 31
0.0
  0
LINE
  5
150
100
AcDbEntity
  8
2
370
    25
100
AcDbLine
 10
78.708482
 20
-22.652102
 30
0.0
 11
78.708482
 21
-69.281319
 31
0.0
  0
ENDBLK
  5
151
100
AcDbEntity
  8
2
100
AcDbBlockEnd
  0
BLOCK
  5
152
100
AcDbEntity
  8
2
100
AcDbBlockBegin
  2
*D13
 70
     1
 10
0.0
 20
0.0
 30
0.0
  3
*D13
  1

  0
TEXT
  5
153
100
AcDbEntity
  8
2
370
    25
100
AcDbText
 10
-35.510696
 20
-4.152103
 30
0.0
 40
4.0
  1
４４
 50
90.0
 72
     5
 11
-35.510696
 21
3.047897
 31
0.0
100
AcDbText
  0
LINE
  5
154
100
AcDbEntity
  8
2
370
    25
100
AcDbLine
 10
-49.3366
 20
-22.152102
 30
0.0
 11
-34.010696
 21
-22.152102
 31
0.0
  0
LINE
  5
155
100
AcDbEntity
  8
2
370
    25
100
AcDbLine
 10
-35.010696
 20
-22.152102
 30
0.0
 11
-34.493058
 21
-20.220251
 31
0.0
  0
LINE
  5
156
100
AcDbEntity
  8
2
370
    25
100
AcDbLine
 10
-35.010696
 20
-22.152102
 30
0.0
 11
-35.528335
 21
-20.220251
 31
0.0
  0
LINE
  5
157
100
AcDbEntity
  8
2
370
    25
100
AcDbLine
 10
-35.010696
 20
-22.152102
 30
0.0
 11
-35.010696
 21
21.847896
 31
0.0
  0
LINE
  5
158
100
AcDbEntity
  8
2
370
    25
100
AcDbLine
 10
-35.010696
 20
21.847896
 30
0.0
 11
-35.528335
 21
19.916045
 31
0.0
  0
LINE
  5
159
100
AcDbEntity
  8
2
370
    25
100
AcDbLine
 10
-35.010696
 20
21.847896
 30
0.0
 11
-34.493058
 21
19.916045
 31
0.0
  0
LINE
  5
15A
100
AcDbEntity
  8
2
370
    25
100
AcDbLine
 10
-39.027977
 20
21.847896
 30
0.0
 11
-34.010696
 21
21.847896
 31
0.0
  0
ENDBLK
  5
15B
100
AcDbEntity
  8
2
100
AcDbBlockEnd
  0
BLOCK
  5
15C
100
AcDbEntity
  8
2
100
AcDbBlockBegin
  2
*D14
 70
     1
 10
0.0
 20
0.0
 30
0.0
  3
*D14
  1

  0
TEXT
  5
15D
100
AcDbEntity
  8
2
370
    25
100
AcDbText
 10
-35.510696
 20
-36.652102
 30
0.0
 40
4.0
  1
２１
 50
90.0
 72
     5
 11
-35.510696
 21
-29.452102
 31
0.0
100
AcDbText
  0
LINE
  5
15E
100
AcDbEntity
  8
2
370
    25
100
AcDbLine
 10
-49.3366
 20
-43.152102
 30
0.0
 11
-34.010696
 21
-43.152102
 31
0.0
  0
LINE
  5
15F
100
AcDbEntity
  8
2
370
    25
100
AcDbLine
 10
-35.010696
 20
-43.152102
 30
0.0
 11
-34.493058
 21
-41.220251
 31
0.0
  0
LINE
  5
160
100
AcDbEntity
  8
2
370
    25
100
AcDbLine
 10
-35.010696
 20
-43.152102
 30
0.0
 11
-35.528335
 21
-41.220251
 31
0.0
  0
LINE
  5
161
100
AcDbEntity
  8
2
370
    25
100
AcDbLine
 10
-35.010696
 20
-43.152102
 30
0.0
 11
-35.010696
 21
-22.152102
 31
0.0
  0
LINE
  5
162
100
AcDbEntity
  8
2
370
    25
100
AcDbLine
 10
-35.010696
 20
-22.152102
 30
0.0
 11
-35.528335
 21
-24.083954
 31
0.0
  0
LINE
  5
163
100
AcDbEntity
  8
2
370
    25
100
AcDbLine
 10
-35.010696
 20
-22.152102
 30
0.0
 11
-34.493058
 21
-24.083954
 31
0.0
  0
ENDBLK
  5
164
100
AcDbEntity
  8
2
100
AcDbBlockEnd
  0
BLOCK
  5
165
100
AcDbEntity
  8
2
100
AcDbBlockBegin
  2
*D15
 70
     1
 10
0.0
 20
0.0
 30
0.0
  3
*D15
  1

  0
TEXT
  5
166
100
AcDbEntity
  8
2
370
    25
100
AcDbText
 10
-35.510696
 20
39.847897
 30
0.0
 40
4.0
  1
４４
 50
90.0
 72
     5
 11
-35.510696
 21
47.047897
 31
0.0
100
AcDbText
  0
LINE
  5
167
100
AcDbEntity
  8
2
370
    25
100
AcDbLine
 10
-39.027977
 20
21.847896
 30
0.0
 11
-34.010696
 21
21.847896
 31
0.0
  0
LINE
  5
168
100
AcDbEntity
  8
2
370
    25
100
AcDbLine
 10
-35.010696
 20
21.847896
 30
0.0
 11
-34.493058
 21
23.779748
 31
0.0
  0
LINE
  5
169
100
AcDbEntity
  8
2
370
    25
100
AcDbLine
 10
-35.010696
 20
21.847896
 30
0.0
 11
-35.528335
 21
23.779748
 31
0.0
  0
LINE
  5
16A
100
AcDbEntity
  8
2
370
    25
100
AcDbLine
 10
-35.010696
 20
21.847896
 30
0.0
 11
-35.010696
 21
65.847898
 31
0.0
  0
LINE
  5
16B
100
AcDbEntity
  8
2
370
    25
100
AcDbLine
 10
-35.010696
 20
65.847898
 30
0.0
 11
-35.528335
 21
63.916046
 31
0.0
  0
LINE
  5
16C
100
AcDbEntity
  8
2
370
    25
100
AcDbLine
 10
-35.010696
 20
65.847898
 30
0.0
 11
-34.493058
 21
63.916046
 31
0.0
  0
LINE
  5
16D
100
AcDbEntity
  8
2
370
    25
100
AcDbLine
 10
-49.3366
 20
65.847898
 30
0.0
 11
-34.010696
 21
65.847898
 31
0.0
  0
ENDBLK
  5
16E
100
AcDbEntity
  8
2
100
AcDbBlockEnd
  0
BLOCK
  5
16F
100
AcDbEntity
  8
2
100
AcDbBlockBegin
  2
*D16
 70
     1
 10
0.0
 20
0.0
 30
0.0
  3
*D16
  1

  0
TEXT
  5
170
100
AcDbEntity
  8
2
370
    25
100
AcDbText
 10
-35.510696
 20
72.347898
 30
0.0
 40
4.0
  1
２１
 50
90.0
 72
     5
 11
-35.510696
 21
79.547898
 31
0.0
100
AcDbText
  0
LINE
  5
171
100
AcDbEntity
  8
2
370
    25
100
AcDbLine
 10
-35.010696
 20
65.847898
 30
0.0
 11
-34.493058
 21
67.779749
 31
0.0
  0
LINE
  5
172
100
AcDbEntity
  8
2
370
    25
100
AcDbLine
 10
-35.010696
 20
65.847898
 30
0.0
 11
-35.528335
 21
67.779749
 31
0.0
  0
LINE
  5
173
100
AcDbEntity
  8
2
370
    25
100
AcDbLine
 10
-35.010696
 20
65.847898
 30
0.0
 11
-35.010696
 21
86.847898
 31
0.0
  0
LINE
  5
174
100
AcDbEntity
  8
2
370
    25
100
AcDbLine
 10
-35.010696
 20
86.847898
 30
0.0
 11
-35.528335
 21
84.916046
 31
0.0
  0
LINE
  5
175
100
AcDbEntity
  8
2
370
    25
100
AcDbLine
 10
-35.010696
 20
86.847898
 30
0.0
 11
-34.493058
 21
84.916046
 31
0.0
  0
LINE
  5
176
100
AcDbEntity
  8
2
370
    25
100
AcDbLine
 10
-49.3366
 20
86.847898
 30
0.0
 11
-34.010696
 21
86.847898
 31
0.0
  0
ENDBLK
  5
177
100
AcDbEntity
  8
2
100
AcDbBlockEnd
  0
BLOCK
  5
178
100
AcDbEntity
  8
2
100
AcDbBlockBegin
  2
*D17
 70
     1
 10
0.0
 20
0.0
 30
0.0
  3
*D17
  1

  0
TEXT
  5
179
100
AcDbEntity
  8
2
370
    25
100
AcDbText
 10
-73.584953
 20
-41.152102
 30
0.0
 40
4.0
  1
８
 50
90.0
 72
     5
 11
-73.584953
 21
-37.952102
 31
0.0
100
AcDbText
  0
LINE
  5
17A
100
AcDbEntity
  8
2
370
    25
100
AcDbLine
 10
-63.3366
 20
-43.152102
 30
0.0
 11
-74.084953
 21
-43.152102
 31
0.0
  0
LINE
  5
17B
100
AcDbEntity
  8
2
370
    25
100
AcDbLine
 10
-73.084953
 20
-43.152102
 30
0.0
 11
-72.567315
 21
-41.220251
 31
0.0
  0
LINE
  5
17C
100
AcDbEntity
  8
2
370
    25
100
AcDbLine
 10
-73.084953
 20
-43.152102
 30
0.0
 11
-73.602591
 21
-41.220251
 31
0.0
  0
LINE
  5
17D
100
AcDbEntity
  8
2
370
    25
100
AcDbLine
 10
-73.084953
 20
-43.152102
 30
0.0
 11
-73.084953
 21
-35.152102
 31
0.0
  0
LINE
  5
17E
100
AcDbEntity
  8
2
370
    25
100
AcDbLine
 10
-73.084953
 20
-35.152102
 30
0.0
 11
-73.602591
 21
-37.083954
 31
0.0
  0
LINE
  5
17F
100
AcDbEntity
  8
2
370
    25
100
AcDbLine
 10
-73.084953
 20
-35.152102
 30
0.0
 11
-72.567315
 21
-37.083954
 31
0.0
  0
LINE
  5
180
100
AcDbEntity
  8
2
370
    25
100
AcDbLine
 10
-58.8366
 20
-35.152102
 30
0.0
 11
-74.084953
 21
-35.152102
 31
0.0
  0
ENDBLK
  5
181
100
AcDbEntity
  8
2
100
AcDbBlockEnd
  0
BLOCK
  5
182
100
AcDbEntity
  8
2
100
AcDbBlockBegin
  2
*D18
 70
     1
 10
0.0
 20
0.0
 30
0.0
  3
*D18
  1

  0
TEXT
  5
183
100
AcDbEntity
  8
2
370
    25
100
AcDbText
 10
-73.584953
 20
80.847898
 30
0.0
 40
4.0
  1
８
 50
90.0
 72
     5
 11
-73.584953
 21
84.047898
 31
0.0
100
AcDbText
  0
LINE
  5
184
100
AcDbEntity
  8
2
370
    25
100
AcDbLine
 10
-58.8366
 20
78.847898
 30
0.0
 11
-74.084953
 21
78.847898
 31
0.0
  0
LINE
  5
185
100
AcDbEntity
  8
2
370
    25
100
AcDbLine
 10
-73.084953
 20
78.847898
 30
0.0
 11
-72.567315
 21
80.779749
 31
0.0
  0
LINE
  5
186
100
AcDbEntity
  8
2
370
    25
100
AcDbLine
 10
-73.084953
 20
78.847898
 30
0.0
 11
-73.602591
 21
80.779749
 31
0.0
  0
LINE
  5
187
100
AcDbEntity
  8
2
370
    25
100
AcDbLine
 10
-73.084953
 20
78.847898
 30
0.0
 11
-73.084953
 21
86.847898
 31
0.0
  0
LINE
  5
188
100
AcDbEntity
  8
2
370
    25
100
AcDbLine
 10
-73.084953
 20
86.847898
 30
0.0
 11
-73.602591
 21
84.916046
 31
0.0
  0
LINE
  5
189
100
AcDbEntity
  8
2
370
    25
100
AcDbLine
 10
-73.084953
 20
86.847898
 30
0.0
 11
-72.567315
 21
84.916046
 31
0.0
  0
LINE
  5
18A
100
AcDbEntity
  8
2
370
    25
100
AcDbLine
 10
-63.3366
 20
86.847898
 30
0.0
 11
-74.084953
 21
86.847898
 31
0.0
  0
ENDBLK
  5
18B
100
AcDbEntity
  8
2
100
AcDbBlockEnd
  0
ENDSEC
  0
SECTION
  2
ENTITIES
  0
LINE
  5
38
100
AcDbEntity
  8
1
370
   100
100
AcDbLine
 10
-68.8366
 20
80.847898
 30
0.0
 11
-68.8366
 21
-37.152102
 31
0.0
  0
LINE
  5
39
100
AcDbEntity
  8
1
370
   100
100
AcDbLine
 10
-43.8366
 20
80.847898
 30
0.0
 11
-43.8366
 21
-37.152102
 31
0.0
  0
LINE
  5
3A
100
AcDbEntity
  8
1
370
   100
100
AcDbLine
 10
-62.8366
 20
-43.152102
 30
0.0
 11
-49.8366
 21
-43.152102
 31
0.0
  0
LINE
  5
3B
100
AcDbEntity
  8
1
370
   100
100
AcDbLine
 10
-62.8366
 20
86.847898
 30
0.0
 11
-49.8366
 21
86.847898
 31
0.0
  0
LINE
  5
3C
100
AcDbEntity
  8
1
370
    50
  6
DASHED
100
AcDbLine
 10
6.708482
 20
86.847898
 30
0.0
 11
6.708482
 21
-43.152102
 31
0.0
  0
LINE
  5
3D
100
AcDbEntity
  8
1
370
    50
  6
DASHED
100
AcDbLine
 10
78.708482
 20
65.847898
 30
0.0
 11
78.708482
 21
-22.152102
 31
0.0
  0
LINE
  5
3E
100
AcDbEntity
  8
1
370
    50
  6
DASHED
100
AcDbLine
 10
2.708482
 20
86.847898
 30
0.0
 11
6.708482
 21
86.847898
 31
0.0
  0
LINE
  5
3F
100
AcDbEntity
  8
1
370
    50
  6
DASHED
100
AcDbLine
 10
2.708482
 20
-43.152102
 30
0.0
 11
6.708482
 21
-43.152102
 31
0.0
  0
LINE
  5
40
100
AcDbEntity
  8
1
370
   100
100
AcDbLine
 10
-65.8366
 20
62.847898
 30
0.0
 11
-65.8366
 21
-19.152102
 31
0.0
  0
LINE
  5
41
100
AcDbEntity
  8
1
370
   100
100
AcDbLine
 10
-46.8366
 20
62.847898
 30
0.0
 11
-46.8366
 21
-19.152102
 31
0.0
  0
LINE
  5
42
100
AcDbEntity
  8
1
370
   100
100
AcDbLine
 10
-56.3366
 20
-33.152102
 30
0.0
 11
-56.3366
 21
-37.152102
 31
0.0
  0
LINE
  5
43
100
AcDbEntity
  8
1
370
    25
  6
CENTER
100
AcDbLine
 10
-56.3366
 20
-37.152102
 30
0.0
 11
-56.3366
 21
-49.156516
 31
0.0
  0
LINE
  5
44
100
AcDbEntity
  8
1
370
    25
  6
CENTER
100
AcDbLine
 10
-56.3366
 20
91.643333
 30
0.0
 11
-56.3366
 21
80.847898
 31
0.0
  0
LINE
  5
45
100
AcDbEntity
  8
1
370
   100
100
AcDbLine
 10
-56.3366
 20
80.847898
 30
0.0
 11
-56.3366
 21
76.847898
 31
0.0
  0
LINE
  5
46
100
AcDbEntity
  8
1
370
   100
100
AcDbLine
 10
-58.3366
 20
78.847898
 30
0.0
 11
-54.3366
 21
78.847898
 31
0.0
  0
LINE
  5
47
100
AcDbEntity
  8
1
370
   100
100
AcDbLine
 10
-58.3366
 20
-35.152102
 30
0.0
 11
-54.3366
 21
-35.152102
 31
0.0
  0
LINE
  5
48
100
AcDbEntity
  8
1
370
    25
  6
CENTER
100
AcDbLine
 10
-56.3366
 20
-33.152102
 30
0.0
 11
-56.3366
 21
36.880089
 31
0.0
  0
LINE
  5
49
100
AcDbEntity
  8
1
370
    25
  6
CENTER
100
AcDbLine
 10
-56.3366
 20
55.120667
 30
0.0
 11
-56.3366
 21
76.847898
 31
0.0
  0
LINE
  5
4A
100
AcDbEntity
  8
1
370
   100
100
AcDbLine
 10
2.708482
 20
110.334558
 30
0.0
 11
2.708482
 21
-67.656389
 31
0.0
  0
ARC
  5
4B
100
AcDbEntity
  8
1
370
   100
100
AcDbCircle
 10
-62.8366
 20
80.847898
 30
0.0
 40
6.0
100
AcDbArc
 50
90.0
 51
180.0
  0
ARC
  5
4C
100
AcDbEntity
  8
1
370
   100
100
AcDbCircle
 10
-49.8366
 20
80.847898
 30
0.0
 40
6.0
100
AcDbArc
 50
0.0
 51
90.0
  0
ARC
  5
4D
100
AcDbEntity
  8
1
370
   100
100
AcDbCircle
 10
-49.8366
 20
-37.152102
 30
0.0
 40
6.0
100
AcDbArc
 50
270.0
 51
360.0
  0
ARC
  5
4E
100
AcDbEntity
  8
1
370
   100
100
AcDbCircle
 10
-62.8366
 20
-37.152102
 30
0.0
 40
6.0
100
AcDbArc
 50
180.0
 51
270.0
  0
LINE
  5
4F
100
AcDbEntity
  8
1
370
    25
  6
CENTER
100
AcDbLine
 10
53.708482
 20
-61.681728
 30
0.0
 11
53.708482
 21
-34.806749
 31
0.0
  0
LINE
  5
50
100
AcDbEntity
  8
1
370
    18
  6
CENTER
100
AcDbLine
 10
-11.42657
 20
22.847898
 30
0.0
 11
11.89617
 21
22.847898
 31
0.0
  0
ARC
  5
51
100
AcDbEntity
  8
1
370
    25
  6
DASHED
100
AcDbCircle
 10
-4.256704
 20
19.343152
 30
0.0
 40
6.495254
100
AcDbArc
 50
262.877226
 51
270.0
  0
ARC
  5
52
100
AcDbEntity
  8
1
370
    25
  6
DASHED
100
AcDbCircle
 10
-4.441036
 20
17.868022
 30
0.0
 40
5.008652
100
AcDbArc
 50
254.144152
 51
262.877226
  0
ARC
  5
53
100
AcDbEntity
  8
1
370
    25
  6
DASHED
100
AcDbCircle
 10
-4.543017
 20
17.508966
 30
0.0
 40
4.635394
100
AcDbArc
 50
244.981479
 51
254.144152
  0
ARC
  5
54
100
AcDbEntity
  8
1
370
    25
  6
DASHED
100
AcDbCircle
 10
-4.744632
 20
17.076967
 30
0.0
 40
4.158664
100
AcDbArc
 50
234.704258
 51
244.981479
  0
ARC
  5
55
100
AcDbEntity
  8
1
370
    25
  6
DASHED
100
AcDbCircle
 10
-4.552687
 20
17.348102
 30
0.0
 40
4.490864
100
AcDbArc
 50
224.728879
 51
234.704258
  0
ARC
  5
56
100
AcDbEntity
  8
1
370
    25
  6
DASHED
100
AcDbCircle
 10
-7.624038
 20
14.305682
 30
0.0
 40
0.167727
100
AcDbArc
 50
183.190791
 51
224.728879
  0
LINE
  5
57
100
AcDbEntity
  8
1
370
    25
  6
DASHED
100
AcDbLine
 10
-4.256704
 20
32.847898
 30
0.0
 11
2.708482
 21
32.847898
 31
0.0
  0
LINE
  5
58
100
AcDbEntity
  8
1
370
    25
  6
DASHED
100
AcDbLine
 10
-7.791505
 20
31.399449
 30
0.0
 11
-7.791505
 21
14.296346
 31
0.0
  0
ARC
  5
59
100
AcDbEntity
  8
1
370
    25
  6
DASHED
100
AcDbCircle
 10
-4.256704
 20
26.352643
 30
0.0
 40
6.495254
100
AcDbArc
 50
90.0
 51
97.122774
  0
ARC
  5
5A
100
AcDbEntity
  8
1
370
    25
  6
DASHED
100
AcDbCircle
 10
-4.441036
 20
27.827773
 30
0.0
 40
5.008652
100
AcDbArc
 50
97.122774
 51
105.855848
  0
ARC
  5
5B
100
AcDbEntity
  8
1
370
    25
  6
DASHED
100
AcDbCircle
 10
-4.543017
 20
28.186829
 30
0.0
 40
4.635394
100
AcDbArc
 50
105.855848
 51
115.018521
  0
ARC
  5
5C
100
AcDbEntity
  8
1
370
    25
  6
DASHED
100
AcDbCircle
 10
-4.744632
 20
28.618829
 30
0.0
 40
4.158664
100
AcDbArc
 50
115.018521
 51
125.295742
  0
ARC
  5
5D
100
AcDbEntity
  8
1
370
    25
  6
DASHED
100
AcDbCircle
 10
-4.552687
 20
28.347693
 30
0.0
 40
4.490864
100
AcDbArc
 50
125.295742
 51
135.271121
  0
ARC
  5
5E
100
AcDbEntity
  8
1
370
    25
  6
DASHED
100
AcDbCircle
 10
-7.624038
 20
31.390113
 30
0.0
 40
0.167727
100
AcDbArc
 50
135.271121
 51
176.809209
  0
LINE
  5
5F
100
AcDbEntity
  8
1
370
    25
  6
DASHED
100
AcDbLine
 10
-4.256704
 20
12.847898
 30
0.0
 11
2.708482
 21
12.847898
 31
0.0
  0
LINE
  5
60
100
AcDbEntity
  8
1
370
    25
  6
CENTER
100
AcDbLine
 10
53.708482
 20
75.627753
 30
0.0
 11
53.708482
 21
-28.237596
 31
0.0
  0
LINE
  5
61
100
AcDbEntity
  8
1
370
    25
  6
CENTER
100
AcDbLine
 10
-1.208563
 20
21.847898
 30
0.0
 11
84.848328
 21
21.847898
 31
0.0
  0
LINE
  5
62
100
AcDbEntity
  8
1
370
    25
  6
CENTER
100
AcDbLine
 10
76.553543
 20
2.847898
 30
0.0
 11
29.890537
 21
2.847898
 31
0.0
  0
LINE
  5
63
100
AcDbEntity
  8
1
370
   100
100
AcDbLine
 10
74.708482
 20
1.347898
 30
0.0
 11
74.708482
 21
4.347898
 31
0.0
  0
LINE
  5
64
100
AcDbEntity
  8
1
370
   100
100
AcDbLine
 10
32.708482
 20
1.347898
 30
0.0
 11
32.708482
 21
4.347898
 31
0.0
  0
LINE
  5
65
100
AcDbEntity
  8
1
370
   100
100
AcDbLine
 10
42.708482
 20
14.347898
 30
0.0
 11
64.708482
 21
14.347898
 31
0.0
  0
LINE
  5
66
100
AcDbEntity
  8
1
370
   100
100
AcDbLine
 10
42.708482
 20
-8.652102
 30
0.0
 11
64.708482
 21
-8.652102
 31
0.0
  0
ARC
  5
67
100
AcDbEntity
  8
1
370
   100
100
AcDbCircle
 10
42.708482
 20
4.347898
 30
0.0
 40
10.0
100
AcDbArc
 50
90.0
 51
180.0
  0
ARC
  5
68
100
AcDbEntity
  8
1
370
   100
100
AcDbCircle
 10
42.708482
 20
1.347898
 30
0.0
 40
10.0
100
AcDbArc
 50
180.0
 51
270.0
  0
ARC
  5
69
100
AcDbEntity
  8
1
370
   100
100
AcDbCircle
 10
64.708482
 20
1.347898
 30
0.0
 40
10.0
100
AcDbArc
 50
270.0
 51
0.0
  0
ARC
  5
6A
100
AcDbEntity
  8
1
370
   100
100
AcDbCircle
 10
64.708482
 20
4.347898
 30
0.0
 40
10.0
100
AcDbArc
 50
0.0
 51
90.0
  0
CIRCLE
  5
6B
100
AcDbEntity
  8
1
370
   100
100
AcDbCircle
 10
53.708482
 20
54.847898
 30
0.0
 40
14.0
  0
LINE
  5
6C
100
AcDbEntity
  8
1
370
    25
  6
CENTER
100
AcDbLine
 10
36.708482
 20
54.847898
 30
0.0
 11
70.708482
 21
54.847898
 31
0.0
  0
LINE
  5
6D
100
AcDbEntity
  8
1
370
    25
  6
CENTER
100
AcDbLine
 10
53.708482
 20
37.847898
 30
0.0
 11
53.708482
 21
71.847898
 31
0.0
  0
HATCH
  5
6E
100
AcDbEntity
  8
1
370
    25
100
AcDbHatch
 10
0.0
 20
0.0
 30
0.0
210
0.0
220
0.0
230
1.0
  2
_U
 70
     0
 71
     1
 91
        1
 92
        1
 93
        1
 72
     2
 10
53.708481999999997
 20
54.847898000000001
 40
14.0
 50
0.0
 51
360.0
 73
     1
 97
        1
330
0
 75
     0
 76
     0
 52
45.0
 41
1.0
 77
     0
 78
     1
 53
45.0
 43
0.0
 44
0.0
 45
-1.4142140000000001
 46
1.4142140000000001
 79
     0
 98
        1
 10
0.0
 20
0.0
  0
HATCH
  5
6F
100
AcDbEntity
  8
1
370
    25
100
AcDbHatch
 10
0.0
 20
0.0
 30
0.0
210
0.0
220
0.0
230
1.0
  2
_U
 70
     0
 71
     1
 91
        1
 92
        1
 93
        8
 72
     1
 10
64.708482000000004
 20
14.347898000000001
 11
42.708481999999997
 21
14.347898000000001
 72
     2
 10
42.708481999999997
 20
4.3478979999999998
 40
10.0
 50
90.0
 51
180.0
 73
     1
 72
     1
 10
32.708481999999997
 20
4.3478979999999998
 11
32.708481999999997
 21
1.347898
 72
     2
 10
42.708481999999997
 20
1.347898
 40
10.0
 50
180.0
 51
270.0
 73
     1
 72
     1
 10
42.708481999999997
 20
-8.6521019999999993
 11
64.708482000000004
 21
-8.6521019999999993
 72
     2
 10
64.708482000000004
 20
1.347898
 40
10.0
 50
270.0
 51
0.0
 73
     1
 72
     1
 10
74.708482000000004
 20
1.347898
 11
74.708482000000004
 21
4.3478979999999998
 72
     2
 10
64.708482000000004
 20
4.3478979999999998
 40
10.0
 50
0.0
 51
90.0
 73
     1
 97
        8
330
0
330
0
330
0
330
0
330
0
330
0
330
0
330
0
 75
     0
 76
     0
 52
45.0
 41
1.0
 77
     0
 78
     1
 53
45.0
 43
0.0
 44
0.0
 45
-1.4142140000000001
 46
1.4142140000000001
 79
     0
 98
        1
 10
0.0
 20
0.0
  0
LINE
  5
70
100
AcDbEntity
  8
1
370
    50
  6
DASHED
100
AcDbLine
 10
6.708482
 20
65.847898
 30
0.0
 11
78.708482
 21
65.847898
 31
0.0
  0
LINE
  5
71
100
AcDbEntity
  8
1
370
   100
100
AcDbLine
 10
-49.8366
 20
65.847898
 30
0.0
 11
-62.8366
 21
65.847898
 31
0.0
  0
LINE
  5
72
100
AcDbEntity
  8
1
370
    50
  6
DASHED
100
AcDbLine
 10
78.708482
 20
-22.152102
 30
0.0
 11
6.708482
 21
-22.152102
 31
0.0
  0
LINE
  5
73
100
AcDbEntity
  8
1
370
   100
100
AcDbLine
 10
-49.8366
 20
-22.152102
 30
0.0
 11
-62.8366
 21
-22.152102
 31
0.0
  0
ARC
  5
74
100
AcDbEntity
  8
1
370
   100
100
AcDbCircle
 10
-62.8366
 20
62.847898
 30
0.0
 40
3.0
100
AcDbArc
 50
90.0
 51
180.0
  0
ARC
  5
75
100
AcDbEntity
  8
1
370
   100
100
AcDbCircle
 10
-49.8366
 20
62.847898
 30
0.0
 40
3.0
100
AcDbArc
 50
0.0
 51
90.0
  0
ARC
  5
76
100
AcDbEntity
  8
1
370
   100
100
AcDbCircle
 10
-62.8366
 20
-19.152102
 30
0.0
 40
3.0
100
AcDbArc
 50
180.0
 51
270.0
  0
ARC
  5
77
100
AcDbEntity
  8
1
370
   100
100
AcDbCircle
 10
-49.8366
 20
-19.152102
 30
0.0
 40
3.0
100
AcDbArc
 50
270.0
 51
0.0
  0
LINE
  5
78
100
AcDbEntity
  8
1
370
    25
  6
CENTER
100
AcDbLine
 10
-39.527977
 20
21.847896
 30
0.0
 11
-72.439621
 21
21.847896
 31
0.0
  0
TEXT
  5
79
100
AcDbEntity
  8
2
370
    25
100
AcDbText
 10
-58.290737
 20
50.195276
 30
0.0
 40
4.0
  1
扉
 72
     5
 11
-55.090737
 21
50.195276
 31
0.0
100
AcDbText
  0
TEXT
  5
7A
100
AcDbEntity
  8
2
370
    25
100
AcDbText
 10
-58.290737
 20
46.195276
 30
0.0
 40
4.0
  1
厚
 72
     5
 11
-55.090737
 21
46.195276
 31
0.0
100
AcDbText
  0
TEXT
  5
7B
100
AcDbEntity
  8
2
370
    25
100
AcDbText
 10
-58.290737
 20
42.195276
 30
0.0
 40
4.0
  1
中
 72
     5
 11
-55.090737
 21
42.195276
 31
0.0
100
AcDbText
  0
TEXT
  5
7C
100
AcDbEntity
  8
2
370
    25
100
AcDbText
 10
-58.290737
 20
38.195276
 30
0.0
 40
4.0
  1
心
 72
     5
 11
-55.090737
 21
38.195276
 31
0.0
100
AcDbText
  0
DIMENSION
  5
7D
100
AcDbEntity
  8
2
370
    25
100
AcDbDimension
  2
*D0
 10
-46.8366
 20
1.164937
 30
0.0
 11
-58.3366
 21
3.664937
 31
0.0
 71
     0
 72
     0
 41
0.0
 42
0.0
  3
Standard
100
AcDbAlignedDimension
 13
-65.8366
 23
2.131682
 33
0.0
 14
-46.8366
 24
2.131682
 34
0.0
100
AcDbRotatedDimension
  0
TEXT
  5
7E
100
AcDbEntity
  8
2
370
    25
100
AcDbText
 10
36.232712
 20
84.588425
 30
0.0
 40
4.0
  1
空錠の時は必要ありません。
 72
     5
 11
87.432712
 21
84.588425
 31
0.0
100
AcDbText
  0
TEXT
  5
7F
100
AcDbEntity
  8
2
370
    18
100
AcDbText
 10
-61.043858
 20
-62.930515
 30
0.0
 40
4.0
  1
木ネジ位置
 72
     5
 11
-41.843858
 21
-62.930515
 31
0.0
100
AcDbText
  0
DIMENSION
  5
80
100
AcDbEntity
  8
2
370
    25
100
AcDbDimension
  2
*D1
 10
6.708482
 20
-51.436951
 30
0.0
 11
12.708482
 21
-48.936951
 31
0.0
 71
     0
 72
     0
 41
0.0
 42
0.0
  3
Standard
100
AcDbAlignedDimension
 13
2.708482
 23
-51.436951
 33
0.0
 14
6.708482
 24
-43.152102
 34
0.0
100
AcDbRotatedDimension
  0
TEXT
  5
81
100
AcDbEntity
  8
2
370
    18
100
AcDbText
 10
12.208482
 20
-58.001839
 30
0.0
 40
4.0
  1
バックセット
 72
     5
 11
35.408482
 21
-58.001839
 31
0.0
100
AcDbText
  0
DIMENSION
  5
82
100
AcDbEntity
  8
2
370
    25
100
AcDbDimension
  2
*D2
 10
53.708482
 20
-58.501839
 30
0.0
 11
40.208482
 21
-56.001839
 31
0.0
 71
     0
 72
     0
 41
0.0
 42
0.0
  3
Standard
100
AcDbAlignedDimension
 13
2.708482
 23
-58.422028
 33
0.0
 14
53.708482
 24
-58.422028
 34
0.0
100
AcDbRotatedDimension
  0
LWPOLYLINE
  5
83
100
AcDbEntity
  8
2
370
    25
100
AcDbPolyline
 90
        3
 70
     0
 10
-56.3366
 20
-35.152102
 10
-64.666031
 20
-63.430515
 10
-39.552322
 20
-63.430515
  0
LINE
  5
88
100
AcDbEntity
  8
2
370
    25
100
AcDbLine
 10
-56.385897
 20
-37.151495
 30
0.0
 11
-56.3366
 21
-35.152102
 31
0.0
  0
LINE
  5
89
100
AcDbEntity
  8
2
370
    25
100
AcDbLine
 10
-56.3366
 20
-35.152102
 30
0.0
 11
-57.378988
 21
-36.858979
 31
0.0
  0
DIMENSION
  5
8A
100
AcDbEntity
  8
2
370
    25
100
AcDbDimension
  2
*D3
 10
-16.093849
 20
86.847898
 30
0.0
 11
-20.593849
 21
54.347898
 31
0.0
 71
     0
 72
     0
 41
0.0
 42
0.0
  3
Standard
100
AcDbAlignedDimension
 13
-1.208563
 23
21.847898
 33
0.0
 14
2.708482
 24
86.847898
 34
0.0
 50
90.0
100
AcDbRotatedDimension
  0
DIMENSION
  5
8B
100
AcDbEntity
  8
2
370
    25
100
AcDbDimension
  2
*D4
 10
-16.093849
 20
21.847898
 30
0.0
 11
-20.593849
 21
-10.652102
 31
0.0
 71
     0
 72
     0
 41
0.0
 42
0.0
  3
Standard
100
AcDbAlignedDimension
 13
2.708482
 23
-43.152102
 33
0.0
 14
-16.093849
 24
21.847898
 34
0.0
 50
90.0
100
AcDbRotatedDimension
  0
DIMENSION
  5
8C
100
AcDbEntity
  8
2
370
    25
100
AcDbDimension
  2
*D5
 10
-10.953116
 20
22.847898
 30
0.0
 11
-13.453116
 21
30.847898
 31
0.0
 71
     0
 72
     0
 41
0.0
 42
0.0
  3
Standard
100
AcDbAlignedDimension
 13
-1.208563
 23
21.847898
 33
0.0
 14
-10.953116
 24
22.847898
 34
0.0
 50
90.0
100
AcDbRotatedDimension
  0
DIMENSION
  5
8D
100
AcDbEntity
  8
2
370
    25
100
AcDbDimension
  2
*D6
 10
23.961044
 20
14.347898
 30
0.0
 11
19.461044
 21
2.847898
 31
0.0
 71
     0
 72
     0
 41
0.0
 42
0.0
  3
Standard
100
AcDbAlignedDimension
 13
42.708482
 23
-8.652102
 33
0.0
 14
42.708482
 24
14.347898
 34
0.0
 50
90.0
100
AcDbRotatedDimension
  0
DIMENSION
  5
8E
100
AcDbEntity
  8
2
370
    25
100
AcDbDimension
  2
*D7
 10
74.708482
 20
-32.67963
 30
0.0
 11
53.708482
 21
-30.17963
 31
0.0
 71
     0
 72
     0
 41
0.0
 42
0.0
  3
Standard
100
AcDbAlignedDimension
 13
32.708482
 23
2.847898
 33
0.0
 14
74.708482
 24
2.847898
 34
0.0
100
AcDbRotatedDimension
  0
LWPOLYLINE
  5
8F
100
AcDbEntity
  8
2
370
    25
100
AcDbPolyline
 90
        3
 70
     0
 10
38.130668
 20
-7.54275
 10
32.976695
 20
-17.552367
 10
7.976695
 20
-17.552367
  0
LINE
  5
94
100
AcDbEntity
  8
2
370
    25
100
AcDbLine
 10
37.706516
 20
-9.497257
 30
0.0
 11
38.130668
 21
-7.54275
 31
0.0
  0
LINE
  5
95
100
AcDbEntity
  8
2
370
    25
100
AcDbLine
 10
38.130668
 20
-7.54275
 30
0.0
 11
36.786089
 21
-9.023327
 31
0.0
  0
TEXT
  5
96
100
AcDbEntity
  8
2
370
    18
100
AcDbText
 10
16.976695
 20
-17.052367
 30
0.0
 40
4.0
  1
Ｒ１０
 72
     5
 11
28.176695
 21
-17.052367
 31
0.0
100
AcDbText
  0
TEXT
  5
97
100
AcDbEntity
  8
2
370
    18
100
AcDbText
 10
8.976695
 20
-17.052367
 30
0.0
 40
4.0
  1
４－
 72
     5
 11
16.176695
 21
-17.052367
 31
0.0
100
AcDbText
  0
DIMENSION
  5
98
100
AcDbEntity
  8
2
370
    25
100
AcDbDimension
  2
*D8
 10
86.051414
 20
21.847898
 30
0.0
 11
81.551414
 21
12.347898
 31
0.0
 71
     0
 72
     0
 41
0.0
 42
0.0
  3
Standard
100
AcDbAlignedDimension
 13
76.553543
 23
2.847898
 33
0.0
 14
84.848328
 24
21.847898
 34
0.0
 50
90.0
100
AcDbRotatedDimension
  0
DIMENSION
  5
99
100
AcDbEntity
  8
2
370
    25
100
AcDbDimension
  2
*D9
 10
86.051414
 20
54.847898
 30
0.0
 11
81.551414
 21
38.347898
 31
0.0
 71
     0
 72
     0
 41
0.0
 42
0.0
  3
Standard
100
AcDbAlignedDimension
 13
86.051414
 23
21.847898
 33
0.0
 14
70.708482
 24
54.847898
 34
0.0
 50
90.0
100
AcDbRotatedDimension
  0
LWPOLYLINE
  5
9A
100
AcDbEntity
  8
2
370
    25
100
AcDbPolyline
 90
        3
 70
     0
 10
44.502519
 20
44.300374
 10
39.172817
 20
38.193989
 10
22.172817
 20
38.193989
  0
LINE
  5
9F
100
AcDbEntity
  8
2
370
    25
100
AcDbLine
 10
43.62218
 20
42.504545
 30
0.0
 11
44.502519
 21
44.300374
 31
0.0
  0
LINE
  5
A0
100
AcDbEntity
  8
2
370
    25
100
AcDbLine
 10
44.502519
 20
44.300374
 30
0.0
 11
42.842208
 21
43.18531
 31
0.0
  0
TEXT
  5
A1
100
AcDbEntity
  8
2
370
    18
100
AcDbText
 10
23.172817
 20
38.693989
 30
0.0
 40
4.0
  1
φ２８
 72
     5
 11
34.372817
 21
38.693989
 31
0.0
100
AcDbText
  0
LWPOLYLINE
  5
A2
100
AcDbEntity
  8
2
370
    25
100
AcDbPolyline
 90
        3
 70
     0
 10
45.908753
 20
66.473913
 10
34.653259
 20
84.088425
 10
85.985397
 20
84.088425
  0
LINE
  5
A7
100
AcDbEntity
  8
2
370
    25
100
AcDbLine
 10
44.432356
 20
67.82308
 30
0.0
 11
45.908753
 21
66.473913
 31
0.0
  0
LINE
  5
A8
100
AcDbEntity
  8
2
370
    25
100
AcDbLine
 10
45.908753
 20
66.473913
 30
0.0
 11
45.30474
 21
68.380524
 31
0.0
  0
DIMENSION
  5
A9
100
AcDbEntity
  8
2
370
    25
100
AcDbDimension
  2
*D10
 10
-22.319269
 20
86.847898
 30
0.0
 11
-28.819269
 21
19.847898
 31
0.0
 71
     0
 72
     0
 41
0.0
 42
0.0
  3
Standard
100
AcDbAlignedDimension
 13
2.708482
 23
-43.152102
 33
0.0
 14
2.708482
 24
86.847898
 34
0.0
 50
90.0
100
AcDbRotatedDimension
  0
TEXT
  5
AA
100
AcDbEntity
  8
2
370
    18
100
AcDbText
 10
-42.990942
 20
88.154536
 30
0.0
 40
4.0
  1
４－
 50
44.003218
 72
     5
 11
-37.811976
 21
93.156367
 31
0.0
100
AcDbText
  0
DIMENSION
  5
AB
100
AcDbEntity
  8
2
370
    25
100
AcDbDimension
  2
*D11
 10
-49.8366
 20
80.847898
 30
0.0
 11
-31.482129
 21
99.269716
 31
0.0
 70
     4
 71
     0
 72
     0
 41
0.0
 42
0.0
  3
Standard
100
AcDbRadialDimension
 15
-45.520796
 25
85.01609
 35
0.0
 40
10.5
  0
LWPOLYLINE
  5
AC
100
AcDbEntity
  8
2
370
    25
100
AcDbPolyline
 90
        3
 70
     0
 10
-48.774612
 20
-21.957843
 10
-37.204962
 20
-52.524521
 10
-8.552313
 20
-52.524521
  0
LINE
  5
B1
100
AcDbEntity
  8
2
370
    25
100
AcDbLine
 10
-47.606625
 20
-23.58136
 30
0.0
 11
-48.774612
 21
-21.957843
 31
0.0
  0
LINE
  5
B2
100
AcDbEntity
  8
2
370
    25
100
AcDbLine
 10
-48.774612
 20
-21.957843
 30
0.0
 11
-48.574864
 21
-23.947844
 31
0.0
  0
TEXT
  5
B3
100
AcDbEntity
  8
2
370
    18
100
AcDbText
 10
-27.44091
 20
-52.024521
 30
0.0
 40
4.0
  1
Ｒ３以下
 72
     5
 11
-12.24091
 21
-52.024521
 31
0.0
100
AcDbText
  0
TEXT
  5
B4
100
AcDbEntity
  8
2
370
    18
100
AcDbText
 10
-35.44091
 20
-52.024521
 30
0.0
 40
4.0
  1
４－
 72
     5
 11
-28.24091
 21
-52.024521
 31
0.0
100
AcDbText
  0
DIMENSION
  5
B5
100
AcDbEntity
  8
2
370
    25
100
AcDbDimension
  2
*D12
 10
78.708482
 20
-68.281319
 30
0.0
 11
40.708482
 21
-65.781319
 31
0.0
 71
     0
 72
     0
 41
0.0
 42
0.0
  3
Standard
100
AcDbAlignedDimension
 13
2.708482
 23
-67.656389
 33
0.0
 14
78.708482
 24
-22.152102
 34
0.0
100
AcDbRotatedDimension
  0
DIMENSION
  5
B6
100
AcDbEntity
  8
2
370
    25
100
AcDbDimension
  2
*D13
 10
-35.010696
 20
21.847896
 30
0.0
 11
-39.510696
 21
-0.152103
 31
0.0
 71
     0
 72
     0
 41
0.0
 42
0.0
  3
Standard
100
AcDbAlignedDimension
 13
-49.8366
 23
-22.152102
 33
0.0
 14
-39.527977
 24
21.847896
 34
0.0
 50
90.0
100
AcDbRotatedDimension
  0
DIMENSION
  5
B7
100
AcDbEntity
  8
2
370
    25
100
AcDbDimension
  2
*D14
 10
-35.010696
 20
-22.152102
 30
0.0
 11
-39.510696
 21
-32.652102
 31
0.0
 71
     0
 72
     0
 41
0.0
 42
0.0
  3
Standard
100
AcDbAlignedDimension
 13
-49.8366
 23
-43.152102
 33
0.0
 14
-35.010696
 24
-22.152102
 34
0.0
 50
90.0
100
AcDbRotatedDimension
  0
DIMENSION
  5
B8
100
AcDbEntity
  8
2
370
    25
100
AcDbDimension
  2
*D15
 10
-35.010696
 20
65.847898
 30
0.0
 11
-39.510696
 21
43.847897
 31
0.0
 71
     0
 72
     0
 41
0.0
 42
0.0
  3
Standard
100
AcDbAlignedDimension
 13
-39.527977
 23
21.847896
 33
0.0
 14
-49.8366
 24
65.847898
 34
0.0
 50
90.0
100
AcDbRotatedDimension
  0
DIMENSION
  5
B9
100
AcDbEntity
  8
2
370
    25
100
AcDbDimension
  2
*D16
 10
-35.010696
 20
86.847898
 30
0.0
 11
-39.510696
 21
76.347898
 31
0.0
 71
     0
 72
     0
 41
0.0
 42
0.0
  3
Standard
100
AcDbAlignedDimension
 13
-35.010696
 23
65.847898
 33
0.0
 14
-49.8366
 24
86.847898
 34
0.0
 50
90.0
100
AcDbRotatedDimension
  0
DIMENSION
  5
BA
100
AcDbEntity
  8
2
370
    25
100
AcDbDimension
  2
*D17
 10
-73.084953
 20
-35.152102
 30
0.0
 11
-75.584953
 21
-37.152102
 31
0.0
 71
     0
 72
     0
 41
0.0
 42
0.0
  3
Standard
100
AcDbAlignedDimension
 13
-62.8366
 23
-43.152102
 33
0.0
 14
-58.3366
 24
-35.152102
 34
0.0
 50
90.0
100
AcDbRotatedDimension
  0
DIMENSION
  5
BB
100
AcDbEntity
  8
2
370
    25
100
AcDbDimension
  2
*D18
 10
-73.084953
 20
86.847898
 30
0.0
 11
-75.584953
 21
84.847898
 31
0.0
 71
     0
 72
     0
 41
0.0
 42
0.0
  3
Standard
100
AcDbAlignedDimension
 13
-58.3366
 23
78.847898
 33
0.0
 14
-62.8366
 24
86.847898
 34
0.0
 50
90.0
100
AcDbRotatedDimension
  0
LINE
  5
BC
100
AcDbEntity
  8
3
370
   100
100
AcDbLine
 10
-80.0
 20
138.0
 30
0.0
 11
-80.0
 21
-138.0
 31
0.0
  0
LINE
  5
BD
100
AcDbEntity
  8
3
370
   100
100
AcDbLine
 10
98.0
 20
-138.0
 30
0.0
 11
98.0
 21
138.0
 31
0.0
  0
LINE
  5
BE
100
AcDbEntity
  8
3
370
   100
100
AcDbLine
 10
-80.0
 20
-138.0
 30
0.0
 11
98.0
 21
-138.0
 31
0.0
  0
LINE
  5
BF
100
AcDbEntity
  8
3
370
   100
100
AcDbLine
 10
98.0
 20
138.0
 30
0.0
 11
-80.0
 21
138.0
 31
0.0
  0
LINE
  5
C0
100
AcDbEntity
  8
3
370
   100
100
AcDbLine
 10
-80.0
 20
138.3
 30
0.0
 11
98.3
 21
138.3
 31
0.0
  0
LINE
  5
C1
100
AcDbEntity
  8
3
370
   100
100
AcDbLine
 10
98.3
 20
138.3
 30
0.0
 11
98.3
 21
-138.3
 31
0.0
  0
LINE
  5
C2
100
AcDbEntity
  8
3
370
   100
100
AcDbLine
 10
98.3
 20
-138.3
 30
0.0
 11
-80.3
 21
-138.3
 31
0.0
  0
LINE
  5
C3
100
AcDbEntity
  8
3
370
   100
100
AcDbLine
 10
-80.3
 20
-138.3
 30
0.0
 11
-80.3
 21
138.0
 31
0.0
  0
LINE
  5
C4
100
AcDbEntity
  8
3
370
    50
100
AcDbLine
 10
-80.0
 20
-108.0
 30
0.0
 11
98.0
 21
-108.0
 31
0.0
  0
LINE
  5
C5
100
AcDbEntity
  8
3
370
    50
100
AcDbLine
 10
-2.0
 20
-108.0
 30
0.0
 11
-2.0
 21
-138.0
 31
0.0
  0
TEXT
  5
C6
100
AcDbEntity
  8
3
370
    25
100
AcDbText
 10
-75.0
 20
-112.5
 30
0.0
 40
4.0
  1
図  法
 72
     5
 11
-59.8
 21
-112.5
 31
0.0
100
AcDbText
  0
TEXT
  5
C7
100
AcDbEntity
  8
3
370
    25
100
AcDbText
 10
-49.0
 20
-112.5
 30
0.0
 40
4.0
  1
単  位
 72
     5
 11
-33.8
 21
-112.5
 31
0.0
100
AcDbText
  0
TEXT
  5
C8
100
AcDbEntity
  8
3
370
    25
100
AcDbText
 10
-23.0
 20
-112.5
 30
0.0
 40
4.0
  1
尺  度
 72
     5
 11
-7.8
 21
-112.5
 31
0.0
100
AcDbText
  0
TEXT
  5
C9
100
AcDbEntity
  8
3
370
   100
100
AcDbText
 10
-69.0
 20
-135.5
 30
0.0
 40
8.0
  1
（株）川口技研
 72
     5
 11
-14.6
 21
-135.5
 31
0.0
100
AcDbText
  0
TEXT
  5
CA
100
AcDbEntity
  8
3
370
    25
100
AcDbText
 10
0.0
 20
-112.5
 30
0.0
 40
4.0
  1
図面名称
 72
     5
 11
15.2
 21
-112.5
 31
0.0
100
AcDbText
  0
TEXT
  5
CB
100
AcDbEntity
  8
3
370
    25
100
AcDbText
 10
0.0
 20
-129.5
 30
0.0
 40
4.0
  1
図面番号
 72
     5
 11
15.2
 21
-129.5
 31
0.0
100
AcDbText
  0
LINE
  5
CC
100
AcDbEntity
  8
3
370
    25
100
AcDbLine
 10
-80.0
 20
-113.0
 30
0.0
 11
18.0
 21
-113.0
 31
0.0
  0
LINE
  5
CD
100
AcDbEntity
  8
3
370
    25
100
AcDbLine
 10
18.0
 20
-108.0
 30
0.0
 11
18.0
 21
-113.0
 31
0.0
  0
LINE
  5
CE
100
AcDbEntity
  8
3
370
    25
100
AcDbLine
 10
-2.0
 20
-130.0
 30
0.0
 11
18.0
 21
-130.0
 31
0.0
  0
LINE
  5
CF
100
AcDbEntity
  8
3
370
    25
100
AcDbLine
 10
18.0
 20
-125.0
 30
0.0
 11
18.0
 21
-130.0
 31
0.0
  0
TEXT
  5
D0
100
AcDbEntity
  8
3
370
    25
100
AcDbText
 10
-46.0
 20
-121.5
 30
0.0
 40
5.0
  1
ｍｍ
 72
     5
 11
-37.0
 21
-121.5
 31
0.0
100
AcDbText
  0
TEXT
  5
D1
100
AcDbEntity
  8
3
370
    25
100
AcDbText
 10
-21.0
 20
-121.5
 30
0.0
 40
4.0
  1
１／１
 72
     5
 11
-9.8
 21
-121.5
 31
0.0
100
AcDbText
  0
TEXT
  5
D2
100
AcDbEntity
  8
3
370
    25
100
AcDbText
 10
-73.0
 20
-121.5
 30
0.0
 40
4.0
  1
３角法
 72
     5
 11
-61.8
 21
-121.5
 31
0.0
100
AcDbText
  0
LINE
  5
D3
100
AcDbEntity
  8
3
370
    50
100
AcDbLine
 10
-80.0
 20
-125.0
 30
0.0
 11
-2.0
 21
-125.0
 31
0.0
  0
LINE
  5
D4
100
AcDbEntity
  8
3
370
    50
100
AcDbLine
 10
-2.0
 20
-125.0
 30
0.0
 11
98.0
 21
-125.0
 31
0.0
  0
LINE
  5
D5
100
AcDbEntity
  8
3
370
    50
100
AcDbLine
 10
-54.0
 20
-125.0
 30
0.0
 11
-54.0
 21
-108.0
 31
0.0
  0
LINE
  5
D6
100
AcDbEntity
  8
3
370
    50
100
AcDbLine
 10
-28.0
 20
-125.0
 30
0.0
 11
-28.0
 21
-108.0
 31
0.0
  0
TEXT
  5
D7
100
AcDbEntity
  8
3
370
   100
100
AcDbText
 10
28.421455
 20
-134.545471
 30
0.0
 40
6.0
  1
ＥＺ－１４３７－００
 72
     5
 11
87.221455
 21
-134.545471
 31
0.0
100
AcDbText
  0
TEXT
  5
D8
100
AcDbEntity
  8
3
370
    50
100
AcDbText
 10
7.235214
 20
-121.793556
 30
0.0
 40
5.0
  1
ＵＭ座・ＳＱＪ座・ＹＢＪ座　切欠図
 72
     5
 11
91.235214
 21
-121.793556
 31
0.0
100
AcDbText
  0
TEXT
  5
D9
100
AcDbEntity
  8
3
370
    50
100
AcDbText
 10
24.285025
 20
-114.775894
 30
0.0
 40
5.0
  1
ＬＶＣケース錠（長住協仕様）
 72
     5
 11
93.285025
 21
-114.775894
 31
0.0
100
AcDbText
  0
ENDSEC
  0
SECTION
  2
OBJECTS
  0
DICTIONARY
  5
18C
100
AcDbDictionary
280
     0
281
     1
  3
ACAD_GROUP
350
18D
  3
ACAD_MLINESTYLE
350
18E
  0
DICTIONARY
  5
18D
102
{ACAD_REACTORS
330
18C
102
}
100
AcDbDictionary
280
     0
281
     1
  0
DICTIONARY
  5
18E
102
{ACAD_REACTORS
330
18C
102
}
100
AcDbDictionary
280
     0
281
     1
  3
Standard
350
18F
  0
MLINESTYLE
  5
18F
102
{ACAD_REACTORS
330
18E
102
}
100
AcDbMlineStyle
  2
Standard
 70
     0
  3

 62
     0
 51
90.0
 52
90.0
 71
     2
 49
0.5
 62
   256
  6
ByLayer
 49
-0.5
 62
   256
  6
ByLayer
  0
ENDSEC
  0
EOF
