  0
SECTION
  2
HEADER
  9
$ACADVER
  1
AC1015
  9
$ACADMAINTVER
 70
     6
  9
$DWGCODEPAGE
  3
ANSI_932
  9
$INSBASE
 10
0.0
 20
0.0
 30
0.0
  9
$EXTMIN
 10
-210.0
 20
-148.5
 30
1.000000E+20
  9
$EXTMAX
 10
210.0
 20
148.5
 30
-1.000000E+20
  9
$LIMMIN
 10
-210.0
 20
-148.5
  9
$LIMMAX
 10
210.0
 20
148.5
  9
$ORTHOMODE
 70
     0
  9
$REGENMODE
 70
     1
  9
$FILLMODE
 70
     1
  9
$QTEXTMODE
 70
     0
  9
$MIRRTEXT
 70
     1
  9
$LTSCALE
 40
1.0
  9
$ATTMODE
 70
     1
  9
$TEXTSIZE
 40
0.2
  9
$TRACEWID
 40
0.05
  9
$TEXTSTYLE
  7
STANDARD
  9
$CLAYER
  8
0
  9
$CELTYPE
  6
CONTINUOUS
  9
$CECOLOR
 62
   256
  9
$CELTSCALE
 40
1.0
  9
$DISPSILH
 70
     0
  9
$DIMSCALE
 40
1.0
  9
$DIMASZ
 40
2.0
  9
$DIMEXO
 40
0.5
  9
$DIMDLI
 40
0.38
  9
$DIMRND
 40
0.0
  9
$DIMDLE
 40
0.0
  9
$DIMEXE
 40
2.0
  9
$DIMTP
 40
0.0
  9
$DIMTM
 40
0.0
  9
$DIMTXT
 40
4.0
  9
$DIMCEN
 40
0.09
  9
$DIMTSZ
 40
0.0
  9
$DIMTOL
 70
     0
  9
$DIMLIM
 70
     0
  9
$DIMTIH
 70
     0
  9
$DIMTOH
 70
     0
  9
$DIMSE1
 70
     0
  9
$DIMSE2
 70
     0
  9
$DIMTAD
 70
     1
  9
$DIMZIN
 70
     0
  9
$DIMBLK
  1

  9
$DIMASO
 70
     1
  9
$DIMSHO
 70
     1
  9
$DIMPOST
  1

  9
$DIMAPOST
  1

  9
$DIMALT
 70
     0
  9
$DIMALTD
 70
     2
  9
$DIMALTF
 40
25.4
  9
$DIMLFAC
 40
1.0
  9
$DIMTOFL
 70
     0
  9
$DIMTVP
 40
0.0
  9
$DIMTIX
 70
     0
  9
$DIMSOXD
 70
     0
  9
$DIMSAH
 70
     0
  9
$DIMBLK1
  1

  9
$DIMBLK2
  1

  9
$DIMSTYLE
  2
Standard
  9
$DIMCLRD
 70
     0
  9
$DIMCLRE
 70
     0
  9
$DIMCLRT
 70
     0
  9
$DIMTFAC
 40
1.0
  9
$DIMGAP
 40
0.5
  9
$DIMJUST
 70
     0
  9
$DIMSD1
 70
     0
  9
$DIMSD2
 70
     0
  9
$DIMTOLJ
 70
     1
  9
$DIMTZIN
 70
     0
  9
$DIMALTZ
 70
     0
  9
$DIMALTTZ
 70
     0
  9
$DIMUPT
 70
     0
  9
$DIMDEC
 70
     2
  9
$DIMTDEC
 70
     4
  9
$DIMALTU
 70
     2
  9
$DIMALTTD
 70
     2
  9
$DIMTXSTY
  7
STANDARD
  9
$DIMAUNIT
 70
     0
  9
$DIMADEC
 70
     2
  9
$DIMALTRND
 40
0.0
  9
$DIMAZIN
 70
     0
  9
$DIMDSEP
 70
     0
  9
$DIMATFIT
 70
     3
  9
$DIMFRAC
 70
     0
  9
$DIMLDRBLK
  1

  9
$DIMLUNIT
 70
     2
  9
$DIMLWD
 70
     0
  9
$DIMLWE
 70
     0
  9
$DIMTMOVE
 70
     0
  9
$LUNITS
 70
     2
  9
$LUPREC
 70
     4
  9
$SKETCHINC
 40
0.1
  9
$FILLETRAD
 40
0.0
  9
$AUNITS
 70
     0
  9
$AUPREC
 70
     0
  9
$MENU
  1
acad
  9
$ELEVATION
 40
0.0
  9
$PELEVATION
 40
0.0
  9
$THICKNESS
 40
0.0
  9
$LIMCHECK
 70
     0
  9
$CHAMFERA
 40
0.0
  9
$CHAMFERB
 40
0.0
  9
$CHAMFERC
 40
0.0
  9
$CHAMFERD
 40
0.0
  9
$SKPOLY
 70
     0
  9
$TDCREATE
 40
2457913.000000000
  9
$TDUCREATE
 40
0.000000000
  9
$TDUPDATE
 40
0.000000000
  9
$TDUUPDATE
 40
2447892.625000000
  9
$TDINDWG
 40
0.0000000000
  9
$TDUSRTIMER
 40
0.0000000000
  9
$USRTIMER
 70
     1
  9
$ANGBASE
 50
0.0
  9
$ANGDIR
 70
     0
  9
$PDMODE
 70
     0
  9
$PDSIZE
 40
0.0
  9
$PLINEWID
 40
0.0
  9
$SPLFRAME
 70
     0
  9
$SPLINETYPE
 70
     6
  9
$SPLINESEGS
 70
     8
  9
$HANDSEED
  5
160
  9
$SURFTAB1
 70
     6
  9
$SURFTAB2
 70
     6
  9
$SURFTYPE
 70
     6
  9
$SURFU
 70
     6
  9
$SURFV
 70
     6
  9
$UCSBASE
  2

  9
$UCSNAME
  2

  9
$UCSORG
 10
0.0
 20
0.0
 30
0.0
  9
$UCSXDIR
 10
1.0
 20
0.0
 30
0.0
  9
$UCSYDIR
 10
0.0
 20
1.0
 30
0.0
  9
$UCSORTHOREF
  2

  9
$UCSORTHOVIEW
 70
     0
  9
$UCSORGTOP
 10
0.0
 20
0.0
 30
0.0
  9
$UCSORGBOTTOM
 10
0.0
 20
0.0
 30
0.0
  9
$UCSORGLEFT
 10
0.0
 20
0.0
 30
0.0
  9
$UCSORGRIGHT
 10
0.0
 20
0.0
 30
0.0
  9
$UCSORGFRONT
 10
0.0
 20
0.0
 30
0.0
  9
$UCSORGBACK
 10
0.0
 20
0.0
 30
0.0
  9
$PUCSBASE
  2

  9
$PUCSNAME
  2

  9
$PUCSORG
 10
0.0
 20
0.0
 30
0.0
  9
$PUCSXDIR
 10
1.0
 20
0.0
 30
0.0
  9
$PUCSYDIR
 10
0.0
 20
1.0
 30
0.0
  9
$PUCSORTHOREF
  2

  9
$PUCSORTHOVIEW
 70
     0
  9
$PUCSORGTOP
 10
0.0
 20
0.0
 30
0.0
  9
$PUCSORGBOTTOM
 10
0.0
 20
0.0
 30
0.0
  9
$PUCSORGLEFT
 10
0.0
 20
0.0
 30
0.0
  9
$PUCSORGRIGHT
 10
0.0
 20
0.0
 30
0.0
  9
$PUCSORGFRONT
 10
0.0
 20
0.0
 30
0.0
  9
$PUCSORGBACK
 10
0.0
 20
0.0
 30
0.0
  9
$USERI1
 70
     0
  9
$USERI2
 70
     0
  9
$USERI3
 70
     0
  9
$USERI4
 70
     0
  9
$USERI5
 70
     0
  9
$USERR1
 40
0.0
  9
$USERR2
 40
0.0
  9
$USERR3
 40
0.0
  9
$USERR4
 40
0.0
  9
$USERR5
 40
0.0
  9
$WORLDVIEW
 70
     1
  9
$SHADEDGE
 70
     3
  9
$SHADEDIF
 70
    70
  9
$TILEMODE
 70
     1
  9
$MAXACTVP
 70
    16
  9
$PINSBASE
 10
0.0
 20
0.0
 30
0.0
  9
$PLIMCHECK
 70
     0
  9
$PEXTMIN
 10
1.000000E+20
 20
1.000000E+20
 30
1.000000E+20
  9
$PEXTMAX
 10
-1.000000E+20
 20
-1.000000E+20
 30
-1.000000E+20
  9
$PLIMMIN
 10
0.0
 20
0.0
  9
$PLIMMAX
 10
12.0
 20
9.0
  9
$UNITMODE
 70
     0
  9
$VISRETAIN
 70
     0
  9
$PLINEGEN
 70
     1
  9
$PSLTSCALE
 70
     0
  9
$TREEDEPTH
 70
  3020
  9
$CMLSTYLE
  2
Standard
  9
$CMLJUST
 70
     0
  9
$CMLSCALE
 40
1.0
  9
$PROXYGRAPHICS
 70
     0
  9
$MEASUREMENT
 70
     0
  9
$CELWEIGHT
370
     0
  9
$ENDCAPS
280
     0
  9
$JOINSTYLE
280
     0
  9
$LWDISPLAY
290
     0
  9
$INSUNITS
 70
     0
  9
$HYPERLINKBASE
  1

  9
$STYLESHEET
  1

  9
$XEDIT
290
     1
  9
$CEPSNTYPE
380
     0
  9
$PSTYLEMODE
290
     1
  9
$FINGERPRINTGUID
  2

  9
$VERSIONGUID
  2

  9
$EXTNAMES
290
     1
  9
$PSVPSCALE
 40
0.0
  0
ENDSEC
  0
SECTION
  2
CLASSES
  0
CLASS
  1
LWPOLYLINE
  2
AcDbPolyline
  3
AutoCAD 2000
 90
        0
280
     0
281
     1
  0
CLASS
  1
IMAGE
  2
AcDbRasterImage
  3
ISM
 90
      127
280
     0
281
     1
  0
CLASS
  1
OLE2FRAME
  2
AcDbOle2Frame
  3
AutoCAD 2000
 90
        0
280
     0
281
     1
  0
CLASS
  1
HATCH
  2
AcDbHatch
  3
AutoCAD 2000
 90
        0
280
     0
281
     1
  0
CLASS
  1
DICTIONARYVAR
  2
AcDbDictionaryVar
  3
AutoCAD 2000
 90
        0
280
     0
281
     0
  0
CLASS
  1
RASTERVARIABLES
  2
AcDbRasterVariables
  3
ISM
 90
        0
280
     0
281
     0
  0
CLASS
  1
IMAGEDEF
  2
AcDbRasterImageDef
  3
ISM
 90
        0
280
     0
281
     0
  0
CLASS
  1
IMAGEDEF_REACTOR
  2
AcDbRasterImageDefReactor
  3
ISM
 90
        1
280
     0
281
     0
  0
CLASS
  1
IDBUFFER
  2
AcDbIdBuffer
  3
AutoCAD 2000
 90
        0
280
     0
281
     0
  0
CLASS
  1
SPATIAL_FILTER
  2
AcDbSpatialFilter
  3
AutoCAD 2000
 90
        0
280
     0
281
     0
  0
CLASS
  1
XRECORD
  2
AcDbXrecord
  3
AutoCAD 2000
 90
        0
280
     0
281
     0
  0
CLASS
  1
SORTENTSTABLE
  2
AcDbSortentsTable
  3
AutoCAD 2000
 90
        0
280
     0
281
     0
  0
CLASS
  1
LAYER_INDEX
  2
AcDbLayerIndex
  3
AutoCAD 2000
 90
        0
280
     0
281
     0
  0
CLASS
  1
SPATIAL_INDEX
  2
AcDbSpatialIndex
  3
AutoCAD 2000
 90
        0
280
     0
281
     0
  0
CLASS
  1
OBJECT_PTR
  2
CAseDLPNTableRecord
  3
"ASE-LPNTableRecord"
 90
        1
280
     0
281
     0
  0
CLASS
  1
LAYOUT
  2
AcDbLayout
  3
AutoCAD 2000
 90
        0
280
     0
281
     0
  0
CLASS
  1
PLOTSETTINGS
  2
AcDbPlotSettings
  3
AutoCAD 2000
 90
        0
280
     0
281
     0
  0
CLASS
  1
ACDBDICTIONARYWDFLT
  2
AcDbDictionaryWithDefault
  3
AutoCAD 2000
 90
        0
280
     0
281
     0
  0
CLASS
  1
ACDBPLACEHOLDER
  2
AcDbPlaceHolder
  3
AutoCAD 2000
 90
        0
280
     0
281
     0
  0
CLASS
  1
VBA_PROJECT
  2
AcDbVbaProject
  3
acadvba
 90
        0
280
     0
281
     0
  0
CLASS
  1
WIPEOUT
  2
AcDbWipeout
  3
WipeOut|AutoCAD Express Tool|expresstools@autodesk.com
 90
      127
280
     0
281
     1
  0
CLASS
  1
WIPEOUTVARIABLES
  2
AcDbWipeoutVariables
  3
WipeOut|AutoCAD Express Tool|expresstools@autodesk.com
 90
        0
280
     0
281
     0
  0
CLASS
  1
RTEXT
  2
RText
  3
RText|AutoCAD Express Tool|expresstools@autodesk.com
 90
        0
280
     0
281
     1
  0
CLASS
  1
ARCALIGNEDTEXT
  2
AcDbArcAlignedText
  3
ATEXT|AutoCAD Express Tool|expresstools@autodesk.com
 90
        0
280
     0
281
     1
  0
ENDSEC
  0
SECTION
  2
TABLES
  0
TABLE
  2
VPORT
  5
6
100
AcDbSymbolTable
 70
     1
  0
VPORT
  5
19
100
AcDbSymbolTableRecord
100
AcDbViewportTableRecord
  2
*ACTIVE
 70
     0
 10
0.0
 20
0.0
 11
1.0
 21
1.0
 12
0.0
 22
0.0
 13
0.0
 23
0.0
 14
1.0
 24
1.0
 15
0.0
 25
0.0
 16
0.0
 26
0.0
 36
1.0
 17
0.0
 27
0.0
 37
0.0
 40
297.0
 41
1.414141
 42
50.0
 43
0.0
 44
0.0
 50
0.0
 51
0.0
 71
     0
 72
   500
 73
     1
 74
     1
 75
     0
 76
     0
 77
     0
 78
     0
281
     0
 65
     0
110
0.0
120
0.0
130
0.0
111
1.0
121
0.0
131
0.0
112
0.0
122
1.0
132
0.0
345
0
346
0
 79
     0
146
0.0
  0
ENDTAB
  0
TABLE
  2
LTYPE
  5
3
100
AcDbSymbolTable
 70
     9
  0
LTYPE
  5
C
100
AcDbSymbolTableRecord
100
AcDbLinetypeTableRecord
  2
ByBlock
 70
    64
  3

 72
    65
 73
     0
 40
0.0
  0
LTYPE
  5
D
100
AcDbSymbolTableRecord
100
AcDbLinetypeTableRecord
  2
ByLayer
 70
    64
  3

 72
    65
 73
     0
 40
0.0
  0
LTYPE
  5
E
100
AcDbSymbolTableRecord
100
AcDbLinetypeTableRecord
  2
CONTINUOUS
 70
     0
  3
Solid line
 72
    65
 73
     0
 40
0.0
  0
LTYPE
  5
F
100
AcDbSymbolTableRecord
100
AcDbLinetypeTableRecord
  2
DASHED
 70
     0
  3
__ __ __ __ __ __ __ __ __ __ __ __ __ __ __
 72
    65
 73
     2
 40
2.0
 49
1.2
 74
     0
 49
-0.8
 74
     0
  0
LTYPE
  5
10
100
AcDbSymbolTableRecord
100
AcDbLinetypeTableRecord
  2
CENTER
 70
     0
  3
____ _ ____ _ ____ _ ____ _ ____ _ ____ _ ____
 72
    65
 73
     4
 40
12.0
 49
9.0
 74
     0
 49
-1.0
 74
     0
 49
1.0
 74
     0
 49
-1.0
 74
     0
  0
LTYPE
  5
11
100
AcDbSymbolTableRecord
100
AcDbLinetypeTableRecord
  2
HIDDEN
 70
     0
  3
_ _ _ _ _ _ _ _ _ _ _ _ _ _ _ _ _ _ _ _ _ _ _
 72
    65
 73
     2
 40
3.2
 49
1.3
 74
     0
 49
-1.9
 74
     0
  0
LTYPE
  5
12
100
AcDbSymbolTableRecord
100
AcDbLinetypeTableRecord
  2
PHANTOM
 70
     0
  3
_____ _ _ _____ _ _ _____ _ _ _____ _ _ _____
 72
    65
 73
     6
 40
12.5
 49
9.0
 74
     0
 49
-1.0
 74
     0
 49
0.5
 74
     0
 49
-0.5
 74
     0
 49
0.5
 74
     0
 49
-1.0
 74
     0
  0
LTYPE
  5
13
100
AcDbSymbolTableRecord
100
AcDbLinetypeTableRecord
  2
DOT
 70
     0
  3
...............................................
 72
    65
 73
     2
 40
1.0
 49
0.5
 74
     0
 49
-0.5
 74
     0
  0
LTYPE
  5
14
100
AcDbSymbolTableRecord
100
AcDbLinetypeTableRecord
  2
DASHDOT
 70
     0
  3
__ . __ . __ . __ . __ . __ . __ . __ . __ . __
 72
    65
 73
     4
 40
8.0
 49
5.0
 74
     0
 49
-1.0
 74
     0
 49
1.0
 74
     0
 49
-1.0
 74
     0
  0
ENDTAB
  0
TABLE
  2
LAYER
  5
1
100
AcDbSymbolTable
 70
     4
  0
LAYER
  5
15
100
AcDbSymbolTableRecord
100
AcDbLayerTableRecord
  2
0
 70
     0
 62
     8
  6
CONTINUOUS
290
     1
370
    -3
390
0
  0
LAYER
  5
16
100
AcDbSymbolTableRecord
100
AcDbLayerTableRecord
  2
1
 70
     0
 62
     2
  6
CONTINUOUS
290
     1
370
    -3
390
0
  0
LAYER
  5
17
100
AcDbSymbolTableRecord
100
AcDbLayerTableRecord
  2
2
 70
     0
 62
     3
  6
CONTINUOUS
290
     1
370
    -3
390
0
  0
LAYER
  5
18
100
AcDbSymbolTableRecord
100
AcDbLayerTableRecord
  2
3
 70
     0
 62
     4
  6
CONTINUOUS
290
     1
370
    -3
390
0
  0
ENDTAB
  0
TABLE
  2
STYLE
  5
2
100
AcDbSymbolTable
 70
     1
  0
STYLE
  5
1B
100
AcDbSymbolTableRecord
100
AcDbTextStyleTableRecord
  2
STANDARD
 70
    64
 40
0.0
 41
1.0
 50
0.0
 71
     0
 42
1.0
  3
txt
  4
BIGFONT
  0
ENDTAB
  0
TABLE
  2
VIEW
  5
4
100
AcDbSymbolTable
 70
     0
  0
ENDTAB
  0
TABLE
  2
UCS
  5
5
100
AcDbSymbolTable
 70
     0
  0
ENDTAB
  0
TABLE
  2
APPID
  5
7
100
AcDbSymbolTable
 70
     1
  0
APPID
  5
1A
100
AcDbSymbolTableRecord
100
AcDbRegAppTableRecord
  2
ACAD
 70
     0
  0
ENDTAB
  0
TABLE
  2
DIMSTYLE
  5
8
100
AcDbSymbolTable
 70
     1
100
AcDbDimStyleTable
 71
     0
  0
DIMSTYLE
105
30
100
AcDbSymbolTableRecord
100
AcDbDimStyleTableRecord
  2
Standard
 70
     0
  3

  4

 40
1.0
 41
2.0
 42
0.5
 43
0.38
 44
2.0
 45
0.0
 46
0.0
 47
0.0
 48
0.0
 71
     0
 72
     0
 73
     0
 74
     0
 75
     0
 76
     0
 77
     1
 78
     0
 79
     0
140
4.0
141
0.09
142
0.0
143
25.4
144
1.0
145
0.0
146
1.0
147
0.5
148
0.0
170
     0
171
     2
172
     0
173
     0
174
     0
175
     0
176
     0
177
     0
178
     0
179
     0
271
     2
272
     4
273
     2
274
     2
275
     0
276
     0
277
     2
278
    46
279
     0
280
     0
281
     0
282
     0
283
     1
284
     0
285
     0
286
     0
288
     0
289
     3
340
1B
341
0
342
0
343
0
344
0
371
    -2
372
    -2
  0
ENDTAB
  0
TABLE
  2
BLOCK_RECORD
  5
2B
100
AcDbSymbolTable
 70
    13
  0
BLOCK_RECORD
  5
29
100
AcDbSymbolTableRecord
100
AcDbBlockTableRecord
  2
*Model_Space
340
0
  0
BLOCK_RECORD
  5
2A
100
AcDbSymbolTableRecord
100
AcDbBlockTableRecord
  2
*Paper_Space
340
0
  0
BLOCK_RECORD
  5
1C
100
AcDbSymbolTableRecord
100
AcDbBlockTableRecord
  2
*D0
340
0
  0
BLOCK_RECORD
  5
1D
100
AcDbSymbolTableRecord
100
AcDbBlockTableRecord
  2
*D1
340
0
  0
BLOCK_RECORD
  5
1E
100
AcDbSymbolTableRecord
100
AcDbBlockTableRecord
  2
*D2
340
0
  0
BLOCK_RECORD
  5
1F
100
AcDbSymbolTableRecord
100
AcDbBlockTableRecord
  2
*D3
340
0
  0
BLOCK_RECORD
  5
20
100
AcDbSymbolTableRecord
100
AcDbBlockTableRecord
  2
*D4
340
0
  0
BLOCK_RECORD
  5
21
100
AcDbSymbolTableRecord
100
AcDbBlockTableRecord
  2
*D5
340
0
  0
BLOCK_RECORD
  5
22
100
AcDbSymbolTableRecord
100
AcDbBlockTableRecord
  2
*D6
340
0
  0
BLOCK_RECORD
  5
23
100
AcDbSymbolTableRecord
100
AcDbBlockTableRecord
  2
*D7
340
0
  0
BLOCK_RECORD
  5
24
100
AcDbSymbolTableRecord
100
AcDbBlockTableRecord
  2
*D8
340
0
  0
BLOCK_RECORD
  5
25
100
AcDbSymbolTableRecord
100
AcDbBlockTableRecord
  2
*D9
340
0
  0
BLOCK_RECORD
  5
26
100
AcDbSymbolTableRecord
100
AcDbBlockTableRecord
  2
*D10
340
0
  0
BLOCK_RECORD
  5
27
100
AcDbSymbolTableRecord
100
AcDbBlockTableRecord
  2
*D11
340
0
  0
BLOCK_RECORD
  5
28
100
AcDbSymbolTableRecord
100
AcDbBlockTableRecord
  2
*D12
340
0
  0
ENDTAB
  0
ENDSEC
  0
SECTION
  2
BLOCKS
  0
BLOCK
  5
2C
100
AcDbEntity
  8
0
390
0
100
AcDbBlockBegin
  2
*Model_Space
 70
     0
 10
0.0
 20
0.0
 30
0.0
  3
*Model_Space
  1

  0
ENDBLK
  5
2D
100
AcDbEntity
  8
0
390
0
100
AcDbBlockEnd
  0
BLOCK
  5
2E
100
AcDbEntity
 67
     1
  8
0
390
0
100
AcDbBlockBegin
  2
*Paper_Space
 70
     0
 10
0.0
 20
0.0
 30
0.0
  3
*Paper_Space
  1

  0
ENDBLK
  5
2F
100
AcDbEntity
 67
     1
  8
0
390
0
100
AcDbBlockEnd
  0
BLOCK
  5
E1
100
AcDbEntity
  8
2
100
AcDbBlockBegin
  2
*D0
 70
     1
 10
0.0
 20
0.0
 30
0.0
  3
*D0
  1

  0
TEXT
  5
E2
100
AcDbEntity
  8
2
370
    25
100
AcDbText
 10
-77.01973
 20
105.358871
 30
0.0
 40
3.0
  1
２５
 72
     5
 11
-71.61973
 21
105.358871
 31
0.0
100
AcDbText
  0
LINE
  5
E3
100
AcDbEntity
  8
2
370
    25
100
AcDbLine
 10
-86.51973
 20
90.444851
 30
0.0
 11
-86.51973
 21
105.858871
 31
0.0
  0
LINE
  5
E4
100
AcDbEntity
  8
2
370
    25
100
AcDbLine
 10
-86.51973
 20
104.858871
 30
0.0
 11
-84.587878
 21
104.341233
 31
0.0
  0
LINE
  5
E5
100
AcDbEntity
  8
2
370
    25
100
AcDbLine
 10
-86.51973
 20
104.858871
 30
0.0
 11
-84.587878
 21
105.37651
 31
0.0
  0
LINE
  5
E6
100
AcDbEntity
  8
2
370
    25
100
AcDbLine
 10
-86.51973
 20
104.858871
 30
0.0
 11
-61.51973
 21
104.858871
 31
0.0
  0
LINE
  5
E7
100
AcDbEntity
  8
2
370
    25
100
AcDbLine
 10
-61.51973
 20
104.858871
 30
0.0
 11
-63.451581
 21
105.37651
 31
0.0
  0
LINE
  5
E8
100
AcDbEntity
  8
2
370
    25
100
AcDbLine
 10
-61.51973
 20
104.858871
 30
0.0
 11
-63.451581
 21
104.341233
 31
0.0
  0
LINE
  5
E9
100
AcDbEntity
  8
2
370
    25
100
AcDbLine
 10
-61.51973
 20
90.444851
 30
0.0
 11
-61.51973
 21
105.858871
 31
0.0
  0
ENDBLK
  5
EA
100
AcDbEntity
  8
2
100
AcDbBlockEnd
  0
BLOCK
  5
EB
100
AcDbEntity
  8
2
100
AcDbBlockBegin
  2
*D1
 70
     1
 10
0.0
 20
0.0
 30
0.0
  3
*D1
  1

  0
TEXT
  5
EC
100
AcDbEntity
  8
2
370
    25
100
AcDbText
 10
-105.012466
 20
26.944851
 30
0.0
 40
3.0
  1
８０
 50
90.0
 72
     5
 11
-105.012466
 21
32.344851
 31
0.0
100
AcDbText
  0
LINE
  5
ED
100
AcDbEntity
  8
2
370
    25
100
AcDbLine
 10
-87.01973
 20
-10.055149
 30
0.0
 11
-105.512466
 21
-10.055149
 31
0.0
  0
LINE
  5
EE
100
AcDbEntity
  8
2
370
    25
100
AcDbLine
 10
-104.512466
 20
-10.055149
 30
0.0
 11
-103.994828
 21
-8.123297
 31
0.0
  0
LINE
  5
EF
100
AcDbEntity
  8
2
370
    25
100
AcDbLine
 10
-104.512466
 20
-10.055149
 30
0.0
 11
-105.030105
 21
-8.123297
 31
0.0
  0
LINE
  5
F0
100
AcDbEntity
  8
2
370
    25
100
AcDbLine
 10
-104.512466
 20
-10.055149
 30
0.0
 11
-104.512466
 21
69.944851
 31
0.0
  0
LINE
  5
F1
100
AcDbEntity
  8
2
370
    25
100
AcDbLine
 10
-104.512466
 20
69.944851
 30
0.0
 11
-105.030105
 21
68.012999
 31
0.0
  0
LINE
  5
F2
100
AcDbEntity
  8
2
370
    25
100
AcDbLine
 10
-104.512466
 20
69.944851
 30
0.0
 11
-103.994828
 21
68.012999
 31
0.0
  0
LINE
  5
F3
100
AcDbEntity
  8
2
370
    25
100
AcDbLine
 10
-87.01973
 20
69.944851
 30
0.0
 11
-105.512466
 21
69.944851
 31
0.0
  0
ENDBLK
  5
F4
100
AcDbEntity
  8
2
100
AcDbBlockEnd
  0
BLOCK
  5
F5
100
AcDbEntity
  8
2
100
AcDbBlockBegin
  2
*D2
 70
     1
 10
0.0
 20
0.0
 30
0.0
  3
*D2
  1

  0
TEXT
  5
F6
100
AcDbEntity
  8
2
370
    25
100
AcDbText
 10
-111.11116
 20
25.444851
 30
0.0
 40
3.0
  1
１２０
 50
90.0
 72
     5
 11
-111.11116
 21
33.844851
 31
0.0
100
AcDbText
  0
LINE
  5
F7
100
AcDbEntity
  8
2
370
    25
100
AcDbLine
 10
-87.01973
 20
-30.055149
 30
0.0
 11
-111.61116
 21
-30.055149
 31
0.0
  0
LINE
  5
F8
100
AcDbEntity
  8
2
370
    25
100
AcDbLine
 10
-110.61116
 20
-30.055149
 30
0.0
 11
-110.093522
 21
-28.123297
 31
0.0
  0
LINE
  5
F9
100
AcDbEntity
  8
2
370
    25
100
AcDbLine
 10
-110.61116
 20
-30.055149
 30
0.0
 11
-111.128798
 21
-28.123297
 31
0.0
  0
LINE
  5
FA
100
AcDbEntity
  8
2
370
    25
100
AcDbLine
 10
-110.61116
 20
-30.055149
 30
0.0
 11
-110.61116
 21
89.944851
 31
0.0
  0
LINE
  5
FB
100
AcDbEntity
  8
2
370
    25
100
AcDbLine
 10
-110.61116
 20
89.944851
 30
0.0
 11
-111.128798
 21
88.012999
 31
0.0
  0
LINE
  5
FC
100
AcDbEntity
  8
2
370
    25
100
AcDbLine
 10
-110.61116
 20
89.944851
 30
0.0
 11
-110.093522
 21
88.012999
 31
0.0
  0
LINE
  5
FD
100
AcDbEntity
  8
2
370
    25
100
AcDbLine
 10
-87.01973
 20
89.944851
 30
0.0
 11
-111.61116
 21
89.944851
 31
0.0
  0
ENDBLK
  5
FE
100
AcDbEntity
  8
2
100
AcDbBlockEnd
  0
BLOCK
  5
FF
100
AcDbEntity
  8
2
100
AcDbBlockBegin
  2
*D3
 70
     1
 10
0.0
 20
0.0
 30
0.0
  3
*D3
  1

  0
TEXT
  5
100
100
AcDbEntity
  8
2
370
    25
100
AcDbText
 10
16.051876
 20
26.944851
 30
0.0
 40
3.0
  1
７６
 50
90.0
 72
     5
 11
16.051876
 21
32.344851
 31
0.0
100
AcDbText
  0
LINE
  5
101
100
AcDbEntity
  8
2
370
    25
100
AcDbLine
 10
34.225418
 20
-8.055149
 30
0.0
 11
15.551876
 21
-8.055149
 31
0.0
  0
LINE
  5
102
100
AcDbEntity
  8
2
370
    25
100
AcDbLine
 10
16.551876
 20
-8.055149
 30
0.0
 11
17.069514
 21
-6.123297
 31
0.0
  0
LINE
  5
103
100
AcDbEntity
  8
2
370
    25
100
AcDbLine
 10
16.551876
 20
-8.055149
 30
0.0
 11
16.034238
 21
-6.123297
 31
0.0
  0
LINE
  5
104
100
AcDbEntity
  8
2
370
    25
100
AcDbLine
 10
16.551876
 20
-8.055149
 30
0.0
 11
16.551876
 21
67.944851
 31
0.0
  0
LINE
  5
105
100
AcDbEntity
  8
2
370
    25
100
AcDbLine
 10
16.551876
 20
67.944851
 30
0.0
 11
16.034238
 21
66.012999
 31
0.0
  0
LINE
  5
106
100
AcDbEntity
  8
2
370
    25
100
AcDbLine
 10
16.551876
 20
67.944851
 30
0.0
 11
17.069514
 21
66.012999
 31
0.0
  0
LINE
  5
107
100
AcDbEntity
  8
2
370
    25
100
AcDbLine
 10
34.225418
 20
67.944851
 30
0.0
 11
15.551876
 21
67.944851
 31
0.0
  0
ENDBLK
  5
108
100
AcDbEntity
  8
2
100
AcDbBlockEnd
  0
BLOCK
  5
109
100
AcDbEntity
  8
2
100
AcDbBlockBegin
  2
*D4
 70
     1
 10
0.0
 20
0.0
 30
0.0
  3
*D4
  1

  0
TEXT
  5
10A
100
AcDbEntity
  8
2
370
    25
100
AcDbText
 10
22.562706
 20
42.944851
 30
0.0
 40
3.0
  1
３２
 50
90.0
 72
     5
 11
22.562706
 21
48.344851
 31
0.0
100
AcDbText
  0
LINE
  5
10B
100
AcDbEntity
  8
2
370
    25
100
AcDbLine
 10
30.509769
 20
29.944851
 30
0.0
 11
22.062706
 21
29.944851
 31
0.0
  0
LINE
  5
10C
100
AcDbEntity
  8
2
370
    25
100
AcDbLine
 10
23.062706
 20
29.944851
 30
0.0
 11
23.580344
 21
31.876703
 31
0.0
  0
LINE
  5
10D
100
AcDbEntity
  8
2
370
    25
100
AcDbLine
 10
23.062706
 20
29.944851
 30
0.0
 11
22.545068
 21
31.876703
 31
0.0
  0
LINE
  5
10E
100
AcDbEntity
  8
2
370
    25
100
AcDbLine
 10
23.062706
 20
29.944851
 30
0.0
 11
23.062706
 21
61.944851
 31
0.0
  0
LINE
  5
10F
100
AcDbEntity
  8
2
370
    25
100
AcDbLine
 10
23.062706
 20
61.944851
 30
0.0
 11
22.545068
 21
60.012999
 31
0.0
  0
LINE
  5
110
100
AcDbEntity
  8
2
370
    25
100
AcDbLine
 10
23.062706
 20
61.944851
 30
0.0
 11
23.580344
 21
60.012999
 31
0.0
  0
LINE
  5
111
100
AcDbEntity
  8
2
370
    25
100
AcDbLine
 10
69.572594
 20
61.944851
 30
0.0
 11
22.062706
 21
61.944851
 31
0.0
  0
ENDBLK
  5
112
100
AcDbEntity
  8
2
100
AcDbBlockEnd
  0
BLOCK
  5
113
100
AcDbEntity
  8
2
100
AcDbBlockBegin
  2
*D5
 70
     1
 10
0.0
 20
0.0
 30
0.0
  3
*D5
  1

  0
TEXT
  5
114
100
AcDbEntity
  8
2
370
    25
100
AcDbText
 10
133.328644
 20
-9.555151
 30
0.0
 40
3.0
  1
１６７
 50
90.0
 72
     5
 11
133.328644
 21
-1.155151
 31
0.0
100
AcDbText
  0
LINE
  5
115
100
AcDbEntity
  8
2
370
    25
100
AcDbLine
 10
95.225418
 20
-88.555152
 30
0.0
 11
134.828644
 21
-88.555152
 31
0.0
  0
LINE
  5
116
100
AcDbEntity
  8
2
370
    25
100
AcDbLine
 10
133.828644
 20
-88.555152
 30
0.0
 11
134.346282
 21
-86.623301
 31
0.0
  0
LINE
  5
117
100
AcDbEntity
  8
2
370
    25
100
AcDbLine
 10
133.828644
 20
-88.555152
 30
0.0
 11
133.311006
 21
-86.623301
 31
0.0
  0
LINE
  5
118
100
AcDbEntity
  8
2
370
    25
100
AcDbLine
 10
133.828644
 20
-88.555152
 30
0.0
 11
133.828644
 21
78.444851
 31
0.0
  0
LINE
  5
119
100
AcDbEntity
  8
2
370
    25
100
AcDbLine
 10
133.828644
 20
78.444851
 30
0.0
 11
133.311006
 21
76.512999
 31
0.0
  0
LINE
  5
11A
100
AcDbEntity
  8
2
370
    25
100
AcDbLine
 10
133.828644
 20
78.444851
 30
0.0
 11
134.346282
 21
76.512999
 31
0.0
  0
LINE
  5
11B
100
AcDbEntity
  8
2
370
    25
100
AcDbLine
 10
95.225418
 20
78.444851
 30
0.0
 11
134.828644
 21
78.444851
 31
0.0
  0
ENDBLK
  5
11C
100
AcDbEntity
  8
2
100
AcDbBlockEnd
  0
BLOCK
  5
11D
100
AcDbEntity
  8
2
100
AcDbBlockBegin
  2
*D6
 70
     1
 10
0.0
 20
0.0
 30
0.0
  3
*D6
  1

  0
TEXT
  5
11E
100
AcDbEntity
  8
2
370
    25
100
AcDbText
 10
124.162781
 20
64.194851
 30
0.0
 40
3.0
  1
１６．５
 50
90.0
 72
     5
 11
124.162781
 21
75.594851
 31
0.0
100
AcDbText
  0
LINE
  5
11F
100
AcDbEntity
  8
2
370
    25
100
AcDbLine
 10
114.725418
 20
61.944851
 30
0.0
 11
125.662781
 21
61.944851
 31
0.0
  0
LINE
  5
120
100
AcDbEntity
  8
2
370
    25
100
AcDbLine
 10
124.662781
 20
61.944851
 30
0.0
 11
125.180419
 21
63.876703
 31
0.0
  0
LINE
  5
121
100
AcDbEntity
  8
2
370
    25
100
AcDbLine
 10
124.662781
 20
61.944851
 30
0.0
 11
124.145143
 21
63.876703
 31
0.0
  0
LINE
  5
122
100
AcDbEntity
  8
2
370
    25
100
AcDbLine
 10
124.662781
 20
61.944851
 30
0.0
 11
124.662781
 21
78.444851
 31
0.0
  0
LINE
  5
123
100
AcDbEntity
  8
2
370
    25
100
AcDbLine
 10
124.662781
 20
78.444851
 30
0.0
 11
124.145143
 21
76.512999
 31
0.0
  0
LINE
  5
124
100
AcDbEntity
  8
2
370
    25
100
AcDbLine
 10
124.662781
 20
78.444851
 30
0.0
 11
125.180419
 21
76.512999
 31
0.0
  0
LINE
  5
125
100
AcDbEntity
  8
2
370
    25
100
AcDbLine
 10
95.225418
 20
78.444851
 30
0.0
 11
125.662781
 21
78.444851
 31
0.0
  0
ENDBLK
  5
126
100
AcDbEntity
  8
2
100
AcDbBlockEnd
  0
BLOCK
  5
127
100
AcDbEntity
  8
2
100
AcDbBlockBegin
  2
*D7
 70
     1
 10
0.0
 20
0.0
 30
0.0
  3
*D7
  1

  0
TEXT
  5
128
100
AcDbEntity
  8
2
370
    25
100
AcDbText
 10
124.162781
 20
-9.555151
 30
0.0
 40
3.0
  1
１３４
 50
90.0
 72
     5
 11
124.162781
 21
-1.155151
 31
0.0
100
AcDbText
  0
LINE
  5
129
100
AcDbEntity
  8
2
370
    25
100
AcDbLine
 10
114.725418
 20
-72.055152
 30
0.0
 11
125.662781
 21
-72.055152
 31
0.0
  0
LINE
  5
12A
100
AcDbEntity
  8
2
370
    25
100
AcDbLine
 10
124.662781
 20
-72.055152
 30
0.0
 11
125.180419
 21
-70.123301
 31
0.0
  0
LINE
  5
12B
100
AcDbEntity
  8
2
370
    25
100
AcDbLine
 10
124.662781
 20
-72.055152
 30
0.0
 11
124.145143
 21
-70.123301
 31
0.0
  0
LINE
  5
12C
100
AcDbEntity
  8
2
370
    25
100
AcDbLine
 10
124.662781
 20
-72.055152
 30
0.0
 11
124.662781
 21
61.944851
 31
0.0
  0
LINE
  5
12D
100
AcDbEntity
  8
2
370
    25
100
AcDbLine
 10
124.662781
 20
61.944851
 30
0.0
 11
124.145143
 21
60.012999
 31
0.0
  0
LINE
  5
12E
100
AcDbEntity
  8
2
370
    25
100
AcDbLine
 10
124.662781
 20
61.944851
 30
0.0
 11
125.180419
 21
60.012999
 31
0.0
  0
LINE
  5
12F
100
AcDbEntity
  8
2
370
    25
100
AcDbLine
 10
114.725418
 20
61.944851
 30
0.0
 11
125.662781
 21
61.944851
 31
0.0
  0
ENDBLK
  5
130
100
AcDbEntity
  8
2
100
AcDbBlockEnd
  0
BLOCK
  5
131
100
AcDbEntity
  8
2
100
AcDbBlockBegin
  2
*D8
 70
     1
 10
0.0
 20
0.0
 30
0.0
  3
*D8
  1

  0
TEXT
  5
132
100
AcDbEntity
  8
2
370
    25
100
AcDbText
 10
110.892886
 20
84.174691
 30
0.0
 40
3.0
  1
Ｒ１６．５
 50
52.929822
 72
     5
 11
119.573102
 21
95.664419
 31
0.0
100
AcDbText
  0
LINE
  5
133
100
AcDbEntity
  8
2
370
    25
100
AcDbLine
 10
94.725418
 20
61.944851
 30
0.0
 11
120.93652
 21
96.639659
 31
0.0
  0
LINE
  5
134
100
AcDbEntity
  8
2
370
    25
100
AcDbLine
 10
104.671499
 20
75.110164
 30
0.0
 11
106.249027
 21
76.339556
 31
0.0
  0
LINE
  5
135
100
AcDbEntity
  8
2
370
    25
100
AcDbLine
 10
104.671499
 20
75.110164
 30
0.0
 11
105.422983
 21
76.963613
 31
0.0
  0
ENDBLK
  5
136
100
AcDbEntity
  8
2
100
AcDbBlockEnd
  0
BLOCK
  5
137
100
AcDbEntity
  8
2
100
AcDbBlockBegin
  2
*D9
 70
     1
 10
0.0
 20
0.0
 30
0.0
  3
*D9
  1

  0
TEXT
  5
138
100
AcDbEntity
  8
2
370
    25
100
AcDbText
 10
27.725418
 20
-37.582504
 30
0.0
 40
3.0
  1
４
 72
     5
 11
30.125418
 21
-37.582504
 31
0.0
100
AcDbText
  0
LINE
  5
139
100
AcDbEntity
  8
2
370
    25
100
AcDbLine
 10
34.725418
 20
-38.082504
 30
0.0
 11
32.793566
 21
-37.564866
 31
0.0
  0
LINE
  5
13A
100
AcDbEntity
  8
2
370
    25
100
AcDbLine
 10
34.725418
 20
-38.082504
 30
0.0
 11
32.793566
 21
-38.600142
 31
0.0
  0
LINE
  5
13B
100
AcDbEntity
  8
2
370
    25
100
AcDbLine
 10
26.725418
 20
-38.082504
 30
0.0
 11
43.725418
 21
-38.082504
 31
0.0
  0
LINE
  5
13C
100
AcDbEntity
  8
2
370
    25
100
AcDbLine
 10
38.725418
 20
-38.082504
 30
0.0
 11
40.65727
 21
-38.600142
 31
0.0
  0
LINE
  5
13D
100
AcDbEntity
  8
2
370
    25
100
AcDbLine
 10
38.725418
 20
-38.082504
 30
0.0
 11
40.65727
 21
-37.564866
 31
0.0
  0
LINE
  5
13E
100
AcDbEntity
  8
2
370
    25
100
AcDbLine
 10
38.725418
 20
-30.555149
 30
0.0
 11
38.725418
 21
-39.082504
 31
0.0
  0
ENDBLK
  5
13F
100
AcDbEntity
  8
2
100
AcDbBlockEnd
  0
BLOCK
  5
140
100
AcDbEntity
  8
2
100
AcDbBlockBegin
  2
*D10
 70
     1
 10
0.0
 20
0.0
 30
0.0
  3
*D10
  1

  0
TEXT
  5
141
100
AcDbEntity
  8
2
370
    25
100
AcDbText
 10
39.725418
 20
-47.087402
 30
0.0
 40
3.0
  1
１６
 72
     5
 11
45.125418
 21
-47.087402
 31
0.0
100
AcDbText
  0
LINE
  5
142
100
AcDbEntity
  8
2
370
    25
100
AcDbLine
 10
34.725418
 20
-47.587402
 30
0.0
 11
36.65727
 21
-48.10504
 31
0.0
  0
LINE
  5
143
100
AcDbEntity
  8
2
370
    25
100
AcDbLine
 10
34.725418
 20
-47.587402
 30
0.0
 11
36.65727
 21
-47.069764
 31
0.0
  0
LINE
  5
144
100
AcDbEntity
  8
2
370
    25
100
AcDbLine
 10
34.725418
 20
-47.587402
 30
0.0
 11
50.725418
 21
-47.587402
 31
0.0
  0
LINE
  5
145
100
AcDbEntity
  8
2
370
    25
100
AcDbLine
 10
50.725418
 20
-47.587402
 30
0.0
 11
48.793566
 21
-47.069764
 31
0.0
  0
LINE
  5
146
100
AcDbEntity
  8
2
370
    25
100
AcDbLine
 10
50.725418
 20
-47.587402
 30
0.0
 11
48.793566
 21
-48.10504
 31
0.0
  0
LINE
  5
147
100
AcDbEntity
  8
2
370
    25
100
AcDbLine
 10
50.725418
 20
-8.555149
 30
0.0
 11
50.725418
 21
-48.587402
 31
0.0
  0
ENDBLK
  5
148
100
AcDbEntity
  8
2
100
AcDbBlockEnd
  0
BLOCK
  5
149
100
AcDbEntity
  8
2
100
AcDbBlockBegin
  2
*D11
 70
     1
 10
0.0
 20
0.0
 30
0.0
  3
*D11
  1

  0
LINE
  5
14A
100
AcDbEntity
  8
2
370
    25
100
AcDbLine
 10
-92.01973
 20
99.859741
 30
0.0
 11
-92.01973
 21
113.144798
 31
0.0
  0
LINE
  5
14B
100
AcDbEntity
  8
2
370
    25
100
AcDbLine
 10
-92.01973
 20
112.144798
 30
0.0
 11
-90.087878
 21
111.62716
 31
0.0
  0
LINE
  5
14C
100
AcDbEntity
  8
2
370
    25
100
AcDbLine
 10
-92.01973
 20
112.144798
 30
0.0
 11
-90.087878
 21
112.662436
 31
0.0
  0
LINE
  5
14D
100
AcDbEntity
  8
2
370
    25
100
AcDbLine
 10
-92.01973
 20
112.144798
 30
0.0
 11
-56.01973
 21
112.144798
 31
0.0
  0
LINE
  5
14E
100
AcDbEntity
  8
2
370
    25
100
AcDbLine
 10
-56.01973
 20
112.144798
 30
0.0
 11
-57.951581
 21
112.662436
 31
0.0
  0
LINE
  5
14F
100
AcDbEntity
  8
2
370
    25
100
AcDbLine
 10
-56.01973
 20
112.144798
 30
0.0
 11
-57.951581
 21
111.62716
 31
0.0
  0
LINE
  5
150
100
AcDbEntity
  8
2
370
    25
100
AcDbLine
 10
-56.01973
 20
99.859741
 30
0.0
 11
-56.01973
 21
113.144798
 31
0.0
  0
ENDBLK
  5
151
100
AcDbEntity
  8
2
100
AcDbBlockEnd
  0
BLOCK
  5
152
100
AcDbEntity
  8
2
100
AcDbBlockBegin
  2
*D12
 70
     1
 10
0.0
 20
0.0
 30
0.0
  3
*D12
  1

  0
LINE
  5
153
100
AcDbEntity
  8
2
370
    25
100
AcDbLine
 10
34.725418
 20
99.859741
 30
0.0
 11
34.725418
 21
108.625809
 31
0.0
  0
LINE
  5
154
100
AcDbEntity
  8
2
370
    25
100
AcDbLine
 10
34.725418
 20
107.625809
 30
0.0
 11
36.65727
 21
107.108171
 31
0.0
  0
LINE
  5
155
100
AcDbEntity
  8
2
370
    25
100
AcDbLine
 10
34.725418
 20
107.625809
 30
0.0
 11
36.65727
 21
108.143447
 31
0.0
  0
LINE
  5
156
100
AcDbEntity
  8
2
370
    25
100
AcDbLine
 10
34.725418
 20
107.625809
 30
0.0
 11
94.725418
 21
107.625809
 31
0.0
  0
LINE
  5
157
100
AcDbEntity
  8
2
370
    25
100
AcDbLine
 10
94.725418
 20
107.625809
 30
0.0
 11
92.793566
 21
108.143447
 31
0.0
  0
LINE
  5
158
100
AcDbEntity
  8
2
370
    25
100
AcDbLine
 10
94.725418
 20
107.625809
 30
0.0
 11
92.793566
 21
107.108171
 31
0.0
  0
LINE
  5
159
100
AcDbEntity
  8
2
370
    25
100
AcDbLine
 10
94.725418
 20
83.819977
 30
0.0
 11
94.725418
 21
108.625809
 31
0.0
  0
ENDBLK
  5
15A
100
AcDbEntity
  8
2
100
AcDbBlockEnd
  0
ENDSEC
  0
SECTION
  2
ENTITIES
  0
TEXT
  5
31
100
AcDbEntity
  8
1
370
    18
100
AcDbText
 10
-139.127301
 20
125.694342
 30
0.0
 40
5.0
  1
扉側加工
 72
     5
 11
-120.127301
 21
125.694342
 31
0.0
100
AcDbText
  0
LINE
  5
32
100
AcDbEntity
  8
1
370
    50
100
AcDbLine
 10
111.225418
 20
61.944851
 30
0.0
 11
111.225418
 21
-72.055152
 31
0.0
  0
LINE
  5
33
100
AcDbEntity
  8
1
370
    50
100
AcDbLine
 10
78.225418
 20
61.944851
 30
0.0
 11
78.225418
 21
-72.055152
 31
0.0
  0
LINE
  5
34
100
AcDbEntity
  8
1
370
    18
  6
CENTER
100
AcDbLine
 10
94.725418
 20
83.319977
 30
0.0
 11
94.725418
 21
-98.63549
 31
0.0
  0
LINE
  5
35
100
AcDbEntity
  8
1
370
    18
  6
CENTER
100
AcDbLine
 10
75.225418
 20
-72.055152
 30
0.0
 11
114.225418
 21
-72.055152
 31
0.0
  0
LINE
  5
36
100
AcDbEntity
  8
1
370
    50
100
AcDbLine
 10
34.725418
 20
99.359741
 30
0.0
 11
34.725418
 21
-91.631991
 31
0.0
  0
LINE
  5
37
100
AcDbEntity
  8
1
370
    18
  6
CENTER
100
AcDbLine
 10
-74.01973
 20
-96.242966
 30
0.0
 11
-74.01973
 21
96.182861
 31
0.0
  0
ARC
  5
38
100
AcDbEntity
  8
1
370
    50
100
AcDbCircle
 10
94.725418
 20
-72.055152
 30
0.0
 40
16.5
100
AcDbArc
 50
180.0
 51
360.0
  0
LINE
  5
39
100
AcDbEntity
  8
1
370
    25
  6
CENTER
100
AcDbLine
 10
70.072594
 20
61.944851
 30
0.0
 11
114.225418
 21
61.944851
 31
0.0
  0
LINE
  5
3A
100
AcDbEntity
  8
1
370
    50
100
AcDbLine
 10
-92.01973
 20
-91.631991
 30
0.0
 11
-92.01973
 21
99.359741
 31
0.0
  0
LINE
  5
3B
100
AcDbEntity
  8
1
370
    50
100
AcDbLine
 10
-56.01973
 20
-91.631991
 30
0.0
 11
-56.01973
 21
99.359741
 31
0.0
  0
LINE
  5
3C
100
AcDbEntity
  8
1
370
    25
  6
CENTER
100
AcDbLine
 10
31.009769
 20
29.944851
 30
0.0
 11
112.882233
 21
29.944851
 31
0.0
  0
LINE
  5
3D
100
AcDbEntity
  8
1
370
    50
  6
DASHED
100
AcDbLine
 10
34.725418
 20
89.944851
 30
0.0
 11
38.725418
 21
89.944851
 31
0.0
  0
LINE
  5
3E
100
AcDbEntity
  8
1
370
    50
  6
DASHED
100
AcDbLine
 10
34.725418
 20
-30.055149
 30
0.0
 11
38.725418
 21
-30.055149
 31
0.0
  0
LINE
  5
3F
100
AcDbEntity
  8
1
370
    25
  6
CENTER
100
AcDbLine
 10
-51.600273
 20
29.944851
 30
0.0
 11
-95.619972
 21
29.944851
 31
0.0
  0
LINE
  5
40
100
AcDbEntity
  8
1
370
    50
100
AcDbLine
 10
-61.51973
 20
89.944851
 30
0.0
 11
-86.51973
 21
89.944851
 31
0.0
  0
LINE
  5
41
100
AcDbEntity
  8
1
370
    50
100
AcDbLine
 10
-61.51973
 20
-30.055149
 30
0.0
 11
-86.51973
 21
-30.055149
 31
0.0
  0
LINE
  5
42
100
AcDbEntity
  8
1
370
    50
100
AcDbLine
 10
-86.51973
 20
-30.055149
 30
0.0
 11
-86.51973
 21
89.944851
 31
0.0
  0
LINE
  5
43
100
AcDbEntity
  8
1
370
    50
100
AcDbLine
 10
-61.51973
 20
-30.055149
 30
0.0
 11
-61.51973
 21
89.944851
 31
0.0
  0
LINE
  5
44
100
AcDbEntity
  8
1
370
    50
100
AcDbLine
 10
-61.51973
 20
69.944851
 30
0.0
 11
-86.51973
 21
69.944851
 31
0.0
  0
LINE
  5
45
100
AcDbEntity
  8
1
370
    50
100
AcDbLine
 10
-61.51973
 20
-10.055149
 30
0.0
 11
-86.51973
 21
-10.055149
 31
0.0
  0
ARC
  5
46
100
AcDbEntity
  8
1
370
    50
  6
DASHED
100
AcDbCircle
 10
-67.51973
 20
83.944851
 30
0.0
 40
6.0
100
AcDbArc
 50
0.0
 51
90.0
  0
ARC
  5
47
100
AcDbEntity
  8
1
370
    50
  6
DASHED
100
AcDbCircle
 10
-80.51973
 20
83.944851
 30
0.0
 40
6.0
100
AcDbArc
 50
90.0
 51
180.0
  0
ARC
  5
48
100
AcDbEntity
  8
1
370
    50
100
AcDbCircle
 10
-80.51973
 20
63.944851
 30
0.0
 40
6.0
100
AcDbArc
 50
90.0
 51
180.0
  0
ARC
  5
49
100
AcDbEntity
  8
1
370
    50
100
AcDbCircle
 10
-67.51973
 20
63.944851
 30
0.0
 40
6.0
100
AcDbArc
 50
0.0
 51
90.0
  0
ARC
  5
4A
100
AcDbEntity
  8
1
370
    50
100
AcDbCircle
 10
-67.51973
 20
-4.055149
 30
0.0
 40
6.0
100
AcDbArc
 50
270.0
 51
360.0
  0
ARC
  5
4B
100
AcDbEntity
  8
1
370
    50
100
AcDbCircle
 10
-80.51973
 20
-4.055149
 30
0.0
 40
6.0
100
AcDbArc
 50
180.0
 51
270.0
  0
ARC
  5
4C
100
AcDbEntity
  8
1
370
    50
  6
DASHED
100
AcDbCircle
 10
-80.51973
 20
-24.055149
 30
0.0
 40
6.0
100
AcDbArc
 50
180.0
 51
270.0
  0
ARC
  5
4D
100
AcDbEntity
  8
1
370
    50
  6
DASHED
100
AcDbCircle
 10
-67.51973
 20
-24.055149
 30
0.0
 40
6.0
100
AcDbArc
 50
270.0
 51
360.0
  0
LINE
  5
4E
100
AcDbEntity
  8
1
370
    50
  6
DASHED
100
AcDbLine
 10
38.725418
 20
69.944851
 30
0.0
 11
80.294548
 21
69.944851
 31
0.0
  0
LINE
  5
4F
100
AcDbEntity
  8
1
370
    50
  6
DASHED
100
AcDbLine
 10
38.725418
 20
-10.055149
 30
0.0
 11
78.225418
 21
-10.055149
 31
0.0
  0
LINE
  5
50
100
AcDbEntity
  8
1
370
    50
  6
DASHED
100
AcDbLine
 10
38.725418
 20
-30.055149
 30
0.0
 11
38.725418
 21
-10.055149
 31
0.0
  0
LINE
  5
51
100
AcDbEntity
  8
1
370
    50
  6
DASHED
100
AcDbLine
 10
38.725418
 20
69.944851
 30
0.0
 11
38.725418
 21
89.944851
 31
0.0
  0
LINE
  5
52
100
AcDbEntity
  8
1
370
    50
100
AcDbLine
 10
34.725418
 20
67.944851
 30
0.0
 11
50.725418
 21
67.944851
 31
0.0
  0
LINE
  5
53
100
AcDbEntity
  8
1
370
    50
100
AcDbLine
 10
34.725418
 20
-8.055149
 30
0.0
 11
50.725418
 21
-8.055149
 31
0.0
  0
LINE
  5
54
100
AcDbEntity
  8
1
370
    50
100
AcDbLine
 10
50.725418
 20
67.944851
 30
0.0
 11
50.725418
 21
-8.055149
 31
0.0
  0
ARC
  5
55
100
AcDbEntity
  8
1
370
    50
  6
DASHED
100
AcDbCircle
 10
44.725418
 20
61.944851
 30
0.0
 40
6.0
100
AcDbArc
 50
0.0
 51
90.0
  0
ARC
  5
56
100
AcDbEntity
  8
1
370
    50
  6
DASHED
100
AcDbCircle
 10
44.725418
 20
-2.055149
 30
0.0
 40
6.0
100
AcDbArc
 50
270.0
 51
0.0
  0
LINE
  5
57
100
AcDbEntity
  8
1
370
    50
100
AcDbLine
 10
-56.01973
 20
67.944851
 30
0.0
 11
-61.51973
 21
67.944851
 31
0.0
  0
LINE
  5
58
100
AcDbEntity
  8
1
370
    50
100
AcDbLine
 10
-56.01973
 20
-8.055149
 30
0.0
 11
-61.51973
 21
-8.055149
 31
0.0
  0
ARC
  5
59
100
AcDbEntity
  8
1
370
    50
100
AcDbCircle
 10
94.725418
 20
61.944851
 30
0.0
 40
16.5
100
AcDbArc
 50
0.0
 51
180.0
  0
ARC
  5
5A
100
AcDbEntity
  8
1
370
    50
  6
DASHED
100
AcDbCircle
 10
94.725418
 20
61.944851
 30
0.0
 40
16.5
100
AcDbArc
 50
180.0
 51
360.0
  0
CIRCLE
  5
5B
100
AcDbEntity
  8
1
370
    50
  6
DASHED
100
AcDbCircle
 10
94.725418
 20
28.444851
 30
0.0
 40
16.5
  0
CIRCLE
  5
5C
100
AcDbEntity
  8
1
370
    50
  6
DASHED
100
AcDbCircle
 10
94.725418
 20
-5.055149
 30
0.0
 40
16.5
  0
CIRCLE
  5
5D
100
AcDbEntity
  8
1
370
    50
  6
DASHED
100
AcDbCircle
 10
94.725418
 20
-38.555149
 30
0.0
 40
16.5
  0
ARC
  5
5E
100
AcDbEntity
  8
1
370
    50
  6
DASHED
100
AcDbCircle
 10
94.725418
 20
-72.055152
 30
0.0
 40
16.5
100
AcDbArc
 50
0.0
 51
180.0
  0
CIRCLE
  5
5F
100
AcDbEntity
  8
1
370
    50
100
AcDbCircle
 10
94.725418
 20
61.944851
 30
0.0
 40
1.0
  0
CIRCLE
  5
60
100
AcDbEntity
  8
1
370
    50
100
AcDbCircle
 10
94.725418
 20
-72.055152
 30
0.0
 40
1.0
  0
HATCH
  5
61
100
AcDbEntity
  8
1
370
    25
100
AcDbHatch
 10
0.0
 20
0.0
 30
0.0
210
0.0
220
0.0
230
1.0
  2
_U
 70
     0
 71
     1
 91
        1
 92
        1
 93
        4
 72
     2
 10
94.725418000000005
 20
61.944851
 40
16.5
 50
0.0
 51
180.0
 73
     1
 72
     1
 10
78.225418000000005
 20
61.944851
 11
78.225418000000005
 21
-72.055152000000007
 72
     2
 10
94.725418000000005
 20
-72.055152000000007
 40
16.5
 50
180.0
 51
0.0
 73
     1
 72
     1
 10
111.225418
 20
-72.055152000000007
 11
111.225418
 21
61.944851
 97
        4
330
0
330
0
330
0
330
0
 75
     0
 76
     0
 52
45.0
 41
1.0
 77
     0
 78
     1
 53
45.0
 43
0.0
 44
0.0
 45
-1.4142140000000001
 46
1.4142140000000001
 79
     0
 98
        1
 10
0.0
 20
0.0
  0
LINE
  5
62
100
AcDbEntity
  8
1
370
    25
100
AcDbLine
 10
50.725418
 20
56.944851
 30
0.0
 11
39.725418
 21
67.944851
 31
0.0
  0
LINE
  5
63
100
AcDbEntity
  8
1
370
    25
100
AcDbLine
 10
50.725418
 20
59.773278
 30
0.0
 11
42.553845
 21
67.944851
 31
0.0
  0
LINE
  5
64
100
AcDbEntity
  8
1
370
    25
100
AcDbLine
 10
45.422957
 20
67.904166
 30
0.0
 11
50.684733
 21
62.64239
 31
0.0
  0
LINE
  5
65
100
AcDbEntity
  8
1
370
    25
100
AcDbLine
 10
50.725418
 20
54.116424
 30
0.0
 11
36.896991
 21
67.944851
 31
0.0
  0
LINE
  5
66
100
AcDbEntity
  8
1
370
    25
100
AcDbLine
 10
34.725418
 20
67.287997
 30
0.0
 11
50.725418
 21
51.287997
 31
0.0
  0
LINE
  5
67
100
AcDbEntity
  8
1
370
    25
100
AcDbLine
 10
34.725418
 20
64.45957
 30
0.0
 11
50.725418
 21
48.45957
 31
0.0
  0
LINE
  5
68
100
AcDbEntity
  8
1
370
    25
100
AcDbLine
 10
34.725418
 20
61.631142
 30
0.0
 11
50.725418
 21
45.631142
 31
0.0
  0
LINE
  5
69
100
AcDbEntity
  8
1
370
    25
100
AcDbLine
 10
34.725418
 20
58.802715
 30
0.0
 11
50.725418
 21
42.802715
 31
0.0
  0
LINE
  5
6A
100
AcDbEntity
  8
1
370
    25
100
AcDbLine
 10
34.725418
 20
55.974288
 30
0.0
 11
50.725418
 21
39.974288
 31
0.0
  0
LINE
  5
6B
100
AcDbEntity
  8
1
370
    25
100
AcDbLine
 10
34.725418
 20
53.145861
 30
0.0
 11
50.725418
 21
37.145861
 31
0.0
  0
LINE
  5
6C
100
AcDbEntity
  8
1
370
    25
100
AcDbLine
 10
34.725418
 20
50.317434
 30
0.0
 11
50.725418
 21
34.317434
 31
0.0
  0
LINE
  5
6D
100
AcDbEntity
  8
1
370
    25
100
AcDbLine
 10
34.725418
 20
47.489007
 30
0.0
 11
50.725418
 21
31.489007
 31
0.0
  0
LINE
  5
6E
100
AcDbEntity
  8
1
370
    25
100
AcDbLine
 10
34.725418
 20
44.66058
 30
0.0
 11
50.725418
 21
28.66058
 31
0.0
  0
LINE
  5
6F
100
AcDbEntity
  8
1
370
    25
100
AcDbLine
 10
34.725418
 20
41.832153
 30
0.0
 11
50.725418
 21
25.832153
 31
0.0
  0
LINE
  5
70
100
AcDbEntity
  8
1
370
    25
100
AcDbLine
 10
34.725418
 20
39.003725
 30
0.0
 11
50.725418
 21
23.003725
 31
0.0
  0
LINE
  5
71
100
AcDbEntity
  8
1
370
    25
100
AcDbLine
 10
34.725418
 20
36.175298
 30
0.0
 11
50.725418
 21
20.175298
 31
0.0
  0
LINE
  5
72
100
AcDbEntity
  8
1
370
    25
100
AcDbLine
 10
34.725418
 20
33.346871
 30
0.0
 11
50.725418
 21
17.346871
 31
0.0
  0
LINE
  5
73
100
AcDbEntity
  8
1
370
    25
100
AcDbLine
 10
34.725418
 20
30.518444
 30
0.0
 11
50.725418
 21
14.518444
 31
0.0
  0
LINE
  5
74
100
AcDbEntity
  8
1
370
    25
100
AcDbLine
 10
34.725418
 20
27.690017
 30
0.0
 11
50.725418
 21
11.690017
 31
0.0
  0
LINE
  5
75
100
AcDbEntity
  8
1
370
    25
100
AcDbLine
 10
34.725418
 20
24.86159
 30
0.0
 11
50.725418
 21
8.86159
 31
0.0
  0
LINE
  5
76
100
AcDbEntity
  8
1
370
    25
100
AcDbLine
 10
34.725418
 20
22.033163
 30
0.0
 11
50.725418
 21
6.033163
 31
0.0
  0
LINE
  5
77
100
AcDbEntity
  8
1
370
    25
100
AcDbLine
 10
34.725418
 20
19.204736
 30
0.0
 11
50.725418
 21
3.204736
 31
0.0
  0
LINE
  5
78
100
AcDbEntity
  8
1
370
    25
100
AcDbLine
 10
34.725418
 20
16.376308
 30
0.0
 11
50.725418
 21
0.376308
 31
0.0
  0
LINE
  5
79
100
AcDbEntity
  8
1
370
    25
100
AcDbLine
 10
34.725418
 20
13.547881
 30
0.0
 11
50.713077
 21
-2.439778
 31
0.0
  0
LINE
  5
7A
100
AcDbEntity
  8
1
370
    25
100
AcDbLine
 10
34.725418
 20
10.719454
 30
0.0
 11
50.122133
 21
-4.677261
 31
0.0
  0
LINE
  5
7B
100
AcDbEntity
  8
1
370
    25
100
AcDbLine
 10
34.725418
 20
7.891027
 30
0.0
 11
48.941061
 21
-6.324616
 31
0.0
  0
LINE
  5
7C
100
AcDbEntity
  8
1
370
    25
100
AcDbLine
 10
34.725418
 20
5.0626
 30
0.0
 11
47.274676
 21
-7.486658
 31
0.0
  0
LINE
  5
7D
100
AcDbEntity
  8
1
370
    25
100
AcDbLine
 10
34.725418
 20
2.234173
 30
0.0
 11
45.008078
 21
-8.048487
 31
0.0
  0
LINE
  5
7E
100
AcDbEntity
  8
1
370
    25
100
AcDbLine
 10
34.725418
 20
-0.594254
 30
0.0
 11
42.186313
 21
-8.055149
 31
0.0
  0
LINE
  5
7F
100
AcDbEntity
  8
1
370
    25
100
AcDbLine
 10
34.725418
 20
-3.422681
 30
0.0
 11
39.357886
 21
-8.055149
 31
0.0
  0
LINE
  5
80
100
AcDbEntity
  8
1
370
    25
100
AcDbLine
 10
34.725418
 20
-6.251109
 30
0.0
 11
36.529459
 21
-8.055149
 31
0.0
  0
HATCH
  5
81
100
AcDbEntity
  8
1
370
    25
100
AcDbHatch
 10
0.0
 20
0.0
 30
0.0
210
0.0
220
0.0
230
1.0
  2
_U
 70
     0
 71
     1
 91
        1
 92
        1
 93
        4
 72
     1
 10
-56.019730000000003
 20
67.944851
 11
-61.519730000000003
 21
67.944851
 72
     1
 10
-61.519730000000003
 20
67.944851
 11
-61.519730000000003
 21
-8.0551490000000001
 72
     1
 10
-61.519730000000003
 20
-8.0551490000000001
 11
-56.019730000000003
 21
-8.0551490000000001
 72
     1
 10
-56.019730000000003
 20
-8.0551490000000001
 11
-56.019730000000003
 21
67.944851
 97
        4
330
0
330
0
330
0
330
0
 75
     0
 76
     0
 52
135.0
 41
1.0
 77
     0
 78
     1
 53
135.0
 43
0.0
 44
0.0
 45
-1.4142140000000001
 46
-1.4142140000000001
 79
     0
 98
        1
 10
0.0
 20
0.0
  0
LINE
  5
82
100
AcDbEntity
  8
2
370
   100
100
AcDbLine
 10
-181.144074
 20
-103.857428
 30
0.0
 11
-8.016909
 21
-103.857428
 31
0.0
  0
LINE
  5
83
100
AcDbEntity
  8
2
370
   100
100
AcDbLine
 10
-181.144074
 20
-104.857428
 30
0.0
 11
-8.016909
 21
-104.857428
 31
0.0
  0
TEXT
  5
84
100
AcDbEntity
  8
2
370
    18
100
AcDbText
 10
-121.816788
 20
104.279526
 30
0.0
 40
3.0
  1
角又は６Ｒ
 72
     5
 11
-107.416788
 21
104.279526
 31
0.0
100
AcDbText
  0
LWPOLYLINE
  5
85
100
AcDbEntity
  8
2
370
    25
100
AcDbPolyline
 90
        3
 70
     0
 10
-86.51973
 20
89.944851
 10
-106.074585
 20
103.779526
 10
-121.816788
 20
103.779526
  0
LINE
  5
8A
100
AcDbEntity
  8
2
370
    25
100
AcDbLine
 10
-88.395766
 20
90.638023
 30
0.0
 11
-86.51973
 21
89.944851
 31
0.0
  0
LINE
  5
8B
100
AcDbEntity
  8
2
370
    25
100
AcDbLine
 10
-86.51973
 20
89.944851
 30
0.0
 11
-87.797838
 21
91.483174
 31
0.0
  0
LWPOLYLINE
  5
8C
100
AcDbEntity
  8
2
370
    25
100
AcDbPolyline
 90
        2
 70
     0
 10
-57.56794
 20
56.448841
 10
-21.062286
 20
121.592751
  0
LINE
  5
90
100
AcDbEntity
  8
2
370
    25
100
AcDbLine
 10
-57.075105
 20
58.387169
 30
0.0
 11
-57.56794
 21
56.448841
 31
0.0
  0
LINE
  5
91
100
AcDbEntity
  8
2
370
    25
100
AcDbLine
 10
-57.56794
 20
56.448841
 30
0.0
 11
-56.171969
 21
57.881065
 31
0.0
  0
LWPOLYLINE
  5
92
100
AcDbEntity
  8
2
370
    25
100
AcDbPolyline
 90
        2
 70
     0
 10
39.635181
 20
53.291988
 10
-21.062286
 20
121.592751
  0
LINE
  5
96
100
AcDbEntity
  8
2
370
    25
100
AcDbLine
 10
37.96497
 20
54.392168
 30
0.0
 11
39.635181
 21
53.291988
 31
0.0
  0
LINE
  5
97
100
AcDbEntity
  8
2
370
    25
100
AcDbLine
 10
39.635181
 20
53.291988
 30
0.0
 11
38.738826
 21
55.079877
 31
0.0
  0
LWPOLYLINE
  5
98
100
AcDbEntity
  8
2
370
    25
100
AcDbPolyline
 90
        2
 70
     0
 10
-21.062286
 20
121.592751
 10
84.872528
 20
121.592751
  0
DIMENSION
  5
9C
100
AcDbEntity
  8
2
370
    25
100
AcDbDimension
  2
*D0
 10
-61.51973
 20
104.858871
 30
0.0
 11
-74.01973
 21
106.858871
 31
0.0
 71
     0
 72
     0
 41
0.0
 42
0.0
  3
Standard
100
AcDbAlignedDimension
 13
-86.51973
 23
89.944851
 33
0.0
 14
-61.51973
 24
89.944851
 34
0.0
100
AcDbRotatedDimension
  0
DIMENSION
  5
9D
100
AcDbEntity
  8
2
370
    25
100
AcDbDimension
  2
*D1
 10
-104.512466
 20
69.944851
 30
0.0
 11
-108.012466
 21
29.944851
 31
0.0
 71
     0
 72
     0
 41
0.0
 42
0.0
  3
Standard
100
AcDbAlignedDimension
 13
-86.51973
 23
-10.055149
 33
0.0
 14
-86.51973
 24
69.944851
 34
0.0
 50
90.0
100
AcDbRotatedDimension
  0
DIMENSION
  5
9E
100
AcDbEntity
  8
2
370
    25
100
AcDbDimension
  2
*D2
 10
-110.61116
 20
89.944851
 30
0.0
 11
-115.61116
 21
28.444851
 31
0.0
 71
     0
 72
     0
 41
0.0
 42
0.0
  3
Standard
100
AcDbAlignedDimension
 13
-86.51973
 23
-30.055149
 33
0.0
 14
-86.51973
 24
89.944851
 34
0.0
 50
90.0
100
AcDbRotatedDimension
  0
DIMENSION
  5
9F
100
AcDbEntity
  8
2
370
    25
100
AcDbDimension
  2
*D3
 10
16.551876
 20
67.944851
 30
0.0
 11
13.051876
 21
29.944851
 31
0.0
 71
     0
 72
     0
 41
0.0
 42
0.0
  3
Standard
100
AcDbAlignedDimension
 13
34.725418
 23
-8.055149
 33
0.0
 14
34.725418
 24
67.944851
 34
0.0
 50
90.0
100
AcDbRotatedDimension
  0
DIMENSION
  5
A0
100
AcDbEntity
  8
2
370
    25
100
AcDbDimension
  2
*D4
 10
23.062706
 20
61.944851
 30
0.0
 11
19.562706
 21
45.944851
 31
0.0
 71
     0
 72
     0
 41
0.0
 42
0.0
  3
Standard
100
AcDbAlignedDimension
 13
31.009769
 23
29.944851
 33
0.0
 14
70.072594
 24
61.944851
 34
0.0
 50
90.0
100
AcDbRotatedDimension
  0
DIMENSION
  5
A1
100
AcDbEntity
  8
2
370
    25
100
AcDbDimension
  2
*D5
 10
133.828644
 20
78.444851
 30
0.0
 11
128.828644
 21
-6.555151
 31
0.0
 71
     0
 72
     0
 41
0.0
 42
0.0
  3
Standard
100
AcDbAlignedDimension
 13
94.725418
 23
-88.555152
 33
0.0
 14
94.725418
 24
78.444851
 34
0.0
 50
90.0
100
AcDbRotatedDimension
  0
DIMENSION
  5
A2
100
AcDbEntity
  8
2
370
    25
100
AcDbDimension
  2
*D6
 10
124.662781
 20
78.444851
 30
0.0
 11
118.162781
 21
67.194851
 31
0.0
 71
     0
 72
     0
 41
0.0
 42
0.0
  3
Standard
100
AcDbAlignedDimension
 13
114.225418
 23
61.944851
 33
0.0
 14
94.725418
 24
78.444851
 34
0.0
 50
90.0
100
AcDbRotatedDimension
  0
DIMENSION
  5
A3
100
AcDbEntity
  8
2
370
    25
100
AcDbDimension
  2
*D7
 10
124.662781
 20
61.944851
 30
0.0
 11
119.662781
 21
-6.555151
 31
0.0
 71
     0
 72
     0
 41
0.0
 42
0.0
  3
Standard
100
AcDbAlignedDimension
 13
114.225418
 23
-72.055152
 33
0.0
 14
114.225418
 24
61.944851
 34
0.0
 50
90.0
100
AcDbRotatedDimension
  0
DIMENSION
  5
A4
100
AcDbEntity
  8
2
370
    25
100
AcDbDimension
  2
*D8
 10
94.725418
 20
61.944851
 30
0.0
 11
119.934778
 21
96.143158
 31
0.0
 70
     4
 71
     0
 72
     0
 41
0.0
 42
0.0
  3
Standard
100
AcDbRadialDimension
 15
104.671499
 25
75.110164
 35
0.0
 40
13.491386
  0
TEXT
  5
A5
100
AcDbEntity
  8
2
370
    18
100
AcDbText
 10
-21.062286
 20
122.092751
 30
0.0
 40
4.0
  1
※側面片側のみ加工(勝手により､切欠が異なる箇所です｡) 
 72
     5
 11
82.137714
 21
122.092751
 31
0.0
100
AcDbText
  0
TEXT
  5
A6
100
AcDbEntity
  8
2
370
    18
100
AcDbText
 10
-11.062286
 20
116.092751
 30
0.0
 40
4.0
  1
図は左勝手（Ｌ）の場合
 72
     5
 11
32.137714
 21
116.092751
 31
0.0
100
AcDbText
  0
DIMENSION
  5
A7
100
AcDbEntity
  8
2
370
    25
100
AcDbDimension
  2
*D9
 10
38.725418
 20
-38.082504
 30
0.0
 11
29.225418
 21
-36.082504
 31
0.0
 71
     0
 72
     0
 41
0.0
 42
0.0
  3
Standard
100
AcDbAlignedDimension
 13
34.725418
 23
-38.082504
 33
0.0
 14
38.725418
 24
-30.055149
 34
0.0
100
AcDbRotatedDimension
  0
TEXT
  5
A8
100
AcDbEntity
  8
2
370
    18
100
AcDbText
 10
-38.879307
 20
-52.755667
 30
0.0
 40
4.0
  1
錠のフロント部の切欠は寸法より
 72
     5
 11
20.320693
 21
-52.755667
 31
0.0
100
AcDbText
  0
TEXT
  5
A9
100
AcDbEntity
  8
2
370
    18
100
AcDbText
 10
-38.879307
 20
-58.255667
 30
0.0
 40
4.0
  1
深くならないようにして下さい。
 72
     5
 11
20.320693
 21
-58.255667
 31
0.0
100
AcDbText
  0
LWPOLYLINE
  5
AA
100
AcDbEntity
  8
2
370
    25
100
AcDbPolyline
 90
        2
 70
     0
 10
27.608299
 20
-39.264107
 10
20.379925
 20
-47.958038
  0
LINE
  5
AE
100
AcDbEntity
  8
2
370
    25
100
AcDbLine
 10
26.771263
 20
-41.080524
 30
0.0
 11
27.608299
 21
-39.264107
 31
0.0
  0
LINE
  5
AF
100
AcDbEntity
  8
2
370
    25
100
AcDbLine
 10
27.608299
 20
-39.264107
 30
0.0
 11
25.975196
 21
-40.418652
 31
0.0
  0
TEXT
  5
B0
100
AcDbEntity
  8
2
370
    18
100
AcDbText
 10
114.085007
 20
111.079788
 30
0.0
 40
4.0
  1
扉表面からの穴を先にして下さい。
 72
     5
 11
177.285007
 21
111.079788
 31
0.0
100
AcDbText
  0
DIMENSION
  5
B1
100
AcDbEntity
  8
2
370
    25
100
AcDbDimension
  2
*D10
 10
50.725418
 20
-47.587402
 30
0.0
 11
42.725418
 21
-45.587402
 31
0.0
 71
     0
 72
     0
 41
0.0
 42
0.0
  3
Standard
100
AcDbAlignedDimension
 13
34.725418
 23
-47.587402
 33
0.0
 14
50.725418
 24
-8.055149
 34
0.0
100
AcDbRotatedDimension
  0
TEXT
  5
B2
100
AcDbEntity
  8
2
370
    18
100
AcDbText
 10
56.146496
 20
79.72583
 30
0.0
 40
3.0
  1
角又は６Ｒ
 72
     5
 11
70.546496
 21
79.72583
 31
0.0
100
AcDbText
  0
POINT
  5
B3
100
AcDbEntity
  8
2
370
    50
100
AcDbPoint
 10
88.042385
 20
69.583263
 30
0.0
  0
POINT
  5
B4
100
AcDbEntity
  8
2
370
    50
100
AcDbPoint
 10
71.888699
 20
79.22583
 30
0.0
  0
POINT
  5
B5
100
AcDbEntity
  8
2
370
    50
100
AcDbPoint
 10
56.146496
 20
79.22583
 30
0.0
  0
POINT
  5
B6
100
AcDbEntity
  8
2
370
    50
100
AcDbPoint
 10
50.725418
 20
67.944851
 30
0.0
  0
LWPOLYLINE
  5
B7
100
AcDbEntity
  8
2
370
    25
100
AcDbPolyline
 90
        3
 70
     0
 10
50.725418
 20
67.944851
 10
56.146496
 20
79.22583
 10
71.888699
 20
79.22583
  0
LINE
  5
BC
100
AcDbEntity
  8
2
370
    25
100
AcDbLine
 10
51.095607
 20
69.910292
 30
0.0
 11
50.725418
 21
67.944851
 31
0.0
  0
LINE
  5
BD
100
AcDbEntity
  8
2
370
    25
100
AcDbLine
 10
50.725418
 20
67.944851
 30
0.0
 11
52.028731
 21
69.461879
 31
0.0
  0
TEXT
  5
BE
100
AcDbEntity
  8
2
370
    18
100
AcDbText
 10
-81.51973
 20
112.644798
 30
0.0
 40
3.0
  1
扉厚３３～３６
 72
     5
 11
-61.11973
 21
112.644798
 31
0.0
100
AcDbText
  0
DIMENSION
  5
BF
100
AcDbEntity
  8
2
370
    25
100
AcDbDimension
  2
*D11
 10
-56.01973
 20
112.144798
 30
0.0
 11
-74.01973
 21
114.144798
 31
0.0
 71
     0
 72
     0
 41
0.0
 42
0.0
  3
Standard
100
AcDbAlignedDimension
 13
-92.01973
 23
99.359741
 33
0.0
 14
-56.01973
 24
99.359741
 34
0.0
100
AcDbRotatedDimension
  0
TEXT
  5
C0
100
AcDbEntity
  8
2
370
    18
100
AcDbText
 10
55.725418
 20
108.125809
 30
0.0
 40
3.0
  1
バックセット６０
 72
     5
 11
79.125418
 21
108.125809
 31
0.0
100
AcDbText
  0
DIMENSION
  5
C1
100
AcDbEntity
  8
2
370
    25
100
AcDbDimension
  2
*D12
 10
94.725418
 20
107.625809
 30
0.0
 11
64.725418
 21
109.625809
 31
0.0
 71
     0
 72
     0
 41
0.0
 42
0.0
  3
Standard
100
AcDbAlignedDimension
 13
34.725418
 23
99.359741
 33
0.0
 14
94.725418
 24
83.319977
 34
0.0
100
AcDbRotatedDimension
  0
TEXT
  5
C2
100
AcDbEntity
  8
2
370
    18
100
AcDbText
 10
-186.903108
 20
-103.979284
 30
0.0
 40
6.0
  1
※錠の隅形状は現品に合わせて、角又はＲ６で加工してください。
 72
     5
 11
-8.103108
 21
-103.979284
 31
0.0
100
AcDbText
  0
LINE
  5
C3
100
AcDbEntity
  8
3
370
   100
100
AcDbLine
 10
-190.0
 20
138.0
 30
0.0
 11
-190.0
 21
-138.0
 31
0.0
  0
LINE
  5
C4
100
AcDbEntity
  8
3
370
   100
100
AcDbLine
 10
200.0
 20
138.0
 30
0.0
 11
200.0
 21
-138.0
 31
0.0
  0
LINE
  5
C5
100
AcDbEntity
  8
3
370
   100
100
AcDbLine
 10
-190.0
 20
138.0
 30
0.0
 11
200.0
 21
138.0
 31
0.0
  0
LINE
  5
C6
100
AcDbEntity
  8
3
370
   100
100
AcDbLine
 10
-190.0
 20
-138.0
 30
0.0
 11
200.0
 21
-138.0
 31
0.0
  0
LINE
  5
C7
100
AcDbEntity
  8
3
370
    50
100
AcDbLine
 10
-190.0
 20
-108.0
 30
0.0
 11
200.0
 21
-108.0
 31
0.0
  0
LINE
  5
C8
100
AcDbEntity
  8
3
370
    25
100
AcDbLine
 10
10.0
 20
-112.999949
 30
0.0
 11
108.000527
 21
-112.999865
 31
0.0
  0
LINE
  5
C9
100
AcDbEntity
  8
3
370
   100
100
AcDbLine
 10
-190.3
 20
138.3
 30
0.0
 11
200.3
 21
138.3
 31
0.0
  0
LINE
  5
CA
100
AcDbEntity
  8
3
370
   100
100
AcDbLine
 10
200.3
 20
138.3
 30
0.0
 11
200.3
 21
-138.3
 31
0.0
  0
LINE
  5
CB
100
AcDbEntity
  8
3
370
   100
100
AcDbLine
 10
200.3
 20
-138.3
 30
0.0
 11
-190.3
 21
-138.3
 31
0.0
  0
LINE
  5
CC
100
AcDbEntity
  8
3
370
   100
100
AcDbLine
 10
-190.3
 20
-138.3
 30
0.0
 11
-190.3
 21
138.3
 31
0.0
  0
LINE
  5
CD
100
AcDbEntity
  8
3
370
    25
100
AcDbLine
 10
108.000527
 20
-112.999865
 30
0.0
 11
108.000527
 21
-108.0
 31
0.0
  0
LINE
  5
CE
100
AcDbEntity
  8
3
370
    25
100
AcDbLine
 10
90.0
 20
-129.999865
 30
0.0
 11
108.000527
 21
-129.999865
 31
0.0
  0
LINE
  5
CF
100
AcDbEntity
  8
3
370
    25
100
AcDbLine
 10
108.000527
 20
-129.999865
 30
0.0
 11
108.000527
 21
-125.0
 31
0.0
  0
LINE
  5
D0
100
AcDbEntity
  8
3
370
    50
100
AcDbLine
 10
10.0
 20
-108.0
 30
0.0
 11
10.0
 21
-138.0
 31
0.0
  0
TEXT
  5
D1
100
AcDbEntity
  8
3
370
   100
100
AcDbText
 10
22.0
 20
-135.5
 30
0.0
 40
8.0
  1
（株）川口技研
 72
     5
 11
76.4
 21
-135.5
 31
0.0
100
AcDbText
  0
TEXT
  5
D2
100
AcDbEntity
  8
3
370
    25
100
AcDbText
 10
91.800263
 20
-112.29994
 30
0.0
 40
3.6
  1
図面名称
 72
     5
 11
105.480263
 21
-112.29994
 31
0.0
100
AcDbText
  0
TEXT
  5
D3
100
AcDbEntity
  8
3
370
    25
100
AcDbText
 10
91.800263
 20
-129.299925
 30
0.0
 40
3.6
  1
図面番号
 72
     5
 11
105.480263
 21
-129.299925
 31
0.0
100
AcDbText
  0
TEXT
  5
D4
100
AcDbEntity
  8
3
370
    25
100
AcDbText
 10
16.133333
 20
-112.299991
 30
0.0
 40
3.6
  1
図　　法
 72
     5
 11
29.813333
 21
-112.299991
 31
0.0
100
AcDbText
  0
TEXT
  5
D5
100
AcDbEntity
  8
3
370
    25
100
AcDbText
 10
42.8
 20
-112.299974
 30
0.0
 40
3.6
  1
単　　位
 72
     5
 11
56.48
 21
-112.299974
 31
0.0
100
AcDbText
  0
TEXT
  5
D6
100
AcDbEntity
  8
3
370
    25
100
AcDbText
 10
69.466667
 20
-112.299957
 30
0.0
 40
3.6
  1
尺　　度
 72
     5
 11
83.146667
 21
-112.299957
 31
0.0
100
AcDbText
  0
TEXT
  5
D7
100
AcDbEntity
  8
3
370
    25
100
AcDbText
 10
46.0
 20
-120.999957
 30
0.0
 40
4.0
  1
ｍｍ
 72
     5
 11
53.2
 21
-120.999957
 31
0.0
100
AcDbText
  0
TEXT
  5
D8
100
AcDbEntity
  8
3
370
    25
100
AcDbText
 10
17.333333
 20
-120.999957
 30
0.0
 40
4.0
  1
３角法
 72
     5
 11
28.533333
 21
-120.999957
 31
0.0
100
AcDbText
  0
LINE
  5
D9
100
AcDbEntity
  8
3
370
    50
100
AcDbLine
 10
90.0
 20
-138.0
 30
0.0
 11
90.0
 21
-108.0
 31
0.0
  0
LINE
  5
DA
100
AcDbEntity
  8
3
370
    50
100
AcDbLine
 10
10.0
 20
-125.0
 30
0.0
 11
90.0
 21
-125.0
 31
0.0
  0
LINE
  5
DB
100
AcDbEntity
  8
3
370
    50
100
AcDbLine
 10
90.0
 20
-125.0
 30
0.0
 11
200.0
 21
-125.0
 31
0.0
  0
LINE
  5
DC
100
AcDbEntity
  8
3
370
    50
100
AcDbLine
 10
36.666667
 20
-125.0
 30
0.0
 11
36.666667
 21
-108.0
 31
0.0
  0
LINE
  5
DD
100
AcDbEntity
  8
3
370
    50
100
AcDbLine
 10
63.333333
 20
-125.0
 30
0.0
 11
63.333333
 21
-108.0
 31
0.0
  0
TEXT
  5
DE
100
AcDbEntity
  8
3
370
    25
100
AcDbText
 10
70.666667
 20
-120.999957
 30
0.0
 40
4.0
  1
１／１
 72
     5
 11
81.866667
 21
-120.999957
 31
0.0
100
AcDbText
  0
TEXT
  5
DF
100
AcDbEntity
  8
3
370
   100
100
AcDbText
 10
124.421455
 20
-134.545471
 30
0.0
 40
6.0
  1
ＤＺ－１９７４－００
 72
     5
 11
183.221455
 21
-134.545471
 31
0.0
100
AcDbText
  0
TEXT
  5
E0
100
AcDbEntity
  8
3
370
    50
100
AcDbText
 10
112.778885
 20
-122.279037
 30
0.0
 40
4.5
  1
Ｄ3アウトセット引戸錠用　切欠図
 41
0.9
 72
     5
 11
174.743885
 21
-122.279037
 31
0.0
100
AcDbText
  0
ENDSEC
  0
SECTION
  2
OBJECTS
  0
DICTIONARY
  5
15B
100
AcDbDictionary
280
     0
281
     1
  3
ACAD_GROUP
350
15C
  3
ACAD_MLINESTYLE
350
15D
  0
DICTIONARY
  5
15C
102
{ACAD_REACTORS
330
15B
102
}
100
AcDbDictionary
280
     0
281
     1
  0
DICTIONARY
  5
15D
102
{ACAD_REACTORS
330
15B
102
}
100
AcDbDictionary
280
     0
281
     1
  3
Standard
350
15E
  0
MLINESTYLE
  5
15E
102
{ACAD_REACTORS
330
15D
102
}
100
AcDbMlineStyle
  2
Standard
 70
     0
  3

 62
     0
 51
90.0
 52
90.0
 71
     2
 49
0.5
 62
   256
  6
ByLayer
 49
-0.5
 62
   256
  6
ByLayer
  0
ENDSEC
  0
EOF
