  0
SECTION
  2
HEADER
  9
$ACADVER
  1
AC1015
  9
$ACADMAINTVER
 70
     6
  9
$DWGCODEPAGE
  3
ANSI_932
  9
$INSBASE
 10
0.0
 20
0.0
 30
0.0
  9
$EXTMIN
 10
-1189.0
 20
-841.0
 30
1.000000E+20
  9
$EXTMAX
 10
1189.0
 20
841.0
 30
-1.000000E+20
  9
$LIMMIN
 10
-1189.0
 20
-841.0
  9
$LIMMAX
 10
1189.0
 20
841.0
  9
$ORTHOMODE
 70
     0
  9
$REGENMODE
 70
     1
  9
$FILLMODE
 70
     1
  9
$QTEXTMODE
 70
     0
  9
$MIRRTEXT
 70
     1
  9
$LTSCALE
 40
1.0
  9
$ATTMODE
 70
     1
  9
$TEXTSIZE
 40
0.2
  9
$TRACEWID
 40
0.05
  9
$TEXTSTYLE
  7
STANDARD
  9
$CLAYER
  8
0
  9
$CELTYPE
  6
CONTINUOUS
  9
$CECOLOR
 62
   256
  9
$CELTSCALE
 40
1.0
  9
$DISPSILH
 70
     0
  9
$DIMSCALE
 40
2.0
  9
$DIMASZ
 40
2.0
  9
$DIMEXO
 40
0.5
  9
$DIMDLI
 40
0.38
  9
$DIMRND
 40
0.0
  9
$DIMDLE
 40
0.0
  9
$DIMEXE
 40
2.0
  9
$DIMTP
 40
0.0
  9
$DIMTM
 40
0.0
  9
$DIMTXT
 40
3.0
  9
$DIMCEN
 40
0.09
  9
$DIMTSZ
 40
0.0
  9
$DIMTOL
 70
     0
  9
$DIMLIM
 70
     0
  9
$DIMTIH
 70
     0
  9
$DIMTOH
 70
     0
  9
$DIMSE1
 70
     0
  9
$DIMSE2
 70
     0
  9
$DIMTAD
 70
     1
  9
$DIMZIN
 70
     0
  9
$DIMBLK
  1

  9
$DIMASO
 70
     1
  9
$DIMSHO
 70
     1
  9
$DIMPOST
  1

  9
$DIMAPOST
  1

  9
$DIMALT
 70
     0
  9
$DIMALTD
 70
     2
  9
$DIMALTF
 40
25.4
  9
$DIMLFAC
 40
1.0
  9
$DIMTOFL
 70
     0
  9
$DIMTVP
 40
0.0
  9
$DIMTIX
 70
     0
  9
$DIMSOXD
 70
     0
  9
$DIMSAH
 70
     0
  9
$DIMBLK1
  1

  9
$DIMBLK2
  1

  9
$DIMSTYLE
  2
Standard
  9
$DIMCLRD
 70
     0
  9
$DIMCLRE
 70
     0
  9
$DIMCLRT
 70
     0
  9
$DIMTFAC
 40
1.0
  9
$DIMGAP
 40
0.5
  9
$DIMJUST
 70
     0
  9
$DIMSD1
 70
     0
  9
$DIMSD2
 70
     0
  9
$DIMTOLJ
 70
     1
  9
$DIMTZIN
 70
     0
  9
$DIMALTZ
 70
     0
  9
$DIMALTTZ
 70
     0
  9
$DIMUPT
 70
     0
  9
$DIMDEC
 70
     2
  9
$DIMTDEC
 70
     4
  9
$DIMALTU
 70
     2
  9
$DIMALTTD
 70
     2
  9
$DIMTXSTY
  7
STANDARD
  9
$DIMAUNIT
 70
     0
  9
$DIMADEC
 70
     2
  9
$DIMALTRND
 40
0.0
  9
$DIMAZIN
 70
     0
  9
$DIMDSEP
 70
     0
  9
$DIMATFIT
 70
     3
  9
$DIMFRAC
 70
     0
  9
$DIMLDRBLK
  1

  9
$DIMLUNIT
 70
     2
  9
$DIMLWD
 70
     0
  9
$DIMLWE
 70
     0
  9
$DIMTMOVE
 70
     0
  9
$LUNITS
 70
     2
  9
$LUPREC
 70
     4
  9
$SKETCHINC
 40
0.1
  9
$FILLETRAD
 40
0.0
  9
$AUNITS
 70
     0
  9
$AUPREC
 70
     0
  9
$MENU
  1
acad
  9
$ELEVATION
 40
0.0
  9
$PELEVATION
 40
0.0
  9
$THICKNESS
 40
0.0
  9
$LIMCHECK
 70
     0
  9
$CHAMFERA
 40
0.0
  9
$CHAMFERB
 40
0.0
  9
$CHAMFERC
 40
0.0
  9
$CHAMFERD
 40
0.0
  9
$SKPOLY
 70
     0
  9
$TDCREATE
 40
2450189.000000000
  9
$TDUCREATE
 40
0.000000000
  9
$TDUPDATE
 40
0.000000000
  9
$TDUUPDATE
 40
2447892.625000000
  9
$TDINDWG
 40
0.0000000000
  9
$TDUSRTIMER
 40
0.0000000000
  9
$USRTIMER
 70
     1
  9
$ANGBASE
 50
0.0
  9
$ANGDIR
 70
     0
  9
$PDMODE
 70
     0
  9
$PDSIZE
 40
0.0
  9
$PLINEWID
 40
0.0
  9
$SPLFRAME
 70
     0
  9
$SPLINETYPE
 70
     6
  9
$SPLINESEGS
 70
     8
  9
$HANDSEED
  5
8FB
  9
$SURFTAB1
 70
     6
  9
$SURFTAB2
 70
     6
  9
$SURFTYPE
 70
     6
  9
$SURFU
 70
     6
  9
$SURFV
 70
     6
  9
$UCSBASE
  2

  9
$UCSNAME
  2

  9
$UCSORG
 10
0.0
 20
0.0
 30
0.0
  9
$UCSXDIR
 10
1.0
 20
0.0
 30
0.0
  9
$UCSYDIR
 10
0.0
 20
1.0
 30
0.0
  9
$UCSORTHOREF
  2

  9
$UCSORTHOVIEW
 70
     0
  9
$UCSORGTOP
 10
0.0
 20
0.0
 30
0.0
  9
$UCSORGBOTTOM
 10
0.0
 20
0.0
 30
0.0
  9
$UCSORGLEFT
 10
0.0
 20
0.0
 30
0.0
  9
$UCSORGRIGHT
 10
0.0
 20
0.0
 30
0.0
  9
$UCSORGFRONT
 10
0.0
 20
0.0
 30
0.0
  9
$UCSORGBACK
 10
0.0
 20
0.0
 30
0.0
  9
$PUCSBASE
  2

  9
$PUCSNAME
  2

  9
$PUCSORG
 10
0.0
 20
0.0
 30
0.0
  9
$PUCSXDIR
 10
1.0
 20
0.0
 30
0.0
  9
$PUCSYDIR
 10
0.0
 20
1.0
 30
0.0
  9
$PUCSORTHOREF
  2

  9
$PUCSORTHOVIEW
 70
     0
  9
$PUCSORGTOP
 10
0.0
 20
0.0
 30
0.0
  9
$PUCSORGBOTTOM
 10
0.0
 20
0.0
 30
0.0
  9
$PUCSORGLEFT
 10
0.0
 20
0.0
 30
0.0
  9
$PUCSORGRIGHT
 10
0.0
 20
0.0
 30
0.0
  9
$PUCSORGFRONT
 10
0.0
 20
0.0
 30
0.0
  9
$PUCSORGBACK
 10
0.0
 20
0.0
 30
0.0
  9
$USERI1
 70
     0
  9
$USERI2
 70
     0
  9
$USERI3
 70
     0
  9
$USERI4
 70
     0
  9
$USERI5
 70
     0
  9
$USERR1
 40
0.0
  9
$USERR2
 40
0.0
  9
$USERR3
 40
0.0
  9
$USERR4
 40
0.0
  9
$USERR5
 40
0.0
  9
$WORLDVIEW
 70
     1
  9
$SHADEDGE
 70
     3
  9
$SHADEDIF
 70
    70
  9
$TILEMODE
 70
     1
  9
$MAXACTVP
 70
    16
  9
$PINSBASE
 10
0.0
 20
0.0
 30
0.0
  9
$PLIMCHECK
 70
     0
  9
$PEXTMIN
 10
1.000000E+20
 20
1.000000E+20
 30
1.000000E+20
  9
$PEXTMAX
 10
-1.000000E+20
 20
-1.000000E+20
 30
-1.000000E+20
  9
$PLIMMIN
 10
0.0
 20
0.0
  9
$PLIMMAX
 10
12.0
 20
9.0
  9
$UNITMODE
 70
     0
  9
$VISRETAIN
 70
     0
  9
$PLINEGEN
 70
     1
  9
$PSLTSCALE
 70
     0
  9
$TREEDEPTH
 70
  3020
  9
$CMLSTYLE
  2
Standard
  9
$CMLJUST
 70
     0
  9
$CMLSCALE
 40
1.0
  9
$PROXYGRAPHICS
 70
     0
  9
$MEASUREMENT
 70
     0
  9
$CELWEIGHT
370
     0
  9
$ENDCAPS
280
     0
  9
$JOINSTYLE
280
     0
  9
$LWDISPLAY
290
     0
  9
$INSUNITS
 70
     0
  9
$HYPERLINKBASE
  1

  9
$STYLESHEET
  1

  9
$XEDIT
290
     1
  9
$CEPSNTYPE
380
     0
  9
$PSTYLEMODE
290
     1
  9
$FINGERPRINTGUID
  2

  9
$VERSIONGUID
  2

  9
$EXTNAMES
290
     1
  9
$PSVPSCALE
 40
0.0
  0
ENDSEC
  0
SECTION
  2
CLASSES
  0
CLASS
  1
LWPOLYLINE
  2
AcDbPolyline
  3
AutoCAD 2000
 90
        0
280
     0
281
     1
  0
CLASS
  1
IMAGE
  2
AcDbRasterImage
  3
ISM
 90
      127
280
     0
281
     1
  0
CLASS
  1
OLE2FRAME
  2
AcDbOle2Frame
  3
AutoCAD 2000
 90
        0
280
     0
281
     1
  0
CLASS
  1
HATCH
  2
AcDbHatch
  3
AutoCAD 2000
 90
        0
280
     0
281
     1
  0
CLASS
  1
DICTIONARYVAR
  2
AcDbDictionaryVar
  3
AutoCAD 2000
 90
        0
280
     0
281
     0
  0
CLASS
  1
RASTERVARIABLES
  2
AcDbRasterVariables
  3
ISM
 90
        0
280
     0
281
     0
  0
CLASS
  1
IMAGEDEF
  2
AcDbRasterImageDef
  3
ISM
 90
        0
280
     0
281
     0
  0
CLASS
  1
IMAGEDEF_REACTOR
  2
AcDbRasterImageDefReactor
  3
ISM
 90
        1
280
     0
281
     0
  0
CLASS
  1
IDBUFFER
  2
AcDbIdBuffer
  3
AutoCAD 2000
 90
        0
280
     0
281
     0
  0
CLASS
  1
SPATIAL_FILTER
  2
AcDbSpatialFilter
  3
AutoCAD 2000
 90
        0
280
     0
281
     0
  0
CLASS
  1
XRECORD
  2
AcDbXrecord
  3
AutoCAD 2000
 90
        0
280
     0
281
     0
  0
CLASS
  1
SORTENTSTABLE
  2
AcDbSortentsTable
  3
AutoCAD 2000
 90
        0
280
     0
281
     0
  0
CLASS
  1
LAYER_INDEX
  2
AcDbLayerIndex
  3
AutoCAD 2000
 90
        0
280
     0
281
     0
  0
CLASS
  1
SPATIAL_INDEX
  2
AcDbSpatialIndex
  3
AutoCAD 2000
 90
        0
280
     0
281
     0
  0
CLASS
  1
OBJECT_PTR
  2
CAseDLPNTableRecord
  3
"ASE-LPNTableRecord"
 90
        1
280
     0
281
     0
  0
CLASS
  1
LAYOUT
  2
AcDbLayout
  3
AutoCAD 2000
 90
        0
280
     0
281
     0
  0
CLASS
  1
PLOTSETTINGS
  2
AcDbPlotSettings
  3
AutoCAD 2000
 90
        0
280
     0
281
     0
  0
CLASS
  1
ACDBDICTIONARYWDFLT
  2
AcDbDictionaryWithDefault
  3
AutoCAD 2000
 90
        0
280
     0
281
     0
  0
CLASS
  1
ACDBPLACEHOLDER
  2
AcDbPlaceHolder
  3
AutoCAD 2000
 90
        0
280
     0
281
     0
  0
CLASS
  1
VBA_PROJECT
  2
AcDbVbaProject
  3
acadvba
 90
        0
280
     0
281
     0
  0
CLASS
  1
WIPEOUT
  2
AcDbWipeout
  3
WipeOut|AutoCAD Express Tool|expresstools@autodesk.com
 90
      127
280
     0
281
     1
  0
CLASS
  1
WIPEOUTVARIABLES
  2
AcDbWipeoutVariables
  3
WipeOut|AutoCAD Express Tool|expresstools@autodesk.com
 90
        0
280
     0
281
     0
  0
CLASS
  1
RTEXT
  2
RText
  3
RText|AutoCAD Express Tool|expresstools@autodesk.com
 90
        0
280
     0
281
     1
  0
CLASS
  1
ARCALIGNEDTEXT
  2
AcDbArcAlignedText
  3
ATEXT|AutoCAD Express Tool|expresstools@autodesk.com
 90
        0
280
     0
281
     1
  0
ENDSEC
  0
SECTION
  2
TABLES
  0
TABLE
  2
VPORT
  5
6
100
AcDbSymbolTable
 70
     1
  0
VPORT
  5
19
100
AcDbSymbolTableRecord
100
AcDbViewportTableRecord
  2
*ACTIVE
 70
     0
 10
0.0
 20
0.0
 11
1.0
 21
1.0
 12
0.0
 22
0.0
 13
0.0
 23
0.0
 14
1.0
 24
1.0
 15
0.0
 25
0.0
 16
0.0
 26
0.0
 36
1.0
 17
0.0
 27
0.0
 37
0.0
 40
1682.0
 41
1.413793
 42
50.0
 43
0.0
 44
0.0
 50
0.0
 51
0.0
 71
     0
 72
   500
 73
     1
 74
     1
 75
     0
 76
     0
 77
     0
 78
     0
281
     0
 65
     0
110
0.0
120
0.0
130
0.0
111
1.0
121
0.0
131
0.0
112
0.0
122
1.0
132
0.0
345
0
346
0
 79
     0
146
0.0
  0
ENDTAB
  0
TABLE
  2
LTYPE
  5
3
100
AcDbSymbolTable
 70
     9
  0
LTYPE
  5
C
100
AcDbSymbolTableRecord
100
AcDbLinetypeTableRecord
  2
ByBlock
 70
    64
  3

 72
    65
 73
     0
 40
0.0
  0
LTYPE
  5
D
100
AcDbSymbolTableRecord
100
AcDbLinetypeTableRecord
  2
ByLayer
 70
    64
  3

 72
    65
 73
     0
 40
0.0
  0
LTYPE
  5
E
100
AcDbSymbolTableRecord
100
AcDbLinetypeTableRecord
  2
CONTINUOUS
 70
     0
  3
Solid line
 72
    65
 73
     0
 40
0.0
  0
LTYPE
  5
F
100
AcDbSymbolTableRecord
100
AcDbLinetypeTableRecord
  2
DASHED
 70
     0
  3
__ __ __ __ __ __ __ __ __ __ __ __ __ __ __
 72
    65
 73
     2
 40
2.0
 49
1.2
 74
     0
 49
-0.8
 74
     0
  0
LTYPE
  5
10
100
AcDbSymbolTableRecord
100
AcDbLinetypeTableRecord
  2
CENTER
 70
     0
  3
____ _ ____ _ ____ _ ____ _ ____ _ ____ _ ____
 72
    65
 73
     4
 40
12.0
 49
9.0
 74
     0
 49
-1.0
 74
     0
 49
1.0
 74
     0
 49
-1.0
 74
     0
  0
LTYPE
  5
11
100
AcDbSymbolTableRecord
100
AcDbLinetypeTableRecord
  2
HIDDEN
 70
     0
  3
_ _ _ _ _ _ _ _ _ _ _ _ _ _ _ _ _ _ _ _ _ _ _
 72
    65
 73
     2
 40
3.2
 49
1.3
 74
     0
 49
-1.9
 74
     0
  0
LTYPE
  5
12
100
AcDbSymbolTableRecord
100
AcDbLinetypeTableRecord
  2
PHANTOM
 70
     0
  3
_____ _ _ _____ _ _ _____ _ _ _____ _ _ _____
 72
    65
 73
     6
 40
12.5
 49
9.0
 74
     0
 49
-1.0
 74
     0
 49
0.5
 74
     0
 49
-0.5
 74
     0
 49
0.5
 74
     0
 49
-1.0
 74
     0
  0
LTYPE
  5
13
100
AcDbSymbolTableRecord
100
AcDbLinetypeTableRecord
  2
DOT
 70
     0
  3
...............................................
 72
    65
 73
     2
 40
1.0
 49
0.5
 74
     0
 49
-0.5
 74
     0
  0
LTYPE
  5
14
100
AcDbSymbolTableRecord
100
AcDbLinetypeTableRecord
  2
DASHDOT
 70
     0
  3
__ . __ . __ . __ . __ . __ . __ . __ . __ . __
 72
    65
 73
     4
 40
8.0
 49
5.0
 74
     0
 49
-1.0
 74
     0
 49
1.0
 74
     0
 49
-1.0
 74
     0
  0
ENDTAB
  0
TABLE
  2
LAYER
  5
1
100
AcDbSymbolTable
 70
     4
  0
LAYER
  5
15
100
AcDbSymbolTableRecord
100
AcDbLayerTableRecord
  2
0
 70
     0
 62
     8
  6
CONTINUOUS
290
     1
370
    -3
390
0
  0
LAYER
  5
16
100
AcDbSymbolTableRecord
100
AcDbLayerTableRecord
  2
1
 70
     0
 62
     2
  6
CONTINUOUS
290
     1
370
    -3
390
0
  0
LAYER
  5
17
100
AcDbSymbolTableRecord
100
AcDbLayerTableRecord
  2
2
 70
     0
 62
     3
  6
CONTINUOUS
290
     1
370
    -3
390
0
  0
LAYER
  5
18
100
AcDbSymbolTableRecord
100
AcDbLayerTableRecord
  2
3
 70
     0
 62
     4
  6
CONTINUOUS
290
     1
370
    -3
390
0
  0
ENDTAB
  0
TABLE
  2
STYLE
  5
2
100
AcDbSymbolTable
 70
     1
  0
STYLE
  5
1B
100
AcDbSymbolTableRecord
100
AcDbTextStyleTableRecord
  2
STANDARD
 70
    64
 40
0.0
 41
1.0
 50
0.0
 71
     0
 42
1.0
  3
txt
  4
BIGFONT
  0
ENDTAB
  0
TABLE
  2
VIEW
  5
4
100
AcDbSymbolTable
 70
     0
  0
ENDTAB
  0
TABLE
  2
UCS
  5
5
100
AcDbSymbolTable
 70
     0
  0
ENDTAB
  0
TABLE
  2
APPID
  5
7
100
AcDbSymbolTable
 70
     1
  0
APPID
  5
1A
100
AcDbSymbolTableRecord
100
AcDbRegAppTableRecord
  2
ACAD
 70
     0
  0
ENDTAB
  0
TABLE
  2
DIMSTYLE
  5
8
100
AcDbSymbolTable
 70
     1
100
AcDbDimStyleTable
 71
     0
  0
DIMSTYLE
105
63
100
AcDbSymbolTableRecord
100
AcDbDimStyleTableRecord
  2
Standard
 70
     0
  3

  4

 40
2.0
 41
2.0
 42
0.5
 43
0.38
 44
2.0
 45
0.0
 46
0.0
 47
0.0
 48
0.0
 71
     0
 72
     0
 73
     0
 74
     0
 75
     0
 76
     0
 77
     1
 78
     0
 79
     0
140
3.0
141
0.09
142
0.0
143
25.4
144
1.0
145
0.0
146
1.0
147
0.5
148
0.0
170
     0
171
     2
172
     0
173
     0
174
     0
175
     0
176
     0
177
     0
178
     0
179
     0
271
     2
272
     4
273
     2
274
     2
275
     0
276
     0
277
     2
278
    46
279
     0
280
     0
281
     0
282
     0
283
     1
284
     0
285
     0
286
     0
288
     0
289
     3
340
1B
341
0
342
0
343
0
344
0
371
    -2
372
    -2
  0
ENDTAB
  0
TABLE
  2
BLOCK_RECORD
  5
5E
100
AcDbSymbolTable
 70
    64
  0
BLOCK_RECORD
  5
5C
100
AcDbSymbolTableRecord
100
AcDbBlockTableRecord
  2
*Model_Space
340
0
  0
BLOCK_RECORD
  5
5D
100
AcDbSymbolTableRecord
100
AcDbBlockTableRecord
  2
*Paper_Space
340
0
  0
BLOCK_RECORD
  5
1C
100
AcDbSymbolTableRecord
100
AcDbBlockTableRecord
  2
*D0
340
0
  0
BLOCK_RECORD
  5
1D
100
AcDbSymbolTableRecord
100
AcDbBlockTableRecord
  2
*D1
340
0
  0
BLOCK_RECORD
  5
1E
100
AcDbSymbolTableRecord
100
AcDbBlockTableRecord
  2
*D2
340
0
  0
BLOCK_RECORD
  5
1F
100
AcDbSymbolTableRecord
100
AcDbBlockTableRecord
  2
*D3
340
0
  0
BLOCK_RECORD
  5
20
100
AcDbSymbolTableRecord
100
AcDbBlockTableRecord
  2
*D4
340
0
  0
BLOCK_RECORD
  5
21
100
AcDbSymbolTableRecord
100
AcDbBlockTableRecord
  2
*D5
340
0
  0
BLOCK_RECORD
  5
22
100
AcDbSymbolTableRecord
100
AcDbBlockTableRecord
  2
*D6
340
0
  0
BLOCK_RECORD
  5
23
100
AcDbSymbolTableRecord
100
AcDbBlockTableRecord
  2
*D7
340
0
  0
BLOCK_RECORD
  5
24
100
AcDbSymbolTableRecord
100
AcDbBlockTableRecord
  2
*D8
340
0
  0
BLOCK_RECORD
  5
25
100
AcDbSymbolTableRecord
100
AcDbBlockTableRecord
  2
*D9
340
0
  0
BLOCK_RECORD
  5
26
100
AcDbSymbolTableRecord
100
AcDbBlockTableRecord
  2
*D10
340
0
  0
BLOCK_RECORD
  5
27
100
AcDbSymbolTableRecord
100
AcDbBlockTableRecord
  2
*D11
340
0
  0
BLOCK_RECORD
  5
28
100
AcDbSymbolTableRecord
100
AcDbBlockTableRecord
  2
*D12
340
0
  0
BLOCK_RECORD
  5
29
100
AcDbSymbolTableRecord
100
AcDbBlockTableRecord
  2
*D13
340
0
  0
BLOCK_RECORD
  5
2A
100
AcDbSymbolTableRecord
100
AcDbBlockTableRecord
  2
*D14
340
0
  0
BLOCK_RECORD
  5
2B
100
AcDbSymbolTableRecord
100
AcDbBlockTableRecord
  2
*D15
340
0
  0
BLOCK_RECORD
  5
2C
100
AcDbSymbolTableRecord
100
AcDbBlockTableRecord
  2
*D16
340
0
  0
BLOCK_RECORD
  5
2D
100
AcDbSymbolTableRecord
100
AcDbBlockTableRecord
  2
*D17
340
0
  0
BLOCK_RECORD
  5
2E
100
AcDbSymbolTableRecord
100
AcDbBlockTableRecord
  2
*D18
340
0
  0
BLOCK_RECORD
  5
2F
100
AcDbSymbolTableRecord
100
AcDbBlockTableRecord
  2
*D19
340
0
  0
BLOCK_RECORD
  5
30
100
AcDbSymbolTableRecord
100
AcDbBlockTableRecord
  2
*D20
340
0
  0
BLOCK_RECORD
  5
31
100
AcDbSymbolTableRecord
100
AcDbBlockTableRecord
  2
*D21
340
0
  0
BLOCK_RECORD
  5
32
100
AcDbSymbolTableRecord
100
AcDbBlockTableRecord
  2
*D22
340
0
  0
BLOCK_RECORD
  5
33
100
AcDbSymbolTableRecord
100
AcDbBlockTableRecord
  2
*D23
340
0
  0
BLOCK_RECORD
  5
34
100
AcDbSymbolTableRecord
100
AcDbBlockTableRecord
  2
*D24
340
0
  0
BLOCK_RECORD
  5
35
100
AcDbSymbolTableRecord
100
AcDbBlockTableRecord
  2
*D25
340
0
  0
BLOCK_RECORD
  5
36
100
AcDbSymbolTableRecord
100
AcDbBlockTableRecord
  2
*D26
340
0
  0
BLOCK_RECORD
  5
37
100
AcDbSymbolTableRecord
100
AcDbBlockTableRecord
  2
*D27
340
0
  0
BLOCK_RECORD
  5
38
100
AcDbSymbolTableRecord
100
AcDbBlockTableRecord
  2
*D28
340
0
  0
BLOCK_RECORD
  5
39
100
AcDbSymbolTableRecord
100
AcDbBlockTableRecord
  2
*D29
340
0
  0
BLOCK_RECORD
  5
3A
100
AcDbSymbolTableRecord
100
AcDbBlockTableRecord
  2
*D30
340
0
  0
BLOCK_RECORD
  5
3B
100
AcDbSymbolTableRecord
100
AcDbBlockTableRecord
  2
*D31
340
0
  0
BLOCK_RECORD
  5
3C
100
AcDbSymbolTableRecord
100
AcDbBlockTableRecord
  2
*D32
340
0
  0
BLOCK_RECORD
  5
3D
100
AcDbSymbolTableRecord
100
AcDbBlockTableRecord
  2
*D33
340
0
  0
BLOCK_RECORD
  5
3E
100
AcDbSymbolTableRecord
100
AcDbBlockTableRecord
  2
*D34
340
0
  0
BLOCK_RECORD
  5
3F
100
AcDbSymbolTableRecord
100
AcDbBlockTableRecord
  2
*D35
340
0
  0
BLOCK_RECORD
  5
40
100
AcDbSymbolTableRecord
100
AcDbBlockTableRecord
  2
*D36
340
0
  0
BLOCK_RECORD
  5
41
100
AcDbSymbolTableRecord
100
AcDbBlockTableRecord
  2
*D37
340
0
  0
BLOCK_RECORD
  5
42
100
AcDbSymbolTableRecord
100
AcDbBlockTableRecord
  2
*D38
340
0
  0
BLOCK_RECORD
  5
43
100
AcDbSymbolTableRecord
100
AcDbBlockTableRecord
  2
*D39
340
0
  0
BLOCK_RECORD
  5
44
100
AcDbSymbolTableRecord
100
AcDbBlockTableRecord
  2
*D40
340
0
  0
BLOCK_RECORD
  5
45
100
AcDbSymbolTableRecord
100
AcDbBlockTableRecord
  2
*D41
340
0
  0
BLOCK_RECORD
  5
46
100
AcDbSymbolTableRecord
100
AcDbBlockTableRecord
  2
*D42
340
0
  0
BLOCK_RECORD
  5
47
100
AcDbSymbolTableRecord
100
AcDbBlockTableRecord
  2
*D43
340
0
  0
BLOCK_RECORD
  5
48
100
AcDbSymbolTableRecord
100
AcDbBlockTableRecord
  2
*D44
340
0
  0
BLOCK_RECORD
  5
49
100
AcDbSymbolTableRecord
100
AcDbBlockTableRecord
  2
*D45
340
0
  0
BLOCK_RECORD
  5
4A
100
AcDbSymbolTableRecord
100
AcDbBlockTableRecord
  2
*D46
340
0
  0
BLOCK_RECORD
  5
4B
100
AcDbSymbolTableRecord
100
AcDbBlockTableRecord
  2
*D47
340
0
  0
BLOCK_RECORD
  5
4C
100
AcDbSymbolTableRecord
100
AcDbBlockTableRecord
  2
*D48
340
0
  0
BLOCK_RECORD
  5
4D
100
AcDbSymbolTableRecord
100
AcDbBlockTableRecord
  2
*D49
340
0
  0
BLOCK_RECORD
  5
4E
100
AcDbSymbolTableRecord
100
AcDbBlockTableRecord
  2
*D50
340
0
  0
BLOCK_RECORD
  5
4F
100
AcDbSymbolTableRecord
100
AcDbBlockTableRecord
  2
*D51
340
0
  0
BLOCK_RECORD
  5
50
100
AcDbSymbolTableRecord
100
AcDbBlockTableRecord
  2
*D52
340
0
  0
BLOCK_RECORD
  5
51
100
AcDbSymbolTableRecord
100
AcDbBlockTableRecord
  2
*D53
340
0
  0
BLOCK_RECORD
  5
52
100
AcDbSymbolTableRecord
100
AcDbBlockTableRecord
  2
*D54
340
0
  0
BLOCK_RECORD
  5
53
100
AcDbSymbolTableRecord
100
AcDbBlockTableRecord
  2
*D55
340
0
  0
BLOCK_RECORD
  5
54
100
AcDbSymbolTableRecord
100
AcDbBlockTableRecord
  2
*D56
340
0
  0
BLOCK_RECORD
  5
55
100
AcDbSymbolTableRecord
100
AcDbBlockTableRecord
  2
*D57
340
0
  0
BLOCK_RECORD
  5
56
100
AcDbSymbolTableRecord
100
AcDbBlockTableRecord
  2
*D58
340
0
  0
BLOCK_RECORD
  5
57
100
AcDbSymbolTableRecord
100
AcDbBlockTableRecord
  2
*D59
340
0
  0
BLOCK_RECORD
  5
58
100
AcDbSymbolTableRecord
100
AcDbBlockTableRecord
  2
*D60
340
0
  0
BLOCK_RECORD
  5
59
100
AcDbSymbolTableRecord
100
AcDbBlockTableRecord
  2
*D61
340
0
  0
BLOCK_RECORD
  5
5A
100
AcDbSymbolTableRecord
100
AcDbBlockTableRecord
  2
*D62
340
0
  0
BLOCK_RECORD
  5
5B
100
AcDbSymbolTableRecord
100
AcDbBlockTableRecord
  2
*D63
340
0
  0
ENDTAB
  0
ENDSEC
  0
SECTION
  2
BLOCKS
  0
BLOCK
  5
5F
100
AcDbEntity
  8
0
390
0
100
AcDbBlockBegin
  2
*Model_Space
 70
     0
 10
0.0
 20
0.0
 30
0.0
  3
*Model_Space
  1

  0
ENDBLK
  5
60
100
AcDbEntity
  8
0
390
0
100
AcDbBlockEnd
  0
BLOCK
  5
61
100
AcDbEntity
 67
     1
  8
0
390
0
100
AcDbBlockBegin
  2
*Paper_Space
 70
     0
 10
0.0
 20
0.0
 30
0.0
  3
*Paper_Space
  1

  0
ENDBLK
  5
62
100
AcDbEntity
 67
     1
  8
0
390
0
100
AcDbBlockEnd
  0
BLOCK
  5
682
100
AcDbEntity
  8
2
100
AcDbBlockBegin
  2
*D0
 70
     1
 10
0.0
 20
0.0
 30
0.0
  3
*D0
  1

  0
TEXT
  5
683
100
AcDbEntity
  8
2
370
    25
100
AcDbText
 10
-721.180402
 20
80.59992
 30
0.0
 40
6.0
  1
２２
 72
     5
 11
-710.380402
 21
80.59992
 31
0.0
100
AcDbText
  0
LINE
  5
684
100
AcDbEntity
  8
2
370
    25
100
AcDbLine
 10
-726.180402
 20
53.382254
 30
0.0
 11
-726.180402
 21
81.59992
 31
0.0
  0
LINE
  5
685
100
AcDbEntity
  8
2
370
    25
100
AcDbLine
 10
-726.180402
 20
79.59992
 30
0.0
 11
-722.316698
 21
78.564643
 31
0.0
  0
LINE
  5
686
100
AcDbEntity
  8
2
370
    25
100
AcDbLine
 10
-726.180402
 20
79.59992
 30
0.0
 11
-722.316698
 21
80.635196
 31
0.0
  0
LINE
  5
687
100
AcDbEntity
  8
2
370
    25
100
AcDbLine
 10
-726.180402
 20
79.59992
 30
0.0
 11
-704.180402
 21
79.59992
 31
0.0
  0
LINE
  5
688
100
AcDbEntity
  8
2
370
    25
100
AcDbLine
 10
-704.180402
 20
79.59992
 30
0.0
 11
-708.044105
 21
80.635196
 31
0.0
  0
LINE
  5
689
100
AcDbEntity
  8
2
370
    25
100
AcDbLine
 10
-704.180402
 20
79.59992
 30
0.0
 11
-708.044105
 21
78.564643
 31
0.0
  0
LINE
  5
68A
100
AcDbEntity
  8
2
370
    25
100
AcDbLine
 10
-704.180402
 20
53.382254
 30
0.0
 11
-704.180402
 21
81.59992
 31
0.0
  0
ENDBLK
  5
68B
100
AcDbEntity
  8
2
100
AcDbBlockEnd
  0
BLOCK
  5
68C
100
AcDbEntity
  8
2
100
AcDbBlockBegin
  2
*D1
 70
     1
 10
0.0
 20
0.0
 30
0.0
  3
*D1
  1

  0
TEXT
  5
68D
100
AcDbEntity
  8
2
370
    25
100
AcDbText
 10
-758.164337
 20
51.182254
 30
0.0
 40
6.0
  1
４．３
 50
90.0
 72
     5
 11
-758.164337
 21
67.982254
 31
0.0
100
AcDbText
  0
LINE
  5
68E
100
AcDbEntity
  8
2
370
    25
100
AcDbLine
 10
-723.880971
 20
42.882254
 30
0.0
 11
-759.164337
 21
42.882254
 31
0.0
  0
LINE
  5
68F
100
AcDbEntity
  8
2
370
    25
100
AcDbLine
 10
-757.164337
 20
42.882254
 30
0.0
 11
-758.199613
 21
39.018551
 31
0.0
  0
LINE
  5
690
100
AcDbEntity
  8
2
370
    25
100
AcDbLine
 10
-757.164337
 20
42.882254
 30
0.0
 11
-756.129061
 21
39.018551
 31
0.0
  0
LINE
  5
691
100
AcDbEntity
  8
2
370
    25
100
AcDbLine
 10
-757.164337
 20
32.882254
 30
0.0
 11
-757.164337
 21
71.182254
 31
0.0
  0
LINE
  5
692
100
AcDbEntity
  8
2
370
    25
100
AcDbLine
 10
-757.164337
 20
47.182254
 30
0.0
 11
-756.129061
 21
51.045958
 31
0.0
  0
LINE
  5
693
100
AcDbEntity
  8
2
370
    25
100
AcDbLine
 10
-757.164337
 20
47.182254
 30
0.0
 11
-758.199613
 21
51.045958
 31
0.0
  0
LINE
  5
694
100
AcDbEntity
  8
2
370
    25
100
AcDbLine
 10
-740.680402
 20
47.182254
 30
0.0
 11
-759.164337
 21
47.182254
 31
0.0
  0
ENDBLK
  5
695
100
AcDbEntity
  8
2
100
AcDbBlockEnd
  0
BLOCK
  5
696
100
AcDbEntity
  8
2
100
AcDbBlockBegin
  2
*D2
 70
     1
 10
0.0
 20
0.0
 30
0.0
  3
*D2
  1

  0
TEXT
  5
697
100
AcDbEntity
  8
2
370
    25
100
AcDbText
 10
-747.144745
 20
51.182254
 30
0.0
 40
6.0
  1
１．３
 50
90.0
 72
     5
 11
-747.144745
 21
67.982254
 31
0.0
100
AcDbText
  0
LINE
  5
698
100
AcDbEntity
  8
2
370
    25
100
AcDbLine
 10
-733.680402
 20
45.882254
 30
0.0
 11
-748.144745
 21
45.882254
 31
0.0
  0
LINE
  5
699
100
AcDbEntity
  8
2
370
    25
100
AcDbLine
 10
-746.144745
 20
45.882254
 30
0.0
 11
-747.180021
 21
42.018551
 31
0.0
  0
LINE
  5
69A
100
AcDbEntity
  8
2
370
    25
100
AcDbLine
 10
-746.144745
 20
45.882254
 30
0.0
 11
-745.109469
 21
42.018551
 31
0.0
  0
LINE
  5
69B
100
AcDbEntity
  8
2
370
    25
100
AcDbLine
 10
-746.144745
 20
35.882254
 30
0.0
 11
-746.144745
 21
71.182254
 31
0.0
  0
LINE
  5
69C
100
AcDbEntity
  8
2
370
    25
100
AcDbLine
 10
-746.144745
 20
47.182254
 30
0.0
 11
-745.109469
 21
51.045958
 31
0.0
  0
LINE
  5
69D
100
AcDbEntity
  8
2
370
    25
100
AcDbLine
 10
-746.144745
 20
47.182254
 30
0.0
 11
-747.180021
 21
51.045958
 31
0.0
  0
LINE
  5
69E
100
AcDbEntity
  8
2
370
    25
100
AcDbLine
 10
-740.680402
 20
47.182254
 30
0.0
 11
-748.144745
 21
47.182254
 31
0.0
  0
ENDBLK
  5
69F
100
AcDbEntity
  8
2
100
AcDbBlockEnd
  0
BLOCK
  5
6A0
100
AcDbEntity
  8
2
100
AcDbBlockBegin
  2
*D3
 70
     1
 10
0.0
 20
0.0
 30
0.0
  3
*D3
  1

  0
TEXT
  5
6A1
100
AcDbEntity
  8
2
370
    25
100
AcDbText
 10
-721.180402
 20
10.491536
 30
0.0
 40
6.0
  1
１３
 72
     5
 11
-710.380402
 21
10.491536
 31
0.0
100
AcDbText
  0
LINE
  5
6A2
100
AcDbEntity
  8
2
370
    25
100
AcDbLine
 10
-721.680402
 20
41.882254
 30
0.0
 11
-721.680402
 21
7.491536
 31
0.0
  0
LINE
  5
6A3
100
AcDbEntity
  8
2
370
    25
100
AcDbLine
 10
-721.680402
 20
9.491536
 30
0.0
 11
-717.816698
 21
8.45626
 31
0.0
  0
LINE
  5
6A4
100
AcDbEntity
  8
2
370
    25
100
AcDbLine
 10
-721.680402
 20
9.491536
 30
0.0
 11
-717.816698
 21
10.526813
 31
0.0
  0
LINE
  5
6A5
100
AcDbEntity
  8
2
370
    25
100
AcDbLine
 10
-721.680402
 20
9.491536
 30
0.0
 11
-708.680402
 21
9.491536
 31
0.0
  0
LINE
  5
6A6
100
AcDbEntity
  8
2
370
    25
100
AcDbLine
 10
-708.680402
 20
9.491536
 30
0.0
 11
-712.544105
 21
10.526813
 31
0.0
  0
LINE
  5
6A7
100
AcDbEntity
  8
2
370
    25
100
AcDbLine
 10
-708.680402
 20
9.491536
 30
0.0
 11
-712.544105
 21
8.45626
 31
0.0
  0
LINE
  5
6A8
100
AcDbEntity
  8
2
370
    25
100
AcDbLine
 10
-708.680402
 20
41.882254
 30
0.0
 11
-708.680402
 21
7.491536
 31
0.0
  0
ENDBLK
  5
6A9
100
AcDbEntity
  8
2
100
AcDbBlockEnd
  0
BLOCK
  5
6AA
100
AcDbEntity
  8
2
100
AcDbBlockBegin
  2
*D4
 70
     1
 10
0.0
 20
0.0
 30
0.0
  3
*D4
  1

  0
TEXT
  5
6AB
100
AcDbEntity
  8
2
370
    25
100
AcDbText
 10
-584.405824
 20
97.348598
 30
0.0
 40
6.0
  1
２５
 72
     5
 11
-573.605824
 21
97.348598
 31
0.0
100
AcDbText
  0
LINE
  5
6AC
100
AcDbEntity
  8
2
370
    25
100
AcDbLine
 10
-590.905824
 20
77.182254
 30
0.0
 11
-590.905824
 21
98.348598
 31
0.0
  0
LINE
  5
6AD
100
AcDbEntity
  8
2
370
    25
100
AcDbLine
 10
-590.905824
 20
96.348598
 30
0.0
 11
-587.04212
 21
95.313322
 31
0.0
  0
LINE
  5
6AE
100
AcDbEntity
  8
2
370
    25
100
AcDbLine
 10
-590.905824
 20
96.348598
 30
0.0
 11
-587.04212
 21
97.383874
 31
0.0
  0
LINE
  5
6AF
100
AcDbEntity
  8
2
370
    25
100
AcDbLine
 10
-590.905824
 20
96.348598
 30
0.0
 11
-565.905824
 21
96.348598
 31
0.0
  0
LINE
  5
6B0
100
AcDbEntity
  8
2
370
    25
100
AcDbLine
 10
-565.905824
 20
96.348598
 30
0.0
 11
-569.769527
 21
97.383874
 31
0.0
  0
LINE
  5
6B1
100
AcDbEntity
  8
2
370
    25
100
AcDbLine
 10
-565.905824
 20
96.348598
 30
0.0
 11
-569.769527
 21
95.313322
 31
0.0
  0
LINE
  5
6B2
100
AcDbEntity
  8
2
370
    25
100
AcDbLine
 10
-565.905824
 20
77.182254
 30
0.0
 11
-565.905824
 21
98.348598
 31
0.0
  0
ENDBLK
  5
6B3
100
AcDbEntity
  8
2
100
AcDbBlockEnd
  0
BLOCK
  5
6B4
100
AcDbEntity
  8
2
100
AcDbBlockBegin
  2
*D5
 70
     1
 10
0.0
 20
0.0
 30
0.0
  3
*D5
  1

  0
TEXT
  5
6B5
100
AcDbEntity
  8
2
370
    25
100
AcDbText
 10
-609.405824
 20
97.348598
 30
0.0
 40
6.0
  1
１０
 72
     5
 11
-598.605824
 21
97.348598
 31
0.0
100
AcDbText
  0
LINE
  5
6B6
100
AcDbEntity
  8
2
370
    25
100
AcDbLine
 10
-608.405824
 20
67.731005
 30
0.0
 11
-608.405824
 21
98.348598
 31
0.0
  0
LINE
  5
6B7
100
AcDbEntity
  8
2
370
    25
100
AcDbLine
 10
-608.405824
 20
96.348598
 30
0.0
 11
-604.54212
 21
95.313322
 31
0.0
  0
LINE
  5
6B8
100
AcDbEntity
  8
2
370
    25
100
AcDbLine
 10
-608.405824
 20
96.348598
 30
0.0
 11
-604.54212
 21
97.383874
 31
0.0
  0
LINE
  5
6B9
100
AcDbEntity
  8
2
370
    25
100
AcDbLine
 10
-608.405824
 20
96.348598
 30
0.0
 11
-598.405824
 21
96.348598
 31
0.0
  0
LINE
  5
6BA
100
AcDbEntity
  8
2
370
    25
100
AcDbLine
 10
-598.405824
 20
96.348598
 30
0.0
 11
-602.269527
 21
97.383874
 31
0.0
  0
LINE
  5
6BB
100
AcDbEntity
  8
2
370
    25
100
AcDbLine
 10
-598.405824
 20
96.348598
 30
0.0
 11
-602.269527
 21
95.313322
 31
0.0
  0
LINE
  5
6BC
100
AcDbEntity
  8
2
370
    25
100
AcDbLine
 10
-598.405824
 20
69.182254
 30
0.0
 11
-598.405824
 21
98.348598
 31
0.0
  0
ENDBLK
  5
6BD
100
AcDbEntity
  8
2
100
AcDbBlockEnd
  0
BLOCK
  5
6BE
100
AcDbEntity
  8
2
100
AcDbBlockBegin
  2
*D6
 70
     1
 10
0.0
 20
0.0
 30
0.0
  3
*D6
  1

  0
TEXT
  5
6BF
100
AcDbEntity
  8
2
370
    25
100
AcDbText
 10
-624.155824
 20
109.126016
 30
0.0
 40
6.0
  1
２７．５
 72
     5
 11
-601.355824
 21
109.126016
 31
0.0
100
AcDbText
  0
LINE
  5
6C0
100
AcDbEntity
  8
2
370
    25
100
AcDbLine
 10
-625.905824
 20
43.882254
 30
0.0
 11
-625.905824
 21
110.126016
 31
0.0
  0
LINE
  5
6C1
100
AcDbEntity
  8
2
370
    25
100
AcDbLine
 10
-625.905824
 20
108.126016
 30
0.0
 11
-622.04212
 21
107.09074
 31
0.0
  0
LINE
  5
6C2
100
AcDbEntity
  8
2
370
    25
100
AcDbLine
 10
-625.905824
 20
108.126016
 30
0.0
 11
-622.04212
 21
109.161292
 31
0.0
  0
LINE
  5
6C3
100
AcDbEntity
  8
2
370
    25
100
AcDbLine
 10
-625.905824
 20
108.126016
 30
0.0
 11
-598.405824
 21
108.126016
 31
0.0
  0
LINE
  5
6C4
100
AcDbEntity
  8
2
370
    25
100
AcDbLine
 10
-598.405824
 20
108.126016
 30
0.0
 11
-602.269527
 21
109.161292
 31
0.0
  0
LINE
  5
6C5
100
AcDbEntity
  8
2
370
    25
100
AcDbLine
 10
-598.405824
 20
108.126016
 30
0.0
 11
-602.269527
 21
107.09074
 31
0.0
  0
LINE
  5
6C6
100
AcDbEntity
  8
2
370
    25
100
AcDbLine
 10
-598.405824
 20
69.182254
 30
0.0
 11
-598.405824
 21
110.126016
 31
0.0
  0
ENDBLK
  5
6C7
100
AcDbEntity
  8
2
100
AcDbBlockEnd
  0
BLOCK
  5
6C8
100
AcDbEntity
  8
2
100
AcDbBlockBegin
  2
*D7
 70
     1
 10
0.0
 20
0.0
 30
0.0
  3
*D7
  1

  0
TEXT
  5
6C9
100
AcDbEntity
  8
2
370
    25
100
AcDbText
 10
-559.405824
 20
97.348598
 30
0.0
 40
6.0
  1
１０
 72
     5
 11
-548.605824
 21
97.348598
 31
0.0
100
AcDbText
  0
LINE
  5
6CA
100
AcDbEntity
  8
2
370
    25
100
AcDbLine
 10
-558.405824
 20
69.182254
 30
0.0
 11
-558.405824
 21
98.348598
 31
0.0
  0
LINE
  5
6CB
100
AcDbEntity
  8
2
370
    25
100
AcDbLine
 10
-558.405824
 20
96.348598
 30
0.0
 11
-554.54212
 21
95.313322
 31
0.0
  0
LINE
  5
6CC
100
AcDbEntity
  8
2
370
    25
100
AcDbLine
 10
-558.405824
 20
96.348598
 30
0.0
 11
-554.54212
 21
97.383874
 31
0.0
  0
LINE
  5
6CD
100
AcDbEntity
  8
2
370
    25
100
AcDbLine
 10
-558.405824
 20
96.348598
 30
0.0
 11
-548.405824
 21
96.348598
 31
0.0
  0
LINE
  5
6CE
100
AcDbEntity
  8
2
370
    25
100
AcDbLine
 10
-548.405824
 20
96.348598
 30
0.0
 11
-552.269527
 21
97.383874
 31
0.0
  0
LINE
  5
6CF
100
AcDbEntity
  8
2
370
    25
100
AcDbLine
 10
-548.405824
 20
96.348598
 30
0.0
 11
-552.269527
 21
95.313322
 31
0.0
  0
LINE
  5
6D0
100
AcDbEntity
  8
2
370
    25
100
AcDbLine
 10
-548.405824
 20
67.731005
 30
0.0
 11
-548.405824
 21
98.348598
 31
0.0
  0
ENDBLK
  5
6D1
100
AcDbEntity
  8
2
100
AcDbBlockEnd
  0
BLOCK
  5
6D2
100
AcDbEntity
  8
2
100
AcDbBlockBegin
  2
*D8
 70
     1
 10
0.0
 20
0.0
 30
0.0
  3
*D8
  1

  0
TEXT
  5
6D3
100
AcDbEntity
  8
2
370
    25
100
AcDbText
 10
-556.655824
 20
109.126016
 30
0.0
 40
6.0
  1
２７．５
 72
     5
 11
-533.855824
 21
109.126016
 31
0.0
100
AcDbText
  0
LINE
  5
6D4
100
AcDbEntity
  8
2
370
    25
100
AcDbLine
 10
-558.405824
 20
69.182254
 30
0.0
 11
-558.405824
 21
110.126016
 31
0.0
  0
LINE
  5
6D5
100
AcDbEntity
  8
2
370
    25
100
AcDbLine
 10
-558.405824
 20
108.126016
 30
0.0
 11
-554.54212
 21
107.09074
 31
0.0
  0
LINE
  5
6D6
100
AcDbEntity
  8
2
370
    25
100
AcDbLine
 10
-558.405824
 20
108.126016
 30
0.0
 11
-554.54212
 21
109.161292
 31
0.0
  0
LINE
  5
6D7
100
AcDbEntity
  8
2
370
    25
100
AcDbLine
 10
-558.405824
 20
108.126016
 30
0.0
 11
-530.905824
 21
108.126016
 31
0.0
  0
LINE
  5
6D8
100
AcDbEntity
  8
2
370
    25
100
AcDbLine
 10
-530.905824
 20
108.126016
 30
0.0
 11
-534.769527
 21
109.161292
 31
0.0
  0
LINE
  5
6D9
100
AcDbEntity
  8
2
370
    25
100
AcDbLine
 10
-530.905824
 20
108.126016
 30
0.0
 11
-534.769527
 21
107.09074
 31
0.0
  0
LINE
  5
6DA
100
AcDbEntity
  8
2
370
    25
100
AcDbLine
 10
-530.905824
 20
43.882254
 30
0.0
 11
-530.905824
 21
110.126016
 31
0.0
  0
ENDBLK
  5
6DB
100
AcDbEntity
  8
2
100
AcDbBlockEnd
  0
BLOCK
  5
6DC
100
AcDbEntity
  8
2
100
AcDbBlockBegin
  2
*D9
 70
     1
 10
0.0
 20
0.0
 30
0.0
  3
*D9
  1

  0
LINE
  5
6DD
100
AcDbEntity
  8
2
370
    25
100
AcDbLine
 10
-598.405824
 20
69.182254
 30
0.0
 11
-598.405824
 21
110.126016
 31
0.0
  0
LINE
  5
6DE
100
AcDbEntity
  8
2
370
    25
100
AcDbLine
 10
-598.405824
 20
108.126016
 30
0.0
 11
-594.54212
 21
107.09074
 31
0.0
  0
LINE
  5
6DF
100
AcDbEntity
  8
2
370
    25
100
AcDbLine
 10
-598.405824
 20
108.126016
 30
0.0
 11
-594.54212
 21
109.161292
 31
0.0
  0
LINE
  5
6E0
100
AcDbEntity
  8
2
370
    25
100
AcDbLine
 10
-598.405824
 20
108.126016
 30
0.0
 11
-558.405824
 21
108.126016
 31
0.0
  0
LINE
  5
6E1
100
AcDbEntity
  8
2
370
    25
100
AcDbLine
 10
-558.405824
 20
108.126016
 30
0.0
 11
-562.269527
 21
109.161292
 31
0.0
  0
LINE
  5
6E2
100
AcDbEntity
  8
2
370
    25
100
AcDbLine
 10
-558.405824
 20
108.126016
 30
0.0
 11
-562.269527
 21
107.09074
 31
0.0
  0
LINE
  5
6E3
100
AcDbEntity
  8
2
370
    25
100
AcDbLine
 10
-558.405824
 20
69.182254
 30
0.0
 11
-558.405824
 21
110.126016
 31
0.0
  0
ENDBLK
  5
6E4
100
AcDbEntity
  8
2
100
AcDbBlockEnd
  0
BLOCK
  5
6E5
100
AcDbEntity
  8
2
100
AcDbBlockBegin
  2
*D10
 70
     1
 10
0.0
 20
0.0
 30
0.0
  3
*D10
  1

  0
TEXT
  5
6E6
100
AcDbEntity
  8
2
370
    25
100
AcDbText
 10
-635.976334
 20
36.882254
 30
0.0
 40
6.0
  1
２８
 50
90.0
 72
     5
 11
-635.976334
 21
47.682254
 31
0.0
100
AcDbText
  0
LINE
  5
6E7
100
AcDbEntity
  8
2
370
    25
100
AcDbLine
 10
-609.905824
 20
28.882254
 30
0.0
 11
-636.976334
 21
28.882254
 31
0.0
  0
LINE
  5
6E8
100
AcDbEntity
  8
2
370
    25
100
AcDbLine
 10
-634.976334
 20
28.882254
 30
0.0
 11
-633.941057
 21
32.745958
 31
0.0
  0
LINE
  5
6E9
100
AcDbEntity
  8
2
370
    25
100
AcDbLine
 10
-634.976334
 20
28.882254
 30
0.0
 11
-636.01161
 21
32.745958
 31
0.0
  0
LINE
  5
6EA
100
AcDbEntity
  8
2
370
    25
100
AcDbLine
 10
-634.976334
 20
28.882254
 30
0.0
 11
-634.976334
 21
56.882254
 31
0.0
  0
LINE
  5
6EB
100
AcDbEntity
  8
2
370
    25
100
AcDbLine
 10
-634.976334
 20
56.882254
 30
0.0
 11
-636.01161
 21
53.018551
 31
0.0
  0
LINE
  5
6EC
100
AcDbEntity
  8
2
370
    25
100
AcDbLine
 10
-634.976334
 20
56.882254
 30
0.0
 11
-633.941057
 21
53.018551
 31
0.0
  0
LINE
  5
6ED
100
AcDbEntity
  8
2
370
    25
100
AcDbLine
 10
-609.905824
 20
56.882254
 30
0.0
 11
-636.976334
 21
56.882254
 31
0.0
  0
ENDBLK
  5
6EE
100
AcDbEntity
  8
2
100
AcDbBlockEnd
  0
BLOCK
  5
6EF
100
AcDbEntity
  8
2
100
AcDbBlockBegin
  2
*D11
 70
     1
 10
0.0
 20
0.0
 30
0.0
  3
*D11
  1

  0
TEXT
  5
6F0
100
AcDbEntity
  8
2
370
    25
100
AcDbText
 10
-645.927994
 20
38.182254
 30
0.0
 40
6.0
  1
φ４２
 50
90.0
 72
     5
 11
-645.927994
 21
54.982254
 31
0.0
100
AcDbText
  0
LINE
  5
6F1
100
AcDbEntity
  8
2
370
    25
100
AcDbLine
 10
-599.405824
 20
26.182254
 30
0.0
 11
-646.927994
 21
26.182254
 31
0.0
  0
LINE
  5
6F2
100
AcDbEntity
  8
2
370
    25
100
AcDbLine
 10
-644.927994
 20
26.182254
 30
0.0
 11
-643.892718
 21
30.045958
 31
0.0
  0
LINE
  5
6F3
100
AcDbEntity
  8
2
370
    25
100
AcDbLine
 10
-644.927994
 20
26.182254
 30
0.0
 11
-645.96327
 21
30.045958
 31
0.0
  0
LINE
  5
6F4
100
AcDbEntity
  8
2
370
    25
100
AcDbLine
 10
-644.927994
 20
26.182254
 30
0.0
 11
-644.927994
 21
68.182254
 31
0.0
  0
LINE
  5
6F5
100
AcDbEntity
  8
2
370
    25
100
AcDbLine
 10
-644.927994
 20
68.182254
 30
0.0
 11
-645.96327
 21
64.318551
 31
0.0
  0
LINE
  5
6F6
100
AcDbEntity
  8
2
370
    25
100
AcDbLine
 10
-644.927994
 20
68.182254
 30
0.0
 11
-643.892718
 21
64.318551
 31
0.0
  0
LINE
  5
6F7
100
AcDbEntity
  8
2
370
    25
100
AcDbLine
 10
-599.405824
 20
68.182254
 30
0.0
 11
-646.927994
 21
68.182254
 31
0.0
  0
ENDBLK
  5
6F8
100
AcDbEntity
  8
2
100
AcDbBlockEnd
  0
BLOCK
  5
6F9
100
AcDbEntity
  8
2
100
AcDbBlockBegin
  2
*D12
 70
     1
 10
0.0
 20
0.0
 30
0.0
  3
*D12
  1

  0
TEXT
  5
6FA
100
AcDbEntity
  8
2
370
    25
100
AcDbText
 10
-517.079598
 20
36.882254
 30
0.0
 40
6.0
  1
２８
 50
90.0
 72
     5
 11
-517.079598
 21
47.682254
 31
0.0
100
AcDbText
  0
LINE
  5
6FB
100
AcDbEntity
  8
2
370
    25
100
AcDbLine
 10
-546.905824
 20
28.882254
 30
0.0
 11
-514.079597
 21
28.882254
 31
0.0
  0
LINE
  5
6FC
100
AcDbEntity
  8
2
370
    25
100
AcDbLine
 10
-516.079597
 20
28.882254
 30
0.0
 11
-515.044321
 21
32.745958
 31
0.0
  0
LINE
  5
6FD
100
AcDbEntity
  8
2
370
    25
100
AcDbLine
 10
-516.079597
 20
28.882254
 30
0.0
 11
-517.114874
 21
32.745958
 31
0.0
  0
LINE
  5
6FE
100
AcDbEntity
  8
2
370
    25
100
AcDbLine
 10
-516.079597
 20
28.882254
 30
0.0
 11
-516.079597
 21
56.882254
 31
0.0
  0
LINE
  5
6FF
100
AcDbEntity
  8
2
370
    25
100
AcDbLine
 10
-516.079597
 20
56.882254
 30
0.0
 11
-517.114874
 21
53.018551
 31
0.0
  0
LINE
  5
700
100
AcDbEntity
  8
2
370
    25
100
AcDbLine
 10
-516.079597
 20
56.882254
 30
0.0
 11
-515.044321
 21
53.018551
 31
0.0
  0
LINE
  5
701
100
AcDbEntity
  8
2
370
    25
100
AcDbLine
 10
-546.905824
 20
56.882254
 30
0.0
 11
-514.079597
 21
56.882254
 31
0.0
  0
ENDBLK
  5
702
100
AcDbEntity
  8
2
100
AcDbBlockEnd
  0
BLOCK
  5
703
100
AcDbEntity
  8
2
100
AcDbBlockBegin
  2
*D13
 70
     1
 10
0.0
 20
0.0
 30
0.0
  3
*D13
  1

  0
TEXT
  5
704
100
AcDbEntity
  8
2
370
    25
100
AcDbText
 10
-506.430298
 20
38.182254
 30
0.0
 40
6.0
  1
φ４２
 50
90.0
 72
     5
 11
-506.430298
 21
54.982254
 31
0.0
100
AcDbText
  0
LINE
  5
705
100
AcDbEntity
  8
2
370
    25
100
AcDbLine
 10
-557.405824
 20
26.182254
 30
0.0
 11
-503.430298
 21
26.182254
 31
0.0
  0
LINE
  5
706
100
AcDbEntity
  8
2
370
    25
100
AcDbLine
 10
-505.430298
 20
26.182254
 30
0.0
 11
-504.395022
 21
30.045958
 31
0.0
  0
LINE
  5
707
100
AcDbEntity
  8
2
370
    25
100
AcDbLine
 10
-505.430298
 20
26.182254
 30
0.0
 11
-506.465574
 21
30.045958
 31
0.0
  0
LINE
  5
708
100
AcDbEntity
  8
2
370
    25
100
AcDbLine
 10
-505.430298
 20
26.182254
 30
0.0
 11
-505.430298
 21
68.182254
 31
0.0
  0
LINE
  5
709
100
AcDbEntity
  8
2
370
    25
100
AcDbLine
 10
-505.430298
 20
68.182254
 30
0.0
 11
-506.465574
 21
64.318551
 31
0.0
  0
LINE
  5
70A
100
AcDbEntity
  8
2
370
    25
100
AcDbLine
 10
-505.430298
 20
68.182254
 30
0.0
 11
-504.395022
 21
64.318551
 31
0.0
  0
LINE
  5
70B
100
AcDbEntity
  8
2
370
    25
100
AcDbLine
 10
-557.405824
 20
68.182254
 30
0.0
 11
-503.430298
 21
68.182254
 31
0.0
  0
ENDBLK
  5
70C
100
AcDbEntity
  8
2
100
AcDbBlockEnd
  0
BLOCK
  5
70D
100
AcDbEntity
  8
2
100
AcDbBlockBegin
  2
*D14
 70
     1
 10
0.0
 20
0.0
 30
0.0
  3
*D14
  1

  0
TEXT
  5
70E
100
AcDbEntity
  8
2
370
    25
100
AcDbText
 10
-444.750477
 20
35.182254
 30
0.0
 40
6.0
  1
１９．４
 50
90.0
 72
     5
 11
-444.750477
 21
57.982254
 31
0.0
100
AcDbText
  0
LINE
  5
70F
100
AcDbEntity
  8
2
370
    25
100
AcDbLine
 10
-430.812143
 20
37.482254
 30
0.0
 11
-445.750477
 21
37.482254
 31
0.0
  0
LINE
  5
710
100
AcDbEntity
  8
2
370
    25
100
AcDbLine
 10
-443.750477
 20
37.482254
 30
0.0
 11
-442.715201
 21
41.345958
 31
0.0
  0
LINE
  5
711
100
AcDbEntity
  8
2
370
    25
100
AcDbLine
 10
-443.750477
 20
37.482254
 30
0.0
 11
-444.785753
 21
41.345958
 31
0.0
  0
LINE
  5
712
100
AcDbEntity
  8
2
370
    25
100
AcDbLine
 10
-443.750477
 20
37.482254
 30
0.0
 11
-443.750477
 21
56.882254
 31
0.0
  0
LINE
  5
713
100
AcDbEntity
  8
2
370
    25
100
AcDbLine
 10
-443.750477
 20
56.882254
 30
0.0
 11
-444.785753
 21
53.018551
 31
0.0
  0
LINE
  5
714
100
AcDbEntity
  8
2
370
    25
100
AcDbLine
 10
-443.750477
 20
56.882254
 30
0.0
 11
-442.715201
 21
53.018551
 31
0.0
  0
LINE
  5
715
100
AcDbEntity
  8
2
370
    25
100
AcDbLine
 10
-430.812143
 20
56.882254
 30
0.0
 11
-445.750477
 21
56.882254
 31
0.0
  0
ENDBLK
  5
716
100
AcDbEntity
  8
2
100
AcDbBlockEnd
  0
BLOCK
  5
717
100
AcDbEntity
  8
2
100
AcDbBlockBegin
  2
*D15
 70
     1
 10
0.0
 20
0.0
 30
0.0
  3
*D15
  1

  0
TEXT
  5
718
100
AcDbEntity
  8
2
370
    25
100
AcDbText
 10
-455.547691
 20
41.182254
 30
0.0
 40
6.0
  1
４３
 50
90.0
 72
     5
 11
-455.547691
 21
51.982254
 31
0.0
100
AcDbText
  0
LINE
  5
719
100
AcDbEntity
  8
2
370
    25
100
AcDbLine
 10
-418.497701
 20
25.682254
 30
0.0
 11
-456.547691
 21
25.682254
 31
0.0
  0
LINE
  5
71A
100
AcDbEntity
  8
2
370
    25
100
AcDbLine
 10
-454.547691
 20
25.682254
 30
0.0
 11
-453.512415
 21
29.545958
 31
0.0
  0
LINE
  5
71B
100
AcDbEntity
  8
2
370
    25
100
AcDbLine
 10
-454.547691
 20
25.682254
 30
0.0
 11
-455.582968
 21
29.545958
 31
0.0
  0
LINE
  5
71C
100
AcDbEntity
  8
2
370
    25
100
AcDbLine
 10
-454.547691
 20
25.682254
 30
0.0
 11
-454.547691
 21
68.682254
 31
0.0
  0
LINE
  5
71D
100
AcDbEntity
  8
2
370
    25
100
AcDbLine
 10
-454.547691
 20
68.682254
 30
0.0
 11
-455.582968
 21
64.818551
 31
0.0
  0
LINE
  5
71E
100
AcDbEntity
  8
2
370
    25
100
AcDbLine
 10
-454.547691
 20
68.682254
 30
0.0
 11
-453.512415
 21
64.818551
 31
0.0
  0
LINE
  5
71F
100
AcDbEntity
  8
2
370
    25
100
AcDbLine
 10
-417.754941
 20
68.682254
 30
0.0
 11
-456.547691
 21
68.682254
 31
0.0
  0
ENDBLK
  5
720
100
AcDbEntity
  8
2
100
AcDbBlockEnd
  0
BLOCK
  5
721
100
AcDbEntity
  8
2
100
AcDbBlockBegin
  2
*D16
 70
     1
 10
0.0
 20
0.0
 30
0.0
  3
*D16
  1

  0
TEXT
  5
722
100
AcDbEntity
  8
2
370
    25
100
AcDbText
 10
-466.369797
 20
41.182254
 30
0.0
 40
6.0
  1
７０
 50
90.0
 72
     5
 11
-466.369797
 21
51.982254
 31
0.0
100
AcDbText
  0
LINE
  5
723
100
AcDbEntity
  8
2
370
    25
100
AcDbLine
 10
-416.012143
 20
12.182254
 30
0.0
 11
-467.369797
 21
12.182254
 31
0.0
  0
LINE
  5
724
100
AcDbEntity
  8
2
370
    25
100
AcDbLine
 10
-465.369797
 20
12.182254
 30
0.0
 11
-464.334521
 21
16.045958
 31
0.0
  0
LINE
  5
725
100
AcDbEntity
  8
2
370
    25
100
AcDbLine
 10
-465.369797
 20
12.182254
 30
0.0
 11
-466.405073
 21
16.045958
 31
0.0
  0
LINE
  5
726
100
AcDbEntity
  8
2
370
    25
100
AcDbLine
 10
-465.369797
 20
12.182254
 30
0.0
 11
-465.369797
 21
82.182254
 31
0.0
  0
LINE
  5
727
100
AcDbEntity
  8
2
370
    25
100
AcDbLine
 10
-465.369797
 20
82.182254
 30
0.0
 11
-466.405073
 21
78.318551
 31
0.0
  0
LINE
  5
728
100
AcDbEntity
  8
2
370
    25
100
AcDbLine
 10
-465.369797
 20
82.182254
 30
0.0
 11
-464.334521
 21
78.318551
 31
0.0
  0
LINE
  5
729
100
AcDbEntity
  8
2
370
    25
100
AcDbLine
 10
-416.012143
 20
82.182254
 30
0.0
 11
-467.369797
 21
82.182254
 31
0.0
  0
ENDBLK
  5
72A
100
AcDbEntity
  8
2
100
AcDbBlockEnd
  0
BLOCK
  5
72B
100
AcDbEntity
  8
2
100
AcDbBlockBegin
  2
*D17
 70
     1
 10
0.0
 20
0.0
 30
0.0
  3
*D17
  1

  0
TEXT
  5
72C
100
AcDbEntity
  8
2
370
    25
100
AcDbText
 10
-446.012143
 20
109.126016
 30
0.0
 40
6.0
  1
１５
 72
     5
 11
-435.212143
 21
109.126016
 31
0.0
100
AcDbText
  0
LINE
  5
72D
100
AcDbEntity
  8
2
370
    25
100
AcDbLine
 10
-430.012143
 20
57.682254
 30
0.0
 11
-430.012143
 21
110.126016
 31
0.0
  0
LINE
  5
72E
100
AcDbEntity
  8
2
370
    25
100
AcDbLine
 10
-430.012143
 20
108.126016
 30
0.0
 11
-433.875846
 21
109.161292
 31
0.0
  0
LINE
  5
72F
100
AcDbEntity
  8
2
370
    25
100
AcDbLine
 10
-430.012143
 20
108.126016
 30
0.0
 11
-433.875846
 21
107.09074
 31
0.0
  0
LINE
  5
730
100
AcDbEntity
  8
2
370
    25
100
AcDbLine
 10
-448.012143
 20
108.126016
 30
0.0
 11
-405.012143
 21
108.126016
 31
0.0
  0
LINE
  5
731
100
AcDbEntity
  8
2
370
    25
100
AcDbLine
 10
-415.012143
 20
108.126016
 30
0.0
 11
-411.14844
 21
107.09074
 31
0.0
  0
LINE
  5
732
100
AcDbEntity
  8
2
370
    25
100
AcDbLine
 10
-415.012143
 20
108.126016
 30
0.0
 11
-411.14844
 21
109.161292
 31
0.0
  0
LINE
  5
733
100
AcDbEntity
  8
2
370
    25
100
AcDbLine
 10
-415.012143
 20
83.182254
 30
0.0
 11
-415.012143
 21
110.126016
 31
0.0
  0
ENDBLK
  5
734
100
AcDbEntity
  8
2
100
AcDbBlockEnd
  0
BLOCK
  5
735
100
AcDbEntity
  8
2
100
AcDbBlockBegin
  2
*D18
 70
     1
 10
0.0
 20
0.0
 30
0.0
  3
*D18
  1

  0
TEXT
  5
736
100
AcDbEntity
  8
2
370
    25
100
AcDbText
 10
-383.012143
 20
120.03499
 30
0.0
 40
6.0
  1
７６
 72
     5
 11
-372.212143
 21
120.03499
 31
0.0
100
AcDbText
  0
LINE
  5
737
100
AcDbEntity
  8
2
370
    25
100
AcDbLine
 10
-415.012143
 20
83.182254
 30
0.0
 11
-415.012143
 21
121.03499
 31
0.0
  0
LINE
  5
738
100
AcDbEntity
  8
2
370
    25
100
AcDbLine
 10
-415.012143
 20
119.03499
 30
0.0
 11
-411.14844
 21
117.999713
 31
0.0
  0
LINE
  5
739
100
AcDbEntity
  8
2
370
    25
100
AcDbLine
 10
-415.012143
 20
119.03499
 30
0.0
 11
-411.14844
 21
120.070266
 31
0.0
  0
LINE
  5
73A
100
AcDbEntity
  8
2
370
    25
100
AcDbLine
 10
-415.012143
 20
119.03499
 30
0.0
 11
-339.012143
 21
119.03499
 31
0.0
  0
LINE
  5
73B
100
AcDbEntity
  8
2
370
    25
100
AcDbLine
 10
-339.012143
 20
119.03499
 30
0.0
 11
-342.875846
 21
120.070266
 31
0.0
  0
LINE
  5
73C
100
AcDbEntity
  8
2
370
    25
100
AcDbLine
 10
-339.012143
 20
119.03499
 30
0.0
 11
-342.875846
 21
117.999713
 31
0.0
  0
LINE
  5
73D
100
AcDbEntity
  8
2
370
    25
100
AcDbLine
 10
-339.012143
 20
55.682254
 30
0.0
 11
-339.012143
 21
121.03499
 31
0.0
  0
ENDBLK
  5
73E
100
AcDbEntity
  8
2
100
AcDbBlockEnd
  0
BLOCK
  5
73F
100
AcDbEntity
  8
2
100
AcDbBlockBegin
  2
*D19
 70
     1
 10
0.0
 20
0.0
 30
0.0
  3
*D19
  1

  0
LINE
  5
740
100
AcDbEntity
  8
2
370
    25
100
AcDbLine
 10
-415.012143
 20
83.182254
 30
0.0
 11
-415.012143
 21
110.126016
 31
0.0
  0
LINE
  5
741
100
AcDbEntity
  8
2
370
    25
100
AcDbLine
 10
-415.012143
 20
108.126016
 30
0.0
 11
-411.14844
 21
107.09074
 31
0.0
  0
LINE
  5
742
100
AcDbEntity
  8
2
370
    25
100
AcDbLine
 10
-415.012143
 20
108.126016
 30
0.0
 11
-411.14844
 21
109.161292
 31
0.0
  0
LINE
  5
743
100
AcDbEntity
  8
2
370
    25
100
AcDbLine
 10
-415.012143
 20
108.126016
 30
0.0
 11
-364.012143
 21
108.126016
 31
0.0
  0
LINE
  5
744
100
AcDbEntity
  8
2
370
    25
100
AcDbLine
 10
-364.012143
 20
108.126016
 30
0.0
 11
-367.875846
 21
109.161292
 31
0.0
  0
LINE
  5
745
100
AcDbEntity
  8
2
370
    25
100
AcDbLine
 10
-364.012143
 20
108.126016
 30
0.0
 11
-367.875846
 21
107.09074
 31
0.0
  0
LINE
  5
746
100
AcDbEntity
  8
2
370
    25
100
AcDbLine
 10
-364.012143
 20
73.432254
 30
0.0
 11
-364.012143
 21
110.126016
 31
0.0
  0
ENDBLK
  5
747
100
AcDbEntity
  8
2
100
AcDbBlockEnd
  0
BLOCK
  5
748
100
AcDbEntity
  8
2
100
AcDbBlockBegin
  2
*D20
 70
     1
 10
0.0
 20
0.0
 30
0.0
  3
*D20
  1

  0
TEXT
  5
749
100
AcDbEntity
  8
2
370
    25
100
AcDbText
 10
-613.155824
 20
-2.326696
 30
0.0
 40
6.0
  1
１３．５
 72
     5
 11
-590.355824
 21
-2.326696
 31
0.0
100
AcDbText
  0
LINE
  5
74A
100
AcDbEntity
  8
2
370
    25
100
AcDbLine
 10
-585.155824
 20
39.216086
 30
0.0
 11
-585.155824
 21
-5.326696
 31
0.0
  0
LINE
  5
74B
100
AcDbEntity
  8
2
370
    25
100
AcDbLine
 10
-585.155824
 20
-3.326696
 30
0.0
 11
-589.019527
 21
-2.29142
 31
0.0
  0
LINE
  5
74C
100
AcDbEntity
  8
2
370
    25
100
AcDbLine
 10
-585.155824
 20
-3.326696
 30
0.0
 11
-589.019527
 21
-4.361972
 31
0.0
  0
LINE
  5
74D
100
AcDbEntity
  8
2
370
    25
100
AcDbLine
 10
-615.155824
 20
-3.326696
 30
0.0
 11
-561.655824
 21
-3.326696
 31
0.0
  0
LINE
  5
74E
100
AcDbEntity
  8
2
370
    25
100
AcDbLine
 10
-571.655824
 20
-3.326696
 30
0.0
 11
-567.79212
 21
-4.361972
 31
0.0
  0
LINE
  5
74F
100
AcDbEntity
  8
2
370
    25
100
AcDbLine
 10
-571.655824
 20
-3.326696
 30
0.0
 11
-567.79212
 21
-2.29142
 31
0.0
  0
LINE
  5
750
100
AcDbEntity
  8
2
370
    25
100
AcDbLine
 10
-571.655824
 20
39.216086
 30
0.0
 11
-571.655824
 21
-5.326696
 31
0.0
  0
ENDBLK
  5
751
100
AcDbEntity
  8
2
100
AcDbBlockEnd
  0
BLOCK
  5
752
100
AcDbEntity
  8
2
100
AcDbBlockBegin
  2
*D21
 70
     1
 10
0.0
 20
0.0
 30
0.0
  3
*D21
  1

  0
TEXT
  5
753
100
AcDbEntity
  8
2
370
    25
100
AcDbText
 10
-320.03923
 20
62.882254
 30
0.0
 40
6.0
  1
φ２３．４
 50
90.0
 72
     5
 11
-320.03923
 21
91.682254
 31
0.0
100
AcDbText
  0
LINE
  5
754
100
AcDbEntity
  8
2
370
    25
100
AcDbLine
 10
-341.111648
 20
35.482254
 30
0.0
 11
-317.03923
 21
35.482254
 31
0.0
  0
LINE
  5
755
100
AcDbEntity
  8
2
370
    25
100
AcDbLine
 10
-319.03923
 20
35.482254
 30
0.0
 11
-320.074507
 21
31.618551
 31
0.0
  0
LINE
  5
756
100
AcDbEntity
  8
2
370
    25
100
AcDbLine
 10
-319.03923
 20
35.482254
 30
0.0
 11
-318.003954
 21
31.618551
 31
0.0
  0
LINE
  5
757
100
AcDbEntity
  8
2
370
    25
100
AcDbLine
 10
-319.03923
 20
25.482254
 30
0.0
 11
-319.03923
 21
94.882254
 31
0.0
  0
LINE
  5
758
100
AcDbEntity
  8
2
370
    25
100
AcDbLine
 10
-319.03923
 20
58.882254
 30
0.0
 11
-318.003954
 21
62.745958
 31
0.0
  0
LINE
  5
759
100
AcDbEntity
  8
2
370
    25
100
AcDbLine
 10
-319.03923
 20
58.882254
 30
0.0
 11
-320.074507
 21
62.745958
 31
0.0
  0
LINE
  5
75A
100
AcDbEntity
  8
2
370
    25
100
AcDbLine
 10
-341.111648
 20
58.882254
 30
0.0
 11
-317.03923
 21
58.882254
 31
0.0
  0
ENDBLK
  5
75B
100
AcDbEntity
  8
2
100
AcDbBlockEnd
  0
BLOCK
  5
75C
100
AcDbEntity
  8
2
100
AcDbBlockBegin
  2
*D22
 70
     1
 10
0.0
 20
0.0
 30
0.0
  3
*D22
  1

  0
TEXT
  5
75D
100
AcDbEntity
  8
2
370
    25
100
AcDbText
 10
-406.812143
 20
97.348598
 30
0.0
 40
6.0
  1
４．２
 72
     5
 11
-390.012143
 21
97.348598
 31
0.0
100
AcDbText
  0
LINE
  5
75E
100
AcDbEntity
  8
2
370
    25
100
AcDbLine
 10
-415.012143
 20
83.182254
 30
0.0
 11
-415.012143
 21
98.348598
 31
0.0
  0
LINE
  5
75F
100
AcDbEntity
  8
2
370
    25
100
AcDbLine
 10
-415.012143
 20
96.348598
 30
0.0
 11
-418.875846
 21
97.383874
 31
0.0
  0
LINE
  5
760
100
AcDbEntity
  8
2
370
    25
100
AcDbLine
 10
-415.012143
 20
96.348598
 30
0.0
 11
-418.875846
 21
95.313322
 31
0.0
  0
LINE
  5
761
100
AcDbEntity
  8
2
370
    25
100
AcDbLine
 10
-425.012143
 20
96.348598
 30
0.0
 11
-392.812143
 21
96.348598
 31
0.0
  0
LINE
  5
762
100
AcDbEntity
  8
2
370
    25
100
AcDbLine
 10
-410.812143
 20
96.348598
 30
0.0
 11
-406.94844
 21
95.313322
 31
0.0
  0
LINE
  5
763
100
AcDbEntity
  8
2
370
    25
100
AcDbLine
 10
-410.812143
 20
96.348598
 30
0.0
 11
-406.94844
 21
97.383874
 31
0.0
  0
LINE
  5
764
100
AcDbEntity
  8
2
370
    25
100
AcDbLine
 10
-410.812143
 20
82.882254
 30
0.0
 11
-410.812143
 21
98.348598
 31
0.0
  0
ENDBLK
  5
765
100
AcDbEntity
  8
2
100
AcDbBlockEnd
  0
BLOCK
  5
766
100
AcDbEntity
  8
2
100
AcDbBlockBegin
  2
*D23
 70
     1
 10
0.0
 20
0.0
 30
0.0
  3
*D23
  1

  0
TEXT
  5
767
100
AcDbEntity
  8
2
370
    25
100
AcDbText
 10
-164.699036
 20
49.805204
 30
0.0
 40
6.0
  1
30
 50
90.0
 72
     5
 11
-164.699036
 21
60.605204
 31
0.0
100
AcDbText
  0
LINE
  5
768
100
AcDbEntity
  8
2
370
    25
100
AcDbLine
 10
-147.098495
 20
40.805204
 30
0.0
 11
-165.699036
 21
40.805204
 31
0.0
  0
LINE
  5
769
100
AcDbEntity
  8
2
370
    25
100
AcDbLine
 10
-163.699036
 20
40.805204
 30
0.0
 11
-162.663759
 21
44.668907
 31
0.0
  0
LINE
  5
76A
100
AcDbEntity
  8
2
370
    25
100
AcDbLine
 10
-163.699036
 20
40.805204
 30
0.0
 11
-164.734312
 21
44.668907
 31
0.0
  0
LINE
  5
76B
100
AcDbEntity
  8
2
370
    25
100
AcDbLine
 10
-163.699036
 20
40.805204
 30
0.0
 11
-163.699036
 21
70.805204
 31
0.0
  0
LINE
  5
76C
100
AcDbEntity
  8
2
370
    25
100
AcDbLine
 10
-163.699036
 20
70.805204
 30
0.0
 11
-164.734312
 21
66.941501
 31
0.0
  0
LINE
  5
76D
100
AcDbEntity
  8
2
370
    25
100
AcDbLine
 10
-163.699036
 20
70.805204
 30
0.0
 11
-162.663759
 21
66.941501
 31
0.0
  0
LINE
  5
76E
100
AcDbEntity
  8
2
370
    25
100
AcDbLine
 10
-147.098495
 20
70.805204
 30
0.0
 11
-165.699036
 21
70.805204
 31
0.0
  0
ENDBLK
  5
76F
100
AcDbEntity
  8
2
100
AcDbBlockEnd
  0
BLOCK
  5
770
100
AcDbEntity
  8
2
100
AcDbBlockBegin
  2
*D24
 70
     1
 10
0.0
 20
0.0
 30
0.0
  3
*D24
  1

  0
TEXT
  5
771
100
AcDbEntity
  8
2
370
    25
100
AcDbText
 10
-144.598495
 20
62.82308
 30
0.0
 40
6.0
  1
18
 72
     5
 11
-133.798495
 21
62.82308
 31
0.0
100
AcDbText
  0
LINE
  5
772
100
AcDbEntity
  8
2
370
    25
100
AcDbLine
 10
-147.598495
 20
62.063604
 30
0.0
 11
-147.598495
 21
59.82308
 31
0.0
  0
LINE
  5
773
100
AcDbEntity
  8
2
370
    25
100
AcDbLine
 10
-147.598495
 20
61.82308
 30
0.0
 11
-143.734792
 21
60.787804
 31
0.0
  0
LINE
  5
774
100
AcDbEntity
  8
2
370
    25
100
AcDbLine
 10
-147.598495
 20
61.82308
 30
0.0
 11
-143.734792
 21
62.858356
 31
0.0
  0
LINE
  5
775
100
AcDbEntity
  8
2
370
    25
100
AcDbLine
 10
-147.598495
 20
61.82308
 30
0.0
 11
-129.598495
 21
61.82308
 31
0.0
  0
LINE
  5
776
100
AcDbEntity
  8
2
370
    25
100
AcDbLine
 10
-129.598495
 20
61.82308
 30
0.0
 11
-133.462199
 21
62.858356
 31
0.0
  0
LINE
  5
777
100
AcDbEntity
  8
2
370
    25
100
AcDbLine
 10
-129.598495
 20
61.82308
 30
0.0
 11
-133.462199
 21
60.787804
 31
0.0
  0
LINE
  5
778
100
AcDbEntity
  8
2
370
    25
100
AcDbLine
 10
-129.598495
 20
62.063604
 30
0.0
 11
-129.598495
 21
59.82308
 31
0.0
  0
ENDBLK
  5
779
100
AcDbEntity
  8
2
100
AcDbBlockEnd
  0
BLOCK
  5
77A
100
AcDbEntity
  8
2
100
AcDbBlockBegin
  2
*D25
 70
     1
 10
0.0
 20
0.0
 30
0.0
  3
*D25
  1

  0
TEXT
  5
77B
100
AcDbEntity
  8
2
370
    25
100
AcDbText
 10
-144.598495
 20
106.861046
 30
0.0
 40
6.0
  1
25
 72
     5
 11
-133.798495
 21
106.861046
 31
0.0
100
AcDbText
  0
LINE
  5
77C
100
AcDbEntity
  8
2
370
    25
100
AcDbLine
 10
-151.098495
 20
88.305204
 30
0.0
 11
-151.098495
 21
107.861046
 31
0.0
  0
LINE
  5
77D
100
AcDbEntity
  8
2
370
    25
100
AcDbLine
 10
-151.098495
 20
105.861046
 30
0.0
 11
-147.234792
 21
104.82577
 31
0.0
  0
LINE
  5
77E
100
AcDbEntity
  8
2
370
    25
100
AcDbLine
 10
-151.098495
 20
105.861046
 30
0.0
 11
-147.234792
 21
106.896322
 31
0.0
  0
LINE
  5
77F
100
AcDbEntity
  8
2
370
    25
100
AcDbLine
 10
-151.098495
 20
105.861046
 30
0.0
 11
-126.098495
 21
105.861046
 31
0.0
  0
LINE
  5
780
100
AcDbEntity
  8
2
370
    25
100
AcDbLine
 10
-126.098495
 20
105.861046
 30
0.0
 11
-129.962199
 21
106.896322
 31
0.0
  0
LINE
  5
781
100
AcDbEntity
  8
2
370
    25
100
AcDbLine
 10
-126.098495
 20
105.861046
 30
0.0
 11
-129.962199
 21
104.82577
 31
0.0
  0
LINE
  5
782
100
AcDbEntity
  8
2
370
    25
100
AcDbLine
 10
-126.098495
 20
88.305204
 30
0.0
 11
-126.098495
 21
107.861046
 31
0.0
  0
ENDBLK
  5
783
100
AcDbEntity
  8
2
100
AcDbBlockEnd
  0
BLOCK
  5
784
100
AcDbEntity
  8
2
100
AcDbBlockBegin
  2
*D26
 70
     1
 10
0.0
 20
0.0
 30
0.0
  3
*D26
  1

  0
TEXT
  5
785
100
AcDbEntity
  8
2
370
    25
100
AcDbText
 10
-184.323639
 20
49.805204
 30
0.0
 40
6.0
  1
75
 50
90.0
 72
     5
 11
-184.323639
 21
60.605204
 31
0.0
100
AcDbText
  0
LINE
  5
786
100
AcDbEntity
  8
2
370
    25
100
AcDbLine
 10
-146.098495
 20
18.305204
 30
0.0
 11
-185.323639
 21
18.305204
 31
0.0
  0
LINE
  5
787
100
AcDbEntity
  8
2
370
    25
100
AcDbLine
 10
-183.323639
 20
18.305204
 30
0.0
 11
-182.288363
 21
22.168907
 31
0.0
  0
LINE
  5
788
100
AcDbEntity
  8
2
370
    25
100
AcDbLine
 10
-183.323639
 20
18.305204
 30
0.0
 11
-184.358915
 21
22.168907
 31
0.0
  0
LINE
  5
789
100
AcDbEntity
  8
2
370
    25
100
AcDbLine
 10
-183.323639
 20
18.305204
 30
0.0
 11
-183.323639
 21
93.305204
 31
0.0
  0
LINE
  5
78A
100
AcDbEntity
  8
2
370
    25
100
AcDbLine
 10
-183.323639
 20
93.305204
 30
0.0
 11
-184.358915
 21
89.441501
 31
0.0
  0
LINE
  5
78B
100
AcDbEntity
  8
2
370
    25
100
AcDbLine
 10
-183.323639
 20
93.305204
 30
0.0
 11
-182.288363
 21
89.441501
 31
0.0
  0
LINE
  5
78C
100
AcDbEntity
  8
2
370
    25
100
AcDbLine
 10
-146.098495
 20
93.305204
 30
0.0
 11
-185.323639
 21
93.305204
 31
0.0
  0
ENDBLK
  5
78D
100
AcDbEntity
  8
2
100
AcDbBlockEnd
  0
BLOCK
  5
78E
100
AcDbEntity
  8
2
100
AcDbBlockBegin
  2
*D27
 70
     1
 10
0.0
 20
0.0
 30
0.0
  3
*D27
  1

  0
TEXT
  5
78F
100
AcDbEntity
  8
2
370
    25
100
AcDbText
 10
-174.434845
 20
49.805204
 30
0.0
 40
6.0
  1
55
 50
90.0
 72
     5
 11
-174.434845
 21
60.605204
 31
0.0
100
AcDbText
  0
LINE
  5
790
100
AcDbEntity
  8
2
370
    25
100
AcDbLine
 10
-147.031807
 20
28.305204
 30
0.0
 11
-175.434845
 21
28.305204
 31
0.0
  0
LINE
  5
791
100
AcDbEntity
  8
2
370
    25
100
AcDbLine
 10
-173.434845
 20
28.305204
 30
0.0
 11
-172.399569
 21
32.168907
 31
0.0
  0
LINE
  5
792
100
AcDbEntity
  8
2
370
    25
100
AcDbLine
 10
-173.434845
 20
28.305204
 30
0.0
 11
-174.470121
 21
32.168907
 31
0.0
  0
LINE
  5
793
100
AcDbEntity
  8
2
370
    25
100
AcDbLine
 10
-173.434845
 20
28.305204
 30
0.0
 11
-173.434845
 21
83.305204
 31
0.0
  0
LINE
  5
794
100
AcDbEntity
  8
2
370
    25
100
AcDbLine
 10
-173.434845
 20
83.305204
 30
0.0
 11
-174.470121
 21
79.441501
 31
0.0
  0
LINE
  5
795
100
AcDbEntity
  8
2
370
    25
100
AcDbLine
 10
-173.434845
 20
83.305204
 30
0.0
 11
-172.399569
 21
79.441501
 31
0.0
  0
LINE
  5
796
100
AcDbEntity
  8
2
370
    25
100
AcDbLine
 10
-147.031807
 20
83.305204
 30
0.0
 11
-175.434845
 21
83.305204
 31
0.0
  0
ENDBLK
  5
797
100
AcDbEntity
  8
2
100
AcDbBlockEnd
  0
BLOCK
  5
798
100
AcDbEntity
  8
2
100
AcDbBlockBegin
  2
*D28
 70
     1
 10
0.0
 20
0.0
 30
0.0
  3
*D28
  1

  0
TEXT
  5
799
100
AcDbEntity
  8
2
370
    25
100
AcDbText
 10
-247.825455
 20
49.805204
 30
0.0
 40
6.0
  1
７０
 50
90.0
 72
     5
 11
-247.825455
 21
60.605204
 31
0.0
100
AcDbText
  0
LINE
  5
79A
100
AcDbEntity
  8
2
370
    25
100
AcDbLine
 10
-215.736935
 20
20.805204
 30
0.0
 11
-248.825455
 21
20.805204
 31
0.0
  0
LINE
  5
79B
100
AcDbEntity
  8
2
370
    25
100
AcDbLine
 10
-246.825455
 20
20.805204
 30
0.0
 11
-245.790179
 21
24.668907
 31
0.0
  0
LINE
  5
79C
100
AcDbEntity
  8
2
370
    25
100
AcDbLine
 10
-246.825455
 20
20.805204
 30
0.0
 11
-247.860731
 21
24.668907
 31
0.0
  0
LINE
  5
79D
100
AcDbEntity
  8
2
370
    25
100
AcDbLine
 10
-246.825455
 20
20.805204
 30
0.0
 11
-246.825455
 21
90.805204
 31
0.0
  0
LINE
  5
79E
100
AcDbEntity
  8
2
370
    25
100
AcDbLine
 10
-246.825455
 20
90.805204
 30
0.0
 11
-247.860731
 21
86.941501
 31
0.0
  0
LINE
  5
79F
100
AcDbEntity
  8
2
370
    25
100
AcDbLine
 10
-246.825455
 20
90.805204
 30
0.0
 11
-245.790179
 21
86.941501
 31
0.0
  0
LINE
  5
7A0
100
AcDbEntity
  8
2
370
    25
100
AcDbLine
 10
-215.736935
 20
90.805204
 30
0.0
 11
-248.825455
 21
90.805204
 31
0.0
  0
ENDBLK
  5
7A1
100
AcDbEntity
  8
2
100
AcDbBlockEnd
  0
BLOCK
  5
7A2
100
AcDbEntity
  8
2
100
AcDbBlockBegin
  2
*D29
 70
     1
 10
0.0
 20
0.0
 30
0.0
  3
*D29
  1

  0
TEXT
  5
7A3
100
AcDbEntity
  8
2
370
    25
100
AcDbText
 10
-239.301331
 20
49.805204
 30
0.0
 40
6.0
  1
３１
 50
90.0
 72
     5
 11
-239.301331
 21
60.605204
 31
0.0
100
AcDbText
  0
LINE
  5
7A4
100
AcDbEntity
  8
2
370
    25
100
AcDbLine
 10
-229.936935
 20
40.305204
 30
0.0
 11
-240.301331
 21
40.305204
 31
0.0
  0
LINE
  5
7A5
100
AcDbEntity
  8
2
370
    25
100
AcDbLine
 10
-238.301331
 20
40.305204
 30
0.0
 11
-237.266054
 21
44.168907
 31
0.0
  0
LINE
  5
7A6
100
AcDbEntity
  8
2
370
    25
100
AcDbLine
 10
-238.301331
 20
40.305204
 30
0.0
 11
-239.336607
 21
44.168907
 31
0.0
  0
LINE
  5
7A7
100
AcDbEntity
  8
2
370
    25
100
AcDbLine
 10
-238.301331
 20
40.305204
 30
0.0
 11
-238.301331
 21
71.305204
 31
0.0
  0
LINE
  5
7A8
100
AcDbEntity
  8
2
370
    25
100
AcDbLine
 10
-238.301331
 20
71.305204
 30
0.0
 11
-239.336607
 21
67.441501
 31
0.0
  0
LINE
  5
7A9
100
AcDbEntity
  8
2
370
    25
100
AcDbLine
 10
-238.301331
 20
71.305204
 30
0.0
 11
-237.266054
 21
67.441501
 31
0.0
  0
LINE
  5
7AA
100
AcDbEntity
  8
2
370
    25
100
AcDbLine
 10
-229.936935
 20
71.305204
 30
0.0
 11
-240.301331
 21
71.305204
 31
0.0
  0
ENDBLK
  5
7AB
100
AcDbEntity
  8
2
100
AcDbBlockEnd
  0
BLOCK
  5
7AC
100
AcDbEntity
  8
2
100
AcDbBlockBegin
  2
*D30
 70
     1
 10
0.0
 20
0.0
 30
0.0
  3
*D30
  1

  0
TEXT
  5
7AD
100
AcDbEntity
  8
2
370
    25
100
AcDbText
 10
-227.436935
 20
-1.340752
 30
0.0
 40
6.0
  1
１６
 72
     5
 11
-216.636935
 21
-1.340752
 31
0.0
100
AcDbText
  0
LINE
  5
7AE
100
AcDbEntity
  8
2
370
    25
100
AcDbLine
 10
-229.436935
 20
39.805204
 30
0.0
 11
-229.436935
 21
-4.340752
 31
0.0
  0
LINE
  5
7AF
100
AcDbEntity
  8
2
370
    25
100
AcDbLine
 10
-229.436935
 20
-2.340752
 30
0.0
 11
-225.573232
 21
-3.376028
 31
0.0
  0
LINE
  5
7B0
100
AcDbEntity
  8
2
370
    25
100
AcDbLine
 10
-229.436935
 20
-2.340752
 30
0.0
 11
-225.573232
 21
-1.305475
 31
0.0
  0
LINE
  5
7B1
100
AcDbEntity
  8
2
370
    25
100
AcDbLine
 10
-229.436935
 20
-2.340752
 30
0.0
 11
-213.436935
 21
-2.340752
 31
0.0
  0
LINE
  5
7B2
100
AcDbEntity
  8
2
370
    25
100
AcDbLine
 10
-213.436935
 20
-2.340752
 30
0.0
 11
-217.300639
 21
-1.305475
 31
0.0
  0
LINE
  5
7B3
100
AcDbEntity
  8
2
370
    25
100
AcDbLine
 10
-213.436935
 20
-2.340752
 30
0.0
 11
-217.300639
 21
-3.376028
 31
0.0
  0
LINE
  5
7B4
100
AcDbEntity
  8
2
370
    25
100
AcDbLine
 10
-213.436935
 20
17.305204
 30
0.0
 11
-213.436935
 21
-4.340752
 31
0.0
  0
ENDBLK
  5
7B5
100
AcDbEntity
  8
2
100
AcDbBlockEnd
  0
BLOCK
  5
7B6
100
AcDbEntity
  8
2
100
AcDbBlockBegin
  2
*D31
 70
     1
 10
0.0
 20
0.0
 30
0.0
  3
*D31
  1

  0
TEXT
  5
7B7
100
AcDbEntity
  8
2
370
    25
100
AcDbText
 10
-144.598498
 20
-37.260178
 30
0.0
 40
6.0
  1
２２
 72
     5
 11
-133.798498
 21
-37.260178
 31
0.0
100
AcDbText
  0
LINE
  5
7B8
100
AcDbEntity
  8
2
370
    25
100
AcDbLine
 10
-149.598498
 20
-21.48784
 30
0.0
 11
-149.598498
 21
-40.260178
 31
0.0
  0
LINE
  5
7B9
100
AcDbEntity
  8
2
370
    25
100
AcDbLine
 10
-149.598498
 20
-38.260178
 30
0.0
 11
-145.734794
 21
-39.295454
 31
0.0
  0
LINE
  5
7BA
100
AcDbEntity
  8
2
370
    25
100
AcDbLine
 10
-149.598498
 20
-38.260178
 30
0.0
 11
-145.734794
 21
-37.224901
 31
0.0
  0
LINE
  5
7BB
100
AcDbEntity
  8
2
370
    25
100
AcDbLine
 10
-149.598498
 20
-38.260178
 30
0.0
 11
-127.598498
 21
-38.260178
 31
0.0
  0
LINE
  5
7BC
100
AcDbEntity
  8
2
370
    25
100
AcDbLine
 10
-127.598498
 20
-38.260178
 30
0.0
 11
-131.462201
 21
-37.224901
 31
0.0
  0
LINE
  5
7BD
100
AcDbEntity
  8
2
370
    25
100
AcDbLine
 10
-127.598498
 20
-38.260178
 30
0.0
 11
-131.462201
 21
-39.295454
 31
0.0
  0
LINE
  5
7BE
100
AcDbEntity
  8
2
370
    25
100
AcDbLine
 10
-127.598498
 20
-21.48784
 30
0.0
 11
-127.598498
 21
-40.260178
 31
0.0
  0
ENDBLK
  5
7BF
100
AcDbEntity
  8
2
100
AcDbBlockEnd
  0
BLOCK
  5
7C0
100
AcDbEntity
  8
2
100
AcDbBlockBegin
  2
*D32
 70
     1
 10
0.0
 20
0.0
 30
0.0
  3
*D32
  1

  0
TEXT
  5
7C1
100
AcDbEntity
  8
2
370
    25
100
AcDbText
 10
-205.436935
 20
8.790417
 30
0.0
 40
6.0
  1
１．４
 72
     5
 11
-188.636935
 21
8.790417
 31
0.0
100
AcDbText
  0
LINE
  5
7C2
100
AcDbEntity
  8
2
370
    25
100
AcDbLine
 10
-214.836935
 20
19.805204
 30
0.0
 11
-214.836935
 21
5.790417
 31
0.0
  0
LINE
  5
7C3
100
AcDbEntity
  8
2
370
    25
100
AcDbLine
 10
-214.836935
 20
7.790417
 30
0.0
 11
-218.700639
 21
8.825693
 31
0.0
  0
LINE
  5
7C4
100
AcDbEntity
  8
2
370
    25
100
AcDbLine
 10
-214.836935
 20
7.790417
 30
0.0
 11
-218.700639
 21
6.755141
 31
0.0
  0
LINE
  5
7C5
100
AcDbEntity
  8
2
370
    25
100
AcDbLine
 10
-224.836935
 20
7.790417
 30
0.0
 11
-185.436935
 21
7.790417
 31
0.0
  0
LINE
  5
7C6
100
AcDbEntity
  8
2
370
    25
100
AcDbLine
 10
-213.436935
 20
7.790417
 30
0.0
 11
-209.573232
 21
6.755141
 31
0.0
  0
LINE
  5
7C7
100
AcDbEntity
  8
2
370
    25
100
AcDbLine
 10
-213.436935
 20
7.790417
 30
0.0
 11
-209.573232
 21
8.825693
 31
0.0
  0
LINE
  5
7C8
100
AcDbEntity
  8
2
370
    25
100
AcDbLine
 10
-213.436935
 20
17.305204
 30
0.0
 11
-213.436935
 21
5.790417
 31
0.0
  0
ENDBLK
  5
7C9
100
AcDbEntity
  8
2
100
AcDbBlockEnd
  0
BLOCK
  5
7CA
100
AcDbEntity
  8
2
100
AcDbBlockBegin
  2
*D33
 70
     1
 10
0.0
 20
0.0
 30
0.0
  3
*D33
  1

  0
TEXT
  5
7CB
100
AcDbEntity
  8
2
370
    18
100
AcDbText
 10
138.819598
 20
76.59992
 30
0.0
 40
6.0
  1
22
 72
     5
 11
149.619598
 21
76.59992
 31
0.0
100
AcDbText
  0
LINE
  5
7CC
100
AcDbEntity
  8
2
370
    25
100
AcDbLine
 10
133.819598
 20
49.382254
 30
0.0
 11
133.819598
 21
77.59992
 31
0.0
  0
LINE
  5
7CD
100
AcDbEntity
  8
2
370
    25
100
AcDbLine
 10
133.819598
 20
75.59992
 30
0.0
 11
137.683302
 21
74.564643
 31
0.0
  0
LINE
  5
7CE
100
AcDbEntity
  8
2
370
    25
100
AcDbLine
 10
133.819598
 20
75.59992
 30
0.0
 11
137.683302
 21
76.635196
 31
0.0
  0
LINE
  5
7CF
100
AcDbEntity
  8
2
370
    25
100
AcDbLine
 10
133.819598
 20
75.59992
 30
0.0
 11
155.819598
 21
75.59992
 31
0.0
  0
LINE
  5
7D0
100
AcDbEntity
  8
2
370
    25
100
AcDbLine
 10
155.819598
 20
75.59992
 30
0.0
 11
151.955895
 21
76.635196
 31
0.0
  0
LINE
  5
7D1
100
AcDbEntity
  8
2
370
    25
100
AcDbLine
 10
155.819598
 20
75.59992
 30
0.0
 11
151.955895
 21
74.564643
 31
0.0
  0
LINE
  5
7D2
100
AcDbEntity
  8
2
370
    25
100
AcDbLine
 10
155.819598
 20
49.382254
 30
0.0
 11
155.819598
 21
77.59992
 31
0.0
  0
ENDBLK
  5
7D3
100
AcDbEntity
  8
2
100
AcDbBlockEnd
  0
BLOCK
  5
7D4
100
AcDbEntity
  8
2
100
AcDbBlockBegin
  2
*D34
 70
     1
 10
0.0
 20
0.0
 30
0.0
  3
*D34
  1

  0
TEXT
  5
7D5
100
AcDbEntity
  8
2
370
    18
100
AcDbText
 10
138.819598
 20
6.491536
 30
0.0
 40
6.0
  1
13
 72
     5
 11
149.619598
 21
6.491536
 31
0.0
100
AcDbText
  0
LINE
  5
7D6
100
AcDbEntity
  8
2
370
    25
100
AcDbLine
 10
138.319598
 20
37.882254
 30
0.0
 11
138.319598
 21
3.491536
 31
0.0
  0
LINE
  5
7D7
100
AcDbEntity
  8
2
370
    25
100
AcDbLine
 10
138.319598
 20
5.491536
 30
0.0
 11
142.183302
 21
4.45626
 31
0.0
  0
LINE
  5
7D8
100
AcDbEntity
  8
2
370
    25
100
AcDbLine
 10
138.319598
 20
5.491536
 30
0.0
 11
142.183302
 21
6.526813
 31
0.0
  0
LINE
  5
7D9
100
AcDbEntity
  8
2
370
    25
100
AcDbLine
 10
138.319598
 20
5.491536
 30
0.0
 11
151.319598
 21
5.491536
 31
0.0
  0
LINE
  5
7DA
100
AcDbEntity
  8
2
370
    25
100
AcDbLine
 10
151.319598
 20
5.491536
 30
0.0
 11
147.455895
 21
6.526813
 31
0.0
  0
LINE
  5
7DB
100
AcDbEntity
  8
2
370
    25
100
AcDbLine
 10
151.319598
 20
5.491536
 30
0.0
 11
147.455895
 21
4.45626
 31
0.0
  0
LINE
  5
7DC
100
AcDbEntity
  8
2
370
    25
100
AcDbLine
 10
151.319598
 20
37.882254
 30
0.0
 11
151.319598
 21
3.491536
 31
0.0
  0
ENDBLK
  5
7DD
100
AcDbEntity
  8
2
100
AcDbBlockEnd
  0
BLOCK
  5
7DE
100
AcDbEntity
  8
2
100
AcDbBlockBegin
  2
*D35
 70
     1
 10
0.0
 20
0.0
 30
0.0
  3
*D35
  1

  0
LINE
  5
7DF
100
AcDbEntity
  8
2
370
    25
100
AcDbLine
 10
414.987857
 20
79.182254
 30
0.0
 11
414.987857
 21
117.03499
 31
0.0
  0
LINE
  5
7E0
100
AcDbEntity
  8
2
370
    25
100
AcDbLine
 10
414.987857
 20
115.03499
 30
0.0
 11
418.85156
 21
113.999713
 31
0.0
  0
LINE
  5
7E1
100
AcDbEntity
  8
2
370
    25
100
AcDbLine
 10
414.987857
 20
115.03499
 30
0.0
 11
418.85156
 21
116.070266
 31
0.0
  0
LINE
  5
7E2
100
AcDbEntity
  8
2
370
    25
100
AcDbLine
 10
414.987857
 20
115.03499
 30
0.0
 11
490.987857
 21
115.03499
 31
0.0
  0
LINE
  5
7E3
100
AcDbEntity
  8
2
370
    25
100
AcDbLine
 10
490.987857
 20
115.03499
 30
0.0
 11
487.124154
 21
116.070266
 31
0.0
  0
LINE
  5
7E4
100
AcDbEntity
  8
2
370
    25
100
AcDbLine
 10
490.987857
 20
115.03499
 30
0.0
 11
487.124154
 21
113.999713
 31
0.0
  0
LINE
  5
7E5
100
AcDbEntity
  8
2
370
    25
100
AcDbLine
 10
490.987857
 20
51.682254
 30
0.0
 11
490.987857
 21
117.03499
 31
0.0
  0
ENDBLK
  5
7E6
100
AcDbEntity
  8
2
100
AcDbBlockEnd
  0
BLOCK
  5
7E7
100
AcDbEntity
  8
2
100
AcDbBlockBegin
  2
*D36
 70
     1
 10
0.0
 20
0.0
 30
0.0
  3
*D36
  1

  0
LINE
  5
7E8
100
AcDbEntity
  8
2
370
    25
100
AcDbLine
 10
414.987857
 20
104.126016
 30
0.0
 11
418.85156
 21
103.09074
 31
0.0
  0
LINE
  5
7E9
100
AcDbEntity
  8
2
370
    25
100
AcDbLine
 10
414.987857
 20
104.126016
 30
0.0
 11
418.85156
 21
105.161292
 31
0.0
  0
LINE
  5
7EA
100
AcDbEntity
  8
2
370
    25
100
AcDbLine
 10
414.987857
 20
104.126016
 30
0.0
 11
465.987857
 21
104.126016
 31
0.0
  0
LINE
  5
7EB
100
AcDbEntity
  8
2
370
    25
100
AcDbLine
 10
465.987857
 20
104.126016
 30
0.0
 11
462.124154
 21
105.161292
 31
0.0
  0
LINE
  5
7EC
100
AcDbEntity
  8
2
370
    25
100
AcDbLine
 10
465.987857
 20
104.126016
 30
0.0
 11
462.124154
 21
103.09074
 31
0.0
  0
LINE
  5
7ED
100
AcDbEntity
  8
2
370
    25
100
AcDbLine
 10
465.987857
 20
69.432254
 30
0.0
 11
465.987857
 21
106.126016
 31
0.0
  0
ENDBLK
  5
7EE
100
AcDbEntity
  8
2
100
AcDbBlockEnd
  0
BLOCK
  5
7EF
100
AcDbEntity
  8
2
100
AcDbBlockBegin
  2
*D37
 70
     1
 10
0.0
 20
0.0
 30
0.0
  3
*D37
  1

  0
TEXT
  5
7F0
100
AcDbEntity
  8
2
370
    18
100
AcDbText
 10
401.487857
 20
105.126016
 30
0.0
 40
6.0
  1
15
 72
     5
 11
412.287857
 21
105.126016
 31
0.0
100
AcDbText
  0
LINE
  5
7F1
100
AcDbEntity
  8
2
370
    25
100
AcDbLine
 10
399.987857
 20
53.682254
 30
0.0
 11
399.987857
 21
106.126016
 31
0.0
  0
LINE
  5
7F2
100
AcDbEntity
  8
2
370
    25
100
AcDbLine
 10
399.987857
 20
104.126016
 30
0.0
 11
403.85156
 21
103.09074
 31
0.0
  0
LINE
  5
7F3
100
AcDbEntity
  8
2
370
    25
100
AcDbLine
 10
399.987857
 20
104.126016
 30
0.0
 11
403.85156
 21
105.161292
 31
0.0
  0
LINE
  5
7F4
100
AcDbEntity
  8
2
370
    25
100
AcDbLine
 10
399.987857
 20
104.126016
 30
0.0
 11
414.987857
 21
104.126016
 31
0.0
  0
LINE
  5
7F5
100
AcDbEntity
  8
2
370
    25
100
AcDbLine
 10
414.987857
 20
104.126016
 30
0.0
 11
411.124154
 21
105.161292
 31
0.0
  0
LINE
  5
7F6
100
AcDbEntity
  8
2
370
    25
100
AcDbLine
 10
414.987857
 20
104.126016
 30
0.0
 11
411.124154
 21
103.09074
 31
0.0
  0
ENDBLK
  5
7F7
100
AcDbEntity
  8
2
100
AcDbBlockEnd
  0
BLOCK
  5
7F8
100
AcDbEntity
  8
2
100
AcDbBlockBegin
  2
*D38
 70
     1
 10
0.0
 20
0.0
 30
0.0
  3
*D38
  1

  0
LINE
  5
7F9
100
AcDbEntity
  8
2
370
    25
100
AcDbLine
 10
411.5023
 20
21.682254
 30
0.0
 11
373.191442
 21
21.682254
 31
0.0
  0
LINE
  5
7FA
100
AcDbEntity
  8
2
370
    25
100
AcDbLine
 10
375.191442
 20
21.682254
 30
0.0
 11
376.226718
 21
25.545958
 31
0.0
  0
LINE
  5
7FB
100
AcDbEntity
  8
2
370
    25
100
AcDbLine
 10
375.191442
 20
21.682254
 30
0.0
 11
374.156166
 21
25.545958
 31
0.0
  0
LINE
  5
7FC
100
AcDbEntity
  8
2
370
    25
100
AcDbLine
 10
375.191442
 20
21.682254
 30
0.0
 11
375.191442
 21
64.682254
 31
0.0
  0
LINE
  5
7FD
100
AcDbEntity
  8
2
370
    25
100
AcDbLine
 10
375.191442
 20
64.682254
 30
0.0
 11
374.156166
 21
60.818551
 31
0.0
  0
LINE
  5
7FE
100
AcDbEntity
  8
2
370
    25
100
AcDbLine
 10
375.191442
 20
64.682254
 30
0.0
 11
376.226718
 21
60.818551
 31
0.0
  0
LINE
  5
7FF
100
AcDbEntity
  8
2
370
    25
100
AcDbLine
 10
412.245059
 20
64.682254
 30
0.0
 11
373.191442
 21
64.682254
 31
0.0
  0
ENDBLK
  5
800
100
AcDbEntity
  8
2
100
AcDbBlockEnd
  0
BLOCK
  5
801
100
AcDbEntity
  8
2
100
AcDbBlockBegin
  2
*D39
 70
     1
 10
0.0
 20
0.0
 30
0.0
  3
*D39
  1

  0
TEXT
  5
802
100
AcDbEntity
  8
2
370
    18
100
AcDbText
 10
362.983026
 20
37.182254
 30
0.0
 40
6.0
  1
70
 50
90.0
 72
     5
 11
362.983026
 21
47.982254
 31
0.0
100
AcDbText
  0
LINE
  5
803
100
AcDbEntity
  8
2
370
    25
100
AcDbLine
 10
413.987857
 20
8.182254
 30
0.0
 11
361.983026
 21
8.182254
 31
0.0
  0
LINE
  5
804
100
AcDbEntity
  8
2
370
    25
100
AcDbLine
 10
363.983026
 20
8.182254
 30
0.0
 11
365.018302
 21
12.045958
 31
0.0
  0
LINE
  5
805
100
AcDbEntity
  8
2
370
    25
100
AcDbLine
 10
363.983026
 20
8.182254
 30
0.0
 11
362.94775
 21
12.045958
 31
0.0
  0
LINE
  5
806
100
AcDbEntity
  8
2
370
    25
100
AcDbLine
 10
363.983026
 20
8.182254
 30
0.0
 11
363.983026
 21
78.182254
 31
0.0
  0
LINE
  5
807
100
AcDbEntity
  8
2
370
    25
100
AcDbLine
 10
363.983026
 20
78.182254
 30
0.0
 11
362.94775
 21
74.318551
 31
0.0
  0
LINE
  5
808
100
AcDbEntity
  8
2
370
    25
100
AcDbLine
 10
363.983026
 20
78.182254
 30
0.0
 11
365.018302
 21
74.318551
 31
0.0
  0
LINE
  5
809
100
AcDbEntity
  8
2
370
    25
100
AcDbLine
 10
413.987857
 20
78.182254
 30
0.0
 11
361.983026
 21
78.182254
 31
0.0
  0
ENDBLK
  5
80A
100
AcDbEntity
  8
2
100
AcDbBlockEnd
  0
BLOCK
  5
80B
100
AcDbEntity
  8
2
100
AcDbBlockBegin
  2
*D40
 70
     1
 10
0.0
 20
0.0
 30
0.0
  3
*D40
  1

  0
TEXT
  5
80C
100
AcDbEntity
  8
2
370
    18
100
AcDbText
 10
385.258935
 20
28.182254
 30
0.0
 40
6.0
  1
%%c１９．４
 50
90.0
 72
     5
 11
385.258935
 21
56.982254
 31
0.0
100
AcDbText
  0
LINE
  5
80D
100
AcDbEntity
  8
2
370
    25
100
AcDbLine
 10
399.187857
 20
52.882254
 30
0.0
 11
384.258935
 21
52.882254
 31
0.0
  0
LINE
  5
80E
100
AcDbEntity
  8
2
370
    25
100
AcDbLine
 10
386.258935
 20
52.882254
 30
0.0
 11
385.223659
 21
49.018551
 31
0.0
  0
LINE
  5
80F
100
AcDbEntity
  8
2
370
    25
100
AcDbLine
 10
386.258935
 20
52.882254
 30
0.0
 11
387.294211
 21
49.018551
 31
0.0
  0
LINE
  5
810
100
AcDbEntity
  8
2
370
    25
100
AcDbLine
 10
386.258935
 20
52.882254
 30
0.0
 11
386.258935
 21
33.482254
 31
0.0
  0
LINE
  5
811
100
AcDbEntity
  8
2
370
    25
100
AcDbLine
 10
386.258935
 20
33.482254
 30
0.0
 11
387.294211
 21
37.345958
 31
0.0
  0
LINE
  5
812
100
AcDbEntity
  8
2
370
    25
100
AcDbLine
 10
386.258935
 20
33.482254
 30
0.0
 11
385.223659
 21
37.345958
 31
0.0
  0
LINE
  5
813
100
AcDbEntity
  8
2
370
    25
100
AcDbLine
 10
399.187857
 20
33.482254
 30
0.0
 11
384.258935
 21
33.482254
 31
0.0
  0
ENDBLK
  5
814
100
AcDbEntity
  8
2
100
AcDbBlockEnd
  0
BLOCK
  5
815
100
AcDbEntity
  8
2
100
AcDbBlockBegin
  2
*D41
 70
     1
 10
0.0
 20
0.0
 30
0.0
  3
*D41
  1

  0
TEXT
  5
816
100
AcDbEntity
  8
2
370
    18
100
AcDbText
 10
275.594176
 20
93.348598
 30
0.0
 40
6.0
  1
25
 72
     5
 11
286.394176
 21
93.348598
 31
0.0
100
AcDbText
  0
LINE
  5
817
100
AcDbEntity
  8
2
370
    25
100
AcDbLine
 10
269.094176
 20
79.182254
 30
0.0
 11
269.094176
 21
94.348598
 31
0.0
  0
LINE
  5
818
100
AcDbEntity
  8
2
370
    25
100
AcDbLine
 10
269.094176
 20
92.348598
 30
0.0
 11
272.95788
 21
91.313322
 31
0.0
  0
LINE
  5
819
100
AcDbEntity
  8
2
370
    25
100
AcDbLine
 10
269.094176
 20
92.348598
 30
0.0
 11
272.95788
 21
93.383874
 31
0.0
  0
LINE
  5
81A
100
AcDbEntity
  8
2
370
    25
100
AcDbLine
 10
269.094176
 20
92.348598
 30
0.0
 11
294.094176
 21
92.348598
 31
0.0
  0
LINE
  5
81B
100
AcDbEntity
  8
2
370
    25
100
AcDbLine
 10
294.094176
 20
92.348598
 30
0.0
 11
290.230473
 21
93.383874
 31
0.0
  0
LINE
  5
81C
100
AcDbEntity
  8
2
370
    25
100
AcDbLine
 10
294.094176
 20
92.348598
 30
0.0
 11
290.230473
 21
91.313322
 31
0.0
  0
LINE
  5
81D
100
AcDbEntity
  8
2
370
    25
100
AcDbLine
 10
294.094176
 20
79.182254
 30
0.0
 11
294.094176
 21
94.348598
 31
0.0
  0
ENDBLK
  5
81E
100
AcDbEntity
  8
2
100
AcDbBlockEnd
  0
BLOCK
  5
81F
100
AcDbEntity
  8
2
100
AcDbBlockBegin
  2
*D42
 70
     1
 10
0.0
 20
0.0
 30
0.0
  3
*D42
  1

  0
TEXT
  5
820
100
AcDbEntity
  8
2
370
    18
100
AcDbText
 10
294.344176
 20
-6.326696
 30
0.0
 40
6.0
  1
13.5
 72
     5
 11
317.144176
 21
-6.326696
 31
0.0
100
AcDbText
  0
LINE
  5
821
100
AcDbEntity
  8
2
370
    25
100
AcDbLine
 10
274.844176
 20
35.216086
 30
0.0
 11
274.844176
 21
-9.326696
 31
0.0
  0
LINE
  5
822
100
AcDbEntity
  8
2
370
    25
100
AcDbLine
 10
274.844176
 20
-7.326696
 30
0.0
 11
270.980473
 21
-6.29142
 31
0.0
  0
LINE
  5
823
100
AcDbEntity
  8
2
370
    25
100
AcDbLine
 10
274.844176
 20
-7.326696
 30
0.0
 11
270.980473
 21
-8.361972
 31
0.0
  0
LINE
  5
824
100
AcDbEntity
  8
2
370
    25
100
AcDbLine
 10
264.844176
 20
-7.326696
 30
0.0
 11
324.344176
 21
-7.326696
 31
0.0
  0
LINE
  5
825
100
AcDbEntity
  8
2
370
    25
100
AcDbLine
 10
288.344176
 20
-7.326696
 30
0.0
 11
292.20788
 21
-8.361972
 31
0.0
  0
LINE
  5
826
100
AcDbEntity
  8
2
370
    25
100
AcDbLine
 10
288.344176
 20
-7.326696
 30
0.0
 11
292.20788
 21
-6.29142
 31
0.0
  0
LINE
  5
827
100
AcDbEntity
  8
2
370
    25
100
AcDbLine
 10
288.344176
 20
35.216086
 30
0.0
 11
288.344176
 21
-9.326696
 31
0.0
  0
ENDBLK
  5
828
100
AcDbEntity
  8
2
100
AcDbBlockEnd
  0
BLOCK
  5
829
100
AcDbEntity
  8
2
100
AcDbBlockBegin
  2
*D43
 70
     1
 10
0.0
 20
0.0
 30
0.0
  3
*D43
  1

  0
LINE
  5
82A
100
AcDbEntity
  8
2
370
    25
100
AcDbLine
 10
261.594176
 20
104.126016
 30
0.0
 11
265.45788
 21
103.09074
 31
0.0
  0
LINE
  5
82B
100
AcDbEntity
  8
2
370
    25
100
AcDbLine
 10
261.594176
 20
104.126016
 30
0.0
 11
265.45788
 21
105.161292
 31
0.0
  0
LINE
  5
82C
100
AcDbEntity
  8
2
370
    25
100
AcDbLine
 10
261.594176
 20
104.126016
 30
0.0
 11
301.594176
 21
104.126016
 31
0.0
  0
LINE
  5
82D
100
AcDbEntity
  8
2
370
    25
100
AcDbLine
 10
301.594176
 20
104.126016
 30
0.0
 11
297.730473
 21
105.161292
 31
0.0
  0
LINE
  5
82E
100
AcDbEntity
  8
2
370
    25
100
AcDbLine
 10
301.594176
 20
104.126016
 30
0.0
 11
297.730473
 21
103.09074
 31
0.0
  0
LINE
  5
82F
100
AcDbEntity
  8
2
370
    25
100
AcDbLine
 10
301.594176
 20
65.182254
 30
0.0
 11
301.594176
 21
106.126016
 31
0.0
  0
ENDBLK
  5
830
100
AcDbEntity
  8
2
100
AcDbBlockEnd
  0
BLOCK
  5
831
100
AcDbEntity
  8
2
100
AcDbBlockBegin
  2
*D44
 70
     1
 10
0.0
 20
0.0
 30
0.0
  3
*D44
  1

  0
TEXT
  5
832
100
AcDbEntity
  8
2
370
    18
100
AcDbText
 10
235.844176
 20
105.126016
 30
0.0
 40
6.0
  1
27.5
 72
     5
 11
258.644176
 21
105.126016
 31
0.0
100
AcDbText
  0
LINE
  5
833
100
AcDbEntity
  8
2
370
    25
100
AcDbLine
 10
234.094176
 20
39.882254
 30
0.0
 11
234.094176
 21
106.126016
 31
0.0
  0
LINE
  5
834
100
AcDbEntity
  8
2
370
    25
100
AcDbLine
 10
234.094176
 20
104.126016
 30
0.0
 11
237.95788
 21
103.09074
 31
0.0
  0
LINE
  5
835
100
AcDbEntity
  8
2
370
    25
100
AcDbLine
 10
234.094176
 20
104.126016
 30
0.0
 11
237.95788
 21
105.161292
 31
0.0
  0
LINE
  5
836
100
AcDbEntity
  8
2
370
    25
100
AcDbLine
 10
234.094176
 20
104.126016
 30
0.0
 11
261.594176
 21
104.126016
 31
0.0
  0
LINE
  5
837
100
AcDbEntity
  8
2
370
    25
100
AcDbLine
 10
261.594176
 20
104.126016
 30
0.0
 11
257.730473
 21
105.161292
 31
0.0
  0
LINE
  5
838
100
AcDbEntity
  8
2
370
    25
100
AcDbLine
 10
261.594176
 20
104.126016
 30
0.0
 11
257.730473
 21
103.09074
 31
0.0
  0
LINE
  5
839
100
AcDbEntity
  8
2
370
    25
100
AcDbLine
 10
261.594176
 20
65.182254
 30
0.0
 11
261.594176
 21
106.126016
 31
0.0
  0
ENDBLK
  5
83A
100
AcDbEntity
  8
2
100
AcDbBlockEnd
  0
BLOCK
  5
83B
100
AcDbEntity
  8
2
100
AcDbBlockBegin
  2
*D45
 70
     1
 10
0.0
 20
0.0
 30
0.0
  3
*D45
  1

  0
TEXT
  5
83C
100
AcDbEntity
  8
2
370
    18
100
AcDbText
 10
315.594176
 20
105.126016
 30
0.0
 40
6.0
  1
8
 72
     5
 11
320.394176
 21
105.126016
 31
0.0
100
AcDbText
  0
LINE
  5
83D
100
AcDbEntity
  8
2
370
    25
100
AcDbLine
 10
301.594176
 20
104.126016
 30
0.0
 11
297.730473
 21
105.161292
 31
0.0
  0
LINE
  5
83E
100
AcDbEntity
  8
2
370
    25
100
AcDbLine
 10
301.594176
 20
104.126016
 30
0.0
 11
297.730473
 21
103.09074
 31
0.0
  0
LINE
  5
83F
100
AcDbEntity
  8
2
370
    25
100
AcDbLine
 10
291.594176
 20
104.126016
 30
0.0
 11
327.594176
 21
104.126016
 31
0.0
  0
LINE
  5
840
100
AcDbEntity
  8
2
370
    25
100
AcDbLine
 10
309.594176
 20
104.126016
 30
0.0
 11
313.45788
 21
103.09074
 31
0.0
  0
LINE
  5
841
100
AcDbEntity
  8
2
370
    25
100
AcDbLine
 10
309.594176
 20
104.126016
 30
0.0
 11
313.45788
 21
105.161292
 31
0.0
  0
LINE
  5
842
100
AcDbEntity
  8
2
370
    25
100
AcDbLine
 10
309.594176
 20
63.742803
 30
0.0
 11
309.594176
 21
106.126016
 31
0.0
  0
ENDBLK
  5
843
100
AcDbEntity
  8
2
100
AcDbBlockEnd
  0
BLOCK
  5
844
100
AcDbEntity
  8
2
100
AcDbBlockBegin
  2
*D46
 70
     1
 10
0.0
 20
0.0
 30
0.0
  3
*D46
  1

  0
TEXT
  5
845
100
AcDbEntity
  8
2
370
    18
100
AcDbText
 10
250.594176
 20
93.348598
 30
0.0
 40
6.0
  1
10
 72
     5
 11
261.394176
 21
93.348598
 31
0.0
100
AcDbText
  0
LINE
  5
846
100
AcDbEntity
  8
2
370
    25
100
AcDbLine
 10
251.594176
 20
63.731005
 30
0.0
 11
251.594176
 21
94.348598
 31
0.0
  0
LINE
  5
847
100
AcDbEntity
  8
2
370
    25
100
AcDbLine
 10
251.594176
 20
92.348598
 30
0.0
 11
255.45788
 21
91.313322
 31
0.0
  0
LINE
  5
848
100
AcDbEntity
  8
2
370
    25
100
AcDbLine
 10
251.594176
 20
92.348598
 30
0.0
 11
255.45788
 21
93.383874
 31
0.0
  0
LINE
  5
849
100
AcDbEntity
  8
2
370
    25
100
AcDbLine
 10
251.594176
 20
92.348598
 30
0.0
 11
261.594176
 21
92.348598
 31
0.0
  0
LINE
  5
84A
100
AcDbEntity
  8
2
370
    25
100
AcDbLine
 10
261.594176
 20
92.348598
 30
0.0
 11
257.730473
 21
93.383874
 31
0.0
  0
LINE
  5
84B
100
AcDbEntity
  8
2
370
    25
100
AcDbLine
 10
261.594176
 20
92.348598
 30
0.0
 11
257.730473
 21
91.313322
 31
0.0
  0
ENDBLK
  5
84C
100
AcDbEntity
  8
2
100
AcDbBlockEnd
  0
BLOCK
  5
84D
100
AcDbEntity
  8
2
100
AcDbBlockBegin
  2
*D47
 70
     1
 10
0.0
 20
0.0
 30
0.0
  3
*D47
  1

  0
TEXT
  5
84E
100
AcDbEntity
  8
2
370
    18
100
AcDbText
 10
214.072006
 20
34.182254
 30
0.0
 40
6.0
  1
%%c４２
 50
90.0
 72
     5
 11
214.072006
 21
50.982254
 31
0.0
100
AcDbText
  0
LINE
  5
84F
100
AcDbEntity
  8
2
370
    25
100
AcDbLine
 10
260.594176
 20
22.182254
 30
0.0
 11
213.072006
 21
22.182254
 31
0.0
  0
LINE
  5
850
100
AcDbEntity
  8
2
370
    25
100
AcDbLine
 10
215.072006
 20
22.182254
 30
0.0
 11
216.107282
 21
26.045958
 31
0.0
  0
LINE
  5
851
100
AcDbEntity
  8
2
370
    25
100
AcDbLine
 10
215.072006
 20
22.182254
 30
0.0
 11
214.03673
 21
26.045958
 31
0.0
  0
LINE
  5
852
100
AcDbEntity
  8
2
370
    25
100
AcDbLine
 10
215.072006
 20
22.182254
 30
0.0
 11
215.072006
 21
64.182254
 31
0.0
  0
LINE
  5
853
100
AcDbEntity
  8
2
370
    25
100
AcDbLine
 10
215.072006
 20
64.182254
 30
0.0
 11
214.03673
 21
60.318551
 31
0.0
  0
LINE
  5
854
100
AcDbEntity
  8
2
370
    25
100
AcDbLine
 10
215.072006
 20
64.182254
 30
0.0
 11
216.107282
 21
60.318551
 31
0.0
  0
LINE
  5
855
100
AcDbEntity
  8
2
370
    25
100
AcDbLine
 10
260.594176
 20
64.182254
 30
0.0
 11
213.072006
 21
64.182254
 31
0.0
  0
ENDBLK
  5
856
100
AcDbEntity
  8
2
100
AcDbBlockEnd
  0
BLOCK
  5
857
100
AcDbEntity
  8
2
100
AcDbBlockBegin
  2
*D48
 70
     1
 10
0.0
 20
0.0
 30
0.0
  3
*D48
  1

  0
TEXT
  5
858
100
AcDbEntity
  8
2
370
    18
100
AcDbText
 10
328.280945
 20
34.182254
 30
0.0
 40
6.0
  1
%%c４２
 50
90.0
 72
     5
 11
328.280945
 21
50.982254
 31
0.0
100
AcDbText
  0
LINE
  5
859
100
AcDbEntity
  8
2
370
    25
100
AcDbLine
 10
302.594176
 20
22.182254
 30
0.0
 11
331.280945
 21
22.182254
 31
0.0
  0
LINE
  5
85A
100
AcDbEntity
  8
2
370
    25
100
AcDbLine
 10
329.280945
 20
22.182254
 30
0.0
 11
330.316221
 21
26.045958
 31
0.0
  0
LINE
  5
85B
100
AcDbEntity
  8
2
370
    25
100
AcDbLine
 10
329.280945
 20
22.182254
 30
0.0
 11
328.245669
 21
26.045958
 31
0.0
  0
LINE
  5
85C
100
AcDbEntity
  8
2
370
    25
100
AcDbLine
 10
329.280945
 20
22.182254
 30
0.0
 11
329.280945
 21
64.182254
 31
0.0
  0
LINE
  5
85D
100
AcDbEntity
  8
2
370
    25
100
AcDbLine
 10
329.280945
 20
64.182254
 30
0.0
 11
328.245669
 21
60.318551
 31
0.0
  0
LINE
  5
85E
100
AcDbEntity
  8
2
370
    25
100
AcDbLine
 10
329.280945
 20
64.182254
 30
0.0
 11
330.316221
 21
60.318551
 31
0.0
  0
LINE
  5
85F
100
AcDbEntity
  8
2
370
    25
100
AcDbLine
 10
302.594176
 20
64.182254
 30
0.0
 11
331.280945
 21
64.182254
 31
0.0
  0
ENDBLK
  5
860
100
AcDbEntity
  8
2
100
AcDbBlockEnd
  0
BLOCK
  5
861
100
AcDbEntity
  8
2
100
AcDbBlockBegin
  2
*D49
 70
     1
 10
0.0
 20
0.0
 30
0.0
  3
*D49
  1

  0
TEXT
  5
862
100
AcDbEntity
  8
2
370
    18
100
AcDbText
 10
111.341614
 20
49.182254
 30
0.0
 40
6.0
  1
1.3
 50
90.0
 72
     5
 11
111.341614
 21
65.982254
 31
0.0
100
AcDbText
  0
LINE
  5
863
100
AcDbEntity
  8
2
370
    25
100
AcDbLine
 10
126.319598
 20
41.882254
 30
0.0
 11
110.341614
 21
41.882254
 31
0.0
  0
LINE
  5
864
100
AcDbEntity
  8
2
370
    25
100
AcDbLine
 10
112.341614
 20
41.882254
 30
0.0
 11
111.306338
 21
38.018551
 31
0.0
  0
LINE
  5
865
100
AcDbEntity
  8
2
370
    25
100
AcDbLine
 10
112.341614
 20
41.882254
 30
0.0
 11
113.37689
 21
38.018551
 31
0.0
  0
LINE
  5
866
100
AcDbEntity
  8
2
370
    25
100
AcDbLine
 10
112.341614
 20
31.882254
 30
0.0
 11
112.341614
 21
73.182254
 31
0.0
  0
LINE
  5
867
100
AcDbEntity
  8
2
370
    25
100
AcDbLine
 10
112.341614
 20
43.182254
 30
0.0
 11
113.37689
 21
47.045958
 31
0.0
  0
LINE
  5
868
100
AcDbEntity
  8
2
370
    25
100
AcDbLine
 10
112.341614
 20
43.182254
 30
0.0
 11
111.306338
 21
47.045958
 31
0.0
  0
ENDBLK
  5
869
100
AcDbEntity
  8
2
100
AcDbBlockEnd
  0
BLOCK
  5
86A
100
AcDbEntity
  8
2
100
AcDbBlockBegin
  2
*D50
 70
     1
 10
0.0
 20
0.0
 30
0.0
  3
*D50
  1

  0
TEXT
  5
86B
100
AcDbEntity
  8
2
370
    18
100
AcDbText
 10
101.835663
 20
49.182254
 30
0.0
 40
6.0
  1
4.3
 50
90.0
 72
     5
 11
101.835663
 21
65.982254
 31
0.0
100
AcDbText
  0
LINE
  5
86C
100
AcDbEntity
  8
2
370
    25
100
AcDbLine
 10
136.119029
 20
38.882254
 30
0.0
 11
100.835663
 21
38.882254
 31
0.0
  0
LINE
  5
86D
100
AcDbEntity
  8
2
370
    25
100
AcDbLine
 10
102.835663
 20
38.882254
 30
0.0
 11
101.800387
 21
35.018551
 31
0.0
  0
LINE
  5
86E
100
AcDbEntity
  8
2
370
    25
100
AcDbLine
 10
102.835663
 20
38.882254
 30
0.0
 11
103.870939
 21
35.018551
 31
0.0
  0
LINE
  5
86F
100
AcDbEntity
  8
2
370
    25
100
AcDbLine
 10
102.835663
 20
28.882254
 30
0.0
 11
102.835663
 21
73.182254
 31
0.0
  0
LINE
  5
870
100
AcDbEntity
  8
2
370
    25
100
AcDbLine
 10
102.835663
 20
43.182254
 30
0.0
 11
103.870939
 21
47.045958
 31
0.0
  0
LINE
  5
871
100
AcDbEntity
  8
2
370
    25
100
AcDbLine
 10
102.835663
 20
43.182254
 30
0.0
 11
101.800387
 21
47.045958
 31
0.0
  0
LINE
  5
872
100
AcDbEntity
  8
2
370
    25
100
AcDbLine
 10
119.319598
 20
43.182254
 30
0.0
 11
100.835663
 21
43.182254
 31
0.0
  0
ENDBLK
  5
873
100
AcDbEntity
  8
2
100
AcDbBlockEnd
  0
BLOCK
  5
874
100
AcDbEntity
  8
2
100
AcDbBlockBegin
  2
*D51
 70
     1
 10
0.0
 20
0.0
 30
0.0
  3
*D51
  1

  0
TEXT
  5
875
100
AcDbEntity
  8
2
370
    18
100
AcDbText
 10
224.023666
 20
32.882254
 30
0.0
 40
6.0
  1
28
 50
90.0
 72
     5
 11
224.023666
 21
43.682254
 31
0.0
100
AcDbText
  0
LINE
  5
876
100
AcDbEntity
  8
2
370
    25
100
AcDbLine
 10
250.094176
 20
24.882254
 30
0.0
 11
223.023666
 21
24.882254
 31
0.0
  0
LINE
  5
877
100
AcDbEntity
  8
2
370
    25
100
AcDbLine
 10
225.023666
 20
24.882254
 30
0.0
 11
226.058943
 21
28.745958
 31
0.0
  0
LINE
  5
878
100
AcDbEntity
  8
2
370
    25
100
AcDbLine
 10
225.023666
 20
24.882254
 30
0.0
 11
223.98839
 21
28.745958
 31
0.0
  0
LINE
  5
879
100
AcDbEntity
  8
2
370
    25
100
AcDbLine
 10
225.023666
 20
24.882254
 30
0.0
 11
225.023666
 21
52.882254
 31
0.0
  0
LINE
  5
87A
100
AcDbEntity
  8
2
370
    25
100
AcDbLine
 10
225.023666
 20
52.882254
 30
0.0
 11
223.98839
 21
49.018551
 31
0.0
  0
LINE
  5
87B
100
AcDbEntity
  8
2
370
    25
100
AcDbLine
 10
225.023666
 20
52.882254
 30
0.0
 11
226.058943
 21
49.018551
 31
0.0
  0
LINE
  5
87C
100
AcDbEntity
  8
2
370
    25
100
AcDbLine
 10
250.094176
 20
52.882254
 30
0.0
 11
223.023666
 21
52.882254
 31
0.0
  0
ENDBLK
  5
87D
100
AcDbEntity
  8
2
100
AcDbBlockEnd
  0
BLOCK
  5
87E
100
AcDbEntity
  8
2
100
AcDbBlockBegin
  2
*D52
 70
     1
 10
0.0
 20
0.0
 30
0.0
  3
*D52
  1

  0
TEXT
  5
87F
100
AcDbEntity
  8
2
370
    18
100
AcDbText
 10
512.604858
 20
-2.517746
 30
0.0
 40
6.0
  1
φ２３．４
 50
90.0
 72
     5
 11
512.604858
 21
26.282254
 31
0.0
100
AcDbText
  0
LINE
  5
880
100
AcDbEntity
  8
2
370
    25
100
AcDbLine
 10
486.913303
 20
31.482254
 30
0.0
 11
515.604858
 21
31.482254
 31
0.0
  0
LINE
  5
881
100
AcDbEntity
  8
2
370
    25
100
AcDbLine
 10
513.604858
 20
31.482254
 30
0.0
 11
512.569582
 21
27.618551
 31
0.0
  0
LINE
  5
882
100
AcDbEntity
  8
2
370
    25
100
AcDbLine
 10
513.604858
 20
31.482254
 30
0.0
 11
514.640135
 21
27.618551
 31
0.0
  0
LINE
  5
883
100
AcDbEntity
  8
2
370
    25
100
AcDbLine
 10
513.604858
 20
-6.517746
 30
0.0
 11
513.604858
 21
64.882254
 31
0.0
  0
LINE
  5
884
100
AcDbEntity
  8
2
370
    25
100
AcDbLine
 10
513.604858
 20
54.882254
 30
0.0
 11
514.640135
 21
58.745958
 31
0.0
  0
LINE
  5
885
100
AcDbEntity
  8
2
370
    25
100
AcDbLine
 10
513.604858
 20
54.882254
 30
0.0
 11
512.569582
 21
58.745958
 31
0.0
  0
LINE
  5
886
100
AcDbEntity
  8
2
370
    25
100
AcDbLine
 10
486.913303
 20
54.882254
 30
0.0
 11
515.604858
 21
54.882254
 31
0.0
  0
ENDBLK
  5
887
100
AcDbEntity
  8
2
100
AcDbBlockEnd
  0
BLOCK
  5
888
100
AcDbEntity
  8
2
100
AcDbBlockBegin
  2
*D53
 70
     1
 10
0.0
 20
0.0
 30
0.0
  3
*D53
  1

  0
TEXT
  5
889
100
AcDbEntity
  8
2
370
    18
100
AcDbText
 10
427.187857
 20
93.348598
 30
0.0
 40
6.0
  1
4.2
 72
     5
 11
443.987857
 21
93.348598
 31
0.0
100
AcDbText
  0
LINE
  5
88A
100
AcDbEntity
  8
2
370
    25
100
AcDbLine
 10
414.987857
 20
79.182254
 30
0.0
 11
414.987857
 21
94.348598
 31
0.0
  0
LINE
  5
88B
100
AcDbEntity
  8
2
370
    25
100
AcDbLine
 10
414.987857
 20
92.348598
 30
0.0
 11
411.124154
 21
93.383874
 31
0.0
  0
LINE
  5
88C
100
AcDbEntity
  8
2
370
    25
100
AcDbLine
 10
414.987857
 20
92.348598
 30
0.0
 11
411.124154
 21
91.313322
 31
0.0
  0
LINE
  5
88D
100
AcDbEntity
  8
2
370
    25
100
AcDbLine
 10
404.987857
 20
92.348598
 30
0.0
 11
447.187857
 21
92.348598
 31
0.0
  0
LINE
  5
88E
100
AcDbEntity
  8
2
370
    25
100
AcDbLine
 10
419.187857
 20
92.348598
 30
0.0
 11
423.05156
 21
91.313322
 31
0.0
  0
LINE
  5
88F
100
AcDbEntity
  8
2
370
    25
100
AcDbLine
 10
419.187857
 20
92.348598
 30
0.0
 11
423.05156
 21
93.383874
 31
0.0
  0
LINE
  5
890
100
AcDbEntity
  8
2
370
    25
100
AcDbLine
 10
419.187857
 20
78.882254
 30
0.0
 11
419.187857
 21
94.348598
 31
0.0
  0
ENDBLK
  5
891
100
AcDbEntity
  8
2
100
AcDbBlockEnd
  0
BLOCK
  5
892
100
AcDbEntity
  8
2
100
AcDbBlockBegin
  2
*D54
 70
     1
 10
0.0
 20
0.0
 30
0.0
  3
*D54
  1

  0
TEXT
  5
893
100
AcDbEntity
  8
2
370
    25
100
AcDbText
 10
713.300964
 20
37.182254
 30
0.0
 40
6.0
  1
30
 50
90.0
 72
     5
 11
713.300964
 21
47.982254
 31
0.0
100
AcDbText
  0
LINE
  5
894
100
AcDbEntity
  8
2
370
    25
100
AcDbLine
 10
730.901505
 20
28.182254
 30
0.0
 11
712.300964
 21
28.182254
 31
0.0
  0
LINE
  5
895
100
AcDbEntity
  8
2
370
    25
100
AcDbLine
 10
714.300964
 20
28.182254
 30
0.0
 11
715.336241
 21
32.045958
 31
0.0
  0
LINE
  5
896
100
AcDbEntity
  8
2
370
    25
100
AcDbLine
 10
714.300964
 20
28.182254
 30
0.0
 11
713.265688
 21
32.045958
 31
0.0
  0
LINE
  5
897
100
AcDbEntity
  8
2
370
    25
100
AcDbLine
 10
714.300964
 20
28.182254
 30
0.0
 11
714.300964
 21
58.182254
 31
0.0
  0
LINE
  5
898
100
AcDbEntity
  8
2
370
    25
100
AcDbLine
 10
714.300964
 20
58.182254
 30
0.0
 11
713.265688
 21
54.318551
 31
0.0
  0
LINE
  5
899
100
AcDbEntity
  8
2
370
    25
100
AcDbLine
 10
714.300964
 20
58.182254
 30
0.0
 11
715.336241
 21
54.318551
 31
0.0
  0
LINE
  5
89A
100
AcDbEntity
  8
2
370
    25
100
AcDbLine
 10
730.901505
 20
58.182254
 30
0.0
 11
712.300964
 21
58.182254
 31
0.0
  0
ENDBLK
  5
89B
100
AcDbEntity
  8
2
100
AcDbBlockEnd
  0
BLOCK
  5
89C
100
AcDbEntity
  8
2
100
AcDbBlockBegin
  2
*D55
 70
     1
 10
0.0
 20
0.0
 30
0.0
  3
*D55
  1

  0
TEXT
  5
89D
100
AcDbEntity
  8
2
370
    25
100
AcDbText
 10
733.401505
 20
50.20013
 30
0.0
 40
6.0
  1
18
 72
     5
 11
744.201505
 21
50.20013
 31
0.0
100
AcDbText
  0
LINE
  5
89E
100
AcDbEntity
  8
2
370
    25
100
AcDbLine
 10
730.401505
 20
49.440654
 30
0.0
 11
730.401505
 21
47.20013
 31
0.0
  0
LINE
  5
89F
100
AcDbEntity
  8
2
370
    25
100
AcDbLine
 10
730.401505
 20
49.20013
 30
0.0
 11
734.265208
 21
48.164854
 31
0.0
  0
LINE
  5
8A0
100
AcDbEntity
  8
2
370
    25
100
AcDbLine
 10
730.401505
 20
49.20013
 30
0.0
 11
734.265208
 21
50.235406
 31
0.0
  0
LINE
  5
8A1
100
AcDbEntity
  8
2
370
    25
100
AcDbLine
 10
730.401505
 20
49.20013
 30
0.0
 11
748.401505
 21
49.20013
 31
0.0
  0
LINE
  5
8A2
100
AcDbEntity
  8
2
370
    25
100
AcDbLine
 10
748.401505
 20
49.20013
 30
0.0
 11
744.537801
 21
50.235406
 31
0.0
  0
LINE
  5
8A3
100
AcDbEntity
  8
2
370
    25
100
AcDbLine
 10
748.401505
 20
49.20013
 30
0.0
 11
744.537801
 21
48.164854
 31
0.0
  0
LINE
  5
8A4
100
AcDbEntity
  8
2
370
    25
100
AcDbLine
 10
748.401505
 20
49.440654
 30
0.0
 11
748.401505
 21
47.20013
 31
0.0
  0
ENDBLK
  5
8A5
100
AcDbEntity
  8
2
100
AcDbBlockEnd
  0
BLOCK
  5
8A6
100
AcDbEntity
  8
2
100
AcDbBlockBegin
  2
*D56
 70
     1
 10
0.0
 20
0.0
 30
0.0
  3
*D56
  1

  0
TEXT
  5
8A7
100
AcDbEntity
  8
2
370
    25
100
AcDbText
 10
733.401505
 20
94.238096
 30
0.0
 40
6.0
  1
25
 72
     5
 11
744.201505
 21
94.238096
 31
0.0
100
AcDbText
  0
LINE
  5
8A8
100
AcDbEntity
  8
2
370
    25
100
AcDbLine
 10
726.901505
 20
75.682254
 30
0.0
 11
726.901505
 21
95.238096
 31
0.0
  0
LINE
  5
8A9
100
AcDbEntity
  8
2
370
    25
100
AcDbLine
 10
726.901505
 20
93.238096
 30
0.0
 11
730.765208
 21
92.20282
 31
0.0
  0
LINE
  5
8AA
100
AcDbEntity
  8
2
370
    25
100
AcDbLine
 10
726.901505
 20
93.238096
 30
0.0
 11
730.765208
 21
94.273372
 31
0.0
  0
LINE
  5
8AB
100
AcDbEntity
  8
2
370
    25
100
AcDbLine
 10
726.901505
 20
93.238096
 30
0.0
 11
751.901505
 21
93.238096
 31
0.0
  0
LINE
  5
8AC
100
AcDbEntity
  8
2
370
    25
100
AcDbLine
 10
751.901505
 20
93.238096
 30
0.0
 11
748.037801
 21
94.273372
 31
0.0
  0
LINE
  5
8AD
100
AcDbEntity
  8
2
370
    25
100
AcDbLine
 10
751.901505
 20
93.238096
 30
0.0
 11
748.037801
 21
92.20282
 31
0.0
  0
LINE
  5
8AE
100
AcDbEntity
  8
2
370
    25
100
AcDbLine
 10
751.901505
 20
75.682254
 30
0.0
 11
751.901505
 21
95.238096
 31
0.0
  0
ENDBLK
  5
8AF
100
AcDbEntity
  8
2
100
AcDbBlockEnd
  0
BLOCK
  5
8B0
100
AcDbEntity
  8
2
100
AcDbBlockBegin
  2
*D57
 70
     1
 10
0.0
 20
0.0
 30
0.0
  3
*D57
  1

  0
TEXT
  5
8B1
100
AcDbEntity
  8
2
370
    25
100
AcDbText
 10
693.676361
 20
37.182254
 30
0.0
 40
6.0
  1
75
 50
90.0
 72
     5
 11
693.676361
 21
47.982254
 31
0.0
100
AcDbText
  0
LINE
  5
8B2
100
AcDbEntity
  8
2
370
    25
100
AcDbLine
 10
731.901505
 20
5.682254
 30
0.0
 11
692.676361
 21
5.682254
 31
0.0
  0
LINE
  5
8B3
100
AcDbEntity
  8
2
370
    25
100
AcDbLine
 10
694.676361
 20
5.682254
 30
0.0
 11
695.711637
 21
9.545958
 31
0.0
  0
LINE
  5
8B4
100
AcDbEntity
  8
2
370
    25
100
AcDbLine
 10
694.676361
 20
5.682254
 30
0.0
 11
693.641085
 21
9.545958
 31
0.0
  0
LINE
  5
8B5
100
AcDbEntity
  8
2
370
    25
100
AcDbLine
 10
694.676361
 20
5.682254
 30
0.0
 11
694.676361
 21
80.682254
 31
0.0
  0
LINE
  5
8B6
100
AcDbEntity
  8
2
370
    25
100
AcDbLine
 10
694.676361
 20
80.682254
 30
0.0
 11
693.641085
 21
76.818551
 31
0.0
  0
LINE
  5
8B7
100
AcDbEntity
  8
2
370
    25
100
AcDbLine
 10
694.676361
 20
80.682254
 30
0.0
 11
695.711637
 21
76.818551
 31
0.0
  0
LINE
  5
8B8
100
AcDbEntity
  8
2
370
    25
100
AcDbLine
 10
731.901505
 20
80.682254
 30
0.0
 11
692.676361
 21
80.682254
 31
0.0
  0
ENDBLK
  5
8B9
100
AcDbEntity
  8
2
100
AcDbBlockEnd
  0
BLOCK
  5
8BA
100
AcDbEntity
  8
2
100
AcDbBlockBegin
  2
*D58
 70
     1
 10
0.0
 20
0.0
 30
0.0
  3
*D58
  1

  0
TEXT
  5
8BB
100
AcDbEntity
  8
2
370
    25
100
AcDbText
 10
703.565155
 20
37.182254
 30
0.0
 40
6.0
  1
55
 50
90.0
 72
     5
 11
703.565155
 21
47.982254
 31
0.0
100
AcDbText
  0
LINE
  5
8BC
100
AcDbEntity
  8
2
370
    25
100
AcDbLine
 10
730.968193
 20
15.682254
 30
0.0
 11
702.565155
 21
15.682254
 31
0.0
  0
LINE
  5
8BD
100
AcDbEntity
  8
2
370
    25
100
AcDbLine
 10
704.565155
 20
15.682254
 30
0.0
 11
705.600431
 21
19.545958
 31
0.0
  0
LINE
  5
8BE
100
AcDbEntity
  8
2
370
    25
100
AcDbLine
 10
704.565155
 20
15.682254
 30
0.0
 11
703.529879
 21
19.545958
 31
0.0
  0
LINE
  5
8BF
100
AcDbEntity
  8
2
370
    25
100
AcDbLine
 10
704.565155
 20
15.682254
 30
0.0
 11
704.565155
 21
70.682254
 31
0.0
  0
LINE
  5
8C0
100
AcDbEntity
  8
2
370
    25
100
AcDbLine
 10
704.565155
 20
70.682254
 30
0.0
 11
703.529879
 21
66.818551
 31
0.0
  0
LINE
  5
8C1
100
AcDbEntity
  8
2
370
    25
100
AcDbLine
 10
704.565155
 20
70.682254
 30
0.0
 11
705.600431
 21
66.818551
 31
0.0
  0
LINE
  5
8C2
100
AcDbEntity
  8
2
370
    25
100
AcDbLine
 10
730.968193
 20
70.682254
 30
0.0
 11
702.565155
 21
70.682254
 31
0.0
  0
ENDBLK
  5
8C3
100
AcDbEntity
  8
2
100
AcDbBlockEnd
  0
BLOCK
  5
8C4
100
AcDbEntity
  8
2
100
AcDbBlockBegin
  2
*D59
 70
     1
 10
0.0
 20
0.0
 30
0.0
  3
*D59
  1

  0
TEXT
  5
8C5
100
AcDbEntity
  8
2
370
    25
100
AcDbText
 10
630.174545
 20
37.182254
 30
0.0
 40
6.0
  1
７０
 50
90.0
 72
     5
 11
630.174545
 21
47.982254
 31
0.0
100
AcDbText
  0
LINE
  5
8C6
100
AcDbEntity
  8
2
370
    25
100
AcDbLine
 10
662.263065
 20
8.182254
 30
0.0
 11
629.174545
 21
8.182254
 31
0.0
  0
LINE
  5
8C7
100
AcDbEntity
  8
2
370
    25
100
AcDbLine
 10
631.174545
 20
8.182254
 30
0.0
 11
632.209821
 21
12.045958
 31
0.0
  0
LINE
  5
8C8
100
AcDbEntity
  8
2
370
    25
100
AcDbLine
 10
631.174545
 20
8.182254
 30
0.0
 11
630.139269
 21
12.045958
 31
0.0
  0
LINE
  5
8C9
100
AcDbEntity
  8
2
370
    25
100
AcDbLine
 10
631.174545
 20
8.182254
 30
0.0
 11
631.174545
 21
78.182254
 31
0.0
  0
LINE
  5
8CA
100
AcDbEntity
  8
2
370
    25
100
AcDbLine
 10
631.174545
 20
78.182254
 30
0.0
 11
630.139269
 21
74.318551
 31
0.0
  0
LINE
  5
8CB
100
AcDbEntity
  8
2
370
    25
100
AcDbLine
 10
631.174545
 20
78.182254
 30
0.0
 11
632.209821
 21
74.318551
 31
0.0
  0
LINE
  5
8CC
100
AcDbEntity
  8
2
370
    25
100
AcDbLine
 10
662.263065
 20
78.182254
 30
0.0
 11
629.174545
 21
78.182254
 31
0.0
  0
ENDBLK
  5
8CD
100
AcDbEntity
  8
2
100
AcDbBlockEnd
  0
BLOCK
  5
8CE
100
AcDbEntity
  8
2
100
AcDbBlockBegin
  2
*D60
 70
     1
 10
0.0
 20
0.0
 30
0.0
  3
*D60
  1

  0
TEXT
  5
8CF
100
AcDbEntity
  8
2
370
    25
100
AcDbText
 10
638.698669
 20
37.182254
 30
0.0
 40
6.0
  1
３１
 50
90.0
 72
     5
 11
638.698669
 21
47.982254
 31
0.0
100
AcDbText
  0
LINE
  5
8D0
100
AcDbEntity
  8
2
370
    25
100
AcDbLine
 10
648.063065
 20
27.682254
 30
0.0
 11
637.698669
 21
27.682254
 31
0.0
  0
LINE
  5
8D1
100
AcDbEntity
  8
2
370
    25
100
AcDbLine
 10
639.698669
 20
27.682254
 30
0.0
 11
640.733946
 21
31.545958
 31
0.0
  0
LINE
  5
8D2
100
AcDbEntity
  8
2
370
    25
100
AcDbLine
 10
639.698669
 20
27.682254
 30
0.0
 11
638.663393
 21
31.545958
 31
0.0
  0
LINE
  5
8D3
100
AcDbEntity
  8
2
370
    25
100
AcDbLine
 10
639.698669
 20
27.682254
 30
0.0
 11
639.698669
 21
58.682254
 31
0.0
  0
LINE
  5
8D4
100
AcDbEntity
  8
2
370
    25
100
AcDbLine
 10
639.698669
 20
58.682254
 30
0.0
 11
638.663393
 21
54.818551
 31
0.0
  0
LINE
  5
8D5
100
AcDbEntity
  8
2
370
    25
100
AcDbLine
 10
639.698669
 20
58.682254
 30
0.0
 11
640.733946
 21
54.818551
 31
0.0
  0
LINE
  5
8D6
100
AcDbEntity
  8
2
370
    25
100
AcDbLine
 10
648.063065
 20
58.682254
 30
0.0
 11
637.698669
 21
58.682254
 31
0.0
  0
ENDBLK
  5
8D7
100
AcDbEntity
  8
2
100
AcDbBlockEnd
  0
BLOCK
  5
8D8
100
AcDbEntity
  8
2
100
AcDbBlockBegin
  2
*D61
 70
     1
 10
0.0
 20
0.0
 30
0.0
  3
*D61
  1

  0
TEXT
  5
8D9
100
AcDbEntity
  8
2
370
    25
100
AcDbText
 10
650.563065
 20
-13.963701
 30
0.0
 40
6.0
  1
１６
 72
     5
 11
661.363065
 21
-13.963701
 31
0.0
100
AcDbText
  0
LINE
  5
8DA
100
AcDbEntity
  8
2
370
    25
100
AcDbLine
 10
648.563065
 20
27.182254
 30
0.0
 11
648.563065
 21
-16.963701
 31
0.0
  0
LINE
  5
8DB
100
AcDbEntity
  8
2
370
    25
100
AcDbLine
 10
648.563065
 20
-14.963701
 30
0.0
 11
652.426768
 21
-15.998978
 31
0.0
  0
LINE
  5
8DC
100
AcDbEntity
  8
2
370
    25
100
AcDbLine
 10
648.563065
 20
-14.963701
 30
0.0
 11
652.426768
 21
-13.928425
 31
0.0
  0
LINE
  5
8DD
100
AcDbEntity
  8
2
370
    25
100
AcDbLine
 10
648.563065
 20
-14.963701
 30
0.0
 11
664.563065
 21
-14.963701
 31
0.0
  0
LINE
  5
8DE
100
AcDbEntity
  8
2
370
    25
100
AcDbLine
 10
664.563065
 20
-14.963701
 30
0.0
 11
660.699361
 21
-13.928425
 31
0.0
  0
LINE
  5
8DF
100
AcDbEntity
  8
2
370
    25
100
AcDbLine
 10
664.563065
 20
-14.963701
 30
0.0
 11
660.699361
 21
-15.998978
 31
0.0
  0
LINE
  5
8E0
100
AcDbEntity
  8
2
370
    25
100
AcDbLine
 10
664.563065
 20
4.682254
 30
0.0
 11
664.563065
 21
-16.963701
 31
0.0
  0
ENDBLK
  5
8E1
100
AcDbEntity
  8
2
100
AcDbBlockEnd
  0
BLOCK
  5
8E2
100
AcDbEntity
  8
2
100
AcDbBlockBegin
  2
*D62
 70
     1
 10
0.0
 20
0.0
 30
0.0
  3
*D62
  1

  0
TEXT
  5
8E3
100
AcDbEntity
  8
2
370
    25
100
AcDbText
 10
733.401502
 20
-49.883127
 30
0.0
 40
6.0
  1
２２
 72
     5
 11
744.201502
 21
-49.883127
 31
0.0
100
AcDbText
  0
LINE
  5
8E4
100
AcDbEntity
  8
2
370
    25
100
AcDbLine
 10
728.401502
 20
-34.110789
 30
0.0
 11
728.401502
 21
-52.883127
 31
0.0
  0
LINE
  5
8E5
100
AcDbEntity
  8
2
370
    25
100
AcDbLine
 10
728.401502
 20
-50.883127
 30
0.0
 11
732.265206
 21
-51.918404
 31
0.0
  0
LINE
  5
8E6
100
AcDbEntity
  8
2
370
    25
100
AcDbLine
 10
728.401502
 20
-50.883127
 30
0.0
 11
732.265206
 21
-49.847851
 31
0.0
  0
LINE
  5
8E7
100
AcDbEntity
  8
2
370
    25
100
AcDbLine
 10
728.401502
 20
-50.883127
 30
0.0
 11
750.401502
 21
-50.883127
 31
0.0
  0
LINE
  5
8E8
100
AcDbEntity
  8
2
370
    25
100
AcDbLine
 10
750.401502
 20
-50.883127
 30
0.0
 11
746.537799
 21
-49.847851
 31
0.0
  0
LINE
  5
8E9
100
AcDbEntity
  8
2
370
    25
100
AcDbLine
 10
750.401502
 20
-50.883127
 30
0.0
 11
746.537799
 21
-51.918404
 31
0.0
  0
LINE
  5
8EA
100
AcDbEntity
  8
2
370
    25
100
AcDbLine
 10
750.401502
 20
-34.110789
 30
0.0
 11
750.401502
 21
-52.883127
 31
0.0
  0
ENDBLK
  5
8EB
100
AcDbEntity
  8
2
100
AcDbBlockEnd
  0
BLOCK
  5
8EC
100
AcDbEntity
  8
2
100
AcDbBlockBegin
  2
*D63
 70
     1
 10
0.0
 20
0.0
 30
0.0
  3
*D63
  1

  0
TEXT
  5
8ED
100
AcDbEntity
  8
2
370
    25
100
AcDbText
 10
672.563065
 20
-3.832533
 30
0.0
 40
6.0
  1
１．４
 72
     5
 11
689.363065
 21
-3.832533
 31
0.0
100
AcDbText
  0
LINE
  5
8EE
100
AcDbEntity
  8
2
370
    25
100
AcDbLine
 10
663.163065
 20
7.182254
 30
0.0
 11
663.163065
 21
-6.832533
 31
0.0
  0
LINE
  5
8EF
100
AcDbEntity
  8
2
370
    25
100
AcDbLine
 10
663.163065
 20
-4.832533
 30
0.0
 11
659.299361
 21
-3.797257
 31
0.0
  0
LINE
  5
8F0
100
AcDbEntity
  8
2
370
    25
100
AcDbLine
 10
663.163065
 20
-4.832533
 30
0.0
 11
659.299361
 21
-5.867809
 31
0.0
  0
LINE
  5
8F1
100
AcDbEntity
  8
2
370
    25
100
AcDbLine
 10
653.163065
 20
-4.832533
 30
0.0
 11
692.563065
 21
-4.832533
 31
0.0
  0
LINE
  5
8F2
100
AcDbEntity
  8
2
370
    25
100
AcDbLine
 10
664.563065
 20
-4.832533
 30
0.0
 11
668.426768
 21
-5.867809
 31
0.0
  0
LINE
  5
8F3
100
AcDbEntity
  8
2
370
    25
100
AcDbLine
 10
664.563065
 20
-4.832533
 30
0.0
 11
668.426768
 21
-3.797257
 31
0.0
  0
LINE
  5
8F4
100
AcDbEntity
  8
2
370
    25
100
AcDbLine
 10
664.563065
 20
4.682254
 30
0.0
 11
664.563065
 21
-6.832533
 31
0.0
  0
ENDBLK
  5
8F5
100
AcDbEntity
  8
2
100
AcDbBlockEnd
  0
ENDSEC
  0
SECTION
  2
ENTITIES
  0
LINE
  5
64
100
AcDbEntity
  8
1
370
    18
  6
CENTER
100
AcDbLine
 10
-364.012143
 20
21.932254
 30
0.0
 11
-364.012143
 21
72.432254
 31
0.0
  0
LINE
  5
65
100
AcDbEntity
  8
1
370
    50
100
AcDbLine
 10
-565.305824
 20
42.882254
 30
0.0
 11
-565.905824
 21
42.882254
 31
0.0
  0
LINE
  5
66
100
AcDbEntity
  8
1
370
    18
  6
CENTER
100
AcDbLine
 10
-578.405824
 20
86.203111
 30
0.0
 11
-578.405824
 21
7.400617
 31
0.0
  0
LINE
  5
67
100
AcDbEntity
  8
1
370
    50
100
AcDbLine
 10
-590.905824
 20
82.182254
 30
0.0
 11
-590.905824
 21
12.182254
 31
0.0
  0
LINE
  5
68
100
AcDbEntity
  8
1
370
    50
100
AcDbLine
 10
-565.905824
 20
82.182254
 30
0.0
 11
-565.905824
 21
12.182254
 31
0.0
  0
LINE
  5
69
100
AcDbEntity
  8
1
370
    50
100
AcDbLine
 10
-590.905824
 20
82.182254
 30
0.0
 11
-565.905824
 21
82.182254
 31
0.0
  0
LINE
  5
6A
100
AcDbEntity
  8
1
370
    50
100
AcDbLine
 10
-590.905824
 20
12.182254
 30
0.0
 11
-565.905824
 21
12.182254
 31
0.0
  0
LINE
  5
6B
100
AcDbEntity
  8
1
370
    18
  6
CENTER
100
AcDbLine
 10
-584.723416
 20
68.682254
 30
0.0
 11
-572.405492
 21
68.682254
 31
0.0
  0
LINE
  5
6C
100
AcDbEntity
  8
1
370
    50
100
AcDbLine
 10
-585.155824
 20
54.148423
 30
0.0
 11
-585.155824
 21
40.216086
 31
0.0
  0
LINE
  5
6D
100
AcDbEntity
  8
1
370
    50
100
AcDbLine
 10
-571.655824
 20
40.216086
 30
0.0
 11
-571.655824
 21
54.148423
 31
0.0
  0
ARC
  5
6E
100
AcDbEntity
  8
1
370
    50
100
AcDbCircle
 10
-578.405824
 20
47.182254
 30
0.0
 40
9.7
100
AcDbArc
 50
225.902913
 51
314.097087
  0
ARC
  5
6F
100
AcDbEntity
  8
1
370
    50
100
AcDbCircle
 10
-578.405824
 20
47.182254
 30
0.0
 40
9.7
100
AcDbArc
 50
45.902913
 51
134.097087
  0
LINE
  5
70
100
AcDbEntity
  8
1
370
    25
100
AcDbLine
 10
-578.405824
 20
70.882254
 30
0.0
 11
-577.905824
 21
70.882254
 31
0.0
  0
ARC
  5
71
100
AcDbEntity
  8
1
370
    25
100
AcDbCircle
 10
-576.205824
 20
70.882254
 30
0.0
 40
1.7
100
AcDbArc
 50
180.0
 51
270.0
  0
LINE
  5
72
100
AcDbEntity
  8
1
370
    25
100
AcDbLine
 10
-576.205824
 20
69.182254
 30
0.0
 11
-576.205824
 21
68.682254
 31
0.0
  0
LINE
  5
73
100
AcDbEntity
  8
1
370
    25
100
AcDbLine
 10
-578.405824
 20
66.482254
 30
0.0
 11
-577.905824
 21
66.482254
 31
0.0
  0
ARC
  5
74
100
AcDbEntity
  8
1
370
    25
100
AcDbCircle
 10
-576.205824
 20
66.482254
 30
0.0
 40
1.7
100
AcDbArc
 50
90.0
 51
180.0
  0
LINE
  5
75
100
AcDbEntity
  8
1
370
    25
100
AcDbLine
 10
-576.205824
 20
68.182254
 30
0.0
 11
-576.205824
 21
68.682254
 31
0.0
  0
LINE
  5
76
100
AcDbEntity
  8
1
370
    25
100
AcDbLine
 10
-578.405824
 20
70.882254
 30
0.0
 11
-578.905824
 21
70.882254
 31
0.0
  0
ARC
  5
77
100
AcDbEntity
  8
1
370
    25
100
AcDbCircle
 10
-580.605824
 20
70.882254
 30
0.0
 40
1.7
100
AcDbArc
 50
270.0
 51
360.0
  0
LINE
  5
78
100
AcDbEntity
  8
1
370
    25
100
AcDbLine
 10
-580.605824
 20
69.182254
 30
0.0
 11
-580.605824
 21
68.682254
 31
0.0
  0
LINE
  5
79
100
AcDbEntity
  8
1
370
    25
100
AcDbLine
 10
-578.405824
 20
66.482254
 30
0.0
 11
-578.905824
 21
66.482254
 31
0.0
  0
ARC
  5
7A
100
AcDbEntity
  8
1
370
    25
100
AcDbCircle
 10
-580.605824
 20
66.482254
 30
0.0
 40
1.7
100
AcDbArc
 50
0.0
 51
90.0
  0
LINE
  5
7B
100
AcDbEntity
  8
1
370
    25
100
AcDbLine
 10
-580.605824
 20
68.182254
 30
0.0
 11
-580.605824
 21
68.682254
 31
0.0
  0
CIRCLE
  5
7C
100
AcDbEntity
  8
1
370
    50
100
AcDbCircle
 10
-578.405824
 20
68.682254
 30
0.0
 40
4.0
  0
LINE
  5
7D
100
AcDbEntity
  8
1
370
    25
100
AcDbLine
 10
-578.405824
 20
27.882254
 30
0.0
 11
-577.905824
 21
27.882254
 31
0.0
  0
ARC
  5
7E
100
AcDbEntity
  8
1
370
    25
100
AcDbCircle
 10
-576.205824
 20
27.882254
 30
0.0
 40
1.7
100
AcDbArc
 50
180.0
 51
270.0
  0
LINE
  5
7F
100
AcDbEntity
  8
1
370
    25
100
AcDbLine
 10
-576.205824
 20
26.182254
 30
0.0
 11
-576.205824
 21
25.682254
 31
0.0
  0
LINE
  5
80
100
AcDbEntity
  8
1
370
    25
100
AcDbLine
 10
-578.405824
 20
23.482254
 30
0.0
 11
-577.905824
 21
23.482254
 31
0.0
  0
ARC
  5
81
100
AcDbEntity
  8
1
370
    25
100
AcDbCircle
 10
-576.205824
 20
23.482254
 30
0.0
 40
1.7
100
AcDbArc
 50
90.0
 51
180.0
  0
LINE
  5
82
100
AcDbEntity
  8
1
370
    25
100
AcDbLine
 10
-576.205824
 20
25.182254
 30
0.0
 11
-576.205824
 21
25.682254
 31
0.0
  0
LINE
  5
83
100
AcDbEntity
  8
1
370
    25
100
AcDbLine
 10
-578.405824
 20
27.882254
 30
0.0
 11
-578.905824
 21
27.882254
 31
0.0
  0
ARC
  5
84
100
AcDbEntity
  8
1
370
    25
100
AcDbCircle
 10
-580.605824
 20
27.882254
 30
0.0
 40
1.7
100
AcDbArc
 50
270.0
 51
360.0
  0
LINE
  5
85
100
AcDbEntity
  8
1
370
    25
100
AcDbLine
 10
-580.605824
 20
26.182254
 30
0.0
 11
-580.605824
 21
25.682254
 31
0.0
  0
LINE
  5
86
100
AcDbEntity
  8
1
370
    25
100
AcDbLine
 10
-578.405824
 20
23.482254
 30
0.0
 11
-578.905824
 21
23.482254
 31
0.0
  0
ARC
  5
87
100
AcDbEntity
  8
1
370
    25
100
AcDbCircle
 10
-580.605824
 20
23.482254
 30
0.0
 40
1.7
100
AcDbArc
 50
0.0
 51
90.0
  0
LINE
  5
88
100
AcDbEntity
  8
1
370
    25
100
AcDbLine
 10
-580.605824
 20
25.182254
 30
0.0
 11
-580.605824
 21
25.682254
 31
0.0
  0
CIRCLE
  5
89
100
AcDbEntity
  8
1
370
    50
100
AcDbCircle
 10
-578.405824
 20
25.682254
 30
0.0
 40
4.0
  0
LINE
  5
8A
100
AcDbEntity
  8
1
370
    18
  6
CENTER
100
AcDbLine
 10
-584.290627
 20
25.682254
 30
0.0
 11
-572.187253
 21
25.682254
 31
0.0
  0
LINE
  5
8B
100
AcDbEntity
  8
1
370
    18
  6
CENTER
100
AcDbLine
 10
-578.405824
 20
133.344559
 30
0.0
 11
-578.405824
 21
230.324202
 31
0.0
  0
LINE
  5
8C
100
AcDbEntity
  8
1
370
    50
100
AcDbLine
 10
-571.655824
 20
136.141905
 30
0.0
 11
-585.155824
 21
136.141905
 31
0.0
  0
LINE
  5
8D
100
AcDbEntity
  8
1
370
    50
100
AcDbLine
 10
-565.905824
 20
151.141905
 30
0.0
 11
-590.905824
 21
151.141905
 31
0.0
  0
LINE
  5
8E
100
AcDbEntity
  8
1
370
    50
100
AcDbLine
 10
-565.905824
 20
152.641905
 30
0.0
 11
-590.905824
 21
152.641905
 31
0.0
  0
LINE
  5
8F
100
AcDbEntity
  8
1
370
    50
100
AcDbLine
 10
-566.205824
 20
155.341905
 30
0.0
 11
-590.605824
 21
155.341905
 31
0.0
  0
LINE
  5
90
100
AcDbEntity
  8
1
370
    50
100
AcDbLine
 10
-571.705824
 20
184.141905
 30
0.0
 11
-585.105824
 21
184.141905
 31
0.0
  0
LINE
  5
91
100
AcDbEntity
  8
1
370
    50
100
AcDbLine
 10
-590.905824
 20
151.141905
 30
0.0
 11
-590.905824
 21
152.641905
 31
0.0
  0
LINE
  5
92
100
AcDbEntity
  8
1
370
    50
100
AcDbLine
 10
-565.905824
 20
151.141905
 30
0.0
 11
-565.905824
 21
152.641905
 31
0.0
  0
LINE
  5
93
100
AcDbEntity
  8
1
370
    50
100
AcDbLine
 10
-585.155824
 20
151.141905
 30
0.0
 11
-585.155824
 21
136.141905
 31
0.0
  0
LINE
  5
94
100
AcDbEntity
  8
1
370
    50
100
AcDbLine
 10
-571.655824
 20
151.141905
 30
0.0
 11
-571.655824
 21
136.141905
 31
0.0
  0
LINE
  5
95
100
AcDbEntity
  8
1
370
    50
100
AcDbLine
 10
-590.905824
 20
152.641905
 30
0.0
 11
-590.605824
 21
155.341905
 31
0.0
  0
LINE
  5
96
100
AcDbEntity
  8
1
370
    50
100
AcDbLine
 10
-566.205824
 20
155.341905
 30
0.0
 11
-565.905824
 21
152.641905
 31
0.0
  0
LINE
  5
97
100
AcDbEntity
  8
1
370
    50
100
AcDbLine
 10
-587.155824
 20
155.341905
 30
0.0
 11
-587.155824
 21
176.325282
 31
0.0
  0
LINE
  5
98
100
AcDbEntity
  8
1
370
    50
100
AcDbLine
 10
-569.655824
 20
176.325282
 30
0.0
 11
-569.655824
 21
155.341905
 31
0.0
  0
LINE
  5
99
100
AcDbEntity
  8
1
370
    50
100
AcDbLine
 10
-571.705824
 20
177.641905
 30
0.0
 11
-571.705824
 21
220.941905
 31
0.0
  0
LINE
  5
9A
100
AcDbEntity
  8
1
370
    50
100
AcDbLine
 10
-585.105824
 20
177.641905
 30
0.0
 11
-585.105824
 21
220.941905
 31
0.0
  0
LINE
  5
9B
100
AcDbEntity
  8
1
370
    50
100
AcDbLine
 10
-583.905824
 20
222.141905
 30
0.0
 11
-583.905824
 21
225.728691
 31
0.0
  0
LINE
  5
9C
100
AcDbEntity
  8
1
370
    50
100
AcDbLine
 10
-572.905824
 20
225.728691
 30
0.0
 11
-572.905824
 21
222.141905
 31
0.0
  0
LINE
  5
9D
100
AcDbEntity
  8
1
370
    50
100
AcDbLine
 10
-585.105824
 20
177.641905
 30
0.0
 11
-586.414643
 21
177.291208
 31
0.0
  0
LINE
  5
9E
100
AcDbEntity
  8
1
370
    50
100
AcDbLine
 10
-571.705824
 20
177.641905
 30
0.0
 11
-570.397004
 21
177.291208
 31
0.0
  0
LINE
  5
9F
100
AcDbEntity
  8
1
370
    50
100
AcDbLine
 10
-571.705824
 20
220.141905
 30
0.0
 11
-585.105824
 21
220.141905
 31
0.0
  0
LINE
  5
A0
100
AcDbEntity
  8
1
370
    50
100
AcDbLine
 10
-583.905824
 20
222.141905
 30
0.0
 11
-585.105824
 21
220.941905
 31
0.0
  0
LINE
  5
A1
100
AcDbEntity
  8
1
370
    50
100
AcDbLine
 10
-572.905824
 20
222.141905
 30
0.0
 11
-571.705824
 21
220.941905
 31
0.0
  0
LINE
  5
A2
100
AcDbEntity
  8
1
370
    50
100
AcDbLine
 10
-582.996359
 20
226.724584
 30
0.0
 11
-578.405824
 21
227.141905
 31
0.0
  0
LINE
  5
A3
100
AcDbEntity
  8
1
370
    50
100
AcDbLine
 10
-578.405824
 20
227.141905
 30
0.0
 11
-573.815288
 21
226.724584
 31
0.0
  0
ARC
  5
A4
100
AcDbEntity
  8
1
370
    50
100
AcDbCircle
 10
-582.905824
 20
225.728691
 30
0.0
 40
1.0
100
AcDbArc
 50
95.194429
 51
180.0
  0
ARC
  5
A5
100
AcDbEntity
  8
1
370
    50
100
AcDbCircle
 10
-573.905824
 20
225.728691
 30
0.0
 40
1.0
100
AcDbArc
 50
0.0
 51
84.805571
  0
ARC
  5
A6
100
AcDbEntity
  8
1
370
    50
100
AcDbCircle
 10
-586.155824
 20
176.325282
 30
0.0
 40
1.0
100
AcDbArc
 50
105.0
 51
180.0
  0
ARC
  5
A7
100
AcDbEntity
  8
1
370
    50
100
AcDbCircle
 10
-570.655824
 20
176.325282
 30
0.0
 40
1.0
100
AcDbArc
 50
360.0
 51
75.0
  0
LINE
  5
A8
100
AcDbEntity
  8
1
370
    50
100
AcDbLine
 10
-577.905824
 20
217.341905
 30
0.0
 11
-578.905824
 21
217.341905
 31
0.0
  0
LINE
  5
A9
100
AcDbEntity
  8
1
370
    50
100
AcDbLine
 10
-577.905824
 20
186.941905
 30
0.0
 11
-578.905824
 21
186.941905
 31
0.0
  0
LINE
  5
AA
100
AcDbEntity
  8
1
370
    50
100
AcDbLine
 10
-579.905824
 20
194.141905
 30
0.0
 11
-579.905824
 21
210.141905
 31
0.0
  0
LINE
  5
AB
100
AcDbEntity
  8
1
370
    50
100
AcDbLine
 10
-578.905824
 20
186.941905
 30
0.0
 11
-578.905824
 21
194.141905
 31
0.0
  0
LINE
  5
AC
100
AcDbEntity
  8
1
370
    50
100
AcDbLine
 10
-578.905824
 20
210.141905
 30
0.0
 11
-578.905824
 21
217.341905
 31
0.0
  0
LINE
  5
AD
100
AcDbEntity
  8
1
370
    50
100
AcDbLine
 10
-575.405824
 20
194.141905
 30
0.0
 11
-575.405824
 21
210.141905
 31
0.0
  0
LINE
  5
AE
100
AcDbEntity
  8
1
370
    50
100
AcDbLine
 10
-577.905824
 20
186.941905
 30
0.0
 11
-577.905824
 21
194.141905
 31
0.0
  0
LINE
  5
AF
100
AcDbEntity
  8
1
370
    50
100
AcDbLine
 10
-577.905824
 20
210.141905
 30
0.0
 11
-577.905824
 21
217.341905
 31
0.0
  0
LINE
  5
B0
100
AcDbEntity
  8
1
370
    50
100
AcDbLine
 10
-575.405824
 20
194.141905
 30
0.0
 11
-577.905824
 21
194.141905
 31
0.0
  0
LINE
  5
B1
100
AcDbEntity
  8
1
370
    50
100
AcDbLine
 10
-578.905824
 20
194.141905
 30
0.0
 11
-579.905824
 21
194.141905
 31
0.0
  0
LINE
  5
B2
100
AcDbEntity
  8
1
370
    50
100
AcDbLine
 10
-575.405824
 20
210.141905
 30
0.0
 11
-577.905824
 21
210.141905
 31
0.0
  0
LINE
  5
B3
100
AcDbEntity
  8
1
370
    50
100
AcDbLine
 10
-578.905824
 20
210.141905
 30
0.0
 11
-579.905824
 21
210.141905
 31
0.0
  0
LINE
  5
B4
100
AcDbEntity
  8
1
370
    50
100
AcDbLine
 10
-578.405824
 20
173.641908
 30
0.0
 11
-578.405824
 21
186.941905
 31
0.0
  0
LINE
  5
B5
100
AcDbEntity
  8
1
370
    50
100
AcDbLine
 10
-578.405824
 20
217.341905
 30
0.0
 11
-578.405824
 21
227.141905
 31
0.0
  0
LINE
  5
B6
100
AcDbEntity
  8
1
370
    50
100
AcDbLine
 10
-579.905824
 20
207.141905
 30
0.0
 11
-577.305824
 21
207.141905
 31
0.0
  0
LINE
  5
B7
100
AcDbEntity
  8
1
370
    50
100
AcDbLine
 10
-579.905824
 20
200.841905
 30
0.0
 11
-577.305824
 21
200.841905
 31
0.0
  0
LINE
  5
B8
100
AcDbEntity
  8
1
370
    50
100
AcDbLine
 10
-579.905824
 20
197.841905
 30
0.0
 11
-577.305824
 21
197.841905
 31
0.0
  0
LINE
  5
B9
100
AcDbEntity
  8
1
370
    50
100
AcDbLine
 10
-577.305824
 20
207.141905
 30
0.0
 11
-577.305824
 21
197.841905
 31
0.0
  0
LINE
  5
BA
100
AcDbEntity
  8
1
370
    50
100
AcDbLine
 10
-579.405824
 20
197.841905
 30
0.0
 11
-579.405824
 21
194.141905
 31
0.0
  0
LINE
  5
BB
100
AcDbEntity
  8
1
370
    18
  6
CENTER
100
AcDbLine
 10
-527.53714
 20
202.141905
 30
0.0
 11
-629.751572
 21
202.141905
 31
0.0
  0
LINE
  5
BC
100
AcDbEntity
  8
1
370
    18
  6
CENTER
100
AcDbLine
 10
-549.331551
 20
191.141905
 30
0.0
 11
-607.789124
 21
191.141905
 31
0.0
  0
LINE
  5
BD
100
AcDbEntity
  8
1
370
    18
  6
CENTER
100
AcDbLine
 10
-549.331551
 20
213.141905
 30
0.0
 11
-607.789124
 21
213.141905
 31
0.0
  0
LINE
  5
BE
100
AcDbEntity
  8
1
370
    50
100
AcDbLine
 10
-571.705824
 20
216.141905
 30
0.0
 11
-558.405824
 21
216.141905
 31
0.0
  0
LINE
  5
BF
100
AcDbEntity
  8
1
370
    50
100
AcDbLine
 10
-571.705824
 20
210.141905
 30
0.0
 11
-558.405824
 21
210.141905
 31
0.0
  0
LINE
  5
C0
100
AcDbEntity
  8
1
370
    50
100
AcDbLine
 10
-571.705824
 20
194.141905
 30
0.0
 11
-558.405824
 21
194.141905
 31
0.0
  0
LINE
  5
C1
100
AcDbEntity
  8
1
370
    50
100
AcDbLine
 10
-571.705824
 20
188.141905
 30
0.0
 11
-558.405824
 21
188.141905
 31
0.0
  0
LINE
  5
C2
100
AcDbEntity
  8
1
370
    50
100
AcDbLine
 10
-589.605824
 20
205.076398
 30
0.0
 11
-585.105824
 21
205.076398
 31
0.0
  0
LINE
  5
C3
100
AcDbEntity
  8
1
370
    50
100
AcDbLine
 10
-571.705824
 20
205.076398
 30
0.0
 11
-567.205824
 21
205.076398
 31
0.0
  0
LINE
  5
C4
100
AcDbEntity
  8
1
370
    50
100
AcDbLine
 10
-589.605824
 20
200.621626
 30
0.0
 11
-585.105824
 21
200.621626
 31
0.0
  0
LINE
  5
C5
100
AcDbEntity
  8
1
370
    50
100
AcDbLine
 10
-571.705824
 20
200.621626
 30
0.0
 11
-567.205824
 21
200.621626
 31
0.0
  0
LINE
  5
C6
100
AcDbEntity
  8
1
370
    50
100
AcDbLine
 10
-589.605824
 20
199.207412
 30
0.0
 11
-585.105824
 21
199.207412
 31
0.0
  0
LINE
  5
C7
100
AcDbEntity
  8
1
370
    50
100
AcDbLine
 10
-571.705824
 20
199.207412
 30
0.0
 11
-567.205824
 21
199.207412
 31
0.0
  0
LINE
  5
C8
100
AcDbEntity
  8
1
370
    25
100
AcDbLine
 10
-598.405824
 20
211.541905
 30
0.0
 11
-585.105824
 21
211.541905
 31
0.0
  0
LINE
  5
C9
100
AcDbEntity
  8
1
370
    25
100
AcDbLine
 10
-585.105824
 20
214.741905
 30
0.0
 11
-598.405824
 21
214.741905
 31
0.0
  0
LINE
  5
CA
100
AcDbEntity
  8
1
370
    50
100
AcDbLine
 10
-585.105824
 20
189.141905
 30
0.0
 11
-598.405824
 21
189.141905
 31
0.0
  0
LINE
  5
CB
100
AcDbEntity
  8
1
370
    50
100
AcDbLine
 10
-585.105824
 20
193.141905
 30
0.0
 11
-598.405824
 21
193.141905
 31
0.0
  0
LINE
  5
CC
100
AcDbEntity
  8
1
370
    25
100
AcDbLine
 10
-598.405824
 20
189.541905
 30
0.0
 11
-585.105824
 21
189.541905
 31
0.0
  0
LINE
  5
CD
100
AcDbEntity
  8
1
370
    25
100
AcDbLine
 10
-585.105824
 20
192.741905
 30
0.0
 11
-598.405824
 21
192.741905
 31
0.0
  0
LINE
  5
CE
100
AcDbEntity
  8
1
370
    50
100
AcDbLine
 10
-415.012143
 20
82.182254
 30
0.0
 11
-415.012143
 21
12.182254
 31
0.0
  0
LINE
  5
CF
100
AcDbEntity
  8
1
370
    50
100
AcDbLine
 10
-410.812143
 20
81.882254
 30
0.0
 11
-410.812143
 21
12.482254
 31
0.0
  0
LINE
  5
D0
100
AcDbEntity
  8
1
370
    50
100
AcDbLine
 10
-415.012143
 20
82.182254
 30
0.0
 11
-413.512143
 21
82.182254
 31
0.0
  0
LINE
  5
D1
100
AcDbEntity
  8
1
370
    50
100
AcDbLine
 10
-415.012143
 20
12.182254
 30
0.0
 11
-413.512143
 21
12.182254
 31
0.0
  0
LINE
  5
D2
100
AcDbEntity
  8
1
370
    50
100
AcDbLine
 10
-413.512143
 20
82.182254
 30
0.0
 11
-413.512143
 21
12.182254
 31
0.0
  0
LINE
  5
D3
100
AcDbEntity
  8
1
370
    50
100
AcDbLine
 10
-413.512143
 20
12.182254
 30
0.0
 11
-410.812143
 21
12.482254
 31
0.0
  0
LINE
  5
D4
100
AcDbEntity
  8
1
370
    50
100
AcDbLine
 10
-413.512143
 20
82.182254
 30
0.0
 11
-410.812143
 21
81.882254
 31
0.0
  0
LINE
  5
D5
100
AcDbEntity
  8
1
370
    50
100
AcDbLine
 10
-430.012143
 20
56.682254
 30
0.0
 11
-430.012143
 21
37.682254
 31
0.0
  0
LINE
  5
D6
100
AcDbEntity
  8
1
370
    50
100
AcDbLine
 10
-415.012143
 20
56.882254
 30
0.0
 11
-429.812143
 21
56.882254
 31
0.0
  0
LINE
  5
D7
100
AcDbEntity
  8
1
370
    50
100
AcDbLine
 10
-415.012143
 20
37.482254
 30
0.0
 11
-429.812143
 21
37.482254
 31
0.0
  0
LINE
  5
D8
100
AcDbEntity
  8
1
370
    50
100
AcDbLine
 10
-430.012143
 20
54.148423
 30
0.0
 11
-415.012143
 21
54.148423
 31
0.0
  0
LINE
  5
D9
100
AcDbEntity
  8
1
370
    50
100
AcDbLine
 10
-430.012143
 20
40.216086
 30
0.0
 11
-415.012143
 21
40.216086
 31
0.0
  0
LINE
  5
DA
100
AcDbEntity
  8
1
370
    50
100
AcDbLine
 10
-429.812143
 20
56.882254
 30
0.0
 11
-430.012143
 21
56.682254
 31
0.0
  0
LINE
  5
DB
100
AcDbEntity
  8
1
370
    50
100
AcDbLine
 10
-429.812143
 20
37.482254
 30
0.0
 11
-430.012143
 21
37.682254
 31
0.0
  0
LINE
  5
DC
100
AcDbEntity
  8
1
370
    50
100
AcDbLine
 10
-339.012143
 20
54.682254
 30
0.0
 11
-339.012143
 21
39.682254
 31
0.0
  0
LINE
  5
DD
100
AcDbEntity
  8
1
370
    50
100
AcDbLine
 10
-388.512143
 20
56.528911
 30
0.0
 11
-388.512143
 21
37.082749
 31
0.0
  0
LINE
  5
DE
100
AcDbEntity
  8
1
370
    50
100
AcDbLine
 10
-389.512143
 20
54.64466
 30
0.0
 11
-389.512143
 21
39.719849
 31
0.0
  0
LINE
  5
DF
100
AcDbEntity
  8
1
370
    50
100
AcDbLine
 10
-389.512143
 20
54.64466
 30
0.0
 11
-410.812143
 21
54.64466
 31
0.0
  0
LINE
  5
E0
100
AcDbEntity
  8
1
370
    50
100
AcDbLine
 10
-389.512143
 20
39.719849
 30
0.0
 11
-410.812143
 21
39.719849
 31
0.0
  0
LINE
  5
E1
100
AcDbEntity
  8
1
370
    50
100
AcDbLine
 10
-388.512143
 20
56.528911
 30
0.0
 11
-382.817461
 21
56.528911
 31
0.0
  0
LINE
  5
E2
100
AcDbEntity
  8
1
370
    50
100
AcDbLine
 10
-388.512143
 20
37.082749
 30
0.0
 11
-382.424096
 21
37.082749
 31
0.0
  0
LINE
  5
E3
100
AcDbEntity
  8
1
370
    50
100
AcDbLine
 10
-345.60019
 20
37.082749
 30
0.0
 11
-342.111648
 21
37.082749
 31
0.0
  0
LINE
  5
E4
100
AcDbEntity
  8
1
370
    50
100
AcDbLine
 10
-410.812143
 20
35.682254
 30
0.0
 11
-381.583426
 21
35.682254
 31
0.0
  0
LINE
  5
E5
100
AcDbEntity
  8
1
370
    50
100
AcDbLine
 10
-346.44086
 20
35.682254
 30
0.0
 11
-343.012143
 21
35.682254
 31
0.0
  0
LINE
  5
E6
100
AcDbEntity
  8
1
370
    50
100
AcDbLine
 10
-410.812143
 20
58.682254
 30
0.0
 11
-381.583426
 21
58.682254
 31
0.0
  0
LINE
  5
E7
100
AcDbEntity
  8
1
370
    50
100
AcDbLine
 10
-346.44086
 20
58.682254
 30
0.0
 11
-343.012143
 21
58.682254
 31
0.0
  0
LINE
  5
E8
100
AcDbEntity
  8
1
370
    50
100
AcDbLine
 10
-384.524334
 20
51.682254
 30
0.0
 11
-388.512143
 21
51.682254
 31
0.0
  0
LINE
  5
E9
100
AcDbEntity
  8
1
370
    50
100
AcDbLine
 10
-345.60019
 20
57.281759
 30
0.0
 11
-342.111648
 21
57.281759
 31
0.0
  0
ARC
  5
EA
100
AcDbEntity
  8
1
370
    50
100
AcDbCircle
 10
-343.012143
 20
54.682254
 30
0.0
 40
4.0
100
AcDbArc
 50
0.0
 51
90.0
  0
ARC
  5
EB
100
AcDbEntity
  8
1
370
    50
100
AcDbCircle
 10
-343.012143
 20
39.682254
 30
0.0
 40
4.0
100
AcDbArc
 50
270.0
 51
360.0
  0
LINE
  5
EC
100
AcDbEntity
  8
1
370
    50
100
AcDbLine
 10
-388.512143
 20
56.528911
 30
0.0
 11
-389.512143
 21
54.64466
 31
0.0
  0
LINE
  5
ED
100
AcDbEntity
  8
1
370
    50
100
AcDbLine
 10
-389.512143
 20
39.719849
 30
0.0
 11
-388.512143
 21
37.082749
 31
0.0
  0
LINE
  5
EE
100
AcDbEntity
  8
1
370
    18
  6
CENTER
100
AcDbLine
 10
-416.754941
 20
68.682254
 30
0.0
 11
-390.569668
 21
68.682254
 31
0.0
  0
LINE
  5
EF
100
AcDbEntity
  8
1
370
    18
  6
CENTER
100
AcDbLine
 10
-391.445427
 20
25.682254
 30
0.0
 11
-417.497701
 21
25.682254
 31
0.0
  0
LINE
  5
F0
100
AcDbEntity
  8
1
370
    18
  6
CENTER
100
AcDbLine
 10
-434.149228
 20
47.182254
 30
0.0
 11
-333.784718
 21
47.182254
 31
0.0
  0
LINE
  5
F1
100
AcDbEntity
  8
1
370
    50
100
AcDbLine
 10
-339.512143
 20
54.682254
 30
0.0
 11
-339.512143
 21
39.682254
 31
0.0
  0
ARC
  5
F2
100
AcDbEntity
  8
1
370
    50
100
AcDbCircle
 10
-342.111648
 20
54.682254
 30
0.0
 40
2.599505
100
AcDbArc
 50
0.0
 51
90.0
  0
ARC
  5
F3
100
AcDbEntity
  8
1
370
    50
100
AcDbCircle
 10
-342.111648
 20
39.682254
 30
0.0
 40
2.599505
100
AcDbArc
 50
270.0
 51
360.0
  0
LINE
  5
F4
100
AcDbEntity
  8
1
370
    50
100
AcDbLine
 10
-598.405824
 20
223.141905
 30
0.0
 11
-598.405824
 21
181.141905
 31
0.0
  0
LINE
  5
F5
100
AcDbEntity
  8
1
370
    50
100
AcDbLine
 10
-598.405824
 20
223.141905
 30
0.0
 11
-607.455761
 21
222.689408
 31
0.0
  0
LINE
  5
F6
100
AcDbEntity
  8
1
370
    50
100
AcDbLine
 10
-608.405824
 20
221.690656
 30
0.0
 11
-608.405824
 21
182.593154
 31
0.0
  0
LINE
  5
F7
100
AcDbEntity
  8
1
370
    50
100
AcDbLine
 10
-607.455761
 20
181.594402
 30
0.0
 11
-598.405824
 21
181.141905
 31
0.0
  0
ARC
  5
F8
100
AcDbEntity
  8
1
370
    50
100
AcDbCircle
 10
-607.405824
 20
221.690656
 30
0.0
 40
1.0
100
AcDbArc
 50
92.862405
 51
180.0
  0
ARC
  5
F9
100
AcDbEntity
  8
1
370
    50
100
AcDbCircle
 10
-607.405824
 20
182.593154
 30
0.0
 40
1.0
100
AcDbArc
 50
180.0
 51
267.137595
  0
LINE
  5
FA
100
AcDbEntity
  8
1
370
    50
100
AcDbLine
 10
-608.405824
 20
208.141905
 30
0.0
 11
-608.905824
 21
208.141905
 31
0.0
  0
LINE
  5
FB
100
AcDbEntity
  8
1
370
    50
100
AcDbLine
 10
-608.905824
 20
196.141905
 30
0.0
 11
-608.405824
 21
196.141905
 31
0.0
  0
LINE
  5
FC
100
AcDbEntity
  8
1
370
    50
100
AcDbLine
 10
-625.905824
 20
201.139221
 30
0.0
 11
-625.905824
 21
203.14459
 31
0.0
  0
LINE
  5
FD
100
AcDbEntity
  8
1
370
    50
100
AcDbLine
 10
-609.405824
 20
208.641905
 30
0.0
 11
-610.818293
 21
208.641905
 31
0.0
  0
LINE
  5
FE
100
AcDbEntity
  8
1
370
    50
100
AcDbLine
 10
-609.405824
 20
195.641905
 30
0.0
 11
-610.818293
 21
195.641905
 31
0.0
  0
LINE
  5
FF
100
AcDbEntity
  8
1
370
    50
100
AcDbLine
 10
-608.905824
 20
208.141905
 30
0.0
 11
-608.905824
 21
196.141905
 31
0.0
  0
ARC
  5
100
100
AcDbEntity
  8
1
370
    50
100
AcDbCircle
 10
-625.905824
 20
249.706191
 30
0.0
 40
46.064286
100
AcDbArc
 50
270.615245
 51
278.65448
  0
ARC
  5
101
100
AcDbEntity
  8
1
370
    50
100
AcDbCircle
 10
-630.804557
 20
231.180986
 30
0.0
 40
30.0
100
AcDbArc
 50
301.082792
 51
310.941443
  0
ARC
  5
102
100
AcDbEntity
  8
1
370
    50
100
AcDbCircle
 10
-620.479034
 20
214.052542
 30
0.0
 40
10.0
100
AcDbArc
 50
278.65448
 51
301.082792
  0
ARC
  5
103
100
AcDbEntity
  8
1
370
    50
100
AcDbCircle
 10
-625.905824
 20
154.577619
 30
0.0
 40
46.064286
100
AcDbArc
 50
81.34552
 51
89.384755
  0
ARC
  5
104
100
AcDbEntity
  8
1
370
    50
100
AcDbCircle
 10
-630.804557
 20
173.102825
 30
0.0
 40
30.0
100
AcDbArc
 50
49.058557
 51
58.917208
  0
ARC
  5
105
100
AcDbEntity
  8
1
370
    50
100
AcDbCircle
 10
-620.479034
 20
190.231268
 30
0.0
 40
10.0
100
AcDbArc
 50
58.917208
 51
81.34552
  0
ARC
  5
106
100
AcDbEntity
  8
1
370
    50
100
AcDbCircle
 10
-625.405824
 20
203.14459
 30
0.0
 40
0.5
100
AcDbArc
 50
90.615245
 51
180.0
  0
ARC
  5
107
100
AcDbEntity
  8
1
370
    50
100
AcDbCircle
 10
-625.405824
 20
201.139221
 30
0.0
 40
0.5
100
AcDbArc
 50
180.0
 51
269.384755
  0
ARC
  5
108
100
AcDbEntity
  8
1
370
    50
100
AcDbCircle
 10
-610.818293
 20
208.141905
 30
0.0
 40
0.5
100
AcDbArc
 50
90.0
 51
130.941443
  0
ARC
  5
109
100
AcDbEntity
  8
1
370
    50
100
AcDbCircle
 10
-610.818293
 20
196.141905
 30
0.0
 40
0.5
100
AcDbArc
 50
229.058557
 51
270.0
  0
ARC
  5
10A
100
AcDbEntity
  8
1
370
    50
100
AcDbCircle
 10
-609.405824
 20
208.141905
 30
0.0
 40
0.5
100
AcDbArc
 50
0.0
 51
90.0
  0
ARC
  5
10B
100
AcDbEntity
  8
1
370
    50
100
AcDbCircle
 10
-609.405824
 20
196.141905
 30
0.0
 40
0.5
100
AcDbArc
 50
270.0
 51
360.0
  0
LINE
  5
10C
100
AcDbEntity
  8
1
370
    18
  6
CENTER
100
AcDbLine
 10
-544.234634
 20
47.182254
 30
0.0
 11
-612.953552
 21
47.182254
 31
0.0
  0
LINE
  5
10D
100
AcDbEntity
  8
1
370
    18
  6
CENTER
100
AcDbLine
 10
-525.733261
 20
42.882254
 30
0.0
 11
-629.823281
 21
42.882254
 31
0.0
  0
CIRCLE
  5
10E
100
AcDbEntity
  8
1
370
    50
100
AcDbCircle
 10
-364.012143
 20
47.182254
 30
0.0
 40
21.0
  0
LINE
  5
10F
100
AcDbEntity
  8
1
370
    50
100
AcDbLine
 10
-598.405824
 20
68.182254
 30
0.0
 11
-598.405824
 21
26.182254
 31
0.0
  0
LINE
  5
110
100
AcDbEntity
  8
1
370
    50
100
AcDbLine
 10
-598.405824
 20
68.182254
 30
0.0
 11
-607.455761
 21
67.729757
 31
0.0
  0
LINE
  5
111
100
AcDbEntity
  8
1
370
    50
100
AcDbLine
 10
-607.455761
 20
26.634751
 30
0.0
 11
-598.405824
 21
26.182254
 31
0.0
  0
LINE
  5
112
100
AcDbEntity
  8
1
370
    18
  6
CENTER
100
AcDbLine
 10
-690.680402
 20
47.182254
 30
0.0
 11
-739.680402
 21
47.182254
 31
0.0
  0
LINE
  5
113
100
AcDbEntity
  8
1
370
    18
  6
CENTER
100
AcDbLine
 10
-715.180402
 20
22.682254
 30
0.0
 11
-715.180402
 21
71.682254
 31
0.0
  0
LINE
  5
114
100
AcDbEntity
  8
1
370
    50
100
AcDbLine
 10
-608.905824
 20
55.828474
 30
0.0
 11
-608.905824
 21
29.936034
 31
0.0
  0
ARC
  5
115
100
AcDbEntity
  8
1
370
    50
100
AcDbCircle
 10
-610.905824
 20
42.882254
 30
0.0
 40
15.0
100
AcDbArc
 50
132.174263
 51
227.825737
  0
LINE
  5
116
100
AcDbEntity
  8
1
370
    50
100
AcDbLine
 10
-608.405824
 20
48.882254
 30
0.0
 11
-608.905824
 21
48.882254
 31
0.0
  0
LINE
  5
117
100
AcDbEntity
  8
1
370
    50
100
AcDbLine
 10
-608.905824
 20
36.882254
 30
0.0
 11
-608.405824
 21
36.882254
 31
0.0
  0
ARC
  5
118
100
AcDbEntity
  8
1
370
    25
100
AcDbCircle
 10
-624.505995
 20
42.882254
 30
0.0
 40
14.600172
100
AcDbArc
 50
302.675266
 51
58.07404
  0
LINE
  5
119
100
AcDbEntity
  8
1
370
    50
100
AcDbLine
 10
-609.958159
 20
56.827104
 30
0.0
 11
-614.786122
 21
56.574081
 31
0.0
  0
LINE
  5
11A
100
AcDbEntity
  8
1
370
    50
100
AcDbLine
 10
-609.958159
 20
28.937405
 30
0.0
 11
-614.786122
 21
29.190428
 31
0.0
  0
ARC
  5
11B
100
AcDbEntity
  8
1
370
    50
100
AcDbCircle
 10
-614.262762
 20
46.587786
 30
0.0
 40
10.0
100
AcDbArc
 50
93.0
 51
132.174263
  0
ARC
  5
11C
100
AcDbEntity
  8
1
370
    50
100
AcDbCircle
 10
-614.262762
 20
39.176723
 30
0.0
 40
10.0
100
AcDbArc
 50
227.825737
 51
267.0
  0
ARC
  5
11D
100
AcDbEntity
  8
1
370
    50
100
AcDbCircle
 10
-609.905824
 20
55.828474
 30
0.0
 40
1.0
100
AcDbArc
 50
0.0
 51
93.0
  0
ARC
  5
11E
100
AcDbEntity
  8
1
370
    50
100
AcDbCircle
 10
-609.905824
 20
29.936034
 30
0.0
 40
1.0
100
AcDbArc
 50
267.0
 51
360.0
  0
ARC
  5
11F
100
AcDbEntity
  8
1
370
    50
100
AcDbCircle
 10
-730.716116
 20
42.882254
 30
0.0
 40
22.035714
100
AcDbArc
 50
324.699752
 51
35.300248
  0
ARC
  5
120
100
AcDbEntity
  8
1
370
    50
100
AcDbCircle
 10
-699.644687
 20
42.882254
 30
0.0
 40
22.035714
100
AcDbArc
 50
144.699752
 51
215.300248
  0
ARC
  5
121
100
AcDbEntity
  8
1
370
    50
100
AcDbCircle
 10
-715.180402
 20
53.882254
 30
0.0
 40
3.0
100
AcDbArc
 50
35.300248
 51
144.699752
  0
ARC
  5
122
100
AcDbEntity
  8
1
370
    50
100
AcDbCircle
 10
-715.180402
 20
31.882254
 30
0.0
 40
3.0
100
AcDbArc
 50
215.300248
 51
324.699752
  0
LINE
  5
123
100
AcDbEntity
  8
1
370
    25
100
AcDbLine
 10
-713.680402
 20
30.148671
 30
0.0
 11
-713.680402
 21
55.615838
 31
0.0
  0
LINE
  5
124
100
AcDbEntity
  8
1
370
    25
100
AcDbLine
 10
-716.680402
 20
30.148671
 30
0.0
 11
-716.680402
 21
55.615838
 31
0.0
  0
LINE
  5
125
100
AcDbEntity
  8
1
370
    25
100
AcDbLine
 10
-704.180402
 20
47.932254
 30
0.0
 11
-704.680402
 21
47.932254
 31
0.0
  0
ARC
  5
126
100
AcDbEntity
  8
1
370
    25
100
AcDbCircle
 10
-706.230402
 20
47.932254
 30
0.0
 40
1.55
100
AcDbArc
 50
270.0
 51
0.0
  0
LINE
  5
127
100
AcDbEntity
  8
1
370
    25
100
AcDbLine
 10
-706.230402
 20
46.382254
 30
0.0
 11
-706.230402
 21
45.882254
 31
0.0
  0
LINE
  5
128
100
AcDbEntity
  8
1
370
    25
100
AcDbLine
 10
-704.180402
 20
43.832254
 30
0.0
 11
-704.680402
 21
43.832254
 31
0.0
  0
ARC
  5
129
100
AcDbEntity
  8
1
370
    25
100
AcDbCircle
 10
-706.230402
 20
43.832254
 30
0.0
 40
1.55
100
AcDbArc
 50
0.0
 51
90.0
  0
LINE
  5
12A
100
AcDbEntity
  8
1
370
    25
100
AcDbLine
 10
-706.230402
 20
45.382254
 30
0.0
 11
-706.230402
 21
45.882254
 31
0.0
  0
LINE
  5
12B
100
AcDbEntity
  8
1
370
    25
100
AcDbLine
 10
-704.180402
 20
47.932254
 30
0.0
 11
-703.680402
 21
47.932254
 31
0.0
  0
ARC
  5
12C
100
AcDbEntity
  8
1
370
    25
100
AcDbCircle
 10
-702.130402
 20
47.932254
 30
0.0
 40
1.55
100
AcDbArc
 50
180.0
 51
270.0
  0
LINE
  5
12D
100
AcDbEntity
  8
1
370
    25
100
AcDbLine
 10
-702.130402
 20
46.382254
 30
0.0
 11
-702.130402
 21
45.882254
 31
0.0
  0
LINE
  5
12E
100
AcDbEntity
  8
1
370
    25
100
AcDbLine
 10
-704.180402
 20
43.832254
 30
0.0
 11
-703.680402
 21
43.832254
 31
0.0
  0
ARC
  5
12F
100
AcDbEntity
  8
1
370
    25
100
AcDbCircle
 10
-702.130402
 20
43.832254
 30
0.0
 40
1.55
100
AcDbArc
 50
90.0
 51
180.0
  0
LINE
  5
130
100
AcDbEntity
  8
1
370
    25
100
AcDbLine
 10
-702.130402
 20
45.382254
 30
0.0
 11
-702.130402
 21
45.882254
 31
0.0
  0
CIRCLE
  5
131
100
AcDbEntity
  8
1
370
    50
100
AcDbCircle
 10
-704.180402
 20
45.882254
 30
0.0
 40
3.5
  0
LINE
  5
132
100
AcDbEntity
  8
1
370
    25
100
AcDbLine
 10
-726.180402
 20
47.932254
 30
0.0
 11
-726.680402
 21
47.932254
 31
0.0
  0
ARC
  5
133
100
AcDbEntity
  8
1
370
    25
100
AcDbCircle
 10
-728.230402
 20
47.932254
 30
0.0
 40
1.55
100
AcDbArc
 50
270.0
 51
0.0
  0
LINE
  5
134
100
AcDbEntity
  8
1
370
    25
100
AcDbLine
 10
-728.230402
 20
46.382254
 30
0.0
 11
-728.230402
 21
45.882254
 31
0.0
  0
LINE
  5
135
100
AcDbEntity
  8
1
370
    25
100
AcDbLine
 10
-726.180402
 20
43.832254
 30
0.0
 11
-726.680402
 21
43.832254
 31
0.0
  0
ARC
  5
136
100
AcDbEntity
  8
1
370
    25
100
AcDbCircle
 10
-728.230402
 20
43.832254
 30
0.0
 40
1.55
100
AcDbArc
 50
0.0
 51
90.0
  0
LINE
  5
137
100
AcDbEntity
  8
1
370
    25
100
AcDbLine
 10
-728.230402
 20
45.382254
 30
0.0
 11
-728.230402
 21
45.882254
 31
0.0
  0
LINE
  5
138
100
AcDbEntity
  8
1
370
    25
100
AcDbLine
 10
-726.180402
 20
47.932254
 30
0.0
 11
-725.680402
 21
47.932254
 31
0.0
  0
ARC
  5
139
100
AcDbEntity
  8
1
370
    25
100
AcDbCircle
 10
-724.130402
 20
47.932254
 30
0.0
 40
1.55
100
AcDbArc
 50
180.0
 51
270.0
  0
LINE
  5
13A
100
AcDbEntity
  8
1
370
    25
100
AcDbLine
 10
-724.130402
 20
46.382254
 30
0.0
 11
-724.130402
 21
45.882254
 31
0.0
  0
LINE
  5
13B
100
AcDbEntity
  8
1
370
    25
100
AcDbLine
 10
-726.180402
 20
43.832254
 30
0.0
 11
-725.680402
 21
43.832254
 31
0.0
  0
ARC
  5
13C
100
AcDbEntity
  8
1
370
    25
100
AcDbCircle
 10
-724.130402
 20
43.832254
 30
0.0
 40
1.55
100
AcDbArc
 50
90.0
 51
180.0
  0
LINE
  5
13D
100
AcDbEntity
  8
1
370
    25
100
AcDbLine
 10
-724.130402
 20
45.382254
 30
0.0
 11
-724.130402
 21
45.882254
 31
0.0
  0
CIRCLE
  5
13E
100
AcDbEntity
  8
1
370
    50
100
AcDbCircle
 10
-726.180402
 20
45.882254
 30
0.0
 40
3.5
  0
LINE
  5
13F
100
AcDbEntity
  8
1
370
    18
  6
CENTER
100
AcDbLine
 10
-697.680402
 20
45.882254
 30
0.0
 11
-710.680402
 21
45.882254
 31
0.0
  0
LINE
  5
140
100
AcDbEntity
  8
1
370
    18
  6
CENTER
100
AcDbLine
 10
-704.180402
 20
39.382254
 30
0.0
 11
-704.180402
 21
52.382254
 31
0.0
  0
LINE
  5
141
100
AcDbEntity
  8
1
370
    18
  6
CENTER
100
AcDbLine
 10
-719.680402
 20
45.882254
 30
0.0
 11
-732.680402
 21
45.882254
 31
0.0
  0
LINE
  5
142
100
AcDbEntity
  8
1
370
    18
  6
CENTER
100
AcDbLine
 10
-726.180402
 20
39.382254
 30
0.0
 11
-726.180402
 21
52.382254
 31
0.0
  0
LINE
  5
143
100
AcDbEntity
  8
1
370
    18
  6
CENTER
100
AcDbLine
 10
-707.671689
 20
42.882254
 30
0.0
 11
-722.880971
 21
42.882254
 31
0.0
  0
LINE
  5
144
100
AcDbEntity
  8
1
370
    50
100
AcDbLine
 10
-608.405824
 20
66.731005
 30
0.0
 11
-608.405824
 21
27.633504
 31
0.0
  0
ARC
  5
145
100
AcDbEntity
  8
1
370
    50
100
AcDbCircle
 10
-607.405824
 20
66.731005
 30
0.0
 40
1.0
100
AcDbArc
 50
92.862405
 51
180.0
  0
ARC
  5
146
100
AcDbEntity
  8
1
370
    50
100
AcDbCircle
 10
-607.405824
 20
27.633504
 30
0.0
 40
1.0
100
AcDbArc
 50
180.0
 51
267.137595
  0
CIRCLE
  5
147
100
AcDbEntity
  8
1
370
    50
100
AcDbCircle
 10
-715.180402
 20
47.182254
 30
0.0
 40
21.0
  0
ARC
  5
148
100
AcDbEntity
  8
1
370
    50
100
AcDbCircle
 10
-379.547857
 20
42.882254
 30
0.0
 40
22.035714
100
AcDbArc
 50
324.699752
 51
35.300248
  0
ARC
  5
149
100
AcDbEntity
  8
1
370
    50
100
AcDbCircle
 10
-348.476429
 20
42.882254
 30
0.0
 40
22.035714
100
AcDbArc
 50
144.699752
 51
215.300248
  0
ARC
  5
14A
100
AcDbEntity
  8
1
370
    50
100
AcDbCircle
 10
-364.012143
 20
53.882254
 30
0.0
 40
3.0
100
AcDbArc
 50
35.300248
 51
144.699752
  0
ARC
  5
14B
100
AcDbEntity
  8
1
370
    50
100
AcDbCircle
 10
-364.012143
 20
31.882254
 30
0.0
 40
3.0
100
AcDbArc
 50
215.300248
 51
324.699752
  0
LINE
  5
14C
100
AcDbEntity
  8
1
370
    25
100
AcDbLine
 10
-362.512143
 20
30.148671
 30
0.0
 11
-362.512143
 21
55.615838
 31
0.0
  0
LINE
  5
14D
100
AcDbEntity
  8
1
370
    25
100
AcDbLine
 10
-365.512143
 20
30.148671
 30
0.0
 11
-365.512143
 21
55.615838
 31
0.0
  0
CIRCLE
  5
14E
100
AcDbEntity
  8
1
370
    50
100
AcDbCircle
 10
-353.012143
 20
45.882254
 30
0.0
 40
3.5
  0
CIRCLE
  5
14F
100
AcDbEntity
  8
1
370
    50
100
AcDbCircle
 10
-375.012143
 20
45.882254
 30
0.0
 40
3.5
  0
LINE
  5
150
100
AcDbEntity
  8
1
370
    18
  6
CENTER
100
AcDbLine
 10
-346.512143
 20
45.882254
 30
0.0
 11
-359.512143
 21
45.882254
 31
0.0
  0
LINE
  5
151
100
AcDbEntity
  8
1
370
    18
  6
CENTER
100
AcDbLine
 10
-353.012143
 20
39.382254
 30
0.0
 11
-353.012143
 21
52.382254
 31
0.0
  0
LINE
  5
152
100
AcDbEntity
  8
1
370
    18
  6
CENTER
100
AcDbLine
 10
-368.512143
 20
45.882254
 30
0.0
 11
-381.512143
 21
45.882254
 31
0.0
  0
LINE
  5
153
100
AcDbEntity
  8
1
370
    18
  6
CENTER
100
AcDbLine
 10
-375.012143
 20
39.382254
 30
0.0
 11
-375.012143
 21
52.382254
 31
0.0
  0
LINE
  5
154
100
AcDbEntity
  8
1
370
    18
  6
CENTER
100
AcDbLine
 10
-356.50343
 20
42.882254
 30
0.0
 11
-371.712712
 21
42.882254
 31
0.0
  0
LINE
  5
155
100
AcDbEntity
  8
1
370
    50
100
AcDbLine
 10
-558.405824
 20
68.182254
 30
0.0
 11
-558.405824
 21
26.182254
 31
0.0
  0
LINE
  5
156
100
AcDbEntity
  8
1
370
    50
100
AcDbLine
 10
-558.405824
 20
68.182254
 30
0.0
 11
-549.355886
 21
67.729757
 31
0.0
  0
LINE
  5
157
100
AcDbEntity
  8
1
370
    50
100
AcDbLine
 10
-549.355886
 20
26.634751
 30
0.0
 11
-558.405824
 21
26.182254
 31
0.0
  0
LINE
  5
158
100
AcDbEntity
  8
1
370
    50
100
AcDbLine
 10
-547.905824
 20
55.828474
 30
0.0
 11
-547.905824
 21
29.936034
 31
0.0
  0
ARC
  5
159
100
AcDbEntity
  8
1
370
    50
100
AcDbCircle
 10
-545.905824
 20
42.882254
 30
0.0
 40
15.0
100
AcDbArc
 50
312.174263
 51
47.825737
  0
LINE
  5
15A
100
AcDbEntity
  8
1
370
    50
100
AcDbLine
 10
-548.405824
 20
48.882254
 30
0.0
 11
-547.905824
 21
48.882254
 31
0.0
  0
LINE
  5
15B
100
AcDbEntity
  8
1
370
    50
100
AcDbLine
 10
-547.905824
 20
36.882254
 30
0.0
 11
-548.405824
 21
36.882254
 31
0.0
  0
ARC
  5
15C
100
AcDbEntity
  8
1
370
    25
100
AcDbCircle
 10
-532.305652
 20
42.882254
 30
0.0
 40
14.600172
100
AcDbArc
 50
121.92596
 51
237.324734
  0
LINE
  5
15D
100
AcDbEntity
  8
1
370
    50
100
AcDbLine
 10
-546.853488
 20
56.827104
 30
0.0
 11
-542.025525
 21
56.574081
 31
0.0
  0
LINE
  5
15E
100
AcDbEntity
  8
1
370
    50
100
AcDbLine
 10
-546.853488
 20
28.937405
 30
0.0
 11
-542.025525
 21
29.190428
 31
0.0
  0
ARC
  5
15F
100
AcDbEntity
  8
1
370
    50
100
AcDbCircle
 10
-542.548885
 20
46.587786
 30
0.0
 40
10.0
100
AcDbArc
 50
47.825737
 51
87.0
  0
ARC
  5
160
100
AcDbEntity
  8
1
370
    50
100
AcDbCircle
 10
-542.548885
 20
39.176723
 30
0.0
 40
10.0
100
AcDbArc
 50
273.0
 51
312.174263
  0
ARC
  5
161
100
AcDbEntity
  8
1
370
    50
100
AcDbCircle
 10
-546.905824
 20
55.828474
 30
0.0
 40
1.0
100
AcDbArc
 50
87.0
 51
180.0
  0
ARC
  5
162
100
AcDbEntity
  8
1
370
    50
100
AcDbCircle
 10
-546.905824
 20
29.936034
 30
0.0
 40
1.0
100
AcDbArc
 50
180.0
 51
273.0
  0
LINE
  5
163
100
AcDbEntity
  8
1
370
    50
100
AcDbLine
 10
-548.405824
 20
66.731005
 30
0.0
 11
-548.405824
 21
27.633504
 31
0.0
  0
ARC
  5
164
100
AcDbEntity
  8
1
370
    50
100
AcDbCircle
 10
-549.405824
 20
66.731005
 30
0.0
 40
1.0
100
AcDbArc
 50
360.0
 51
87.137595
  0
ARC
  5
165
100
AcDbEntity
  8
1
370
    50
100
AcDbCircle
 10
-549.405824
 20
27.633504
 30
0.0
 40
1.0
100
AcDbArc
 50
272.862405
 51
360.0
  0
LINE
  5
166
100
AcDbEntity
  8
1
370
    50
100
AcDbLine
 10
-558.405824
 20
223.141905
 30
0.0
 11
-558.405824
 21
181.141905
 31
0.0
  0
LINE
  5
167
100
AcDbEntity
  8
1
370
    50
100
AcDbLine
 10
-558.405824
 20
223.141905
 30
0.0
 11
-549.355886
 21
222.689408
 31
0.0
  0
LINE
  5
168
100
AcDbEntity
  8
1
370
    50
100
AcDbLine
 10
-548.405824
 20
221.690656
 30
0.0
 11
-548.405824
 21
182.593154
 31
0.0
  0
LINE
  5
169
100
AcDbEntity
  8
1
370
    50
100
AcDbLine
 10
-549.355886
 20
181.594402
 30
0.0
 11
-558.405824
 21
181.141905
 31
0.0
  0
ARC
  5
16A
100
AcDbEntity
  8
1
370
    50
100
AcDbCircle
 10
-549.405824
 20
221.690656
 30
0.0
 40
1.0
100
AcDbArc
 50
360.0
 51
87.137595
  0
ARC
  5
16B
100
AcDbEntity
  8
1
370
    50
100
AcDbCircle
 10
-549.405824
 20
182.593154
 30
0.0
 40
1.0
100
AcDbArc
 50
272.862405
 51
360.0
  0
LINE
  5
16C
100
AcDbEntity
  8
1
370
    50
100
AcDbLine
 10
-548.405824
 20
208.141905
 30
0.0
 11
-547.905824
 21
208.141905
 31
0.0
  0
LINE
  5
16D
100
AcDbEntity
  8
1
370
    50
100
AcDbLine
 10
-547.905824
 20
196.141905
 30
0.0
 11
-548.405824
 21
196.141905
 31
0.0
  0
LINE
  5
16E
100
AcDbEntity
  8
1
370
    50
100
AcDbLine
 10
-530.905824
 20
201.139221
 30
0.0
 11
-530.905824
 21
203.14459
 31
0.0
  0
LINE
  5
16F
100
AcDbEntity
  8
1
370
    50
100
AcDbLine
 10
-547.405824
 20
208.641905
 30
0.0
 11
-545.993354
 21
208.641905
 31
0.0
  0
LINE
  5
170
100
AcDbEntity
  8
1
370
    50
100
AcDbLine
 10
-547.405824
 20
195.641905
 30
0.0
 11
-545.993354
 21
195.641905
 31
0.0
  0
LINE
  5
171
100
AcDbEntity
  8
1
370
    50
100
AcDbLine
 10
-547.905824
 20
208.141905
 30
0.0
 11
-547.905824
 21
196.141905
 31
0.0
  0
ARC
  5
172
100
AcDbEntity
  8
1
370
    50
100
AcDbCircle
 10
-530.905824
 20
249.706191
 30
0.0
 40
46.064286
100
AcDbArc
 50
261.34552
 51
269.384755
  0
ARC
  5
173
100
AcDbEntity
  8
1
370
    50
100
AcDbCircle
 10
-526.00709
 20
231.180986
 30
0.0
 40
30.0
100
AcDbArc
 50
229.058557
 51
238.917208
  0
ARC
  5
174
100
AcDbEntity
  8
1
370
    50
100
AcDbCircle
 10
-536.332613
 20
214.052542
 30
0.0
 40
10.0
100
AcDbArc
 50
238.917208
 51
261.34552
  0
ARC
  5
175
100
AcDbEntity
  8
1
370
    50
100
AcDbCircle
 10
-530.905824
 20
154.577619
 30
0.0
 40
46.064286
100
AcDbArc
 50
90.615245
 51
98.65448
  0
ARC
  5
176
100
AcDbEntity
  8
1
370
    50
100
AcDbCircle
 10
-526.00709
 20
173.102825
 30
0.0
 40
30.0
100
AcDbArc
 50
121.082792
 51
130.941443
  0
ARC
  5
177
100
AcDbEntity
  8
1
370
    50
100
AcDbCircle
 10
-536.332613
 20
190.231268
 30
0.0
 40
10.0
100
AcDbArc
 50
98.65448
 51
121.082792
  0
ARC
  5
178
100
AcDbEntity
  8
1
370
    50
100
AcDbCircle
 10
-531.405824
 20
203.14459
 30
0.0
 40
0.5
100
AcDbArc
 50
0.0
 51
89.384755
  0
ARC
  5
179
100
AcDbEntity
  8
1
370
    50
100
AcDbCircle
 10
-531.405824
 20
201.139221
 30
0.0
 40
0.5
100
AcDbArc
 50
270.615245
 51
360.0
  0
ARC
  5
17A
100
AcDbEntity
  8
1
370
    50
100
AcDbCircle
 10
-545.993354
 20
208.141905
 30
0.0
 40
0.5
100
AcDbArc
 50
49.058557
 51
90.0
  0
ARC
  5
17B
100
AcDbEntity
  8
1
370
    50
100
AcDbCircle
 10
-545.993354
 20
196.141905
 30
0.0
 40
0.5
100
AcDbArc
 50
270.0
 51
310.941443
  0
ARC
  5
17C
100
AcDbEntity
  8
1
370
    50
100
AcDbCircle
 10
-547.405824
 20
208.141905
 30
0.0
 40
0.5
100
AcDbArc
 50
90.0
 51
180.0
  0
ARC
  5
17D
100
AcDbEntity
  8
1
370
    50
100
AcDbCircle
 10
-547.405824
 20
196.141905
 30
0.0
 40
0.5
100
AcDbArc
 50
180.0
 51
270.0
  0
LINE
  5
17E
100
AcDbEntity
  8
1
370
    50
100
AcDbLine
 10
-590.905824
 20
37.194254
 30
0.0
 11
-592.105824
 21
36.882254
 31
0.0
  0
LINE
  5
17F
100
AcDbEntity
  8
1
370
    50
100
AcDbLine
 10
-590.905824
 20
48.570254
 30
0.0
 11
-592.105824
 21
48.882254
 31
0.0
  0
LINE
  5
180
100
AcDbEntity
  8
1
370
    50
100
AcDbLine
 10
-595.605824
 20
37.532254
 30
0.0
 11
-594.105824
 21
37.532254
 31
0.0
  0
LINE
  5
181
100
AcDbEntity
  8
1
370
    50
100
AcDbLine
 10
-597.605824
 20
50.132254
 30
0.0
 11
-598.405824
 21
50.132254
 31
0.0
  0
LINE
  5
182
100
AcDbEntity
  8
1
370
    50
100
AcDbLine
 10
-597.605824
 20
35.632254
 30
0.0
 11
-598.405824
 21
35.632254
 31
0.0
  0
LINE
  5
183
100
AcDbEntity
  8
1
370
    50
100
AcDbLine
 10
-595.605824
 20
48.232254
 30
0.0
 11
-594.105824
 21
48.232254
 31
0.0
  0
LINE
  5
184
100
AcDbEntity
  8
1
370
    50
100
AcDbLine
 10
-597.605824
 20
48.882254
 30
0.0
 11
-595.605824
 21
48.882254
 31
0.0
  0
LINE
  5
185
100
AcDbEntity
  8
1
370
    50
100
AcDbLine
 10
-594.105824
 20
48.882254
 30
0.0
 11
-592.105824
 21
48.882254
 31
0.0
  0
LINE
  5
186
100
AcDbEntity
  8
1
370
    50
100
AcDbLine
 10
-597.605824
 20
36.882254
 30
0.0
 11
-595.605824
 21
36.882254
 31
0.0
  0
LINE
  5
187
100
AcDbEntity
  8
1
370
    50
100
AcDbLine
 10
-594.105824
 20
36.882254
 30
0.0
 11
-592.105824
 21
36.882254
 31
0.0
  0
LINE
  5
188
100
AcDbEntity
  8
1
370
    50
100
AcDbLine
 10
-564.705824
 20
43.182254
 30
0.0
 11
-564.705824
 21
36.882254
 31
0.0
  0
LINE
  5
189
100
AcDbEntity
  8
1
370
    50
100
AcDbLine
 10
-565.905824
 20
37.194254
 30
0.0
 11
-564.705824
 21
36.882254
 31
0.0
  0
LINE
  5
18A
100
AcDbEntity
  8
1
370
    50
100
AcDbLine
 10
-561.205824
 20
37.532254
 30
0.0
 11
-562.705824
 21
37.532254
 31
0.0
  0
LINE
  5
18B
100
AcDbEntity
  8
1
370
    50
100
AcDbLine
 10
-559.205824
 20
50.132254
 30
0.0
 11
-558.405824
 21
50.132254
 31
0.0
  0
LINE
  5
18C
100
AcDbEntity
  8
1
370
    50
100
AcDbLine
 10
-559.205824
 20
35.632254
 30
0.0
 11
-558.405824
 21
35.632254
 31
0.0
  0
LINE
  5
18D
100
AcDbEntity
  8
1
370
    50
100
AcDbLine
 10
-562.705824
 20
43.182254
 30
0.0
 11
-562.705824
 21
36.882254
 31
0.0
  0
LINE
  5
18E
100
AcDbEntity
  8
1
370
    50
100
AcDbLine
 10
-561.205824
 20
36.882254
 30
0.0
 11
-561.205824
 21
43.182254
 31
0.0
  0
LINE
  5
18F
100
AcDbEntity
  8
1
370
    50
100
AcDbLine
 10
-559.205824
 20
36.882254
 30
0.0
 11
-561.205824
 21
36.882254
 31
0.0
  0
LINE
  5
190
100
AcDbEntity
  8
1
370
    50
100
AcDbLine
 10
-562.705824
 20
36.882254
 30
0.0
 11
-564.705824
 21
36.882254
 31
0.0
  0
LINE
  5
191
100
AcDbEntity
  8
1
370
    50
100
AcDbLine
 10
-590.905824
 20
48.182254
 30
0.0
 11
-598.405824
 21
48.182254
 31
0.0
  0
LINE
  5
192
100
AcDbEntity
  8
1
370
    25
100
AcDbLine
 10
-590.905824
 20
47.782254
 30
0.0
 11
-598.405824
 21
47.782254
 31
0.0
  0
LINE
  5
193
100
AcDbEntity
  8
1
370
    25
100
AcDbLine
 10
-598.405824
 20
44.582254
 30
0.0
 11
-590.905824
 21
44.582254
 31
0.0
  0
LINE
  5
194
100
AcDbEntity
  8
1
370
    50
100
AcDbLine
 10
-590.905824
 20
44.182254
 30
0.0
 11
-598.405824
 21
44.182254
 31
0.0
  0
LINE
  5
195
100
AcDbEntity
  8
1
370
    18
  6
CENTER
100
AcDbLine
 10
-589.717368
 20
46.182254
 30
0.0
 11
-599.54415
 21
46.182254
 31
0.0
  0
LINE
  5
196
100
AcDbEntity
  8
1
370
    50
100
AcDbLine
 10
-592.105824
 20
36.882254
 30
0.0
 11
-592.105824
 21
44.182254
 31
0.0
  0
LINE
  5
197
100
AcDbEntity
  8
1
370
    50
100
AcDbLine
 10
-592.105824
 20
48.182254
 30
0.0
 11
-592.105824
 21
48.882254
 31
0.0
  0
LINE
  5
198
100
AcDbEntity
  8
1
370
    50
100
AcDbLine
 10
-594.105824
 20
36.882254
 30
0.0
 11
-594.105824
 21
44.182254
 31
0.0
  0
LINE
  5
199
100
AcDbEntity
  8
1
370
    50
100
AcDbLine
 10
-594.105824
 20
48.182254
 30
0.0
 11
-594.105824
 21
48.882254
 31
0.0
  0
LINE
  5
19A
100
AcDbEntity
  8
1
370
    50
100
AcDbLine
 10
-595.605824
 20
36.882254
 30
0.0
 11
-595.605824
 21
44.182254
 31
0.0
  0
LINE
  5
19B
100
AcDbEntity
  8
1
370
    50
100
AcDbLine
 10
-595.605824
 20
48.182254
 30
0.0
 11
-595.605824
 21
48.882254
 31
0.0
  0
LINE
  5
19C
100
AcDbEntity
  8
1
370
    50
100
AcDbLine
 10
-597.605824
 20
35.632254
 30
0.0
 11
-597.605824
 21
44.182254
 31
0.0
  0
LINE
  5
19D
100
AcDbEntity
  8
1
370
    50
100
AcDbLine
 10
-597.605824
 20
48.182254
 30
0.0
 11
-597.605824
 21
50.132254
 31
0.0
  0
LINE
  5
19E
100
AcDbEntity
  8
1
370
    50
100
AcDbLine
 10
-565.905824
 20
49.182254
 30
0.0
 11
-558.405824
 21
49.182254
 31
0.0
  0
LINE
  5
19F
100
AcDbEntity
  8
1
370
    50
100
AcDbLine
 10
-565.905824
 20
43.182254
 30
0.0
 11
-558.405824
 21
43.182254
 31
0.0
  0
LINE
  5
1A0
100
AcDbEntity
  8
1
370
    50
100
AcDbLine
 10
-559.205824
 20
35.632254
 30
0.0
 11
-559.205824
 21
43.182254
 31
0.0
  0
LINE
  5
1A1
100
AcDbEntity
  8
1
370
    50
100
AcDbLine
 10
-559.205824
 20
49.182254
 30
0.0
 11
-559.205824
 21
50.132254
 31
0.0
  0
LINE
  5
1A2
100
AcDbEntity
  8
1
370
    50
100
AcDbLine
 10
-589.605824
 20
207.491905
 30
0.0
 11
-589.605824
 21
196.791905
 31
0.0
  0
LINE
  5
1A3
100
AcDbEntity
  8
1
370
    50
100
AcDbLine
 10
-592.105824
 20
208.141905
 30
0.0
 11
-592.105824
 21
196.141905
 31
0.0
  0
LINE
  5
1A4
100
AcDbEntity
  8
1
370
    50
100
AcDbLine
 10
-589.605824
 20
196.791905
 30
0.0
 11
-592.105824
 21
196.141905
 31
0.0
  0
LINE
  5
1A5
100
AcDbEntity
  8
1
370
    50
100
AcDbLine
 10
-589.605824
 20
207.491905
 30
0.0
 11
-592.105824
 21
208.141905
 31
0.0
  0
LINE
  5
1A6
100
AcDbEntity
  8
1
370
    50
100
AcDbLine
 10
-595.605824
 20
196.791905
 30
0.0
 11
-594.105824
 21
196.791905
 31
0.0
  0
LINE
  5
1A7
100
AcDbEntity
  8
1
370
    50
100
AcDbLine
 10
-597.605824
 20
209.391905
 30
0.0
 11
-597.605824
 21
194.891905
 31
0.0
  0
LINE
  5
1A8
100
AcDbEntity
  8
1
370
    50
100
AcDbLine
 10
-597.605824
 20
209.391905
 30
0.0
 11
-598.405824
 21
209.391905
 31
0.0
  0
LINE
  5
1A9
100
AcDbEntity
  8
1
370
    50
100
AcDbLine
 10
-597.605824
 20
194.891905
 30
0.0
 11
-598.405824
 21
194.891905
 31
0.0
  0
LINE
  5
1AA
100
AcDbEntity
  8
1
370
    50
100
AcDbLine
 10
-594.105824
 20
208.141905
 30
0.0
 11
-594.105824
 21
196.141905
 31
0.0
  0
LINE
  5
1AB
100
AcDbEntity
  8
1
370
    50
100
AcDbLine
 10
-595.605824
 20
207.491905
 30
0.0
 11
-594.105824
 21
207.491905
 31
0.0
  0
LINE
  5
1AC
100
AcDbEntity
  8
1
370
    50
100
AcDbLine
 10
-597.605824
 20
208.141905
 30
0.0
 11
-595.605824
 21
208.141905
 31
0.0
  0
LINE
  5
1AD
100
AcDbEntity
  8
1
370
    50
100
AcDbLine
 10
-594.105824
 20
208.141905
 30
0.0
 11
-592.105824
 21
208.141905
 31
0.0
  0
LINE
  5
1AE
100
AcDbEntity
  8
1
370
    50
100
AcDbLine
 10
-595.605824
 20
196.141905
 30
0.0
 11
-595.605824
 21
208.141905
 31
0.0
  0
LINE
  5
1AF
100
AcDbEntity
  8
1
370
    50
100
AcDbLine
 10
-597.605824
 20
196.141905
 30
0.0
 11
-595.605824
 21
196.141905
 31
0.0
  0
LINE
  5
1B0
100
AcDbEntity
  8
1
370
    50
100
AcDbLine
 10
-594.105824
 20
196.141905
 30
0.0
 11
-592.105824
 21
196.141905
 31
0.0
  0
LINE
  5
1B1
100
AcDbEntity
  8
1
370
    50
100
AcDbLine
 10
-567.205824
 20
207.491905
 30
0.0
 11
-567.205824
 21
196.791905
 31
0.0
  0
LINE
  5
1B2
100
AcDbEntity
  8
1
370
    50
100
AcDbLine
 10
-564.705824
 20
208.141905
 30
0.0
 11
-564.705824
 21
196.141905
 31
0.0
  0
LINE
  5
1B3
100
AcDbEntity
  8
1
370
    50
100
AcDbLine
 10
-567.205824
 20
196.791905
 30
0.0
 11
-564.705824
 21
196.141905
 31
0.0
  0
LINE
  5
1B4
100
AcDbEntity
  8
1
370
    50
100
AcDbLine
 10
-567.205824
 20
207.491905
 30
0.0
 11
-564.705824
 21
208.141905
 31
0.0
  0
LINE
  5
1B5
100
AcDbEntity
  8
1
370
    50
100
AcDbLine
 10
-561.205824
 20
196.791905
 30
0.0
 11
-562.705824
 21
196.791905
 31
0.0
  0
LINE
  5
1B6
100
AcDbEntity
  8
1
370
    50
100
AcDbLine
 10
-559.205824
 20
209.391905
 30
0.0
 11
-559.205824
 21
194.891905
 31
0.0
  0
LINE
  5
1B7
100
AcDbEntity
  8
1
370
    50
100
AcDbLine
 10
-559.205824
 20
209.391905
 30
0.0
 11
-558.405824
 21
209.391905
 31
0.0
  0
LINE
  5
1B8
100
AcDbEntity
  8
1
370
    50
100
AcDbLine
 10
-559.205824
 20
194.891905
 30
0.0
 11
-558.405824
 21
194.891905
 31
0.0
  0
LINE
  5
1B9
100
AcDbEntity
  8
1
370
    50
100
AcDbLine
 10
-562.705824
 20
208.141905
 30
0.0
 11
-562.705824
 21
196.141905
 31
0.0
  0
LINE
  5
1BA
100
AcDbEntity
  8
1
370
    50
100
AcDbLine
 10
-561.205824
 20
207.491905
 30
0.0
 11
-562.705824
 21
207.491905
 31
0.0
  0
LINE
  5
1BB
100
AcDbEntity
  8
1
370
    50
100
AcDbLine
 10
-559.205824
 20
208.141905
 30
0.0
 11
-561.205824
 21
208.141905
 31
0.0
  0
LINE
  5
1BC
100
AcDbEntity
  8
1
370
    50
100
AcDbLine
 10
-562.705824
 20
208.141905
 30
0.0
 11
-564.705824
 21
208.141905
 31
0.0
  0
LINE
  5
1BD
100
AcDbEntity
  8
1
370
    50
100
AcDbLine
 10
-561.205824
 20
196.141905
 30
0.0
 11
-561.205824
 21
208.141905
 31
0.0
  0
LINE
  5
1BE
100
AcDbEntity
  8
1
370
    50
100
AcDbLine
 10
-559.205824
 20
196.141905
 30
0.0
 11
-561.205824
 21
196.141905
 31
0.0
  0
LINE
  5
1BF
100
AcDbEntity
  8
1
370
    50
100
AcDbLine
 10
-562.705824
 20
196.141905
 30
0.0
 11
-564.705824
 21
196.141905
 31
0.0
  0
LINE
  5
1C0
100
AcDbEntity
  8
1
370
    50
  6
DASHED
100
AcDbLine
 10
-604.405824
 20
216.641905
 30
0.0
 11
-605.525239
 21
216.543969
 31
0.0
  0
ARC
  5
1C1
100
AcDbEntity
  8
1
370
    50
  6
DASHED
100
AcDbCircle
 10
-605.411936
 20
215.248916
 30
0.0
 40
1.3
100
AcDbArc
 50
95.0
 51
164.11915
  0
ARC
  5
1C2
100
AcDbEntity
  8
1
370
    50
  6
DASHED
100
AcDbCircle
 10
-598.005824
 20
213.141905
 30
0.0
 40
9.0
100
AcDbArc
 50
164.119153
 51
195.880847
  0
LINE
  5
1C3
100
AcDbEntity
  8
1
370
    50
  6
DASHED
100
AcDbLine
 10
-604.405824
 20
209.641905
 30
0.0
 11
-604.405824
 21
216.641905
 31
0.0
  0
LINE
  5
1C4
100
AcDbEntity
  8
1
370
    50
  6
DASHED
100
AcDbLine
 10
-604.405824
 20
209.641905
 30
0.0
 11
-605.525239
 21
209.739841
 31
0.0
  0
ARC
  5
1C5
100
AcDbEntity
  8
1
370
    50
  6
DASHED
100
AcDbCircle
 10
-605.411936
 20
211.034894
 30
0.0
 40
1.3
100
AcDbArc
 50
195.88085
 51
265.0
  0
LINE
  5
1C6
100
AcDbEntity
  8
1
370
    50
100
AcDbLine
 10
-585.105824
 20
215.141905
 30
0.0
 11
-598.405824
 21
215.141905
 31
0.0
  0
LINE
  5
1C7
100
AcDbEntity
  8
1
370
    50
  6
DASHED
100
AcDbLine
 10
-598.405824
 20
215.141905
 30
0.0
 11
-604.405824
 21
215.141905
 31
0.0
  0
LINE
  5
1C8
100
AcDbEntity
  8
1
370
    50
100
AcDbLine
 10
-585.105824
 20
211.141905
 30
0.0
 11
-598.405824
 21
211.141905
 31
0.0
  0
LINE
  5
1C9
100
AcDbEntity
  8
1
370
    50
  6
DASHED
100
AcDbLine
 10
-598.405824
 20
211.141905
 30
0.0
 11
-604.405824
 21
211.141905
 31
0.0
  0
LINE
  5
1CA
100
AcDbEntity
  8
1
370
   100
100
AcDbLine
 10
-376.262143
 20
45.160566
 30
0.0
 11
-376.262143
 21
46.603942
 31
0.0
  0
LINE
  5
1CB
100
AcDbEntity
  8
1
370
   100
100
AcDbLine
 10
-373.762143
 20
45.160566
 30
0.0
 11
-373.762143
 21
46.603942
 31
0.0
  0
LINE
  5
1CC
100
AcDbEntity
  8
1
370
   100
100
AcDbLine
 10
-375.012143
 20
44.438879
 30
0.0
 11
-376.262143
 21
45.160566
 31
0.0
  0
LINE
  5
1CD
100
AcDbEntity
  8
1
370
   100
100
AcDbLine
 10
-373.762143
 20
46.603942
 30
0.0
 11
-375.012143
 21
47.32563
 31
0.0
  0
LINE
  5
1CE
100
AcDbEntity
  8
1
370
   100
100
AcDbLine
 10
-373.762143
 20
45.160566
 30
0.0
 11
-375.012143
 21
44.438879
 31
0.0
  0
LINE
  5
1CF
100
AcDbEntity
  8
1
370
   100
100
AcDbLine
 10
-375.012143
 20
47.32563
 30
0.0
 11
-376.262143
 21
46.603942
 31
0.0
  0
LINE
  5
1D0
100
AcDbEntity
  8
1
370
   100
100
AcDbLine
 10
-351.762143
 20
45.160566
 30
0.0
 11
-351.762143
 21
46.603942
 31
0.0
  0
LINE
  5
1D1
100
AcDbEntity
  8
1
370
   100
100
AcDbLine
 10
-354.262143
 20
45.160566
 30
0.0
 11
-354.262143
 21
46.603942
 31
0.0
  0
LINE
  5
1D2
100
AcDbEntity
  8
1
370
   100
100
AcDbLine
 10
-353.012143
 20
44.438879
 30
0.0
 11
-351.762143
 21
45.160566
 31
0.0
  0
LINE
  5
1D3
100
AcDbEntity
  8
1
370
   100
100
AcDbLine
 10
-354.262143
 20
46.603942
 30
0.0
 11
-353.012143
 21
47.32563
 31
0.0
  0
LINE
  5
1D4
100
AcDbEntity
  8
1
370
   100
100
AcDbLine
 10
-354.262143
 20
45.160566
 30
0.0
 11
-353.012143
 21
44.438879
 31
0.0
  0
LINE
  5
1D5
100
AcDbEntity
  8
1
370
   100
100
AcDbLine
 10
-353.012143
 20
47.32563
 30
0.0
 11
-351.762143
 21
46.603942
 31
0.0
  0
LINE
  5
1D6
100
AcDbEntity
  8
1
370
    50
100
AcDbLine
 10
-151.098495
 20
18.305204
 30
0.0
 11
-151.098495
 21
93.305204
 31
0.0
  0
LINE
  5
1D7
100
AcDbEntity
  8
1
370
    50
100
AcDbLine
 10
-126.098495
 20
18.305204
 30
0.0
 11
-126.098495
 21
93.305204
 31
0.0
  0
LINE
  5
1D8
100
AcDbEntity
  8
1
370
    50
100
AcDbLine
 10
-151.098495
 20
93.305204
 30
0.0
 11
-126.098495
 21
93.305204
 31
0.0
  0
LINE
  5
1D9
100
AcDbEntity
  8
1
370
    50
100
AcDbLine
 10
-151.098495
 20
18.305204
 30
0.0
 11
-126.098495
 21
18.305204
 31
0.0
  0
LINE
  5
1DA
100
AcDbEntity
  8
1
370
    50
100
AcDbLine
 10
-147.598495
 20
42.305204
 30
0.0
 11
-147.598495
 21
69.305204
 31
0.0
  0
LINE
  5
1DB
100
AcDbEntity
  8
1
370
    50
100
AcDbLine
 10
-129.598495
 20
42.305204
 30
0.0
 11
-129.598495
 21
69.305204
 31
0.0
  0
LINE
  5
1DC
100
AcDbEntity
  8
1
370
    50
100
AcDbLine
 10
-146.098495
 20
70.805204
 30
0.0
 11
-131.098495
 21
70.805204
 31
0.0
  0
LINE
  5
1DD
100
AcDbEntity
  8
1
370
    50
100
AcDbLine
 10
-146.098495
 20
40.805204
 30
0.0
 11
-131.098495
 21
40.805204
 31
0.0
  0
ARC
  5
1DE
100
AcDbEntity
  8
1
370
    50
100
AcDbCircle
 10
-146.098495
 20
69.305204
 30
0.0
 40
1.5
100
AcDbArc
 50
90.0
 51
180.0
  0
ARC
  5
1DF
100
AcDbEntity
  8
1
370
    50
100
AcDbCircle
 10
-131.098495
 20
69.305204
 30
0.0
 40
1.5
100
AcDbArc
 50
0.0
 51
90.0
  0
ARC
  5
1E0
100
AcDbEntity
  8
1
370
    50
100
AcDbCircle
 10
-131.098495
 20
42.305204
 30
0.0
 40
1.5
100
AcDbArc
 50
270.0
 51
360.0
  0
ARC
  5
1E1
100
AcDbEntity
  8
1
370
    50
100
AcDbCircle
 10
-146.098495
 20
42.305204
 30
0.0
 40
1.5
100
AcDbArc
 50
180.0
 51
270.0
  0
LINE
  5
1E2
100
AcDbEntity
  8
1
370
    25
  6
CENTER
100
AcDbLine
 10
-138.598495
 20
13.944475
 30
0.0
 11
-138.598495
 21
97.34519
 31
0.0
  0
LINE
  5
1E3
100
AcDbEntity
  8
1
370
    25
  6
CENTER
100
AcDbLine
 10
-146.031807
 20
28.305204
 30
0.0
 11
-130.958733
 21
28.305204
 31
0.0
  0
LINE
  5
1E4
100
AcDbEntity
  8
1
370
    25
  6
CENTER
100
AcDbLine
 10
-146.031807
 20
83.305204
 30
0.0
 11
-131.817268
 21
83.305204
 31
0.0
  0
LINE
  5
1E5
100
AcDbEntity
  8
1
370
    25
  6
CENTER
100
AcDbLine
 10
-156.270416
 20
55.805204
 30
0.0
 11
-122.235611
 21
55.805204
 31
0.0
  0
CIRCLE
  5
1E6
100
AcDbEntity
  8
1
370
    50
100
AcDbCircle
 10
-138.598495
 20
83.305204
 30
0.0
 40
3.5
  0
ARC
  5
1E7
100
AcDbEntity
  8
1
370
    25
100
AcDbCircle
 10
-140.748495
 20
85.455204
 30
0.0
 40
1.658571
100
AcDbArc
 50
270.0
 51
360.0
  0
ARC
  5
1E8
100
AcDbEntity
  8
1
370
    25
100
AcDbCircle
 10
-140.748495
 20
81.155204
 30
0.0
 40
1.658571
100
AcDbArc
 50
0.0
 51
90.0
  0
ARC
  5
1E9
100
AcDbEntity
  8
1
370
    25
100
AcDbCircle
 10
-136.448495
 20
81.155204
 30
0.0
 40
1.658571
100
AcDbArc
 50
90.0
 51
180.0
  0
ARC
  5
1EA
100
AcDbEntity
  8
1
370
    25
100
AcDbCircle
 10
-136.448495
 20
85.455204
 30
0.0
 40
1.658571
100
AcDbArc
 50
180.0
 51
270.0
  0
LINE
  5
1EB
100
AcDbEntity
  8
1
370
    25
100
AcDbLine
 10
-136.448495
 20
83.305204
 30
0.0
 11
-136.448495
 21
83.796633
 31
0.0
  0
LINE
  5
1EC
100
AcDbEntity
  8
1
370
    25
100
AcDbLine
 10
-136.448495
 20
83.305204
 30
0.0
 11
-136.448495
 21
82.813776
 31
0.0
  0
LINE
  5
1ED
100
AcDbEntity
  8
1
370
    25
100
AcDbLine
 10
-138.107067
 20
81.155204
 30
0.0
 11
-138.598495
 21
81.155204
 31
0.0
  0
LINE
  5
1EE
100
AcDbEntity
  8
1
370
    25
100
AcDbLine
 10
-139.089924
 20
81.155204
 30
0.0
 11
-138.598495
 21
81.155204
 31
0.0
  0
LINE
  5
1EF
100
AcDbEntity
  8
1
370
    25
100
AcDbLine
 10
-140.748495
 20
83.305204
 30
0.0
 11
-140.748495
 21
82.813776
 31
0.0
  0
LINE
  5
1F0
100
AcDbEntity
  8
1
370
    25
100
AcDbLine
 10
-140.748495
 20
83.305204
 30
0.0
 11
-140.748495
 21
83.796633
 31
0.0
  0
LINE
  5
1F1
100
AcDbEntity
  8
1
370
    25
100
AcDbLine
 10
-139.089924
 20
85.455204
 30
0.0
 11
-138.598495
 21
85.455204
 31
0.0
  0
LINE
  5
1F2
100
AcDbEntity
  8
1
370
    25
100
AcDbLine
 10
-138.107067
 20
85.455204
 30
0.0
 11
-138.598495
 21
85.455204
 31
0.0
  0
CIRCLE
  5
1F3
100
AcDbEntity
  8
1
370
    50
100
AcDbCircle
 10
-138.598495
 20
28.305204
 30
0.0
 40
3.5
  0
ARC
  5
1F4
100
AcDbEntity
  8
1
370
    25
100
AcDbCircle
 10
-140.748495
 20
30.455204
 30
0.0
 40
1.658571
100
AcDbArc
 50
270.0
 51
360.0
  0
ARC
  5
1F5
100
AcDbEntity
  8
1
370
    25
100
AcDbCircle
 10
-140.748495
 20
26.155204
 30
0.0
 40
1.658571
100
AcDbArc
 50
0.0
 51
90.0
  0
ARC
  5
1F6
100
AcDbEntity
  8
1
370
    25
100
AcDbCircle
 10
-136.448495
 20
26.155204
 30
0.0
 40
1.658571
100
AcDbArc
 50
90.0
 51
180.0
  0
ARC
  5
1F7
100
AcDbEntity
  8
1
370
    25
100
AcDbCircle
 10
-136.448495
 20
30.455204
 30
0.0
 40
1.658571
100
AcDbArc
 50
180.0
 51
270.0
  0
LINE
  5
1F8
100
AcDbEntity
  8
1
370
    25
100
AcDbLine
 10
-136.448495
 20
28.305204
 30
0.0
 11
-136.448495
 21
28.796633
 31
0.0
  0
LINE
  5
1F9
100
AcDbEntity
  8
1
370
    25
100
AcDbLine
 10
-136.448495
 20
28.305204
 30
0.0
 11
-136.448495
 21
27.813776
 31
0.0
  0
LINE
  5
1FA
100
AcDbEntity
  8
1
370
    25
100
AcDbLine
 10
-138.107067
 20
26.155204
 30
0.0
 11
-138.598495
 21
26.155204
 31
0.0
  0
LINE
  5
1FB
100
AcDbEntity
  8
1
370
    25
100
AcDbLine
 10
-139.089924
 20
26.155204
 30
0.0
 11
-138.598495
 21
26.155204
 31
0.0
  0
LINE
  5
1FC
100
AcDbEntity
  8
1
370
    25
100
AcDbLine
 10
-140.748495
 20
28.305204
 30
0.0
 11
-140.748495
 21
27.813776
 31
0.0
  0
LINE
  5
1FD
100
AcDbEntity
  8
1
370
    25
100
AcDbLine
 10
-140.748495
 20
28.305204
 30
0.0
 11
-140.748495
 21
28.796633
 31
0.0
  0
LINE
  5
1FE
100
AcDbEntity
  8
1
370
    25
100
AcDbLine
 10
-139.089924
 20
30.455204
 30
0.0
 11
-138.598495
 21
30.455204
 31
0.0
  0
LINE
  5
1FF
100
AcDbEntity
  8
1
370
    25
100
AcDbLine
 10
-138.107067
 20
30.455204
 30
0.0
 11
-138.598495
 21
30.455204
 31
0.0
  0
LINE
  5
200
100
AcDbEntity
  8
1
370
    50
100
AcDbLine
 10
-151.098495
 20
-4.88784
 30
0.0
 11
-126.098495
 21
-4.88784
 31
0.0
  0
LINE
  5
201
100
AcDbEntity
  8
1
370
    50
100
AcDbLine
 10
-151.098495
 20
-5.88784
 30
0.0
 11
-151.098495
 21
-4.88784
 31
0.0
  0
LINE
  5
202
100
AcDbEntity
  8
1
370
    50
100
AcDbLine
 10
-126.098495
 20
-5.88784
 30
0.0
 11
-126.098495
 21
-4.88784
 31
0.0
  0
LINE
  5
203
100
AcDbEntity
  8
1
370
    50
100
AcDbLine
 10
-213.436935
 20
93.305204
 30
0.0
 11
-213.436935
 21
18.305204
 31
0.0
  0
LINE
  5
204
100
AcDbEntity
  8
1
370
    50
100
AcDbLine
 10
-214.436935
 20
93.305204
 30
0.0
 11
-214.436935
 21
18.305204
 31
0.0
  0
LINE
  5
205
100
AcDbEntity
  8
1
370
    50
100
AcDbLine
 10
-151.098495
 20
-5.88784
 30
0.0
 11
-126.098495
 21
-5.88784
 31
0.0
  0
LINE
  5
206
100
AcDbEntity
  8
1
370
    50
100
AcDbLine
 10
-214.436935
 20
93.305204
 30
0.0
 11
-213.436935
 21
93.305204
 31
0.0
  0
LINE
  5
207
100
AcDbEntity
  8
1
370
    50
100
AcDbLine
 10
-214.436935
 20
18.305204
 30
0.0
 11
-213.436935
 21
18.305204
 31
0.0
  0
LINE
  5
208
100
AcDbEntity
  8
1
370
    50
100
AcDbLine
 10
-138.598495
 20
-4.88784
 30
0.0
 11
-142.726837
 21
-4.88784
 31
0.0
  0
LINE
  5
209
100
AcDbEntity
  8
1
370
    50
100
AcDbLine
 10
-134.598495
 20
-4.88784
 30
0.0
 11
-142.598495
 21
-4.88784
 31
0.0
  0
LINE
  5
20A
100
AcDbEntity
  8
1
370
    25
  6
CENTER
100
AcDbLine
 10
-231.884338
 20
55.805204
 30
0.0
 11
-211.162384
 21
55.805204
 31
0.0
  0
LINE
  5
20B
100
AcDbEntity
  8
1
370
    25
  6
CENTER
100
AcDbLine
 10
-138.598495
 20
-28.455324
 30
0.0
 11
-138.598495
 21
-2.545493
 31
0.0
  0
LINE
  5
20C
100
AcDbEntity
  8
1
370
    25
  6
CENTER
100
AcDbLine
 10
-211.361329
 20
83.305204
 30
0.0
 11
-236.337723
 21
83.305204
 31
0.0
  0
LINE
  5
20D
100
AcDbEntity
  8
1
370
    50
100
AcDbLine
 10
-221.570913
 20
81.805205
 30
0.0
 11
-229.838862
 21
81.805205
 31
0.0
  0
LINE
  5
20E
100
AcDbEntity
  8
1
370
    50
100
AcDbLine
 10
-222.37476
 20
84.805205
 30
0.0
 11
-229.838862
 21
84.805205
 31
0.0
  0
LINE
  5
20F
100
AcDbEntity
  8
1
370
    50
100
AcDbLine
 10
-235.436938
 20
83.305205
 30
0.0
 11
-229.838862
 21
84.805205
 31
0.0
  0
LINE
  5
210
100
AcDbEntity
  8
1
370
    50
100
AcDbLine
 10
-235.436938
 20
83.305205
 30
0.0
 11
-229.838862
 21
81.805205
 31
0.0
  0
LINE
  5
211
100
AcDbEntity
  8
1
370
    25
100
AcDbLine
 10
-223.503925
 20
81.555205
 30
0.0
 11
-224.441747
 21
85.055205
 31
0.0
  0
LINE
  5
212
100
AcDbEntity
  8
1
370
    25
100
AcDbLine
 10
-225.503925
 20
81.555205
 30
0.0
 11
-226.441747
 21
85.055205
 31
0.0
  0
LINE
  5
213
100
AcDbEntity
  8
1
370
    25
100
AcDbLine
 10
-227.503925
 20
81.555205
 30
0.0
 11
-228.441747
 21
85.055205
 31
0.0
  0
LINE
  5
214
100
AcDbEntity
  8
1
370
    25
100
AcDbLine
 10
-229.503925
 20
81.555205
 30
0.0
 11
-230.441747
 21
85.055205
 31
0.0
  0
LINE
  5
215
100
AcDbEntity
  8
1
370
    25
100
AcDbLine
 10
-231.555458
 20
81.747527
 30
0.0
 11
-232.334297
 21
84.654193
 31
0.0
  0
LINE
  5
216
100
AcDbEntity
  8
1
370
    25
100
AcDbLine
 10
-233.710158
 20
82.324878
 30
0.0
 11
-234.200322
 21
84.154193
 31
0.0
  0
LINE
  5
217
100
AcDbEntity
  8
1
370
    50
100
AcDbLine
 10
-221.503925
 20
81.555205
 30
0.0
 11
-222.441747
 21
85.055205
 31
0.0
  0
LINE
  5
218
100
AcDbEntity
  8
1
370
    50
100
AcDbLine
 10
-215.436935
 20
81.555205
 30
0.0
 11
-221.503925
 21
81.555205
 31
0.0
  0
LINE
  5
219
100
AcDbEntity
  8
1
370
    50
100
AcDbLine
 10
-215.436935
 20
85.055205
 30
0.0
 11
-222.441747
 21
85.055205
 31
0.0
  0
LINE
  5
21A
100
AcDbEntity
  8
1
370
    50
100
AcDbLine
 10
-215.436935
 20
85.055197
 30
0.0
 11
-214.736935
 21
85.755197
 31
0.0
  0
LINE
  5
21B
100
AcDbEntity
  8
1
370
    50
100
AcDbLine
 10
-215.436935
 20
85.055197
 30
0.0
 11
-215.436935
 21
81.555197
 31
0.0
  0
LINE
  5
21C
100
AcDbEntity
  8
1
370
    50
100
AcDbLine
 10
-215.436935
 20
81.555197
 30
0.0
 11
-214.736935
 21
80.855197
 31
0.0
  0
LINE
  5
21D
100
AcDbEntity
  8
1
370
    25
  6
CENTER
100
AcDbLine
 10
-211.361329
 20
28.305204
 30
0.0
 11
-236.337723
 21
28.305204
 31
0.0
  0
LINE
  5
21E
100
AcDbEntity
  8
1
370
    50
100
AcDbLine
 10
-221.570913
 20
26.805205
 30
0.0
 11
-229.838862
 21
26.805205
 31
0.0
  0
LINE
  5
21F
100
AcDbEntity
  8
1
370
    50
100
AcDbLine
 10
-222.37476
 20
29.805205
 30
0.0
 11
-229.838862
 21
29.805205
 31
0.0
  0
LINE
  5
220
100
AcDbEntity
  8
1
370
    50
100
AcDbLine
 10
-235.436938
 20
28.305205
 30
0.0
 11
-229.838862
 21
29.805205
 31
0.0
  0
LINE
  5
221
100
AcDbEntity
  8
1
370
    50
100
AcDbLine
 10
-235.436938
 20
28.305205
 30
0.0
 11
-229.838862
 21
26.805205
 31
0.0
  0
LINE
  5
222
100
AcDbEntity
  8
1
370
    25
100
AcDbLine
 10
-223.503925
 20
26.555205
 30
0.0
 11
-224.441747
 21
30.055205
 31
0.0
  0
LINE
  5
223
100
AcDbEntity
  8
1
370
    25
100
AcDbLine
 10
-225.503925
 20
26.555205
 30
0.0
 11
-226.441747
 21
30.055205
 31
0.0
  0
LINE
  5
224
100
AcDbEntity
  8
1
370
    25
100
AcDbLine
 10
-227.503925
 20
26.555205
 30
0.0
 11
-228.441747
 21
30.055205
 31
0.0
  0
LINE
  5
225
100
AcDbEntity
  8
1
370
    25
100
AcDbLine
 10
-229.503925
 20
26.555205
 30
0.0
 11
-230.441747
 21
30.055205
 31
0.0
  0
LINE
  5
226
100
AcDbEntity
  8
1
370
    25
100
AcDbLine
 10
-231.555458
 20
26.747527
 30
0.0
 11
-232.334297
 21
29.654193
 31
0.0
  0
LINE
  5
227
100
AcDbEntity
  8
1
370
    25
100
AcDbLine
 10
-233.710158
 20
27.324878
 30
0.0
 11
-234.200322
 21
29.154193
 31
0.0
  0
LINE
  5
228
100
AcDbEntity
  8
1
370
    50
100
AcDbLine
 10
-221.503925
 20
26.555205
 30
0.0
 11
-222.441747
 21
30.055205
 31
0.0
  0
LINE
  5
229
100
AcDbEntity
  8
1
370
    50
100
AcDbLine
 10
-215.436935
 20
26.555205
 30
0.0
 11
-221.503925
 21
26.555205
 31
0.0
  0
LINE
  5
22A
100
AcDbEntity
  8
1
370
    50
100
AcDbLine
 10
-215.436935
 20
30.055205
 30
0.0
 11
-222.441747
 21
30.055205
 31
0.0
  0
LINE
  5
22B
100
AcDbEntity
  8
1
370
    50
100
AcDbLine
 10
-215.436935
 20
30.055197
 30
0.0
 11
-214.836935
 21
30.655197
 31
0.0
  0
LINE
  5
22C
100
AcDbEntity
  8
1
370
    50
100
AcDbLine
 10
-215.436935
 20
30.055197
 30
0.0
 11
-215.436935
 21
26.555197
 31
0.0
  0
LINE
  5
22D
100
AcDbEntity
  8
1
370
    50
100
AcDbLine
 10
-215.436935
 20
26.555197
 30
0.0
 11
-214.836935
 21
25.955197
 31
0.0
  0
LINE
  5
22E
100
AcDbEntity
  8
1
370
    50
100
AcDbLine
 10
-137.098496
 20
-13.021817
 30
0.0
 11
-137.098496
 21
-21.289766
 31
0.0
  0
LINE
  5
22F
100
AcDbEntity
  8
1
370
    50
100
AcDbLine
 10
-140.098496
 20
-13.825664
 30
0.0
 11
-140.098496
 21
-21.289766
 31
0.0
  0
LINE
  5
230
100
AcDbEntity
  8
1
370
    50
100
AcDbLine
 10
-138.598496
 20
-26.887842
 30
0.0
 11
-140.098496
 21
-21.289766
 31
0.0
  0
LINE
  5
231
100
AcDbEntity
  8
1
370
    50
100
AcDbLine
 10
-138.598496
 20
-26.887842
 30
0.0
 11
-137.098496
 21
-21.289766
 31
0.0
  0
LINE
  5
232
100
AcDbEntity
  8
1
370
    25
100
AcDbLine
 10
-136.848496
 20
-14.954829
 30
0.0
 11
-140.348496
 21
-15.892652
 31
0.0
  0
LINE
  5
233
100
AcDbEntity
  8
1
370
    25
100
AcDbLine
 10
-136.848496
 20
-16.954829
 30
0.0
 11
-140.348496
 21
-17.892652
 31
0.0
  0
LINE
  5
234
100
AcDbEntity
  8
1
370
    25
100
AcDbLine
 10
-136.848496
 20
-18.954829
 30
0.0
 11
-140.348496
 21
-19.892652
 31
0.0
  0
LINE
  5
235
100
AcDbEntity
  8
1
370
    25
100
AcDbLine
 10
-136.848496
 20
-20.954829
 30
0.0
 11
-140.348496
 21
-21.892652
 31
0.0
  0
LINE
  5
236
100
AcDbEntity
  8
1
370
    25
100
AcDbLine
 10
-137.040819
 20
-23.006362
 30
0.0
 11
-139.947484
 21
-23.785201
 31
0.0
  0
LINE
  5
237
100
AcDbEntity
  8
1
370
    25
100
AcDbLine
 10
-137.618169
 20
-25.161063
 30
0.0
 11
-139.447484
 21
-25.651226
 31
0.0
  0
LINE
  5
238
100
AcDbEntity
  8
1
370
    50
100
AcDbLine
 10
-136.848496
 20
-12.954829
 30
0.0
 11
-140.348496
 21
-13.892652
 31
0.0
  0
LINE
  5
239
100
AcDbEntity
  8
1
370
    50
100
AcDbLine
 10
-136.848496
 20
-6.88784
 30
0.0
 11
-136.848496
 21
-12.954829
 31
0.0
  0
LINE
  5
23A
100
AcDbEntity
  8
1
370
    50
100
AcDbLine
 10
-140.348496
 20
-6.88784
 30
0.0
 11
-140.348496
 21
-13.892652
 31
0.0
  0
LINE
  5
23B
100
AcDbEntity
  8
1
370
    50
100
AcDbLine
 10
-140.348489
 20
-6.88784
 30
0.0
 11
-141.348489
 21
-5.88784
 31
0.0
  0
LINE
  5
23C
100
AcDbEntity
  8
1
370
    50
100
AcDbLine
 10
-140.348489
 20
-6.88784
 30
0.0
 11
-136.848489
 21
-6.88784
 31
0.0
  0
LINE
  5
23D
100
AcDbEntity
  8
1
370
    50
100
AcDbLine
 10
-136.848489
 20
-6.88784
 30
0.0
 11
-135.848489
 21
-5.88784
 31
0.0
  0
LINE
  5
23E
100
AcDbEntity
  8
1
370
    50
100
AcDbLine
 10
-214.436935
 20
20.805204
 30
0.0
 11
-214.836935
 21
20.805204
 31
0.0
  0
LINE
  5
23F
100
AcDbEntity
  8
1
370
    50
100
AcDbLine
 10
-214.436935
 20
90.805204
 30
0.0
 11
-214.736935
 21
90.805204
 31
0.0
  0
LINE
  5
240
100
AcDbEntity
  8
1
370
    50
100
AcDbLine
 10
-229.436935
 20
71.005204
 30
0.0
 11
-229.436935
 21
40.605204
 31
0.0
  0
LINE
  5
241
100
AcDbEntity
  8
1
370
    50
100
AcDbLine
 10
-214.836935
 20
40.305204
 30
0.0
 11
-229.136935
 21
40.305204
 31
0.0
  0
LINE
  5
242
100
AcDbEntity
  8
1
370
    50
100
AcDbLine
 10
-214.736935
 20
71.305204
 30
0.0
 11
-229.136935
 21
71.305204
 31
0.0
  0
ARC
  5
243
100
AcDbEntity
  8
1
370
    50
100
AcDbCircle
 10
-229.136935
 20
71.005204
 30
0.0
 40
0.3
100
AcDbArc
 50
90.0
 51
180.0
  0
ARC
  5
244
100
AcDbEntity
  8
1
370
    50
100
AcDbCircle
 10
-229.136935
 20
40.605204
 30
0.0
 40
0.3
100
AcDbArc
 50
180.0
 51
270.0
  0
ARC
  5
245
100
AcDbEntity
  8
1
370
    50
100
AcDbCircle
 10
-214.736935
 20
40.305204
 30
0.0
 40
0.3
100
AcDbArc
 50
360.0
 51
30.0
  0
LINE
  5
246
100
AcDbEntity
  8
1
370
    50
100
AcDbLine
 10
-214.936935
 20
70.305204
 30
0.0
 11
-214.936935
 21
41.305204
 31
0.0
  0
LINE
  5
247
100
AcDbEntity
  8
1
370
    50
100
AcDbLine
 10
-214.736935
 20
90.805204
 30
0.0
 11
-214.736935
 21
71.305204
 31
0.0
  0
LINE
  5
248
100
AcDbEntity
  8
1
370
    50
100
AcDbLine
 10
-214.836935
 20
40.305204
 30
0.0
 11
-214.836935
 21
20.805204
 31
0.0
  0
ARC
  5
249
100
AcDbEntity
  8
1
370
    50
100
AcDbCircle
 10
-214.736935
 20
71.305204
 30
0.0
 40
0.3
100
AcDbArc
 50
270.0
 51
360.0
  0
LINE
  5
24A
100
AcDbEntity
  8
1
370
    50
100
AcDbLine
 10
-214.736935
 20
71.005204
 30
0.0
 11
-215.222793
 21
71.005204
 31
0.0
  0
ARC
  5
24B
100
AcDbEntity
  8
1
370
    50
100
AcDbCircle
 10
-214.736935
 20
40.305204
 30
0.0
 40
0.3
100
AcDbArc
 50
0.0
 51
90.0
  0
LINE
  5
24C
100
AcDbEntity
  8
1
370
    50
100
AcDbLine
 10
-214.736935
 20
40.605204
 30
0.0
 11
-215.222793
 21
40.605204
 31
0.0
  0
ARC
  5
24D
100
AcDbEntity
  8
1
370
    50
100
AcDbCircle
 10
-215.936935
 20
70.305204
 30
0.0
 40
1.0
100
AcDbArc
 50
0.0
 51
90.0
  0
ARC
  5
24E
100
AcDbEntity
  8
1
370
    50
100
AcDbCircle
 10
-215.936935
 20
41.305204
 30
0.0
 40
1.0
100
AcDbArc
 50
270.0
 51
360.0
  0
LINE
  5
24F
100
AcDbEntity
  8
1
370
    50
100
AcDbLine
 10
-127.998498
 20
-5.88784
 30
0.0
 11
-149.198498
 21
-5.88784
 31
0.0
  0
LINE
  5
250
100
AcDbEntity
  8
1
370
    50
100
AcDbLine
 10
-127.598498
 20
-6.28784
 30
0.0
 11
-127.598498
 21
-20.48784
 31
0.0
  0
LINE
  5
251
100
AcDbEntity
  8
1
370
    50
100
AcDbLine
 10
-149.598498
 20
-6.28784
 30
0.0
 11
-149.598498
 21
-20.48784
 31
0.0
  0
ARC
  5
252
100
AcDbEntity
  8
1
370
    50
100
AcDbCircle
 10
-127.998498
 20
-20.48784
 30
0.0
 40
0.4
100
AcDbArc
 50
270.0
 51
360.0
  0
ARC
  5
253
100
AcDbEntity
  8
1
370
    50
100
AcDbCircle
 10
-149.198498
 20
-20.48784
 30
0.0
 40
0.4
100
AcDbArc
 50
180.0
 51
270.0
  0
LINE
  5
254
100
AcDbEntity
  8
1
370
    50
100
AcDbLine
 10
-127.998498
 20
-20.48784
 30
0.0
 11
-127.998498
 21
-5.88784
 31
0.0
  0
LINE
  5
255
100
AcDbEntity
  8
1
370
    50
100
AcDbLine
 10
-149.198498
 20
-20.48784
 30
0.0
 11
-149.198498
 21
-5.88784
 31
0.0
  0
LINE
  5
256
100
AcDbEntity
  8
1
370
    50
100
AcDbLine
 10
-135.798498
 20
-5.88784
 30
0.0
 11
-135.798498
 21
-6.28784
 31
0.0
  0
LINE
  5
257
100
AcDbEntity
  8
1
370
    50
100
AcDbLine
 10
-141.398498
 20
-5.88784
 30
0.0
 11
-141.398498
 21
-6.28784
 31
0.0
  0
LINE
  5
258
100
AcDbEntity
  8
1
370
    50
100
AcDbLine
 10
-149.598498
 20
-6.28784
 30
0.0
 11
-140.948489
 21
-6.28784
 31
0.0
  0
LINE
  5
259
100
AcDbEntity
  8
1
370
    50
100
AcDbLine
 10
-136.248489
 20
-6.28784
 30
0.0
 11
-127.598498
 21
-6.28784
 31
0.0
  0
LINE
  5
25A
100
AcDbEntity
  8
1
370
    50
100
AcDbLine
 10
-149.198498
 20
-20.88784
 30
0.0
 11
-140.098496
 21
-20.88784
 31
0.0
  0
LINE
  5
25B
100
AcDbEntity
  8
1
370
    50
100
AcDbLine
 10
-137.098496
 20
-20.88784
 30
0.0
 11
-127.998498
 21
-20.88784
 31
0.0
  0
POINT
  5
25C
100
AcDbEntity
  8
1
370
    50
100
AcDbPoint
 10
-213.436935
 20
55.805204
 30
0.0
  0
POINT
  5
25D
100
AcDbEntity
  8
1
370
    50
100
AcDbPoint
 10
-138.598495
 20
-4.88784
 30
0.0
  0
LINE
  5
25E
100
AcDbEntity
  8
1
370
    50
100
AcDbLine
 10
-406.378166
 20
70.182254
 30
0.0
 11
-398.110217
 21
70.182254
 31
0.0
  0
LINE
  5
25F
100
AcDbEntity
  8
1
370
    50
100
AcDbLine
 10
-405.574318
 20
67.182254
 30
0.0
 11
-398.110217
 21
67.182254
 31
0.0
  0
LINE
  5
260
100
AcDbEntity
  8
1
370
    50
100
AcDbLine
 10
-392.51214
 20
68.682254
 30
0.0
 11
-398.110217
 21
67.182254
 31
0.0
  0
LINE
  5
261
100
AcDbEntity
  8
1
370
    50
100
AcDbLine
 10
-392.51214
 20
68.682254
 30
0.0
 11
-398.110217
 21
70.182254
 31
0.0
  0
LINE
  5
262
100
AcDbEntity
  8
1
370
    25
100
AcDbLine
 10
-404.445153
 20
70.432254
 30
0.0
 11
-403.507331
 21
66.932254
 31
0.0
  0
LINE
  5
263
100
AcDbEntity
  8
1
370
    25
100
AcDbLine
 10
-402.445153
 20
70.432254
 30
0.0
 11
-401.507331
 21
66.932254
 31
0.0
  0
LINE
  5
264
100
AcDbEntity
  8
1
370
    25
100
AcDbLine
 10
-400.445153
 20
70.432254
 30
0.0
 11
-399.507331
 21
66.932254
 31
0.0
  0
LINE
  5
265
100
AcDbEntity
  8
1
370
    25
100
AcDbLine
 10
-398.445153
 20
70.432254
 30
0.0
 11
-397.507331
 21
66.932254
 31
0.0
  0
LINE
  5
266
100
AcDbEntity
  8
1
370
    25
100
AcDbLine
 10
-396.39362
 20
70.239931
 30
0.0
 11
-395.614782
 21
67.333265
 31
0.0
  0
LINE
  5
267
100
AcDbEntity
  8
1
370
    25
100
AcDbLine
 10
-394.23892
 20
69.662581
 30
0.0
 11
-393.748756
 21
67.833265
 31
0.0
  0
LINE
  5
268
100
AcDbEntity
  8
1
370
    50
100
AcDbLine
 10
-406.445153
 20
70.432254
 30
0.0
 11
-405.507331
 21
66.932254
 31
0.0
  0
LINE
  5
269
100
AcDbEntity
  8
1
370
    50
100
AcDbLine
 10
-410.812143
 20
70.432254
 30
0.0
 11
-406.445153
 21
70.432254
 31
0.0
  0
LINE
  5
26A
100
AcDbEntity
  8
1
370
    50
100
AcDbLine
 10
-410.812143
 20
66.932254
 30
0.0
 11
-405.507331
 21
66.932254
 31
0.0
  0
POINT
  5
26B
100
AcDbEntity
  8
1
370
    50
100
AcDbPoint
 10
-410.812143
 20
68.682254
 30
0.0
  0
LINE
  5
26C
100
AcDbEntity
  8
1
370
    50
100
AcDbLine
 10
-406.378166
 20
27.182254
 30
0.0
 11
-398.110217
 21
27.182254
 31
0.0
  0
LINE
  5
26D
100
AcDbEntity
  8
1
370
    50
100
AcDbLine
 10
-405.574318
 20
24.182254
 30
0.0
 11
-398.110217
 21
24.182254
 31
0.0
  0
LINE
  5
26E
100
AcDbEntity
  8
1
370
    50
100
AcDbLine
 10
-392.51214
 20
25.682254
 30
0.0
 11
-398.110217
 21
24.182254
 31
0.0
  0
LINE
  5
26F
100
AcDbEntity
  8
1
370
    50
100
AcDbLine
 10
-392.51214
 20
25.682254
 30
0.0
 11
-398.110217
 21
27.182254
 31
0.0
  0
LINE
  5
270
100
AcDbEntity
  8
1
370
    25
100
AcDbLine
 10
-404.445153
 20
27.432254
 30
0.0
 11
-403.507331
 21
23.932254
 31
0.0
  0
LINE
  5
271
100
AcDbEntity
  8
1
370
    25
100
AcDbLine
 10
-402.445153
 20
27.432254
 30
0.0
 11
-401.507331
 21
23.932254
 31
0.0
  0
LINE
  5
272
100
AcDbEntity
  8
1
370
    25
100
AcDbLine
 10
-400.445153
 20
27.432254
 30
0.0
 11
-399.507331
 21
23.932254
 31
0.0
  0
LINE
  5
273
100
AcDbEntity
  8
1
370
    25
100
AcDbLine
 10
-398.445153
 20
27.432254
 30
0.0
 11
-397.507331
 21
23.932254
 31
0.0
  0
LINE
  5
274
100
AcDbEntity
  8
1
370
    25
100
AcDbLine
 10
-396.39362
 20
27.239931
 30
0.0
 11
-395.614782
 21
24.333265
 31
0.0
  0
LINE
  5
275
100
AcDbEntity
  8
1
370
    25
100
AcDbLine
 10
-394.23892
 20
26.662581
 30
0.0
 11
-393.748756
 21
24.833265
 31
0.0
  0
LINE
  5
276
100
AcDbEntity
  8
1
370
    50
100
AcDbLine
 10
-406.445153
 20
27.432254
 30
0.0
 11
-405.507331
 21
23.932254
 31
0.0
  0
LINE
  5
277
100
AcDbEntity
  8
1
370
    50
100
AcDbLine
 10
-410.812143
 20
27.432254
 30
0.0
 11
-406.445153
 21
27.432254
 31
0.0
  0
LINE
  5
278
100
AcDbEntity
  8
1
370
    50
100
AcDbLine
 10
-410.812143
 20
23.932254
 30
0.0
 11
-405.507331
 21
23.932254
 31
0.0
  0
POINT
  5
279
100
AcDbEntity
  8
1
370
    50
100
AcDbPoint
 10
-410.812143
 20
25.682254
 30
0.0
  0
LINE
  5
27A
100
AcDbEntity
  8
1
370
    50
100
AcDbLine
 10
-579.905823
 20
159.775882
 30
0.0
 11
-579.905823
 21
168.043831
 31
0.0
  0
LINE
  5
27B
100
AcDbEntity
  8
1
370
    50
100
AcDbLine
 10
-576.905823
 20
160.57973
 30
0.0
 11
-576.905823
 21
168.043831
 31
0.0
  0
LINE
  5
27C
100
AcDbEntity
  8
1
370
    50
100
AcDbLine
 10
-578.405823
 20
173.641908
 30
0.0
 11
-576.905823
 21
168.043831
 31
0.0
  0
LINE
  5
27D
100
AcDbEntity
  8
1
370
    50
100
AcDbLine
 10
-578.405823
 20
173.641908
 30
0.0
 11
-579.905823
 21
168.043831
 31
0.0
  0
LINE
  5
27E
100
AcDbEntity
  8
1
370
    25
100
AcDbLine
 10
-580.155823
 20
161.708895
 30
0.0
 11
-576.655823
 21
162.646717
 31
0.0
  0
LINE
  5
27F
100
AcDbEntity
  8
1
370
    25
100
AcDbLine
 10
-580.155823
 20
163.708895
 30
0.0
 11
-576.655823
 21
164.646717
 31
0.0
  0
LINE
  5
280
100
AcDbEntity
  8
1
370
    25
100
AcDbLine
 10
-580.155823
 20
165.708895
 30
0.0
 11
-576.655823
 21
166.646717
 31
0.0
  0
LINE
  5
281
100
AcDbEntity
  8
1
370
    25
100
AcDbLine
 10
-580.155823
 20
167.708895
 30
0.0
 11
-576.655823
 21
168.646717
 31
0.0
  0
LINE
  5
282
100
AcDbEntity
  8
1
370
    25
100
AcDbLine
 10
-579.9635
 20
169.760428
 30
0.0
 11
-577.056835
 21
170.539266
 31
0.0
  0
LINE
  5
283
100
AcDbEntity
  8
1
370
    25
100
AcDbLine
 10
-579.38615
 20
171.915128
 30
0.0
 11
-577.556835
 21
172.405292
 31
0.0
  0
LINE
  5
284
100
AcDbEntity
  8
1
370
    50
100
AcDbLine
 10
-580.155823
 20
159.708895
 30
0.0
 11
-576.655823
 21
160.646717
 31
0.0
  0
LINE
  5
285
100
AcDbEntity
  8
1
370
    50
100
AcDbLine
 10
-580.155823
 20
155.341905
 30
0.0
 11
-580.155823
 21
159.708895
 31
0.0
  0
LINE
  5
286
100
AcDbEntity
  8
1
370
    50
100
AcDbLine
 10
-576.655823
 20
155.341905
 30
0.0
 11
-576.655823
 21
160.646717
 31
0.0
  0
POINT
  5
287
100
AcDbEntity
  8
1
370
    50
100
AcDbPoint
 10
-578.405824
 20
155.341905
 30
0.0
  0
LINE
  5
288
100
AcDbEntity
  8
1
370
   100
100
AcDbLine
 10
-584.055824
 20
60.632254
 30
0.0
 11
-583.305824
 21
60.632254
 31
0.0
  0
LINE
  5
289
100
AcDbEntity
  8
1
370
   100
100
AcDbLine
 10
-580.005824
 20
59.182254
 30
0.0
 11
-580.005824
 21
62.182254
 31
0.0
  0
LINE
  5
28A
100
AcDbEntity
  8
1
370
   100
100
AcDbLine
 10
-576.505824
 20
59.382254
 30
0.0
 11
-576.505824
 21
61.982254
 31
0.0
  0
LINE
  5
28B
100
AcDbEntity
  8
1
370
   100
100
AcDbLine
 10
-576.305824
 20
60.732254
 30
0.0
 11
-575.355824
 21
60.732254
 31
0.0
  0
LINE
  5
28C
100
AcDbEntity
  8
1
370
   100
100
AcDbLine
 10
-573.005824
 20
61.982254
 30
0.0
 11
-573.005824
 21
59.182254
 31
0.0
  0
LINE
  5
28D
100
AcDbEntity
  8
1
370
   100
100
AcDbLine
 10
-570.905824
 20
62.182254
 30
0.0
 11
-570.905824
 21
59.382254
 31
0.0
  0
LINE
  5
28E
100
AcDbEntity
  8
1
370
   100
100
AcDbLine
 10
-581.605824
 20
62.182254
 30
0.0
 11
-581.605824
 21
59.182254
 31
0.0
  0
ARC
  5
28F
100
AcDbEntity
  8
1
370
   100
100
AcDbCircle
 10
-584.405824
 20
60.682254
 30
0.0
 40
1.5
100
AcDbArc
 50
90.0
 51
270.0
  0
ARC
  5
290
100
AcDbEntity
  8
1
370
   100
100
AcDbCircle
 10
-584.405824
 20
62.182254
 30
0.0
 40
3.0
100
AcDbArc
 50
270.0
 51
293.132396
  0
LINE
  5
291
100
AcDbEntity
  8
1
370
   100
100
AcDbLine
 10
-583.105824
 20
59.607376
 30
0.0
 11
-583.105824
 21
60.432254
 31
0.0
  0
LINE
  5
292
100
AcDbEntity
  8
1
370
   100
100
AcDbLine
 10
-579.306625
 20
60.732489
 30
0.0
 11
-578.005824
 21
59.182254
 31
0.0
  0
LINE
  5
293
100
AcDbEntity
  8
1
370
   100
100
AcDbLine
 10
-578.005824
 20
62.182254
 30
0.0
 11
-579.93965
 21
60.441029
 31
0.0
  0
LINE
  5
294
100
AcDbEntity
  8
1
370
   100
100
AcDbLine
 10
-576.305824
 20
62.182254
 30
0.0
 11
-574.505824
 21
62.182254
 31
0.0
  0
LINE
  5
295
100
AcDbEntity
  8
1
370
   100
100
AcDbLine
 10
-584.405824
 20
62.182254
 30
0.0
 11
-583.205824
 21
62.182254
 31
0.0
  0
LINE
  5
296
100
AcDbEntity
  8
1
370
   100
100
AcDbLine
 10
-576.305824
 20
59.182254
 30
0.0
 11
-574.505824
 21
59.182254
 31
0.0
  0
ARC
  5
297
100
AcDbEntity
  8
1
370
   100
100
AcDbCircle
 10
-583.305824
 20
60.432254
 30
0.0
 40
0.2
100
AcDbArc
 50
0.0
 51
90.0
  0
ARC
  5
298
100
AcDbEntity
  8
1
370
   100
100
AcDbCircle
 10
-583.305824
 20
59.607376
 30
0.0
 40
0.2
100
AcDbArc
 50
293.132396
 51
360.0
  0
ARC
  5
299
100
AcDbEntity
  8
1
370
   100
100
AcDbCircle
 10
-576.305824
 20
61.982254
 30
0.0
 40
0.2
100
AcDbArc
 50
90.0
 51
180.0
  0
ARC
  5
29A
100
AcDbEntity
  8
1
370
   100
100
AcDbCircle
 10
-576.305824
 20
59.382254
 30
0.0
 40
0.2
100
AcDbArc
 50
180.0
 51
270.0
  0
LINE
  5
29B
100
AcDbEntity
  8
1
370
   100
100
AcDbLine
 10
-572.62573
 20
62.069239
 30
0.0
 11
-571.285917
 21
59.29527
 31
0.0
  0
ARC
  5
29C
100
AcDbEntity
  8
1
370
   100
100
AcDbCircle
 10
-572.805824
 20
61.982254
 30
0.0
 40
0.2
100
AcDbArc
 50
25.780305
 51
180.0
  0
ARC
  5
29D
100
AcDbEntity
  8
1
370
   100
100
AcDbCircle
 10
-571.105824
 20
59.382254
 30
0.0
 40
0.2
100
AcDbArc
 50
205.780305
 51
360.0
  0
ARC
  5
29E
100
AcDbEntity
  8
1
370
   100
100
AcDbCircle
 10
-576.305824
 20
60.932254
 30
0.0
 40
0.2
100
AcDbArc
 50
180.0
 51
270.0
  0
ARC
  5
29F
100
AcDbEntity
  8
1
370
   100
100
AcDbCircle
 10
-576.305824
 20
60.532254
 30
0.0
 40
0.2
100
AcDbArc
 50
90.0
 51
180.0
  0
ARC
  5
2A0
100
AcDbEntity
  8
1
370
   100
100
AcDbCircle
 10
-579.805824
 20
60.830654
 30
0.0
 40
0.2
100
AcDbArc
 50
180.0
 51
312.0
  0
ARC
  5
2A1
100
AcDbEntity
  8
1
370
   100
100
AcDbCircle
 10
-579.805824
 20
60.2924
 30
0.0
 40
0.2
100
AcDbArc
 50
132.0
 51
180.0
  0
ARC
  5
2A2
100
AcDbEntity
  8
1
370
   100
100
AcDbCircle
 10
-579.162394
 20
60.871747
 30
0.0
 40
0.2
100
AcDbArc
 50
132.0
 51
220.0
  0
ARC
  5
2A3
100
AcDbEntity
  8
1
370
   100
100
AcDbCircle
 10
-579.459834
 20
60.603931
 30
0.0
 40
0.2
100
AcDbArc
 50
40.0
 51
132.0
  0
LINE
  5
2A4
100
AcDbEntity
  8
1
370
   100
100
AcDbLine
 10
-572.755824
 20
33.732254
 30
0.0
 11
-573.505824
 21
33.732254
 31
0.0
  0
LINE
  5
2A5
100
AcDbEntity
  8
1
370
   100
100
AcDbLine
 10
-576.805824
 20
35.182254
 30
0.0
 11
-576.805824
 21
32.182254
 31
0.0
  0
LINE
  5
2A6
100
AcDbEntity
  8
1
370
   100
100
AcDbLine
 10
-580.305824
 20
34.982254
 30
0.0
 11
-580.305824
 21
32.382254
 31
0.0
  0
LINE
  5
2A7
100
AcDbEntity
  8
1
370
   100
100
AcDbLine
 10
-580.505824
 20
33.632254
 30
0.0
 11
-581.455824
 21
33.632254
 31
0.0
  0
LINE
  5
2A8
100
AcDbEntity
  8
1
370
   100
100
AcDbLine
 10
-583.805824
 20
32.382254
 30
0.0
 11
-583.805824
 21
35.182254
 31
0.0
  0
LINE
  5
2A9
100
AcDbEntity
  8
1
370
   100
100
AcDbLine
 10
-585.905824
 20
32.182254
 30
0.0
 11
-585.905824
 21
34.982254
 31
0.0
  0
LINE
  5
2AA
100
AcDbEntity
  8
1
370
   100
100
AcDbLine
 10
-575.205824
 20
32.182254
 30
0.0
 11
-575.205824
 21
35.182254
 31
0.0
  0
ARC
  5
2AB
100
AcDbEntity
  8
1
370
   100
100
AcDbCircle
 10
-572.405824
 20
33.682254
 30
0.0
 40
1.5
100
AcDbArc
 50
270.0
 51
90.0
  0
ARC
  5
2AC
100
AcDbEntity
  8
1
370
   100
100
AcDbCircle
 10
-572.405824
 20
32.182254
 30
0.0
 40
3.0
100
AcDbArc
 50
90.0
 51
113.132396
  0
LINE
  5
2AD
100
AcDbEntity
  8
1
370
   100
100
AcDbLine
 10
-573.705824
 20
34.757133
 30
0.0
 11
-573.705824
 21
33.932254
 31
0.0
  0
LINE
  5
2AE
100
AcDbEntity
  8
1
370
   100
100
AcDbLine
 10
-577.505022
 20
33.63202
 30
0.0
 11
-578.805824
 21
35.182254
 31
0.0
  0
LINE
  5
2AF
100
AcDbEntity
  8
1
370
   100
100
AcDbLine
 10
-578.805824
 20
32.182254
 30
0.0
 11
-576.871997
 21
33.923479
 31
0.0
  0
LINE
  5
2B0
100
AcDbEntity
  8
1
370
   100
100
AcDbLine
 10
-580.505824
 20
32.182254
 30
0.0
 11
-582.305824
 21
32.182254
 31
0.0
  0
LINE
  5
2B1
100
AcDbEntity
  8
1
370
   100
100
AcDbLine
 10
-572.405824
 20
32.182254
 30
0.0
 11
-573.605824
 21
32.182254
 31
0.0
  0
LINE
  5
2B2
100
AcDbEntity
  8
1
370
   100
100
AcDbLine
 10
-580.505824
 20
35.182254
 30
0.0
 11
-582.305824
 21
35.182254
 31
0.0
  0
ARC
  5
2B3
100
AcDbEntity
  8
1
370
   100
100
AcDbCircle
 10
-573.505824
 20
33.932254
 30
0.0
 40
0.2
100
AcDbArc
 50
180.0
 51
270.0
  0
ARC
  5
2B4
100
AcDbEntity
  8
1
370
   100
100
AcDbCircle
 10
-573.505824
 20
34.757133
 30
0.0
 40
0.2
100
AcDbArc
 50
113.132396
 51
180.0
  0
ARC
  5
2B5
100
AcDbEntity
  8
1
370
   100
100
AcDbCircle
 10
-580.505824
 20
32.382254
 30
0.0
 40
0.2
100
AcDbArc
 50
270.0
 51
0.0
  0
ARC
  5
2B6
100
AcDbEntity
  8
1
370
   100
100
AcDbCircle
 10
-580.505824
 20
34.982254
 30
0.0
 40
0.2
100
AcDbArc
 50
360.0
 51
90.0
  0
LINE
  5
2B7
100
AcDbEntity
  8
1
370
   100
100
AcDbLine
 10
-584.185917
 20
32.29527
 30
0.0
 11
-585.52573
 21
35.069239
 31
0.0
  0
ARC
  5
2B8
100
AcDbEntity
  8
1
370
   100
100
AcDbCircle
 10
-584.005824
 20
32.382254
 30
0.0
 40
0.2
100
AcDbArc
 50
205.780305
 51
360.0
  0
ARC
  5
2B9
100
AcDbEntity
  8
1
370
   100
100
AcDbCircle
 10
-585.705824
 20
34.982254
 30
0.0
 40
0.2
100
AcDbArc
 50
25.780305
 51
180.0
  0
ARC
  5
2BA
100
AcDbEntity
  8
1
370
   100
100
AcDbCircle
 10
-580.505824
 20
33.432254
 30
0.0
 40
0.2
100
AcDbArc
 50
0.0
 51
90.0
  0
ARC
  5
2BB
100
AcDbEntity
  8
1
370
   100
100
AcDbCircle
 10
-580.505824
 20
33.832254
 30
0.0
 40
0.2
100
AcDbArc
 50
270.0
 51
360.0
  0
ARC
  5
2BC
100
AcDbEntity
  8
1
370
   100
100
AcDbCircle
 10
-577.005824
 20
33.533855
 30
0.0
 40
0.2
100
AcDbArc
 50
0.0
 51
132.0
  0
ARC
  5
2BD
100
AcDbEntity
  8
1
370
   100
100
AcDbCircle
 10
-577.005824
 20
34.072108
 30
0.0
 40
0.2
100
AcDbArc
 50
312.0
 51
360.0
  0
ARC
  5
2BE
100
AcDbEntity
  8
1
370
   100
100
AcDbCircle
 10
-577.649253
 20
33.492762
 30
0.0
 40
0.2
100
AcDbArc
 50
312.0
 51
40.0
  0
ARC
  5
2BF
100
AcDbEntity
  8
1
370
   100
100
AcDbCircle
 10
-577.351813
 20
33.760577
 30
0.0
 40
0.2
100
AcDbArc
 50
220.0
 51
312.0
  0
LINE
  5
2C0
100
AcDbEntity
  8
1
370
    18
  6
CENTER
100
AcDbLine
 10
465.987857
 20
17.932254
 30
0.0
 11
465.987857
 21
68.432254
 31
0.0
  0
LINE
  5
2C1
100
AcDbEntity
  8
1
370
    50
100
AcDbLine
 10
294.694176
 20
38.882254
 30
0.0
 11
294.094176
 21
38.882254
 31
0.0
  0
LINE
  5
2C2
100
AcDbEntity
  8
1
370
    18
  6
CENTER
100
AcDbLine
 10
281.594176
 20
82.203111
 30
0.0
 11
281.594176
 21
3.400617
 31
0.0
  0
LINE
  5
2C3
100
AcDbEntity
  8
1
370
    50
100
AcDbLine
 10
269.094176
 20
78.182254
 30
0.0
 11
269.094176
 21
8.182254
 31
0.0
  0
LINE
  5
2C4
100
AcDbEntity
  8
1
370
    50
100
AcDbLine
 10
294.094176
 20
78.182254
 30
0.0
 11
294.094176
 21
8.182254
 31
0.0
  0
LINE
  5
2C5
100
AcDbEntity
  8
1
370
    50
100
AcDbLine
 10
269.094176
 20
78.182254
 30
0.0
 11
294.094176
 21
78.182254
 31
0.0
  0
LINE
  5
2C6
100
AcDbEntity
  8
1
370
    50
100
AcDbLine
 10
269.094176
 20
8.182254
 30
0.0
 11
294.094176
 21
8.182254
 31
0.0
  0
LINE
  5
2C7
100
AcDbEntity
  8
1
370
    18
  6
CENTER
100
AcDbLine
 10
275.276584
 20
64.682254
 30
0.0
 11
287.594508
 21
64.682254
 31
0.0
  0
LINE
  5
2C8
100
AcDbEntity
  8
1
370
    50
100
AcDbLine
 10
274.844176
 20
50.148423
 30
0.0
 11
274.844176
 21
36.216086
 31
0.0
  0
LINE
  5
2C9
100
AcDbEntity
  8
1
370
    50
100
AcDbLine
 10
288.344176
 20
36.216086
 30
0.0
 11
288.344176
 21
50.148423
 31
0.0
  0
ARC
  5
2CA
100
AcDbEntity
  8
1
370
    50
100
AcDbCircle
 10
281.594176
 20
43.182254
 30
0.0
 40
9.7
100
AcDbArc
 50
225.902913
 51
314.097087
  0
ARC
  5
2CB
100
AcDbEntity
  8
1
370
    50
100
AcDbCircle
 10
281.594176
 20
43.182254
 30
0.0
 40
9.7
100
AcDbArc
 50
45.902913
 51
134.097087
  0
LINE
  5
2CC
100
AcDbEntity
  8
1
370
    18
100
AcDbLine
 10
281.594176
 20
66.882254
 30
0.0
 11
282.094176
 21
66.882254
 31
0.0
  0
ARC
  5
2CD
100
AcDbEntity
  8
1
370
    18
100
AcDbCircle
 10
283.794176
 20
66.882254
 30
0.0
 40
1.7
100
AcDbArc
 50
180.0
 51
270.0
  0
LINE
  5
2CE
100
AcDbEntity
  8
1
370
    18
100
AcDbLine
 10
283.794176
 20
65.182254
 30
0.0
 11
283.794176
 21
64.682254
 31
0.0
  0
LINE
  5
2CF
100
AcDbEntity
  8
1
370
    18
100
AcDbLine
 10
281.594176
 20
62.482254
 30
0.0
 11
282.094176
 21
62.482254
 31
0.0
  0
ARC
  5
2D0
100
AcDbEntity
  8
1
370
    18
100
AcDbCircle
 10
283.794176
 20
62.482254
 30
0.0
 40
1.7
100
AcDbArc
 50
90.0
 51
180.0
  0
LINE
  5
2D1
100
AcDbEntity
  8
1
370
    18
100
AcDbLine
 10
283.794176
 20
64.182254
 30
0.0
 11
283.794176
 21
64.682254
 31
0.0
  0
LINE
  5
2D2
100
AcDbEntity
  8
1
370
    18
100
AcDbLine
 10
281.594176
 20
66.882254
 30
0.0
 11
281.094176
 21
66.882254
 31
0.0
  0
ARC
  5
2D3
100
AcDbEntity
  8
1
370
    18
100
AcDbCircle
 10
279.394176
 20
66.882254
 30
0.0
 40
1.7
100
AcDbArc
 50
270.0
 51
360.0
  0
LINE
  5
2D4
100
AcDbEntity
  8
1
370
    18
100
AcDbLine
 10
279.394176
 20
65.182254
 30
0.0
 11
279.394176
 21
64.682254
 31
0.0
  0
LINE
  5
2D5
100
AcDbEntity
  8
1
370
    18
100
AcDbLine
 10
281.594176
 20
62.482254
 30
0.0
 11
281.094176
 21
62.482254
 31
0.0
  0
ARC
  5
2D6
100
AcDbEntity
  8
1
370
    18
100
AcDbCircle
 10
279.394176
 20
62.482254
 30
0.0
 40
1.7
100
AcDbArc
 50
0.0
 51
90.0
  0
LINE
  5
2D7
100
AcDbEntity
  8
1
370
    18
100
AcDbLine
 10
279.394176
 20
64.182254
 30
0.0
 11
279.394176
 21
64.682254
 31
0.0
  0
CIRCLE
  5
2D8
100
AcDbEntity
  8
1
370
    50
100
AcDbCircle
 10
281.594176
 20
64.682254
 30
0.0
 40
4.0
  0
LINE
  5
2D9
100
AcDbEntity
  8
1
370
    18
100
AcDbLine
 10
281.594176
 20
23.882254
 30
0.0
 11
282.094176
 21
23.882254
 31
0.0
  0
ARC
  5
2DA
100
AcDbEntity
  8
1
370
    18
100
AcDbCircle
 10
283.794176
 20
23.882254
 30
0.0
 40
1.7
100
AcDbArc
 50
180.0
 51
270.0
  0
LINE
  5
2DB
100
AcDbEntity
  8
1
370
    18
100
AcDbLine
 10
283.794176
 20
22.182254
 30
0.0
 11
283.794176
 21
21.682254
 31
0.0
  0
LINE
  5
2DC
100
AcDbEntity
  8
1
370
    18
100
AcDbLine
 10
281.594176
 20
19.482254
 30
0.0
 11
282.094176
 21
19.482254
 31
0.0
  0
ARC
  5
2DD
100
AcDbEntity
  8
1
370
    18
100
AcDbCircle
 10
283.794176
 20
19.482254
 30
0.0
 40
1.7
100
AcDbArc
 50
90.0
 51
180.0
  0
LINE
  5
2DE
100
AcDbEntity
  8
1
370
    18
100
AcDbLine
 10
283.794176
 20
21.182254
 30
0.0
 11
283.794176
 21
21.682254
 31
0.0
  0
LINE
  5
2DF
100
AcDbEntity
  8
1
370
    18
100
AcDbLine
 10
281.594176
 20
23.882254
 30
0.0
 11
281.094176
 21
23.882254
 31
0.0
  0
ARC
  5
2E0
100
AcDbEntity
  8
1
370
    18
100
AcDbCircle
 10
279.394176
 20
23.882254
 30
0.0
 40
1.7
100
AcDbArc
 50
270.0
 51
360.0
  0
LINE
  5
2E1
100
AcDbEntity
  8
1
370
    18
100
AcDbLine
 10
279.394176
 20
22.182254
 30
0.0
 11
279.394176
 21
21.682254
 31
0.0
  0
LINE
  5
2E2
100
AcDbEntity
  8
1
370
    18
100
AcDbLine
 10
281.594176
 20
19.482254
 30
0.0
 11
281.094176
 21
19.482254
 31
0.0
  0
ARC
  5
2E3
100
AcDbEntity
  8
1
370
    18
100
AcDbCircle
 10
279.394176
 20
19.482254
 30
0.0
 40
1.7
100
AcDbArc
 50
0.0
 51
90.0
  0
LINE
  5
2E4
100
AcDbEntity
  8
1
370
    18
100
AcDbLine
 10
279.394176
 20
21.182254
 30
0.0
 11
279.394176
 21
21.682254
 31
0.0
  0
CIRCLE
  5
2E5
100
AcDbEntity
  8
1
370
    50
100
AcDbCircle
 10
281.594176
 20
21.682254
 30
0.0
 40
4.0
  0
LINE
  5
2E6
100
AcDbEntity
  8
1
370
    18
  6
CENTER
100
AcDbLine
 10
275.709373
 20
21.682254
 30
0.0
 11
287.812747
 21
21.682254
 31
0.0
  0
LINE
  5
2E7
100
AcDbEntity
  8
1
370
    18
  6
CENTER
100
AcDbLine
 10
281.594176
 20
143.611053
 30
0.0
 11
281.594176
 21
240.324202
 31
0.0
  0
LINE
  5
2E8
100
AcDbEntity
  8
1
370
    50
100
AcDbLine
 10
288.344176
 20
146.141905
 30
0.0
 11
274.844176
 21
146.141905
 31
0.0
  0
LINE
  5
2E9
100
AcDbEntity
  8
1
370
    50
100
AcDbLine
 10
294.094176
 20
161.141905
 30
0.0
 11
269.094176
 21
161.141905
 31
0.0
  0
LINE
  5
2EA
100
AcDbEntity
  8
1
370
    50
100
AcDbLine
 10
294.094176
 20
162.641905
 30
0.0
 11
269.094176
 21
162.641905
 31
0.0
  0
LINE
  5
2EB
100
AcDbEntity
  8
1
370
    50
100
AcDbLine
 10
293.794176
 20
165.341905
 30
0.0
 11
269.394176
 21
165.341905
 31
0.0
  0
LINE
  5
2EC
100
AcDbEntity
  8
1
370
    50
100
AcDbLine
 10
288.294176
 20
194.141905
 30
0.0
 11
274.894176
 21
194.141905
 31
0.0
  0
LINE
  5
2ED
100
AcDbEntity
  8
1
370
    50
100
AcDbLine
 10
269.094176
 20
161.141905
 30
0.0
 11
269.094176
 21
162.641905
 31
0.0
  0
LINE
  5
2EE
100
AcDbEntity
  8
1
370
    50
100
AcDbLine
 10
294.094176
 20
161.141905
 30
0.0
 11
294.094176
 21
162.641905
 31
0.0
  0
LINE
  5
2EF
100
AcDbEntity
  8
1
370
    50
100
AcDbLine
 10
274.844176
 20
161.141905
 30
0.0
 11
274.844176
 21
146.141905
 31
0.0
  0
LINE
  5
2F0
100
AcDbEntity
  8
1
370
    50
100
AcDbLine
 10
288.344176
 20
161.141905
 30
0.0
 11
288.344176
 21
146.141905
 31
0.0
  0
LINE
  5
2F1
100
AcDbEntity
  8
1
370
    50
100
AcDbLine
 10
269.094176
 20
162.641905
 30
0.0
 11
269.394176
 21
165.341905
 31
0.0
  0
LINE
  5
2F2
100
AcDbEntity
  8
1
370
    50
100
AcDbLine
 10
293.794176
 20
165.341905
 30
0.0
 11
294.094176
 21
162.641905
 31
0.0
  0
LINE
  5
2F3
100
AcDbEntity
  8
1
370
    50
100
AcDbLine
 10
272.844176
 20
165.341905
 30
0.0
 11
272.844176
 21
186.325282
 31
0.0
  0
LINE
  5
2F4
100
AcDbEntity
  8
1
370
    50
100
AcDbLine
 10
290.344176
 20
186.325282
 30
0.0
 11
290.344176
 21
165.341905
 31
0.0
  0
LINE
  5
2F5
100
AcDbEntity
  8
1
370
    50
100
AcDbLine
 10
288.294176
 20
187.641905
 30
0.0
 11
288.294176
 21
230.941905
 31
0.0
  0
LINE
  5
2F6
100
AcDbEntity
  8
1
370
    50
100
AcDbLine
 10
274.894176
 20
187.641905
 30
0.0
 11
274.894176
 21
230.941905
 31
0.0
  0
LINE
  5
2F7
100
AcDbEntity
  8
1
370
    50
100
AcDbLine
 10
276.094176
 20
232.141905
 30
0.0
 11
276.094176
 21
235.728691
 31
0.0
  0
LINE
  5
2F8
100
AcDbEntity
  8
1
370
    50
100
AcDbLine
 10
287.094176
 20
235.728691
 30
0.0
 11
287.094176
 21
232.141905
 31
0.0
  0
LINE
  5
2F9
100
AcDbEntity
  8
1
370
    50
100
AcDbLine
 10
274.894176
 20
187.641905
 30
0.0
 11
273.585357
 21
187.291208
 31
0.0
  0
LINE
  5
2FA
100
AcDbEntity
  8
1
370
    50
100
AcDbLine
 10
288.294176
 20
187.641905
 30
0.0
 11
289.602996
 21
187.291208
 31
0.0
  0
LINE
  5
2FB
100
AcDbEntity
  8
1
370
    50
100
AcDbLine
 10
288.294176
 20
230.141905
 30
0.0
 11
274.894176
 21
230.141905
 31
0.0
  0
LINE
  5
2FC
100
AcDbEntity
  8
1
370
    50
100
AcDbLine
 10
276.094176
 20
232.141905
 30
0.0
 11
274.894176
 21
230.941905
 31
0.0
  0
LINE
  5
2FD
100
AcDbEntity
  8
1
370
    50
100
AcDbLine
 10
287.094176
 20
232.141905
 30
0.0
 11
288.294176
 21
230.941905
 31
0.0
  0
LINE
  5
2FE
100
AcDbEntity
  8
1
370
    50
100
AcDbLine
 10
277.003641
 20
236.724584
 30
0.0
 11
281.594176
 21
237.141905
 31
0.0
  0
LINE
  5
2FF
100
AcDbEntity
  8
1
370
    50
100
AcDbLine
 10
281.594176
 20
237.141905
 30
0.0
 11
286.184712
 21
236.724584
 31
0.0
  0
ARC
  5
300
100
AcDbEntity
  8
1
370
    50
100
AcDbCircle
 10
277.094176
 20
235.728691
 30
0.0
 40
1.0
100
AcDbArc
 50
95.194429
 51
180.0
  0
ARC
  5
301
100
AcDbEntity
  8
1
370
    50
100
AcDbCircle
 10
286.094176
 20
235.728691
 30
0.0
 40
1.0
100
AcDbArc
 50
0.0
 51
84.805571
  0
ARC
  5
302
100
AcDbEntity
  8
1
370
    50
100
AcDbCircle
 10
273.844176
 20
186.325282
 30
0.0
 40
1.0
100
AcDbArc
 50
105.0
 51
180.0
  0
ARC
  5
303
100
AcDbEntity
  8
1
370
    50
100
AcDbCircle
 10
289.344176
 20
186.325282
 30
0.0
 40
1.0
100
AcDbArc
 50
360.0
 51
75.0
  0
LINE
  5
304
100
AcDbEntity
  8
1
370
    50
100
AcDbLine
 10
282.094176
 20
227.341905
 30
0.0
 11
281.094176
 21
227.341905
 31
0.0
  0
LINE
  5
305
100
AcDbEntity
  8
1
370
    50
100
AcDbLine
 10
282.094176
 20
196.941905
 30
0.0
 11
281.094176
 21
196.941905
 31
0.0
  0
LINE
  5
306
100
AcDbEntity
  8
1
370
    50
100
AcDbLine
 10
280.094176
 20
204.141905
 30
0.0
 11
280.094176
 21
220.141905
 31
0.0
  0
LINE
  5
307
100
AcDbEntity
  8
1
370
    50
100
AcDbLine
 10
281.094176
 20
196.941905
 30
0.0
 11
281.094176
 21
204.141905
 31
0.0
  0
LINE
  5
308
100
AcDbEntity
  8
1
370
    50
100
AcDbLine
 10
281.094176
 20
220.141905
 30
0.0
 11
281.094176
 21
227.341905
 31
0.0
  0
LINE
  5
309
100
AcDbEntity
  8
1
370
    50
100
AcDbLine
 10
284.594176
 20
204.141905
 30
0.0
 11
284.594176
 21
220.141905
 31
0.0
  0
LINE
  5
30A
100
AcDbEntity
  8
1
370
    50
100
AcDbLine
 10
282.094176
 20
196.941905
 30
0.0
 11
282.094176
 21
204.141905
 31
0.0
  0
LINE
  5
30B
100
AcDbEntity
  8
1
370
    50
100
AcDbLine
 10
282.094176
 20
220.141905
 30
0.0
 11
282.094176
 21
227.341905
 31
0.0
  0
LINE
  5
30C
100
AcDbEntity
  8
1
370
    50
100
AcDbLine
 10
284.594176
 20
204.141905
 30
0.0
 11
282.094176
 21
204.141905
 31
0.0
  0
LINE
  5
30D
100
AcDbEntity
  8
1
370
    50
100
AcDbLine
 10
281.094176
 20
204.141905
 30
0.0
 11
280.094176
 21
204.141905
 31
0.0
  0
LINE
  5
30E
100
AcDbEntity
  8
1
370
    50
100
AcDbLine
 10
284.594176
 20
220.141905
 30
0.0
 11
282.094176
 21
220.141905
 31
0.0
  0
LINE
  5
30F
100
AcDbEntity
  8
1
370
    50
100
AcDbLine
 10
281.094176
 20
220.141905
 30
0.0
 11
280.094176
 21
220.141905
 31
0.0
  0
LINE
  5
310
100
AcDbEntity
  8
1
370
    50
100
AcDbLine
 10
281.594176
 20
183.641908
 30
0.0
 11
281.594176
 21
196.941905
 31
0.0
  0
LINE
  5
311
100
AcDbEntity
  8
1
370
    50
100
AcDbLine
 10
281.594176
 20
227.341905
 30
0.0
 11
281.594176
 21
237.141905
 31
0.0
  0
LINE
  5
312
100
AcDbEntity
  8
1
370
    50
100
AcDbLine
 10
280.094176
 20
217.141905
 30
0.0
 11
282.694176
 21
217.141905
 31
0.0
  0
LINE
  5
313
100
AcDbEntity
  8
1
370
    50
100
AcDbLine
 10
280.094176
 20
210.841905
 30
0.0
 11
282.694176
 21
210.841905
 31
0.0
  0
LINE
  5
314
100
AcDbEntity
  8
1
370
    50
100
AcDbLine
 10
280.094176
 20
207.841905
 30
0.0
 11
282.694176
 21
207.841905
 31
0.0
  0
LINE
  5
315
100
AcDbEntity
  8
1
370
    50
100
AcDbLine
 10
282.694176
 20
217.141905
 30
0.0
 11
282.694176
 21
207.841905
 31
0.0
  0
LINE
  5
316
100
AcDbEntity
  8
1
370
    50
100
AcDbLine
 10
280.594176
 20
207.841905
 30
0.0
 11
280.594176
 21
204.141905
 31
0.0
  0
LINE
  5
317
100
AcDbEntity
  8
1
370
    18
  6
CENTER
100
AcDbLine
 10
314.247086
 20
212.141905
 30
0.0
 11
230.248428
 21
212.141905
 31
0.0
  0
LINE
  5
318
100
AcDbEntity
  8
1
370
    18
  6
CENTER
100
AcDbLine
 10
303.085686
 20
201.141905
 30
0.0
 11
258.139253
 21
201.141905
 31
0.0
  0
LINE
  5
319
100
AcDbEntity
  8
1
370
    18
  6
CENTER
100
AcDbLine
 10
303.794487
 20
223.141905
 30
0.0
 11
258.030088
 21
223.141905
 31
0.0
  0
LINE
  5
31A
100
AcDbEntity
  8
1
370
    50
100
AcDbLine
 10
288.294176
 20
226.141905
 30
0.0
 11
301.594176
 21
226.141905
 31
0.0
  0
LINE
  5
31B
100
AcDbEntity
  8
1
370
    50
100
AcDbLine
 10
288.294176
 20
220.141905
 30
0.0
 11
301.594176
 21
220.141905
 31
0.0
  0
LINE
  5
31C
100
AcDbEntity
  8
1
370
    50
100
AcDbLine
 10
288.294176
 20
204.141905
 30
0.0
 11
301.594176
 21
204.141905
 31
0.0
  0
LINE
  5
31D
100
AcDbEntity
  8
1
370
    50
100
AcDbLine
 10
288.294176
 20
198.141905
 30
0.0
 11
301.594176
 21
198.141905
 31
0.0
  0
LINE
  5
31E
100
AcDbEntity
  8
1
370
    50
100
AcDbLine
 10
270.594176
 20
215.076398
 30
0.0
 11
274.894176
 21
215.076398
 31
0.0
  0
LINE
  5
31F
100
AcDbEntity
  8
1
370
    50
100
AcDbLine
 10
288.294176
 20
215.076398
 30
0.0
 11
299.294176
 21
215.076398
 31
0.0
  0
LINE
  5
320
100
AcDbEntity
  8
1
370
    50
100
AcDbLine
 10
270.594176
 20
210.621626
 30
0.0
 11
274.894176
 21
210.621626
 31
0.0
  0
LINE
  5
321
100
AcDbEntity
  8
1
370
    50
100
AcDbLine
 10
288.294176
 20
210.621626
 30
0.0
 11
299.294176
 21
210.621626
 31
0.0
  0
LINE
  5
322
100
AcDbEntity
  8
1
370
    50
100
AcDbLine
 10
270.594176
 20
209.207412
 30
0.0
 11
274.894176
 21
209.207412
 31
0.0
  0
LINE
  5
323
100
AcDbEntity
  8
1
370
    50
100
AcDbLine
 10
288.294176
 20
209.207412
 30
0.0
 11
299.294176
 21
209.207412
 31
0.0
  0
LINE
  5
324
100
AcDbEntity
  8
1
370
    50
100
AcDbLine
 10
274.894176
 20
221.141905
 30
0.0
 11
261.594176
 21
221.141905
 31
0.0
  0
LINE
  5
325
100
AcDbEntity
  8
1
370
    50
100
AcDbLine
 10
274.894176
 20
225.141905
 30
0.0
 11
261.594176
 21
225.141905
 31
0.0
  0
LINE
  5
326
100
AcDbEntity
  8
1
370
    18
100
AcDbLine
 10
261.594176
 20
221.541905
 30
0.0
 11
274.894176
 21
221.541905
 31
0.0
  0
LINE
  5
327
100
AcDbEntity
  8
1
370
    18
100
AcDbLine
 10
274.894176
 20
224.741905
 30
0.0
 11
261.594176
 21
224.741905
 31
0.0
  0
LINE
  5
328
100
AcDbEntity
  8
1
370
    50
100
AcDbLine
 10
274.894176
 20
199.141905
 30
0.0
 11
261.594176
 21
199.141905
 31
0.0
  0
LINE
  5
329
100
AcDbEntity
  8
1
370
    50
100
AcDbLine
 10
274.894176
 20
203.141905
 30
0.0
 11
261.594176
 21
203.141905
 31
0.0
  0
LINE
  5
32A
100
AcDbEntity
  8
1
370
    18
100
AcDbLine
 10
261.594176
 20
199.541905
 30
0.0
 11
274.894176
 21
199.541905
 31
0.0
  0
LINE
  5
32B
100
AcDbEntity
  8
1
370
    18
100
AcDbLine
 10
274.894176
 20
202.741905
 30
0.0
 11
261.594176
 21
202.741905
 31
0.0
  0
LINE
  5
32C
100
AcDbEntity
  8
1
370
    50
100
AcDbLine
 10
414.987857
 20
78.182254
 30
0.0
 11
414.987857
 21
8.182254
 31
0.0
  0
LINE
  5
32D
100
AcDbEntity
  8
1
370
    50
100
AcDbLine
 10
419.187857
 20
77.882254
 30
0.0
 11
419.187857
 21
8.482254
 31
0.0
  0
LINE
  5
32E
100
AcDbEntity
  8
1
370
    50
100
AcDbLine
 10
414.987857
 20
78.182254
 30
0.0
 11
416.487857
 21
78.182254
 31
0.0
  0
LINE
  5
32F
100
AcDbEntity
  8
1
370
    50
100
AcDbLine
 10
414.987857
 20
8.182254
 30
0.0
 11
416.487857
 21
8.182254
 31
0.0
  0
LINE
  5
330
100
AcDbEntity
  8
1
370
    50
100
AcDbLine
 10
416.487857
 20
78.182254
 30
0.0
 11
416.487857
 21
8.182254
 31
0.0
  0
LINE
  5
331
100
AcDbEntity
  8
1
370
    50
100
AcDbLine
 10
416.487857
 20
8.182254
 30
0.0
 11
419.187857
 21
8.482254
 31
0.0
  0
LINE
  5
332
100
AcDbEntity
  8
1
370
    50
100
AcDbLine
 10
416.487857
 20
78.182254
 30
0.0
 11
419.187857
 21
77.882254
 31
0.0
  0
LINE
  5
333
100
AcDbEntity
  8
1
370
    50
100
AcDbLine
 10
399.987857
 20
52.682254
 30
0.0
 11
399.987857
 21
33.682254
 31
0.0
  0
LINE
  5
334
100
AcDbEntity
  8
1
370
    50
100
AcDbLine
 10
414.987857
 20
52.882254
 30
0.0
 11
400.187857
 21
52.882254
 31
0.0
  0
LINE
  5
335
100
AcDbEntity
  8
1
370
    50
100
AcDbLine
 10
414.987857
 20
33.482254
 30
0.0
 11
400.187857
 21
33.482254
 31
0.0
  0
LINE
  5
336
100
AcDbEntity
  8
1
370
    50
100
AcDbLine
 10
399.987857
 20
50.148423
 30
0.0
 11
414.987857
 21
50.148423
 31
0.0
  0
LINE
  5
337
100
AcDbEntity
  8
1
370
    50
100
AcDbLine
 10
399.987857
 20
36.216086
 30
0.0
 11
414.987857
 21
36.216086
 31
0.0
  0
LINE
  5
338
100
AcDbEntity
  8
1
370
    50
100
AcDbLine
 10
400.187857
 20
52.882254
 30
0.0
 11
399.987857
 21
52.682254
 31
0.0
  0
LINE
  5
339
100
AcDbEntity
  8
1
370
    50
100
AcDbLine
 10
400.187857
 20
33.482254
 30
0.0
 11
399.987857
 21
33.682254
 31
0.0
  0
LINE
  5
33A
100
AcDbEntity
  8
1
370
    50
100
AcDbLine
 10
490.987857
 20
50.682254
 30
0.0
 11
490.987857
 21
35.682254
 31
0.0
  0
LINE
  5
33B
100
AcDbEntity
  8
1
370
    50
100
AcDbLine
 10
441.487857
 20
52.528911
 30
0.0
 11
441.487857
 21
33.082749
 31
0.0
  0
LINE
  5
33C
100
AcDbEntity
  8
1
370
    50
100
AcDbLine
 10
440.487857
 20
50.64466
 30
0.0
 11
440.487857
 21
35.719849
 31
0.0
  0
LINE
  5
33D
100
AcDbEntity
  8
1
370
    50
100
AcDbLine
 10
440.487857
 20
50.64466
 30
0.0
 11
419.187857
 21
50.64466
 31
0.0
  0
LINE
  5
33E
100
AcDbEntity
  8
1
370
    50
100
AcDbLine
 10
440.487857
 20
35.719849
 30
0.0
 11
419.187857
 21
35.719849
 31
0.0
  0
LINE
  5
33F
100
AcDbEntity
  8
1
370
    50
100
AcDbLine
 10
441.487857
 20
52.528911
 30
0.0
 11
447.182539
 21
52.528911
 31
0.0
  0
LINE
  5
340
100
AcDbEntity
  8
1
370
    50
100
AcDbLine
 10
441.487857
 20
33.082749
 30
0.0
 11
447.575904
 21
33.082749
 31
0.0
  0
LINE
  5
341
100
AcDbEntity
  8
1
370
    50
100
AcDbLine
 10
484.39981
 20
33.082749
 30
0.0
 11
487.888352
 21
33.082749
 31
0.0
  0
LINE
  5
342
100
AcDbEntity
  8
1
370
    50
100
AcDbLine
 10
419.187857
 20
31.682254
 30
0.0
 11
448.416574
 21
31.682254
 31
0.0
  0
LINE
  5
343
100
AcDbEntity
  8
1
370
    50
100
AcDbLine
 10
483.55914
 20
31.682254
 30
0.0
 11
486.987857
 21
31.682254
 31
0.0
  0
LINE
  5
344
100
AcDbEntity
  8
1
370
    50
100
AcDbLine
 10
419.187857
 20
54.682254
 30
0.0
 11
448.416574
 21
54.682254
 31
0.0
  0
LINE
  5
345
100
AcDbEntity
  8
1
370
    50
100
AcDbLine
 10
483.55914
 20
54.682254
 30
0.0
 11
486.987857
 21
54.682254
 31
0.0
  0
LINE
  5
346
100
AcDbEntity
  8
1
370
    50
100
AcDbLine
 10
445.475666
 20
47.682254
 30
0.0
 11
441.487857
 21
47.682254
 31
0.0
  0
LINE
  5
347
100
AcDbEntity
  8
1
370
    50
100
AcDbLine
 10
484.39981
 20
53.281759
 30
0.0
 11
487.888352
 21
53.281759
 31
0.0
  0
ARC
  5
348
100
AcDbEntity
  8
1
370
    50
100
AcDbCircle
 10
486.987857
 20
50.682254
 30
0.0
 40
4.0
100
AcDbArc
 50
0.0
 51
90.0
  0
ARC
  5
349
100
AcDbEntity
  8
1
370
    50
100
AcDbCircle
 10
486.987857
 20
35.682254
 30
0.0
 40
4.0
100
AcDbArc
 50
270.0
 51
360.0
  0
LINE
  5
34A
100
AcDbEntity
  8
1
370
    50
100
AcDbLine
 10
441.487857
 20
52.528911
 30
0.0
 11
440.487857
 21
50.64466
 31
0.0
  0
LINE
  5
34B
100
AcDbEntity
  8
1
370
    50
100
AcDbLine
 10
440.487857
 20
35.719849
 30
0.0
 11
441.487857
 21
33.082749
 31
0.0
  0
LINE
  5
34C
100
AcDbEntity
  8
1
370
    18
  6
CENTER
100
AcDbLine
 10
395.850772
 20
43.182254
 30
0.0
 11
496.215282
 21
43.182254
 31
0.0
  0
LINE
  5
34D
100
AcDbEntity
  8
1
370
    50
100
AcDbLine
 10
490.487857
 20
50.682254
 30
0.0
 11
490.487857
 21
35.682254
 31
0.0
  0
ARC
  5
34E
100
AcDbEntity
  8
1
370
    50
100
AcDbCircle
 10
487.888352
 20
50.682254
 30
0.0
 40
2.599505
100
AcDbArc
 50
0.0
 51
90.0
  0
ARC
  5
34F
100
AcDbEntity
  8
1
370
    50
100
AcDbCircle
 10
487.888352
 20
35.682254
 30
0.0
 40
2.599505
100
AcDbArc
 50
270.0
 51
360.0
  0
LINE
  5
350
100
AcDbEntity
  8
1
370
    50
100
AcDbLine
 10
301.594176
 20
233.141905
 30
0.0
 11
301.594176
 21
191.141905
 31
0.0
  0
LINE
  5
351
100
AcDbEntity
  8
1
370
    50
100
AcDbLine
 10
309.594176
 20
231.702454
 30
0.0
 11
309.594176
 21
192.581356
 31
0.0
  0
LINE
  5
352
100
AcDbEntity
  8
1
370
    50
100
AcDbLine
 10
301.594176
 20
233.141905
 30
0.0
 11
308.656555
 21
232.700507
 31
0.0
  0
LINE
  5
353
100
AcDbEntity
  8
1
370
    50
100
AcDbLine
 10
308.656555
 20
191.583304
 30
0.0
 11
301.594176
 21
191.141905
 31
0.0
  0
ARC
  5
354
100
AcDbEntity
  8
1
370
    50
100
AcDbCircle
 10
308.594176
 20
231.702454
 30
0.0
 40
1.0
100
AcDbArc
 50
0.0
 51
86.423666
  0
ARC
  5
355
100
AcDbEntity
  8
1
370
    50
100
AcDbCircle
 10
308.594176
 20
192.581356
 30
0.0
 40
1.0
100
AcDbArc
 50
273.576334
 51
0.0
  0
LINE
  5
356
100
AcDbEntity
  8
1
370
    50
100
AcDbLine
 10
299.294176
 20
217.141905
 30
0.0
 11
299.294176
 21
207.141905
 31
0.0
  0
LINE
  5
357
100
AcDbEntity
  8
1
370
    50
100
AcDbLine
 10
299.294176
 20
207.141905
 30
0.0
 11
301.594176
 21
207.141905
 31
0.0
  0
LINE
  5
358
100
AcDbEntity
  8
1
370
    50
100
AcDbLine
 10
299.294176
 20
217.141905
 30
0.0
 11
301.594176
 21
217.141905
 31
0.0
  0
LINE
  5
359
100
AcDbEntity
  8
1
370
    50
100
AcDbLine
 10
261.594176
 20
218.141905
 30
0.0
 11
267.094176
 21
218.141905
 31
0.0
  0
LINE
  5
35A
100
AcDbEntity
  8
1
370
    50
100
AcDbLine
 10
261.594176
 20
206.141905
 30
0.0
 11
267.094176
 21
206.141905
 31
0.0
  0
LINE
  5
35B
100
AcDbEntity
  8
1
370
    50
100
AcDbLine
 10
270.594176
 20
217.204083
 30
0.0
 11
270.594176
 21
207.079727
 31
0.0
  0
LINE
  5
35C
100
AcDbEntity
  8
1
370
    50
100
AcDbLine
 10
267.094176
 20
218.141905
 30
0.0
 11
267.094176
 21
206.141905
 31
0.0
  0
LINE
  5
35D
100
AcDbEntity
  8
1
370
    50
100
AcDbLine
 10
267.094176
 20
218.141905
 30
0.0
 11
270.594176
 21
217.204083
 31
0.0
  0
LINE
  5
35E
100
AcDbEntity
  8
1
370
    50
100
AcDbLine
 10
267.094176
 20
206.141905
 30
0.0
 11
270.594176
 21
207.079727
 31
0.0
  0
LINE
  5
35F
100
AcDbEntity
  8
1
370
    50
100
AcDbLine
 10
261.594176
 20
233.141905
 30
0.0
 11
261.594176
 21
191.141905
 31
0.0
  0
LINE
  5
360
100
AcDbEntity
  8
1
370
    50
100
AcDbLine
 10
261.594176
 20
233.141905
 30
0.0
 11
252.544239
 21
232.689408
 31
0.0
  0
LINE
  5
361
100
AcDbEntity
  8
1
370
    50
100
AcDbLine
 10
251.594176
 20
231.690656
 30
0.0
 11
251.594176
 21
192.593154
 31
0.0
  0
LINE
  5
362
100
AcDbEntity
  8
1
370
    50
100
AcDbLine
 10
252.544239
 20
191.594402
 30
0.0
 11
261.594176
 21
191.141905
 31
0.0
  0
ARC
  5
363
100
AcDbEntity
  8
1
370
    50
100
AcDbCircle
 10
252.594176
 20
231.690656
 30
0.0
 40
1.0
100
AcDbArc
 50
92.862405
 51
180.0
  0
ARC
  5
364
100
AcDbEntity
  8
1
370
    50
100
AcDbCircle
 10
252.594176
 20
192.593154
 30
0.0
 40
1.0
100
AcDbArc
 50
180.0
 51
267.137595
  0
LINE
  5
365
100
AcDbEntity
  8
1
370
    50
100
AcDbLine
 10
251.594176
 20
218.141905
 30
0.0
 11
251.094176
 21
218.141905
 31
0.0
  0
LINE
  5
366
100
AcDbEntity
  8
1
370
    50
100
AcDbLine
 10
251.094176
 20
206.141905
 30
0.0
 11
251.594176
 21
206.141905
 31
0.0
  0
LINE
  5
367
100
AcDbEntity
  8
1
370
    50
100
AcDbLine
 10
234.094176
 20
211.139221
 30
0.0
 11
234.094176
 21
213.14459
 31
0.0
  0
LINE
  5
368
100
AcDbEntity
  8
1
370
    50
100
AcDbLine
 10
250.594176
 20
218.641905
 30
0.0
 11
249.181707
 21
218.641905
 31
0.0
  0
LINE
  5
369
100
AcDbEntity
  8
1
370
    50
100
AcDbLine
 10
250.594176
 20
205.641905
 30
0.0
 11
249.181707
 21
205.641905
 31
0.0
  0
LINE
  5
36A
100
AcDbEntity
  8
1
370
    50
100
AcDbLine
 10
251.094176
 20
218.141905
 30
0.0
 11
251.094176
 21
206.141905
 31
0.0
  0
ARC
  5
36B
100
AcDbEntity
  8
1
370
    50
100
AcDbCircle
 10
234.094176
 20
259.706191
 30
0.0
 40
46.064286
100
AcDbArc
 50
270.615245
 51
278.65448
  0
ARC
  5
36C
100
AcDbEntity
  8
1
370
    50
100
AcDbCircle
 10
229.195443
 20
241.180986
 30
0.0
 40
30.0
100
AcDbArc
 50
301.082792
 51
310.941443
  0
ARC
  5
36D
100
AcDbEntity
  8
1
370
    50
100
AcDbCircle
 10
239.520966
 20
224.052542
 30
0.0
 40
10.0
100
AcDbArc
 50
278.65448
 51
301.082792
  0
ARC
  5
36E
100
AcDbEntity
  8
1
370
    50
100
AcDbCircle
 10
234.094176
 20
164.577619
 30
0.0
 40
46.064286
100
AcDbArc
 50
81.34552
 51
89.384755
  0
ARC
  5
36F
100
AcDbEntity
  8
1
370
    50
100
AcDbCircle
 10
229.195443
 20
183.102825
 30
0.0
 40
30.0
100
AcDbArc
 50
49.058557
 51
58.917208
  0
ARC
  5
370
100
AcDbEntity
  8
1
370
    50
100
AcDbCircle
 10
239.520966
 20
200.231268
 30
0.0
 40
10.0
100
AcDbArc
 50
58.917208
 51
81.34552
  0
ARC
  5
371
100
AcDbEntity
  8
1
370
    50
100
AcDbCircle
 10
234.594176
 20
213.14459
 30
0.0
 40
0.5
100
AcDbArc
 50
90.615245
 51
180.0
  0
ARC
  5
372
100
AcDbEntity
  8
1
370
    50
100
AcDbCircle
 10
234.594176
 20
211.139221
 30
0.0
 40
0.5
100
AcDbArc
 50
180.0
 51
269.384755
  0
ARC
  5
373
100
AcDbEntity
  8
1
370
    50
100
AcDbCircle
 10
249.181707
 20
218.141905
 30
0.0
 40
0.5
100
AcDbArc
 50
90.0
 51
130.941443
  0
ARC
  5
374
100
AcDbEntity
  8
1
370
    50
100
AcDbCircle
 10
249.181707
 20
206.141905
 30
0.0
 40
0.5
100
AcDbArc
 50
229.058557
 51
270.0
  0
ARC
  5
375
100
AcDbEntity
  8
1
370
    50
100
AcDbCircle
 10
250.594176
 20
218.141905
 30
0.0
 40
0.5
100
AcDbArc
 50
0.0
 51
90.0
  0
ARC
  5
376
100
AcDbEntity
  8
1
370
    50
100
AcDbCircle
 10
250.594176
 20
206.141905
 30
0.0
 40
0.5
100
AcDbArc
 50
270.0
 51
360.0
  0
LINE
  5
377
100
AcDbEntity
  8
1
370
    50
100
AcDbLine
 10
301.594176
 20
64.182254
 30
0.0
 11
301.594176
 21
22.182254
 31
0.0
  0
LINE
  5
378
100
AcDbEntity
  8
1
370
    18
  6
CENTER
100
AcDbLine
 10
312.937415
 20
43.182254
 30
0.0
 11
246.328014
 21
43.182254
 31
0.0
  0
LINE
  5
379
100
AcDbEntity
  8
1
370
    18
  6
CENTER
100
AcDbLine
 10
305.82849
 20
38.882254
 30
0.0
 11
230.176719
 21
38.882254
 31
0.0
  0
LINE
  5
37A
100
AcDbEntity
  8
1
370
    50
100
AcDbLine
 10
299.294176
 20
38.882254
 30
0.0
 11
299.294176
 21
33.882254
 31
0.0
  0
LINE
  5
37B
100
AcDbEntity
  8
1
370
    50
100
AcDbLine
 10
299.294176
 20
33.882254
 30
0.0
 11
301.594176
 21
33.882254
 31
0.0
  0
LINE
  5
37C
100
AcDbEntity
  8
1
370
    50
100
AcDbLine
 10
301.594176
 20
44.882254
 30
0.0
 11
294.094176
 21
44.882254
 31
0.0
  0
LINE
  5
37D
100
AcDbEntity
  8
1
370
    50
100
AcDbLine
 10
301.594176
 20
38.882254
 30
0.0
 11
294.094176
 21
38.882254
 31
0.0
  0
LINE
  5
37E
100
AcDbEntity
  8
1
370
    50
100
AcDbLine
 10
261.594176
 20
44.882254
 30
0.0
 11
267.094176
 21
44.882254
 31
0.0
  0
LINE
  5
37F
100
AcDbEntity
  8
1
370
    50
100
AcDbLine
 10
261.594176
 20
32.882254
 30
0.0
 11
267.094176
 21
32.882254
 31
0.0
  0
LINE
  5
380
100
AcDbEntity
  8
1
370
    50
100
AcDbLine
 10
267.094176
 20
44.882254
 30
0.0
 11
269.094176
 21
44.346356
 31
0.0
  0
LINE
  5
381
100
AcDbEntity
  8
1
370
    50
100
AcDbLine
 10
267.094176
 20
32.882254
 30
0.0
 11
269.094176
 21
33.418153
 31
0.0
  0
LINE
  5
382
100
AcDbEntity
  8
1
370
    50
100
AcDbLine
 10
299.294176
 20
35.947761
 30
0.0
 11
294.094176
 21
35.947761
 31
0.0
  0
CIRCLE
  5
383
100
AcDbEntity
  8
1
370
    50
100
AcDbCircle
 10
465.987857
 20
43.182254
 30
0.0
 40
21.0
  0
LINE
  5
384
100
AcDbEntity
  8
1
370
    18
  6
CENTER
100
AcDbLine
 10
473.452228
 20
38.882254
 30
0.0
 11
458.76752
 21
38.882254
 31
0.0
  0
CIRCLE
  5
385
100
AcDbEntity
  8
1
370
    50
100
AcDbCircle
 10
465.987857
 20
38.882254
 30
0.0
 40
5.0
  0
LINE
  5
386
100
AcDbEntity
  8
1
370
    50
100
AcDbLine
 10
466.987857
 20
43.781234
 30
0.0
 11
466.987857
 21
33.983275
 31
0.0
  0
LINE
  5
387
100
AcDbEntity
  8
1
370
    50
100
AcDbLine
 10
464.987857
 20
33.983275
 30
0.0
 11
464.987857
 21
43.781234
 31
0.0
  0
LINE
  5
388
100
AcDbEntity
  8
1
370
    50
100
AcDbLine
 10
309.594176
 20
62.742803
 30
0.0
 11
309.594176
 21
23.621706
 31
0.0
  0
LINE
  5
389
100
AcDbEntity
  8
1
370
    50
100
AcDbLine
 10
261.594176
 20
64.182254
 30
0.0
 11
261.594176
 21
22.182254
 31
0.0
  0
LINE
  5
38A
100
AcDbEntity
  8
1
370
    50
100
AcDbLine
 10
301.594176
 20
64.182254
 30
0.0
 11
308.656555
 21
63.740856
 31
0.0
  0
LINE
  5
38B
100
AcDbEntity
  8
1
370
    50
100
AcDbLine
 10
308.656555
 20
22.623653
 30
0.0
 11
301.594176
 21
22.182254
 31
0.0
  0
LINE
  5
38C
100
AcDbEntity
  8
1
370
    50
100
AcDbLine
 10
261.594176
 20
64.182254
 30
0.0
 11
252.544239
 21
63.729757
 31
0.0
  0
LINE
  5
38D
100
AcDbEntity
  8
1
370
    50
100
AcDbLine
 10
252.544239
 20
22.634751
 30
0.0
 11
261.594176
 21
22.182254
 31
0.0
  0
ARC
  5
38E
100
AcDbEntity
  8
1
370
    50
100
AcDbCircle
 10
308.594176
 20
62.742803
 30
0.0
 40
1.0
100
AcDbArc
 50
0.0
 51
86.423666
  0
ARC
  5
38F
100
AcDbEntity
  8
1
370
    50
100
AcDbCircle
 10
308.594176
 20
23.621706
 30
0.0
 40
1.0
100
AcDbArc
 50
273.576334
 51
0.0
  0
LINE
  5
390
100
AcDbEntity
  8
1
370
    50
100
AcDbLine
 10
269.094176
 20
44.182254
 30
0.0
 11
261.594176
 21
44.182254
 31
0.0
  0
LINE
  5
391
100
AcDbEntity
  8
1
370
    18
100
AcDbLine
 10
269.094176
 20
43.782254
 30
0.0
 11
261.594176
 21
43.782254
 31
0.0
  0
LINE
  5
392
100
AcDbEntity
  8
1
370
    18
100
AcDbLine
 10
261.594176
 20
40.582254
 30
0.0
 11
269.094176
 21
40.582254
 31
0.0
  0
LINE
  5
393
100
AcDbEntity
  8
1
370
    50
100
AcDbLine
 10
269.094176
 20
40.182254
 30
0.0
 11
261.594176
 21
40.182254
 31
0.0
  0
LINE
  5
394
100
AcDbEntity
  8
1
370
    18
  6
CENTER
100
AcDbLine
 10
270.282632
 20
42.182254
 30
0.0
 11
260.45585
 21
42.182254
 31
0.0
  0
LINE
  5
395
100
AcDbEntity
  8
1
370
    50
100
AcDbLine
 10
267.094176
 20
32.882254
 30
0.0
 11
267.094176
 21
40.182254
 31
0.0
  0
LINE
  5
396
100
AcDbEntity
  8
1
370
    50
100
AcDbLine
 10
267.094176
 20
44.182254
 30
0.0
 11
267.094176
 21
44.882254
 31
0.0
  0
LINE
  5
397
100
AcDbEntity
  8
1
370
    18
  6
CENTER
100
AcDbLine
 10
169.319598
 20
43.182254
 30
0.0
 11
120.319598
 21
43.182254
 31
0.0
  0
LINE
  5
398
100
AcDbEntity
  8
1
370
    18
  6
CENTER
100
AcDbLine
 10
144.819598
 20
18.682254
 30
0.0
 11
144.819598
 21
67.682254
 31
0.0
  0
LINE
  5
399
100
AcDbEntity
  8
1
370
    50
100
AcDbLine
 10
251.094176
 20
51.828474
 30
0.0
 11
251.094176
 21
25.936034
 31
0.0
  0
ARC
  5
39A
100
AcDbEntity
  8
1
370
    50
100
AcDbCircle
 10
249.094176
 20
38.882254
 30
0.0
 40
15.0
100
AcDbArc
 50
132.174263
 51
227.825737
  0
LINE
  5
39B
100
AcDbEntity
  8
1
370
    50
100
AcDbLine
 10
251.594176
 20
44.882254
 30
0.0
 11
251.094176
 21
44.882254
 31
0.0
  0
LINE
  5
39C
100
AcDbEntity
  8
1
370
    50
100
AcDbLine
 10
251.094176
 20
32.882254
 30
0.0
 11
251.594176
 21
32.882254
 31
0.0
  0
ARC
  5
39D
100
AcDbEntity
  8
1
370
    18
100
AcDbCircle
 10
235.494005
 20
38.882254
 30
0.0
 40
14.600172
100
AcDbArc
 50
302.675266
 51
58.07404
  0
LINE
  5
39E
100
AcDbEntity
  8
1
370
    50
100
AcDbLine
 10
250.041841
 20
52.827104
 30
0.0
 11
245.213878
 21
52.574081
 31
0.0
  0
LINE
  5
39F
100
AcDbEntity
  8
1
370
    50
100
AcDbLine
 10
250.041841
 20
24.937405
 30
0.0
 11
245.213878
 21
25.190428
 31
0.0
  0
ARC
  5
3A0
100
AcDbEntity
  8
1
370
    50
100
AcDbCircle
 10
245.737238
 20
42.587786
 30
0.0
 40
10.0
100
AcDbArc
 50
93.0
 51
132.174263
  0
ARC
  5
3A1
100
AcDbEntity
  8
1
370
    50
100
AcDbCircle
 10
245.737238
 20
35.176723
 30
0.0
 40
10.0
100
AcDbArc
 50
227.825737
 51
267.0
  0
ARC
  5
3A2
100
AcDbEntity
  8
1
370
    50
100
AcDbCircle
 10
250.094176
 20
51.828474
 30
0.0
 40
1.0
100
AcDbArc
 50
0.0
 51
93.0
  0
ARC
  5
3A3
100
AcDbEntity
  8
1
370
    50
100
AcDbCircle
 10
250.094176
 20
25.936034
 30
0.0
 40
1.0
100
AcDbArc
 50
267.0
 51
360.0
  0
ARC
  5
3A4
100
AcDbEntity
  8
1
370
    50
100
AcDbCircle
 10
129.283884
 20
38.882254
 30
0.0
 40
22.035714
100
AcDbArc
 50
324.699752
 51
35.300248
  0
ARC
  5
3A5
100
AcDbEntity
  8
1
370
    50
100
AcDbCircle
 10
160.355313
 20
38.882254
 30
0.0
 40
22.035714
100
AcDbArc
 50
144.699752
 51
215.300248
  0
ARC
  5
3A6
100
AcDbEntity
  8
1
370
    50
100
AcDbCircle
 10
144.819598
 20
49.882254
 30
0.0
 40
3.0
100
AcDbArc
 50
35.300248
 51
144.699752
  0
ARC
  5
3A7
100
AcDbEntity
  8
1
370
    50
100
AcDbCircle
 10
144.819598
 20
27.882254
 30
0.0
 40
3.0
100
AcDbArc
 50
215.300248
 51
324.699752
  0
LINE
  5
3A8
100
AcDbEntity
  8
1
370
    18
100
AcDbLine
 10
146.319598
 20
26.148671
 30
0.0
 11
146.319598
 21
51.615838
 31
0.0
  0
LINE
  5
3A9
100
AcDbEntity
  8
1
370
    18
100
AcDbLine
 10
143.319598
 20
26.148671
 30
0.0
 11
143.319598
 21
51.615838
 31
0.0
  0
LINE
  5
3AA
100
AcDbEntity
  8
1
370
    18
100
AcDbLine
 10
155.819598
 20
43.932254
 30
0.0
 11
155.319598
 21
43.932254
 31
0.0
  0
ARC
  5
3AB
100
AcDbEntity
  8
1
370
    18
100
AcDbCircle
 10
153.769598
 20
43.932254
 30
0.0
 40
1.55
100
AcDbArc
 50
270.0
 51
0.0
  0
LINE
  5
3AC
100
AcDbEntity
  8
1
370
    18
100
AcDbLine
 10
153.769598
 20
42.382254
 30
0.0
 11
153.769598
 21
41.882254
 31
0.0
  0
LINE
  5
3AD
100
AcDbEntity
  8
1
370
    18
100
AcDbLine
 10
155.819598
 20
39.832254
 30
0.0
 11
155.319598
 21
39.832254
 31
0.0
  0
ARC
  5
3AE
100
AcDbEntity
  8
1
370
    18
100
AcDbCircle
 10
153.769598
 20
39.832254
 30
0.0
 40
1.55
100
AcDbArc
 50
0.0
 51
90.0
  0
LINE
  5
3AF
100
AcDbEntity
  8
1
370
    18
100
AcDbLine
 10
153.769598
 20
41.382254
 30
0.0
 11
153.769598
 21
41.882254
 31
0.0
  0
LINE
  5
3B0
100
AcDbEntity
  8
1
370
    18
100
AcDbLine
 10
155.819598
 20
43.932254
 30
0.0
 11
156.319598
 21
43.932254
 31
0.0
  0
ARC
  5
3B1
100
AcDbEntity
  8
1
370
    18
100
AcDbCircle
 10
157.869598
 20
43.932254
 30
0.0
 40
1.55
100
AcDbArc
 50
180.0
 51
270.0
  0
LINE
  5
3B2
100
AcDbEntity
  8
1
370
    18
100
AcDbLine
 10
157.869598
 20
42.382254
 30
0.0
 11
157.869598
 21
41.882254
 31
0.0
  0
LINE
  5
3B3
100
AcDbEntity
  8
1
370
    18
100
AcDbLine
 10
155.819598
 20
39.832254
 30
0.0
 11
156.319598
 21
39.832254
 31
0.0
  0
ARC
  5
3B4
100
AcDbEntity
  8
1
370
    18
100
AcDbCircle
 10
157.869598
 20
39.832254
 30
0.0
 40
1.55
100
AcDbArc
 50
90.0
 51
180.0
  0
LINE
  5
3B5
100
AcDbEntity
  8
1
370
    18
100
AcDbLine
 10
157.869598
 20
41.382254
 30
0.0
 11
157.869598
 21
41.882254
 31
0.0
  0
CIRCLE
  5
3B6
100
AcDbEntity
  8
1
370
    50
100
AcDbCircle
 10
155.819598
 20
41.882254
 30
0.0
 40
3.5
  0
POINT
  5
3B7
100
AcDbEntity
  8
1
370
    50
100
AcDbPoint
 10
155.819598
 20
41.882254
 30
0.0
  0
LINE
  5
3B8
100
AcDbEntity
  8
1
370
    18
100
AcDbLine
 10
133.819598
 20
43.932254
 30
0.0
 11
133.319598
 21
43.932254
 31
0.0
  0
ARC
  5
3B9
100
AcDbEntity
  8
1
370
    18
100
AcDbCircle
 10
131.769598
 20
43.932254
 30
0.0
 40
1.55
100
AcDbArc
 50
270.0
 51
0.0
  0
LINE
  5
3BA
100
AcDbEntity
  8
1
370
    18
100
AcDbLine
 10
131.769598
 20
42.382254
 30
0.0
 11
131.769598
 21
41.882254
 31
0.0
  0
LINE
  5
3BB
100
AcDbEntity
  8
1
370
    18
100
AcDbLine
 10
133.819598
 20
39.832254
 30
0.0
 11
133.319598
 21
39.832254
 31
0.0
  0
ARC
  5
3BC
100
AcDbEntity
  8
1
370
    18
100
AcDbCircle
 10
131.769598
 20
39.832254
 30
0.0
 40
1.55
100
AcDbArc
 50
0.0
 51
90.0
  0
LINE
  5
3BD
100
AcDbEntity
  8
1
370
    18
100
AcDbLine
 10
131.769598
 20
41.382254
 30
0.0
 11
131.769598
 21
41.882254
 31
0.0
  0
LINE
  5
3BE
100
AcDbEntity
  8
1
370
    18
100
AcDbLine
 10
133.819598
 20
43.932254
 30
0.0
 11
134.319598
 21
43.932254
 31
0.0
  0
ARC
  5
3BF
100
AcDbEntity
  8
1
370
    18
100
AcDbCircle
 10
135.869598
 20
43.932254
 30
0.0
 40
1.55
100
AcDbArc
 50
180.0
 51
270.0
  0
LINE
  5
3C0
100
AcDbEntity
  8
1
370
    18
100
AcDbLine
 10
135.869598
 20
42.382254
 30
0.0
 11
135.869598
 21
41.882254
 31
0.0
  0
LINE
  5
3C1
100
AcDbEntity
  8
1
370
    18
100
AcDbLine
 10
133.819598
 20
39.832254
 30
0.0
 11
134.319598
 21
39.832254
 31
0.0
  0
ARC
  5
3C2
100
AcDbEntity
  8
1
370
    18
100
AcDbCircle
 10
135.869598
 20
39.832254
 30
0.0
 40
1.55
100
AcDbArc
 50
90.0
 51
180.0
  0
LINE
  5
3C3
100
AcDbEntity
  8
1
370
    18
100
AcDbLine
 10
135.869598
 20
41.382254
 30
0.0
 11
135.869598
 21
41.882254
 31
0.0
  0
CIRCLE
  5
3C4
100
AcDbEntity
  8
1
370
    50
100
AcDbCircle
 10
133.819598
 20
41.882254
 30
0.0
 40
3.5
  0
POINT
  5
3C5
100
AcDbEntity
  8
1
370
    50
100
AcDbPoint
 10
133.819598
 20
41.882254
 30
0.0
  0
LINE
  5
3C6
100
AcDbEntity
  8
1
370
    18
  6
CENTER
100
AcDbLine
 10
162.319598
 20
41.882254
 30
0.0
 11
149.319598
 21
41.882254
 31
0.0
  0
LINE
  5
3C7
100
AcDbEntity
  8
1
370
    18
  6
CENTER
100
AcDbLine
 10
155.819598
 20
35.382254
 30
0.0
 11
155.819598
 21
48.382254
 31
0.0
  0
LINE
  5
3C8
100
AcDbEntity
  8
1
370
    18
  6
CENTER
100
AcDbLine
 10
140.319598
 20
41.882254
 30
0.0
 11
127.319598
 21
41.882254
 31
0.0
  0
LINE
  5
3C9
100
AcDbEntity
  8
1
370
    18
  6
CENTER
100
AcDbLine
 10
133.819598
 20
35.382254
 30
0.0
 11
133.819598
 21
48.382254
 31
0.0
  0
LINE
  5
3CA
100
AcDbEntity
  8
1
370
    18
  6
CENTER
100
AcDbLine
 10
152.328311
 20
38.882254
 30
0.0
 11
137.119029
 21
38.882254
 31
0.0
  0
LINE
  5
3CB
100
AcDbEntity
  8
1
370
    50
100
AcDbLine
 10
251.594176
 20
62.731005
 30
0.0
 11
251.594176
 21
23.633504
 31
0.0
  0
ARC
  5
3CC
100
AcDbEntity
  8
1
370
    50
100
AcDbCircle
 10
252.594176
 20
62.731005
 30
0.0
 40
1.0
100
AcDbArc
 50
92.862405
 51
180.0
  0
ARC
  5
3CD
100
AcDbEntity
  8
1
370
    50
100
AcDbCircle
 10
252.594176
 20
23.633504
 30
0.0
 40
1.0
100
AcDbArc
 50
180.0
 51
267.137595
  0
CIRCLE
  5
3CE
100
AcDbEntity
  8
1
370
    50
100
AcDbCircle
 10
144.819598
 20
43.182254
 30
0.0
 40
21.0
  0
POINT
  5
3CF
100
AcDbEntity
  8
1
370
    50
100
AcDbPoint
 10
234.094176
 20
38.882254
 30
0.0
  0
ARC
  5
3D0
100
AcDbEntity
  8
1
370
    50
100
AcDbCircle
 10
467.487857
 20
50.882254
 30
0.0
 40
2.25
100
AcDbArc
 50
270.0
 51
90.0
  0
ARC
  5
3D1
100
AcDbEntity
  8
1
370
    50
100
AcDbCircle
 10
464.487857
 20
50.882254
 30
0.0
 40
2.25
100
AcDbArc
 50
90.0
 51
270.0
  0
LINE
  5
3D2
100
AcDbEntity
  8
1
370
    50
100
AcDbLine
 10
467.487857
 20
53.132254
 30
0.0
 11
464.487857
 21
53.132254
 31
0.0
  0
LINE
  5
3D3
100
AcDbEntity
  8
1
370
    50
100
AcDbLine
 10
467.487857
 20
48.632254
 30
0.0
 11
464.487857
 21
48.632254
 31
0.0
  0
LINE
  5
3D4
100
AcDbEntity
  8
1
370
    50
100
AcDbLine
 10
726.901505
 20
5.682254
 30
0.0
 11
726.901505
 21
80.682254
 31
0.0
  0
LINE
  5
3D5
100
AcDbEntity
  8
1
370
    50
100
AcDbLine
 10
751.901505
 20
5.682254
 30
0.0
 11
751.901505
 21
80.682254
 31
0.0
  0
LINE
  5
3D6
100
AcDbEntity
  8
1
370
    50
100
AcDbLine
 10
726.901505
 20
80.682254
 30
0.0
 11
751.901505
 21
80.682254
 31
0.0
  0
LINE
  5
3D7
100
AcDbEntity
  8
1
370
    50
100
AcDbLine
 10
726.901505
 20
5.682254
 30
0.0
 11
751.901505
 21
5.682254
 31
0.0
  0
LINE
  5
3D8
100
AcDbEntity
  8
1
370
    50
100
AcDbLine
 10
730.401505
 20
29.682254
 30
0.0
 11
730.401505
 21
56.682254
 31
0.0
  0
LINE
  5
3D9
100
AcDbEntity
  8
1
370
    50
100
AcDbLine
 10
748.401505
 20
29.682254
 30
0.0
 11
748.401505
 21
56.682254
 31
0.0
  0
LINE
  5
3DA
100
AcDbEntity
  8
1
370
    50
100
AcDbLine
 10
731.901505
 20
58.182254
 30
0.0
 11
746.901505
 21
58.182254
 31
0.0
  0
LINE
  5
3DB
100
AcDbEntity
  8
1
370
    50
100
AcDbLine
 10
731.901505
 20
28.182254
 30
0.0
 11
746.901505
 21
28.182254
 31
0.0
  0
ARC
  5
3DC
100
AcDbEntity
  8
1
370
    50
100
AcDbCircle
 10
731.901505
 20
56.682254
 30
0.0
 40
1.5
100
AcDbArc
 50
90.0
 51
180.0
  0
ARC
  5
3DD
100
AcDbEntity
  8
1
370
    50
100
AcDbCircle
 10
746.901505
 20
56.682254
 30
0.0
 40
1.5
100
AcDbArc
 50
0.0
 51
90.0
  0
ARC
  5
3DE
100
AcDbEntity
  8
1
370
    50
100
AcDbCircle
 10
746.901505
 20
29.682254
 30
0.0
 40
1.5
100
AcDbArc
 50
270.0
 51
360.0
  0
ARC
  5
3DF
100
AcDbEntity
  8
1
370
    50
100
AcDbCircle
 10
731.901505
 20
29.682254
 30
0.0
 40
1.5
100
AcDbArc
 50
180.0
 51
270.0
  0
LINE
  5
3E0
100
AcDbEntity
  8
1
370
    25
  6
CENTER
100
AcDbLine
 10
739.401505
 20
1.321525
 30
0.0
 11
739.401505
 21
84.72224
 31
0.0
  0
LINE
  5
3E1
100
AcDbEntity
  8
1
370
    25
  6
CENTER
100
AcDbLine
 10
731.968193
 20
15.682254
 30
0.0
 11
747.041267
 21
15.682254
 31
0.0
  0
LINE
  5
3E2
100
AcDbEntity
  8
1
370
    25
  6
CENTER
100
AcDbLine
 10
731.968193
 20
70.682254
 30
0.0
 11
746.182732
 21
70.682254
 31
0.0
  0
LINE
  5
3E3
100
AcDbEntity
  8
1
370
    25
  6
CENTER
100
AcDbLine
 10
721.729584
 20
43.182254
 30
0.0
 11
755.764389
 21
43.182254
 31
0.0
  0
CIRCLE
  5
3E4
100
AcDbEntity
  8
1
370
    50
100
AcDbCircle
 10
739.401505
 20
70.682254
 30
0.0
 40
3.5
  0
ARC
  5
3E5
100
AcDbEntity
  8
1
370
    25
100
AcDbCircle
 10
737.251505
 20
72.832254
 30
0.0
 40
1.658571
100
AcDbArc
 50
270.0
 51
360.0
  0
ARC
  5
3E6
100
AcDbEntity
  8
1
370
    25
100
AcDbCircle
 10
737.251505
 20
68.532254
 30
0.0
 40
1.658571
100
AcDbArc
 50
0.0
 51
90.0
  0
ARC
  5
3E7
100
AcDbEntity
  8
1
370
    25
100
AcDbCircle
 10
741.551505
 20
68.532254
 30
0.0
 40
1.658571
100
AcDbArc
 50
90.0
 51
180.0
  0
ARC
  5
3E8
100
AcDbEntity
  8
1
370
    25
100
AcDbCircle
 10
741.551505
 20
72.832254
 30
0.0
 40
1.658571
100
AcDbArc
 50
180.0
 51
270.0
  0
LINE
  5
3E9
100
AcDbEntity
  8
1
370
    25
100
AcDbLine
 10
741.551505
 20
70.682254
 30
0.0
 11
741.551505
 21
71.173683
 31
0.0
  0
LINE
  5
3EA
100
AcDbEntity
  8
1
370
    25
100
AcDbLine
 10
741.551505
 20
70.682254
 30
0.0
 11
741.551505
 21
70.190826
 31
0.0
  0
LINE
  5
3EB
100
AcDbEntity
  8
1
370
    25
100
AcDbLine
 10
739.892933
 20
68.532254
 30
0.0
 11
739.401505
 21
68.532254
 31
0.0
  0
LINE
  5
3EC
100
AcDbEntity
  8
1
370
    25
100
AcDbLine
 10
738.910076
 20
68.532254
 30
0.0
 11
739.401505
 21
68.532254
 31
0.0
  0
LINE
  5
3ED
100
AcDbEntity
  8
1
370
    25
100
AcDbLine
 10
737.251505
 20
70.682254
 30
0.0
 11
737.251505
 21
70.190826
 31
0.0
  0
LINE
  5
3EE
100
AcDbEntity
  8
1
370
    25
100
AcDbLine
 10
737.251505
 20
70.682254
 30
0.0
 11
737.251505
 21
71.173683
 31
0.0
  0
LINE
  5
3EF
100
AcDbEntity
  8
1
370
    25
100
AcDbLine
 10
738.910076
 20
72.832254
 30
0.0
 11
739.401505
 21
72.832254
 31
0.0
  0
LINE
  5
3F0
100
AcDbEntity
  8
1
370
    25
100
AcDbLine
 10
739.892933
 20
72.832254
 30
0.0
 11
739.401505
 21
72.832254
 31
0.0
  0
CIRCLE
  5
3F1
100
AcDbEntity
  8
1
370
    50
100
AcDbCircle
 10
739.401505
 20
15.682254
 30
0.0
 40
3.5
  0
ARC
  5
3F2
100
AcDbEntity
  8
1
370
    25
100
AcDbCircle
 10
737.251505
 20
17.832254
 30
0.0
 40
1.658571
100
AcDbArc
 50
270.0
 51
360.0
  0
ARC
  5
3F3
100
AcDbEntity
  8
1
370
    25
100
AcDbCircle
 10
737.251505
 20
13.532254
 30
0.0
 40
1.658571
100
AcDbArc
 50
0.0
 51
90.0
  0
ARC
  5
3F4
100
AcDbEntity
  8
1
370
    25
100
AcDbCircle
 10
741.551505
 20
13.532254
 30
0.0
 40
1.658571
100
AcDbArc
 50
90.0
 51
180.0
  0
ARC
  5
3F5
100
AcDbEntity
  8
1
370
    25
100
AcDbCircle
 10
741.551505
 20
17.832254
 30
0.0
 40
1.658571
100
AcDbArc
 50
180.0
 51
270.0
  0
LINE
  5
3F6
100
AcDbEntity
  8
1
370
    25
100
AcDbLine
 10
741.551505
 20
15.682254
 30
0.0
 11
741.551505
 21
16.173683
 31
0.0
  0
LINE
  5
3F7
100
AcDbEntity
  8
1
370
    25
100
AcDbLine
 10
741.551505
 20
15.682254
 30
0.0
 11
741.551505
 21
15.190826
 31
0.0
  0
LINE
  5
3F8
100
AcDbEntity
  8
1
370
    25
100
AcDbLine
 10
739.892933
 20
13.532254
 30
0.0
 11
739.401505
 21
13.532254
 31
0.0
  0
LINE
  5
3F9
100
AcDbEntity
  8
1
370
    25
100
AcDbLine
 10
738.910076
 20
13.532254
 30
0.0
 11
739.401505
 21
13.532254
 31
0.0
  0
LINE
  5
3FA
100
AcDbEntity
  8
1
370
    25
100
AcDbLine
 10
737.251505
 20
15.682254
 30
0.0
 11
737.251505
 21
15.190826
 31
0.0
  0
LINE
  5
3FB
100
AcDbEntity
  8
1
370
    25
100
AcDbLine
 10
737.251505
 20
15.682254
 30
0.0
 11
737.251505
 21
16.173683
 31
0.0
  0
LINE
  5
3FC
100
AcDbEntity
  8
1
370
    25
100
AcDbLine
 10
738.910076
 20
17.832254
 30
0.0
 11
739.401505
 21
17.832254
 31
0.0
  0
LINE
  5
3FD
100
AcDbEntity
  8
1
370
    25
100
AcDbLine
 10
739.892933
 20
17.832254
 30
0.0
 11
739.401505
 21
17.832254
 31
0.0
  0
LINE
  5
3FE
100
AcDbEntity
  8
1
370
    50
100
AcDbLine
 10
726.901505
 20
-17.510789
 30
0.0
 11
751.901505
 21
-17.510789
 31
0.0
  0
LINE
  5
3FF
100
AcDbEntity
  8
1
370
    50
100
AcDbLine
 10
726.901505
 20
-18.510789
 30
0.0
 11
726.901505
 21
-17.510789
 31
0.0
  0
LINE
  5
400
100
AcDbEntity
  8
1
370
    50
100
AcDbLine
 10
751.901505
 20
-18.510789
 30
0.0
 11
751.901505
 21
-17.510789
 31
0.0
  0
LINE
  5
401
100
AcDbEntity
  8
1
370
    50
100
AcDbLine
 10
664.563065
 20
80.682254
 30
0.0
 11
664.563065
 21
5.682254
 31
0.0
  0
LINE
  5
402
100
AcDbEntity
  8
1
370
    50
100
AcDbLine
 10
663.563065
 20
80.682254
 30
0.0
 11
663.563065
 21
5.682254
 31
0.0
  0
LINE
  5
403
100
AcDbEntity
  8
1
370
    50
100
AcDbLine
 10
726.901505
 20
-18.510789
 30
0.0
 11
751.901505
 21
-18.510789
 31
0.0
  0
LINE
  5
404
100
AcDbEntity
  8
1
370
    50
100
AcDbLine
 10
663.563065
 20
80.682254
 30
0.0
 11
664.563065
 21
80.682254
 31
0.0
  0
LINE
  5
405
100
AcDbEntity
  8
1
370
    50
100
AcDbLine
 10
663.563065
 20
5.682254
 30
0.0
 11
664.563065
 21
5.682254
 31
0.0
  0
LINE
  5
406
100
AcDbEntity
  8
1
370
    50
100
AcDbLine
 10
739.401505
 20
-17.510789
 30
0.0
 11
735.273163
 21
-17.510789
 31
0.0
  0
LINE
  5
407
100
AcDbEntity
  8
1
370
    50
100
AcDbLine
 10
743.401505
 20
-17.510789
 30
0.0
 11
735.401505
 21
-17.510789
 31
0.0
  0
LINE
  5
408
100
AcDbEntity
  8
1
370
    25
  6
CENTER
100
AcDbLine
 10
646.115662
 20
43.182254
 30
0.0
 11
666.837616
 21
43.182254
 31
0.0
  0
LINE
  5
409
100
AcDbEntity
  8
1
370
    25
  6
CENTER
100
AcDbLine
 10
739.401505
 20
-41.078274
 30
0.0
 11
739.401505
 21
-15.168443
 31
0.0
  0
LINE
  5
40A
100
AcDbEntity
  8
1
370
    25
  6
CENTER
100
AcDbLine
 10
666.638671
 20
70.682254
 30
0.0
 11
641.662277
 21
70.682254
 31
0.0
  0
LINE
  5
40B
100
AcDbEntity
  8
1
370
    50
100
AcDbLine
 10
656.429087
 20
69.182255
 30
0.0
 11
648.161138
 21
69.182255
 31
0.0
  0
LINE
  5
40C
100
AcDbEntity
  8
1
370
    50
100
AcDbLine
 10
655.62524
 20
72.182255
 30
0.0
 11
648.161138
 21
72.182255
 31
0.0
  0
LINE
  5
40D
100
AcDbEntity
  8
1
370
    50
100
AcDbLine
 10
642.563062
 20
70.682255
 30
0.0
 11
648.161138
 21
72.182255
 31
0.0
  0
LINE
  5
40E
100
AcDbEntity
  8
1
370
    50
100
AcDbLine
 10
642.563062
 20
70.682255
 30
0.0
 11
648.161138
 21
69.182255
 31
0.0
  0
LINE
  5
40F
100
AcDbEntity
  8
1
370
    25
100
AcDbLine
 10
654.496075
 20
68.932255
 30
0.0
 11
653.558253
 21
72.432255
 31
0.0
  0
LINE
  5
410
100
AcDbEntity
  8
1
370
    25
100
AcDbLine
 10
652.496075
 20
68.932255
 30
0.0
 11
651.558253
 21
72.432255
 31
0.0
  0
LINE
  5
411
100
AcDbEntity
  8
1
370
    25
100
AcDbLine
 10
650.496075
 20
68.932255
 30
0.0
 11
649.558253
 21
72.432255
 31
0.0
  0
LINE
  5
412
100
AcDbEntity
  8
1
370
    25
100
AcDbLine
 10
648.496075
 20
68.932255
 30
0.0
 11
647.558253
 21
72.432255
 31
0.0
  0
LINE
  5
413
100
AcDbEntity
  8
1
370
    25
100
AcDbLine
 10
646.444542
 20
69.124577
 30
0.0
 11
645.665703
 21
72.031243
 31
0.0
  0
LINE
  5
414
100
AcDbEntity
  8
1
370
    25
100
AcDbLine
 10
644.289842
 20
69.701928
 30
0.0
 11
643.799678
 21
71.531243
 31
0.0
  0
LINE
  5
415
100
AcDbEntity
  8
1
370
    50
100
AcDbLine
 10
656.496075
 20
68.932255
 30
0.0
 11
655.558253
 21
72.432255
 31
0.0
  0
LINE
  5
416
100
AcDbEntity
  8
1
370
    50
100
AcDbLine
 10
662.563065
 20
68.932255
 30
0.0
 11
656.496075
 21
68.932255
 31
0.0
  0
LINE
  5
417
100
AcDbEntity
  8
1
370
    50
100
AcDbLine
 10
662.563065
 20
72.432255
 30
0.0
 11
655.558253
 21
72.432255
 31
0.0
  0
LINE
  5
418
100
AcDbEntity
  8
1
370
    50
100
AcDbLine
 10
662.563065
 20
72.432248
 30
0.0
 11
663.263065
 21
73.132248
 31
0.0
  0
LINE
  5
419
100
AcDbEntity
  8
1
370
    50
100
AcDbLine
 10
662.563065
 20
72.432248
 30
0.0
 11
662.563065
 21
68.932248
 31
0.0
  0
LINE
  5
41A
100
AcDbEntity
  8
1
370
    50
100
AcDbLine
 10
662.563065
 20
68.932248
 30
0.0
 11
663.263065
 21
68.232248
 31
0.0
  0
LINE
  5
41B
100
AcDbEntity
  8
1
370
    25
  6
CENTER
100
AcDbLine
 10
666.638671
 20
15.682254
 30
0.0
 11
641.662277
 21
15.682254
 31
0.0
  0
LINE
  5
41C
100
AcDbEntity
  8
1
370
    50
100
AcDbLine
 10
656.429087
 20
14.182255
 30
0.0
 11
648.161138
 21
14.182255
 31
0.0
  0
LINE
  5
41D
100
AcDbEntity
  8
1
370
    50
100
AcDbLine
 10
655.62524
 20
17.182255
 30
0.0
 11
648.161138
 21
17.182255
 31
0.0
  0
LINE
  5
41E
100
AcDbEntity
  8
1
370
    50
100
AcDbLine
 10
642.563062
 20
15.682255
 30
0.0
 11
648.161138
 21
17.182255
 31
0.0
  0
LINE
  5
41F
100
AcDbEntity
  8
1
370
    50
100
AcDbLine
 10
642.563062
 20
15.682255
 30
0.0
 11
648.161138
 21
14.182255
 31
0.0
  0
LINE
  5
420
100
AcDbEntity
  8
1
370
    25
100
AcDbLine
 10
654.496075
 20
13.932255
 30
0.0
 11
653.558253
 21
17.432255
 31
0.0
  0
LINE
  5
421
100
AcDbEntity
  8
1
370
    25
100
AcDbLine
 10
652.496075
 20
13.932255
 30
0.0
 11
651.558253
 21
17.432255
 31
0.0
  0
LINE
  5
422
100
AcDbEntity
  8
1
370
    25
100
AcDbLine
 10
650.496075
 20
13.932255
 30
0.0
 11
649.558253
 21
17.432255
 31
0.0
  0
LINE
  5
423
100
AcDbEntity
  8
1
370
    25
100
AcDbLine
 10
648.496075
 20
13.932255
 30
0.0
 11
647.558253
 21
17.432255
 31
0.0
  0
LINE
  5
424
100
AcDbEntity
  8
1
370
    25
100
AcDbLine
 10
646.444542
 20
14.124577
 30
0.0
 11
645.665703
 21
17.031243
 31
0.0
  0
LINE
  5
425
100
AcDbEntity
  8
1
370
    25
100
AcDbLine
 10
644.289842
 20
14.701928
 30
0.0
 11
643.799678
 21
16.531243
 31
0.0
  0
LINE
  5
426
100
AcDbEntity
  8
1
370
    50
100
AcDbLine
 10
656.496075
 20
13.932255
 30
0.0
 11
655.558253
 21
17.432255
 31
0.0
  0
LINE
  5
427
100
AcDbEntity
  8
1
370
    50
100
AcDbLine
 10
662.563065
 20
13.932255
 30
0.0
 11
656.496075
 21
13.932255
 31
0.0
  0
LINE
  5
428
100
AcDbEntity
  8
1
370
    50
100
AcDbLine
 10
662.563065
 20
17.432255
 30
0.0
 11
655.558253
 21
17.432255
 31
0.0
  0
LINE
  5
429
100
AcDbEntity
  8
1
370
    50
100
AcDbLine
 10
662.563065
 20
17.432248
 30
0.0
 11
663.163065
 21
18.032248
 31
0.0
  0
LINE
  5
42A
100
AcDbEntity
  8
1
370
    50
100
AcDbLine
 10
662.563065
 20
17.432248
 30
0.0
 11
662.563065
 21
13.932248
 31
0.0
  0
LINE
  5
42B
100
AcDbEntity
  8
1
370
    50
100
AcDbLine
 10
662.563065
 20
13.932248
 30
0.0
 11
663.163065
 21
13.332248
 31
0.0
  0
LINE
  5
42C
100
AcDbEntity
  8
1
370
    50
100
AcDbLine
 10
740.901504
 20
-25.644767
 30
0.0
 11
740.901504
 21
-33.912716
 31
0.0
  0
LINE
  5
42D
100
AcDbEntity
  8
1
370
    50
100
AcDbLine
 10
737.901504
 20
-26.448614
 30
0.0
 11
737.901504
 21
-33.912716
 31
0.0
  0
LINE
  5
42E
100
AcDbEntity
  8
1
370
    50
100
AcDbLine
 10
739.401504
 20
-39.510792
 30
0.0
 11
737.901504
 21
-33.912716
 31
0.0
  0
LINE
  5
42F
100
AcDbEntity
  8
1
370
    50
100
AcDbLine
 10
739.401504
 20
-39.510792
 30
0.0
 11
740.901504
 21
-33.912716
 31
0.0
  0
LINE
  5
430
100
AcDbEntity
  8
1
370
    25
100
AcDbLine
 10
741.151504
 20
-27.577779
 30
0.0
 11
737.651504
 21
-28.515601
 31
0.0
  0
LINE
  5
431
100
AcDbEntity
  8
1
370
    25
100
AcDbLine
 10
741.151504
 20
-29.577779
 30
0.0
 11
737.651504
 21
-30.515601
 31
0.0
  0
LINE
  5
432
100
AcDbEntity
  8
1
370
    25
100
AcDbLine
 10
741.151504
 20
-31.577779
 30
0.0
 11
737.651504
 21
-32.515601
 31
0.0
  0
LINE
  5
433
100
AcDbEntity
  8
1
370
    25
100
AcDbLine
 10
741.151504
 20
-33.577779
 30
0.0
 11
737.651504
 21
-34.515601
 31
0.0
  0
LINE
  5
434
100
AcDbEntity
  8
1
370
    25
100
AcDbLine
 10
740.959181
 20
-35.629312
 30
0.0
 11
738.052516
 21
-36.408151
 31
0.0
  0
LINE
  5
435
100
AcDbEntity
  8
1
370
    25
100
AcDbLine
 10
740.381831
 20
-37.784012
 30
0.0
 11
738.552516
 21
-38.274176
 31
0.0
  0
LINE
  5
436
100
AcDbEntity
  8
1
370
    50
100
AcDbLine
 10
741.151504
 20
-25.577779
 30
0.0
 11
737.651504
 21
-26.515601
 31
0.0
  0
LINE
  5
437
100
AcDbEntity
  8
1
370
    50
100
AcDbLine
 10
741.151504
 20
-19.510789
 30
0.0
 11
741.151504
 21
-25.577779
 31
0.0
  0
LINE
  5
438
100
AcDbEntity
  8
1
370
    50
100
AcDbLine
 10
737.651504
 20
-19.510789
 30
0.0
 11
737.651504
 21
-26.515601
 31
0.0
  0
LINE
  5
439
100
AcDbEntity
  8
1
370
    50
100
AcDbLine
 10
737.651511
 20
-19.510789
 30
0.0
 11
736.651511
 21
-18.510789
 31
0.0
  0
LINE
  5
43A
100
AcDbEntity
  8
1
370
    50
100
AcDbLine
 10
737.651511
 20
-19.510789
 30
0.0
 11
741.151511
 21
-19.510789
 31
0.0
  0
LINE
  5
43B
100
AcDbEntity
  8
1
370
    50
100
AcDbLine
 10
741.151511
 20
-19.510789
 30
0.0
 11
742.151511
 21
-18.510789
 31
0.0
  0
LINE
  5
43C
100
AcDbEntity
  8
1
370
    50
100
AcDbLine
 10
663.563065
 20
8.182254
 30
0.0
 11
663.163065
 21
8.182254
 31
0.0
  0
LINE
  5
43D
100
AcDbEntity
  8
1
370
    50
100
AcDbLine
 10
663.563065
 20
78.182254
 30
0.0
 11
663.263065
 21
78.182254
 31
0.0
  0
LINE
  5
43E
100
AcDbEntity
  8
1
370
    50
100
AcDbLine
 10
648.563065
 20
58.382254
 30
0.0
 11
648.563065
 21
27.982254
 31
0.0
  0
LINE
  5
43F
100
AcDbEntity
  8
1
370
    50
100
AcDbLine
 10
663.163065
 20
27.682254
 30
0.0
 11
648.863065
 21
27.682254
 31
0.0
  0
LINE
  5
440
100
AcDbEntity
  8
1
370
    50
100
AcDbLine
 10
663.263065
 20
58.682254
 30
0.0
 11
648.863065
 21
58.682254
 31
0.0
  0
ARC
  5
441
100
AcDbEntity
  8
1
370
    50
100
AcDbCircle
 10
648.863065
 20
58.382254
 30
0.0
 40
0.3
100
AcDbArc
 50
90.0
 51
180.0
  0
ARC
  5
442
100
AcDbEntity
  8
1
370
    50
100
AcDbCircle
 10
648.863065
 20
27.982254
 30
0.0
 40
0.3
100
AcDbArc
 50
180.0
 51
270.0
  0
ARC
  5
443
100
AcDbEntity
  8
1
370
    50
100
AcDbCircle
 10
663.263065
 20
27.682254
 30
0.0
 40
0.3
100
AcDbArc
 50
360.0
 51
30.0
  0
LINE
  5
444
100
AcDbEntity
  8
1
370
    50
100
AcDbLine
 10
663.063065
 20
57.682254
 30
0.0
 11
663.063065
 21
28.682254
 31
0.0
  0
LINE
  5
445
100
AcDbEntity
  8
1
370
    50
100
AcDbLine
 10
663.263065
 20
78.182254
 30
0.0
 11
663.263065
 21
58.682254
 31
0.0
  0
LINE
  5
446
100
AcDbEntity
  8
1
370
    50
100
AcDbLine
 10
663.163065
 20
27.682254
 30
0.0
 11
663.163065
 21
8.182254
 31
0.0
  0
ARC
  5
447
100
AcDbEntity
  8
1
370
    50
100
AcDbCircle
 10
663.263065
 20
58.682254
 30
0.0
 40
0.3
100
AcDbArc
 50
270.0
 51
360.0
  0
LINE
  5
448
100
AcDbEntity
  8
1
370
    50
100
AcDbLine
 10
663.263065
 20
58.382254
 30
0.0
 11
662.777207
 21
58.382254
 31
0.0
  0
ARC
  5
449
100
AcDbEntity
  8
1
370
    50
100
AcDbCircle
 10
663.263065
 20
27.682254
 30
0.0
 40
0.3
100
AcDbArc
 50
0.0
 51
90.0
  0
LINE
  5
44A
100
AcDbEntity
  8
1
370
    50
100
AcDbLine
 10
663.263065
 20
27.982254
 30
0.0
 11
662.777207
 21
27.982254
 31
0.0
  0
ARC
  5
44B
100
AcDbEntity
  8
1
370
    50
100
AcDbCircle
 10
662.063065
 20
57.682254
 30
0.0
 40
1.0
100
AcDbArc
 50
0.0
 51
90.0
  0
ARC
  5
44C
100
AcDbEntity
  8
1
370
    50
100
AcDbCircle
 10
662.063065
 20
28.682254
 30
0.0
 40
1.0
100
AcDbArc
 50
270.0
 51
360.0
  0
LINE
  5
44D
100
AcDbEntity
  8
1
370
    50
100
AcDbLine
 10
750.001502
 20
-18.510789
 30
0.0
 11
728.801502
 21
-18.510789
 31
0.0
  0
LINE
  5
44E
100
AcDbEntity
  8
1
370
    50
100
AcDbLine
 10
750.401502
 20
-18.910789
 30
0.0
 11
750.401502
 21
-33.110789
 31
0.0
  0
LINE
  5
44F
100
AcDbEntity
  8
1
370
    50
100
AcDbLine
 10
728.401502
 20
-18.910789
 30
0.0
 11
728.401502
 21
-33.110789
 31
0.0
  0
ARC
  5
450
100
AcDbEntity
  8
1
370
    50
100
AcDbCircle
 10
750.001502
 20
-33.110789
 30
0.0
 40
0.4
100
AcDbArc
 50
270.0
 51
360.0
  0
ARC
  5
451
100
AcDbEntity
  8
1
370
    50
100
AcDbCircle
 10
728.801502
 20
-33.110789
 30
0.0
 40
0.4
100
AcDbArc
 50
180.0
 51
270.0
  0
LINE
  5
452
100
AcDbEntity
  8
1
370
    50
100
AcDbLine
 10
750.001502
 20
-33.110789
 30
0.0
 11
750.001502
 21
-18.510789
 31
0.0
  0
LINE
  5
453
100
AcDbEntity
  8
1
370
    50
100
AcDbLine
 10
728.801502
 20
-33.110789
 30
0.0
 11
728.801502
 21
-18.510789
 31
0.0
  0
LINE
  5
454
100
AcDbEntity
  8
1
370
    50
100
AcDbLine
 10
742.201502
 20
-18.510789
 30
0.0
 11
742.201502
 21
-18.910789
 31
0.0
  0
LINE
  5
455
100
AcDbEntity
  8
1
370
    50
100
AcDbLine
 10
736.601502
 20
-18.510789
 30
0.0
 11
736.601502
 21
-18.910789
 31
0.0
  0
LINE
  5
456
100
AcDbEntity
  8
1
370
    50
100
AcDbLine
 10
728.401502
 20
-18.910789
 30
0.0
 11
737.051511
 21
-18.910789
 31
0.0
  0
LINE
  5
457
100
AcDbEntity
  8
1
370
    50
100
AcDbLine
 10
741.751511
 20
-18.910789
 30
0.0
 11
750.401502
 21
-18.910789
 31
0.0
  0
LINE
  5
458
100
AcDbEntity
  8
1
370
    50
100
AcDbLine
 10
728.801502
 20
-33.510789
 30
0.0
 11
737.901504
 21
-33.510789
 31
0.0
  0
LINE
  5
459
100
AcDbEntity
  8
1
370
    50
100
AcDbLine
 10
740.901504
 20
-33.510789
 30
0.0
 11
750.001502
 21
-33.510789
 31
0.0
  0
POINT
  5
45A
100
AcDbEntity
  8
1
370
    50
100
AcDbPoint
 10
664.563065
 20
43.182254
 30
0.0
  0
POINT
  5
45B
100
AcDbEntity
  8
1
370
    50
100
AcDbPoint
 10
739.401505
 20
-17.510789
 30
0.0
  0
LINE
  5
45C
100
AcDbEntity
  8
1
370
    50
100
AcDbLine
 10
423.621834
 20
66.182254
 30
0.0
 11
431.889783
 21
66.182254
 31
0.0
  0
LINE
  5
45D
100
AcDbEntity
  8
1
370
    50
100
AcDbLine
 10
424.425682
 20
63.182254
 30
0.0
 11
431.889783
 21
63.182254
 31
0.0
  0
LINE
  5
45E
100
AcDbEntity
  8
1
370
    50
100
AcDbLine
 10
437.48786
 20
64.682254
 30
0.0
 11
431.889783
 21
63.182254
 31
0.0
  0
LINE
  5
45F
100
AcDbEntity
  8
1
370
    50
100
AcDbLine
 10
437.48786
 20
64.682254
 30
0.0
 11
431.889783
 21
66.182254
 31
0.0
  0
LINE
  5
460
100
AcDbEntity
  8
1
370
    25
100
AcDbLine
 10
425.554847
 20
66.432254
 30
0.0
 11
426.492669
 21
62.932254
 31
0.0
  0
LINE
  5
461
100
AcDbEntity
  8
1
370
    25
100
AcDbLine
 10
427.554847
 20
66.432254
 30
0.0
 11
428.492669
 21
62.932254
 31
0.0
  0
LINE
  5
462
100
AcDbEntity
  8
1
370
    25
100
AcDbLine
 10
429.554847
 20
66.432254
 30
0.0
 11
430.492669
 21
62.932254
 31
0.0
  0
LINE
  5
463
100
AcDbEntity
  8
1
370
    25
100
AcDbLine
 10
431.554847
 20
66.432254
 30
0.0
 11
432.492669
 21
62.932254
 31
0.0
  0
LINE
  5
464
100
AcDbEntity
  8
1
370
    25
100
AcDbLine
 10
433.60638
 20
66.239931
 30
0.0
 11
434.385218
 21
63.333265
 31
0.0
  0
LINE
  5
465
100
AcDbEntity
  8
1
370
    25
100
AcDbLine
 10
435.76108
 20
65.662581
 30
0.0
 11
436.251244
 21
63.833265
 31
0.0
  0
LINE
  5
466
100
AcDbEntity
  8
1
370
    50
100
AcDbLine
 10
423.554847
 20
66.432254
 30
0.0
 11
424.492669
 21
62.932254
 31
0.0
  0
LINE
  5
467
100
AcDbEntity
  8
1
370
    50
100
AcDbLine
 10
419.187857
 20
66.432254
 30
0.0
 11
423.554847
 21
66.432254
 31
0.0
  0
LINE
  5
468
100
AcDbEntity
  8
1
370
    50
100
AcDbLine
 10
419.187857
 20
62.932254
 30
0.0
 11
424.492669
 21
62.932254
 31
0.0
  0
LINE
  5
469
100
AcDbEntity
  8
1
370
    25
  6
CENTER
100
AcDbLine
 10
439.42445
 20
64.682254
 30
0.0
 11
412.5023
 21
64.682254
 31
0.0
  0
POINT
  5
46A
100
AcDbEntity
  8
1
370
    50
100
AcDbPoint
 10
419.187857
 20
64.682254
 30
0.0
  0
LINE
  5
46B
100
AcDbEntity
  8
1
370
    50
100
AcDbLine
 10
423.621834
 20
23.182254
 30
0.0
 11
431.889783
 21
23.182254
 31
0.0
  0
LINE
  5
46C
100
AcDbEntity
  8
1
370
    50
100
AcDbLine
 10
424.425682
 20
20.182254
 30
0.0
 11
431.889783
 21
20.182254
 31
0.0
  0
LINE
  5
46D
100
AcDbEntity
  8
1
370
    50
100
AcDbLine
 10
437.48786
 20
21.682254
 30
0.0
 11
431.889783
 21
20.182254
 31
0.0
  0
LINE
  5
46E
100
AcDbEntity
  8
1
370
    50
100
AcDbLine
 10
437.48786
 20
21.682254
 30
0.0
 11
431.889783
 21
23.182254
 31
0.0
  0
LINE
  5
46F
100
AcDbEntity
  8
1
370
    25
100
AcDbLine
 10
425.554847
 20
23.432254
 30
0.0
 11
426.492669
 21
19.932254
 31
0.0
  0
LINE
  5
470
100
AcDbEntity
  8
1
370
    25
100
AcDbLine
 10
427.554847
 20
23.432254
 30
0.0
 11
428.492669
 21
19.932254
 31
0.0
  0
LINE
  5
471
100
AcDbEntity
  8
1
370
    25
100
AcDbLine
 10
429.554847
 20
23.432254
 30
0.0
 11
430.492669
 21
19.932254
 31
0.0
  0
LINE
  5
472
100
AcDbEntity
  8
1
370
    25
100
AcDbLine
 10
431.554847
 20
23.432254
 30
0.0
 11
432.492669
 21
19.932254
 31
0.0
  0
LINE
  5
473
100
AcDbEntity
  8
1
370
    25
100
AcDbLine
 10
433.60638
 20
23.239931
 30
0.0
 11
434.385218
 21
20.333265
 31
0.0
  0
LINE
  5
474
100
AcDbEntity
  8
1
370
    25
100
AcDbLine
 10
435.76108
 20
22.662581
 30
0.0
 11
436.251244
 21
20.833265
 31
0.0
  0
LINE
  5
475
100
AcDbEntity
  8
1
370
    50
100
AcDbLine
 10
423.554847
 20
23.432254
 30
0.0
 11
424.492669
 21
19.932254
 31
0.0
  0
LINE
  5
476
100
AcDbEntity
  8
1
370
    50
100
AcDbLine
 10
419.187857
 20
23.432254
 30
0.0
 11
423.554847
 21
23.432254
 31
0.0
  0
LINE
  5
477
100
AcDbEntity
  8
1
370
    50
100
AcDbLine
 10
419.187857
 20
19.932254
 30
0.0
 11
424.492669
 21
19.932254
 31
0.0
  0
LINE
  5
478
100
AcDbEntity
  8
1
370
    25
  6
CENTER
100
AcDbLine
 10
439.42445
 20
21.682254
 30
0.0
 11
412.5023
 21
21.682254
 31
0.0
  0
POINT
  5
479
100
AcDbEntity
  8
1
370
    50
100
AcDbPoint
 10
419.187857
 20
21.682254
 30
0.0
  0
LINE
  5
47A
100
AcDbEntity
  8
1
370
    50
100
AcDbLine
 10
280.094177
 20
169.775882
 30
0.0
 11
280.094177
 21
178.043831
 31
0.0
  0
LINE
  5
47B
100
AcDbEntity
  8
1
370
    50
100
AcDbLine
 10
283.094177
 20
170.57973
 30
0.0
 11
283.094177
 21
178.043831
 31
0.0
  0
LINE
  5
47C
100
AcDbEntity
  8
1
370
    50
100
AcDbLine
 10
281.594177
 20
183.641908
 30
0.0
 11
283.094177
 21
178.043831
 31
0.0
  0
LINE
  5
47D
100
AcDbEntity
  8
1
370
    50
100
AcDbLine
 10
281.594177
 20
183.641908
 30
0.0
 11
280.094177
 21
178.043831
 31
0.0
  0
LINE
  5
47E
100
AcDbEntity
  8
1
370
    25
100
AcDbLine
 10
279.844177
 20
171.708895
 30
0.0
 11
283.344177
 21
172.646717
 31
0.0
  0
LINE
  5
47F
100
AcDbEntity
  8
1
370
    25
100
AcDbLine
 10
279.844177
 20
173.708895
 30
0.0
 11
283.344177
 21
174.646717
 31
0.0
  0
LINE
  5
480
100
AcDbEntity
  8
1
370
    25
100
AcDbLine
 10
279.844177
 20
175.708895
 30
0.0
 11
283.344177
 21
176.646717
 31
0.0
  0
LINE
  5
481
100
AcDbEntity
  8
1
370
    25
100
AcDbLine
 10
279.844177
 20
177.708895
 30
0.0
 11
283.344177
 21
178.646717
 31
0.0
  0
LINE
  5
482
100
AcDbEntity
  8
1
370
    25
100
AcDbLine
 10
280.0365
 20
179.760428
 30
0.0
 11
282.943165
 21
180.539266
 31
0.0
  0
LINE
  5
483
100
AcDbEntity
  8
1
370
    25
100
AcDbLine
 10
280.61385
 20
181.915128
 30
0.0
 11
282.443165
 21
182.405292
 31
0.0
  0
LINE
  5
484
100
AcDbEntity
  8
1
370
    50
100
AcDbLine
 10
279.844177
 20
169.708895
 30
0.0
 11
283.344177
 21
170.646717
 31
0.0
  0
LINE
  5
485
100
AcDbEntity
  8
1
370
    50
100
AcDbLine
 10
279.844177
 20
165.341905
 30
0.0
 11
279.844177
 21
169.708895
 31
0.0
  0
LINE
  5
486
100
AcDbEntity
  8
1
370
    50
100
AcDbLine
 10
283.344177
 20
165.341905
 30
0.0
 11
283.344177
 21
170.646717
 31
0.0
  0
POINT
  5
487
100
AcDbEntity
  8
1
370
    50
100
AcDbPoint
 10
281.594176
 20
165.341905
 30
0.0
  0
LINE
  5
488
100
AcDbEntity
  8
1
370
   100
100
AcDbLine
 10
275.944176
 20
56.632254
 30
0.0
 11
276.694176
 21
56.632254
 31
0.0
  0
LINE
  5
489
100
AcDbEntity
  8
1
370
   100
100
AcDbLine
 10
279.994176
 20
55.182254
 30
0.0
 11
279.994176
 21
58.182254
 31
0.0
  0
LINE
  5
48A
100
AcDbEntity
  8
1
370
   100
100
AcDbLine
 10
283.494176
 20
55.382254
 30
0.0
 11
283.494176
 21
57.982254
 31
0.0
  0
LINE
  5
48B
100
AcDbEntity
  8
1
370
   100
100
AcDbLine
 10
283.694176
 20
56.732254
 30
0.0
 11
284.644176
 21
56.732254
 31
0.0
  0
LINE
  5
48C
100
AcDbEntity
  8
1
370
   100
100
AcDbLine
 10
286.994176
 20
57.982254
 30
0.0
 11
286.994176
 21
55.182254
 31
0.0
  0
LINE
  5
48D
100
AcDbEntity
  8
1
370
   100
100
AcDbLine
 10
289.094176
 20
58.182254
 30
0.0
 11
289.094176
 21
55.382254
 31
0.0
  0
LINE
  5
48E
100
AcDbEntity
  8
1
370
   100
100
AcDbLine
 10
278.394176
 20
58.182254
 30
0.0
 11
278.394176
 21
55.182254
 31
0.0
  0
ARC
  5
48F
100
AcDbEntity
  8
1
370
   100
100
AcDbCircle
 10
275.594176
 20
56.682254
 30
0.0
 40
1.5
100
AcDbArc
 50
90.0
 51
270.0
  0
ARC
  5
490
100
AcDbEntity
  8
1
370
   100
100
AcDbCircle
 10
275.594176
 20
58.182254
 30
0.0
 40
3.0
100
AcDbArc
 50
270.0
 51
293.132396
  0
LINE
  5
491
100
AcDbEntity
  8
1
370
   100
100
AcDbLine
 10
276.894176
 20
55.607376
 30
0.0
 11
276.894176
 21
56.432254
 31
0.0
  0
LINE
  5
492
100
AcDbEntity
  8
1
370
   100
100
AcDbLine
 10
280.693375
 20
56.732489
 30
0.0
 11
281.994176
 21
55.182254
 31
0.0
  0
LINE
  5
493
100
AcDbEntity
  8
1
370
   100
100
AcDbLine
 10
281.994176
 20
58.182254
 30
0.0
 11
280.06035
 21
56.441029
 31
0.0
  0
LINE
  5
494
100
AcDbEntity
  8
1
370
   100
100
AcDbLine
 10
283.694176
 20
58.182254
 30
0.0
 11
285.494176
 21
58.182254
 31
0.0
  0
LINE
  5
495
100
AcDbEntity
  8
1
370
   100
100
AcDbLine
 10
275.594176
 20
58.182254
 30
0.0
 11
276.794176
 21
58.182254
 31
0.0
  0
LINE
  5
496
100
AcDbEntity
  8
1
370
   100
100
AcDbLine
 10
283.694176
 20
55.182254
 30
0.0
 11
285.494176
 21
55.182254
 31
0.0
  0
ARC
  5
497
100
AcDbEntity
  8
1
370
   100
100
AcDbCircle
 10
276.694176
 20
56.432254
 30
0.0
 40
0.2
100
AcDbArc
 50
0.0
 51
90.0
  0
ARC
  5
498
100
AcDbEntity
  8
1
370
   100
100
AcDbCircle
 10
276.694176
 20
55.607376
 30
0.0
 40
0.2
100
AcDbArc
 50
293.132396
 51
360.0
  0
ARC
  5
499
100
AcDbEntity
  8
1
370
   100
100
AcDbCircle
 10
283.694176
 20
57.982254
 30
0.0
 40
0.2
100
AcDbArc
 50
90.0
 51
180.0
  0
ARC
  5
49A
100
AcDbEntity
  8
1
370
   100
100
AcDbCircle
 10
283.694176
 20
55.382254
 30
0.0
 40
0.2
100
AcDbArc
 50
180.0
 51
270.0
  0
LINE
  5
49B
100
AcDbEntity
  8
1
370
   100
100
AcDbLine
 10
287.37427
 20
58.069239
 30
0.0
 11
288.714083
 21
55.29527
 31
0.0
  0
ARC
  5
49C
100
AcDbEntity
  8
1
370
   100
100
AcDbCircle
 10
287.194176
 20
57.982254
 30
0.0
 40
0.2
100
AcDbArc
 50
25.780305
 51
180.0
  0
ARC
  5
49D
100
AcDbEntity
  8
1
370
   100
100
AcDbCircle
 10
288.894176
 20
55.382254
 30
0.0
 40
0.2
100
AcDbArc
 50
205.780305
 51
360.0
  0
ARC
  5
49E
100
AcDbEntity
  8
1
370
   100
100
AcDbCircle
 10
283.694176
 20
56.932254
 30
0.0
 40
0.2
100
AcDbArc
 50
180.0
 51
270.0
  0
ARC
  5
49F
100
AcDbEntity
  8
1
370
   100
100
AcDbCircle
 10
283.694176
 20
56.532254
 30
0.0
 40
0.2
100
AcDbArc
 50
90.0
 51
180.0
  0
ARC
  5
4A0
100
AcDbEntity
  8
1
370
   100
100
AcDbCircle
 10
280.194176
 20
56.830654
 30
0.0
 40
0.2
100
AcDbArc
 50
180.0
 51
312.0
  0
ARC
  5
4A1
100
AcDbEntity
  8
1
370
   100
100
AcDbCircle
 10
280.194176
 20
56.2924
 30
0.0
 40
0.2
100
AcDbArc
 50
132.0
 51
180.0
  0
ARC
  5
4A2
100
AcDbEntity
  8
1
370
   100
100
AcDbCircle
 10
280.837606
 20
56.871747
 30
0.0
 40
0.2
100
AcDbArc
 50
132.0
 51
220.0
  0
ARC
  5
4A3
100
AcDbEntity
  8
1
370
   100
100
AcDbCircle
 10
280.540166
 20
56.603931
 30
0.0
 40
0.2
100
AcDbArc
 50
40.0
 51
132.0
  0
LINE
  5
4A4
100
AcDbEntity
  8
1
370
   100
100
AcDbLine
 10
287.244176
 20
29.732254
 30
0.0
 11
286.494176
 21
29.732254
 31
0.0
  0
LINE
  5
4A5
100
AcDbEntity
  8
1
370
   100
100
AcDbLine
 10
283.194176
 20
31.182254
 30
0.0
 11
283.194176
 21
28.182254
 31
0.0
  0
LINE
  5
4A6
100
AcDbEntity
  8
1
370
   100
100
AcDbLine
 10
279.694176
 20
30.982254
 30
0.0
 11
279.694176
 21
28.382254
 31
0.0
  0
LINE
  5
4A7
100
AcDbEntity
  8
1
370
   100
100
AcDbLine
 10
279.494176
 20
29.632254
 30
0.0
 11
278.544176
 21
29.632254
 31
0.0
  0
LINE
  5
4A8
100
AcDbEntity
  8
1
370
   100
100
AcDbLine
 10
276.194176
 20
28.382254
 30
0.0
 11
276.194176
 21
31.182254
 31
0.0
  0
LINE
  5
4A9
100
AcDbEntity
  8
1
370
   100
100
AcDbLine
 10
274.094176
 20
28.182254
 30
0.0
 11
274.094176
 21
30.982254
 31
0.0
  0
LINE
  5
4AA
100
AcDbEntity
  8
1
370
   100
100
AcDbLine
 10
284.794176
 20
28.182254
 30
0.0
 11
284.794176
 21
31.182254
 31
0.0
  0
ARC
  5
4AB
100
AcDbEntity
  8
1
370
   100
100
AcDbCircle
 10
287.594176
 20
29.682254
 30
0.0
 40
1.5
100
AcDbArc
 50
270.0
 51
90.0
  0
ARC
  5
4AC
100
AcDbEntity
  8
1
370
   100
100
AcDbCircle
 10
287.594176
 20
28.182254
 30
0.0
 40
3.0
100
AcDbArc
 50
90.0
 51
113.132396
  0
LINE
  5
4AD
100
AcDbEntity
  8
1
370
   100
100
AcDbLine
 10
286.294176
 20
30.757133
 30
0.0
 11
286.294176
 21
29.932254
 31
0.0
  0
LINE
  5
4AE
100
AcDbEntity
  8
1
370
   100
100
AcDbLine
 10
282.494978
 20
29.63202
 30
0.0
 11
281.194176
 21
31.182254
 31
0.0
  0
LINE
  5
4AF
100
AcDbEntity
  8
1
370
   100
100
AcDbLine
 10
281.194176
 20
28.182254
 30
0.0
 11
283.128003
 21
29.923479
 31
0.0
  0
LINE
  5
4B0
100
AcDbEntity
  8
1
370
   100
100
AcDbLine
 10
279.494176
 20
28.182254
 30
0.0
 11
277.694176
 21
28.182254
 31
0.0
  0
LINE
  5
4B1
100
AcDbEntity
  8
1
370
   100
100
AcDbLine
 10
287.594176
 20
28.182254
 30
0.0
 11
286.394176
 21
28.182254
 31
0.0
  0
LINE
  5
4B2
100
AcDbEntity
  8
1
370
   100
100
AcDbLine
 10
279.494176
 20
31.182254
 30
0.0
 11
277.694176
 21
31.182254
 31
0.0
  0
ARC
  5
4B3
100
AcDbEntity
  8
1
370
   100
100
AcDbCircle
 10
286.494176
 20
29.932254
 30
0.0
 40
0.2
100
AcDbArc
 50
180.0
 51
270.0
  0
ARC
  5
4B4
100
AcDbEntity
  8
1
370
   100
100
AcDbCircle
 10
286.494176
 20
30.757133
 30
0.0
 40
0.2
100
AcDbArc
 50
113.132396
 51
180.0
  0
ARC
  5
4B5
100
AcDbEntity
  8
1
370
   100
100
AcDbCircle
 10
279.494176
 20
28.382254
 30
0.0
 40
0.2
100
AcDbArc
 50
270.0
 51
0.0
  0
ARC
  5
4B6
100
AcDbEntity
  8
1
370
   100
100
AcDbCircle
 10
279.494176
 20
30.982254
 30
0.0
 40
0.2
100
AcDbArc
 50
360.0
 51
90.0
  0
LINE
  5
4B7
100
AcDbEntity
  8
1
370
   100
100
AcDbLine
 10
275.814083
 20
28.29527
 30
0.0
 11
274.47427
 21
31.069239
 31
0.0
  0
ARC
  5
4B8
100
AcDbEntity
  8
1
370
   100
100
AcDbCircle
 10
275.994176
 20
28.382254
 30
0.0
 40
0.2
100
AcDbArc
 50
205.780305
 51
360.0
  0
ARC
  5
4B9
100
AcDbEntity
  8
1
370
   100
100
AcDbCircle
 10
274.294176
 20
30.982254
 30
0.0
 40
0.2
100
AcDbArc
 50
25.780305
 51
180.0
  0
ARC
  5
4BA
100
AcDbEntity
  8
1
370
   100
100
AcDbCircle
 10
279.494176
 20
29.432254
 30
0.0
 40
0.2
100
AcDbArc
 50
0.0
 51
90.0
  0
ARC
  5
4BB
100
AcDbEntity
  8
1
370
   100
100
AcDbCircle
 10
279.494176
 20
29.832254
 30
0.0
 40
0.2
100
AcDbArc
 50
270.0
 51
360.0
  0
ARC
  5
4BC
100
AcDbEntity
  8
1
370
   100
100
AcDbCircle
 10
282.994176
 20
29.533855
 30
0.0
 40
0.2
100
AcDbArc
 50
0.0
 51
132.0
  0
ARC
  5
4BD
100
AcDbEntity
  8
1
370
   100
100
AcDbCircle
 10
282.994176
 20
30.072108
 30
0.0
 40
0.2
100
AcDbArc
 50
312.0
 51
360.0
  0
ARC
  5
4BE
100
AcDbEntity
  8
1
370
   100
100
AcDbCircle
 10
282.350747
 20
29.492762
 30
0.0
 40
0.2
100
AcDbArc
 50
312.0
 51
40.0
  0
ARC
  5
4BF
100
AcDbEntity
  8
1
370
   100
100
AcDbCircle
 10
282.648187
 20
29.760577
 30
0.0
 40
0.2
100
AcDbArc
 50
220.0
 51
312.0
  0
DIMENSION
  5
4C0
100
AcDbEntity
  8
2
370
    25
100
AcDbDimension
  2
*D0
 10
-704.180402
 20
79.59992
 30
0.0
 11
-715.180402
 21
83.59992
 31
0.0
 71
     0
 72
     0
 41
0.0
 42
0.0
  3
Standard
100
AcDbAlignedDimension
 13
-726.180402
 23
52.382254
 33
0.0
 14
-704.180402
 24
52.382254
 34
0.0
100
AcDbRotatedDimension
  0
DIMENSION
  5
4C1
100
AcDbEntity
  8
2
370
    25
100
AcDbDimension
  2
*D1
 10
-757.164337
 20
47.182254
 30
0.0
 11
-767.164337
 21
57.182254
 31
0.0
 71
     0
 72
     0
 41
0.0
 42
0.0
  3
Standard
100
AcDbAlignedDimension
 13
-722.880971
 23
42.882254
 33
0.0
 14
-739.680402
 24
47.182254
 34
0.0
 50
90.0
100
AcDbRotatedDimension
  0
DIMENSION
  5
4C2
100
AcDbEntity
  8
2
370
    25
100
AcDbDimension
  2
*D2
 10
-746.144745
 20
47.182254
 30
0.0
 11
-756.144745
 21
57.182254
 31
0.0
 71
     0
 72
     0
 41
0.0
 42
0.0
  3
Standard
100
AcDbAlignedDimension
 13
-732.680402
 23
45.882254
 33
0.0
 14
-739.680402
 24
47.182254
 34
0.0
 50
90.0
100
AcDbRotatedDimension
  0
LWPOLYLINE
  5
4C3
100
AcDbEntity
  8
2
370
    25
100
AcDbPolyline
 90
        2
 70
     0
 10
-702.382808
 20
44.267101
 10
-686.845457
 20
-3.861182
  0
LINE
  5
4C7
100
AcDbEntity
  8
2
370
    25
100
AcDbLine
 10
-702.560181
 20
44.816529
 30
0.0
 11
-703.511819
 21
44.50931
 31
0.0
  0
LINE
  5
4C8
100
AcDbEntity
  8
2
370
    25
100
AcDbLine
 10
-703.511819
 20
44.50931
 30
0.0
 11
-702.028061
 21
43.168243
 31
0.0
  0
LINE
  5
4C9
100
AcDbEntity
  8
2
370
    25
100
AcDbLine
 10
-702.028061
 20
43.168243
 30
0.0
 11
-701.608542
 21
45.123749
 31
0.0
  0
LINE
  5
4CA
100
AcDbEntity
  8
2
370
    25
100
AcDbLine
 10
-701.608542
 20
45.123749
 30
0.0
 11
-702.560181
 21
44.816529
 31
0.0
  0
CIRCLE
  5
4CB
100
AcDbEntity
  8
2
370
    25
100
AcDbCircle
 10
-685.312578
 20
-8.608631
 30
0.0
 40
5.0
  0
DIMENSION
  5
4CC
100
AcDbEntity
  8
2
370
    25
100
AcDbDimension
  2
*D3
 10
-708.680402
 20
9.491536
 30
0.0
 11
-715.180402
 21
13.491536
 31
0.0
 71
     0
 72
     0
 41
0.0
 42
0.0
  3
Standard
100
AcDbAlignedDimension
 13
-721.680402
 23
42.882254
 33
0.0
 14
-708.680402
 24
42.882254
 34
0.0
100
AcDbRotatedDimension
  0
DIMENSION
  5
4CD
100
AcDbEntity
  8
2
370
    25
100
AcDbDimension
  2
*D4
 10
-565.905824
 20
96.348598
 30
0.0
 11
-578.405824
 21
100.348598
 31
0.0
 71
     0
 72
     0
 41
0.0
 42
0.0
  3
Standard
100
AcDbAlignedDimension
 13
-590.905824
 23
76.182254
 33
0.0
 14
-565.905824
 24
76.182254
 34
0.0
100
AcDbRotatedDimension
  0
DIMENSION
  5
4CE
100
AcDbEntity
  8
2
370
    25
100
AcDbDimension
  2
*D5
 10
-598.405824
 20
96.348598
 30
0.0
 11
-603.405824
 21
100.348598
 31
0.0
 71
     0
 72
     0
 41
0.0
 42
0.0
  3
Standard
100
AcDbAlignedDimension
 13
-608.405824
 23
66.731005
 33
0.0
 14
-598.405824
 24
68.182254
 34
0.0
100
AcDbRotatedDimension
  0
DIMENSION
  5
4CF
100
AcDbEntity
  8
2
370
    25
100
AcDbDimension
  2
*D6
 10
-598.405824
 20
108.126016
 30
0.0
 11
-612.155824
 21
112.126016
 31
0.0
 71
     0
 72
     0
 41
0.0
 42
0.0
  3
Standard
100
AcDbAlignedDimension
 13
-625.905824
 23
42.882254
 33
0.0
 14
-598.405824
 24
68.182254
 34
0.0
100
AcDbRotatedDimension
  0
DIMENSION
  5
4D0
100
AcDbEntity
  8
2
370
    25
100
AcDbDimension
  2
*D7
 10
-548.405824
 20
96.348598
 30
0.0
 11
-553.405824
 21
100.348598
 31
0.0
 71
     0
 72
     0
 41
0.0
 42
0.0
  3
Standard
100
AcDbAlignedDimension
 13
-558.405824
 23
68.182254
 33
0.0
 14
-548.405824
 24
66.731005
 34
0.0
100
AcDbRotatedDimension
  0
DIMENSION
  5
4D1
100
AcDbEntity
  8
2
370
    25
100
AcDbDimension
  2
*D8
 10
-530.905824
 20
108.126016
 30
0.0
 11
-544.655824
 21
112.126016
 31
0.0
 71
     0
 72
     0
 41
0.0
 42
0.0
  3
Standard
100
AcDbAlignedDimension
 13
-558.405824
 23
68.182254
 33
0.0
 14
-530.905824
 24
42.882254
 34
0.0
100
AcDbRotatedDimension
  0
TEXT
  5
4D2
100
AcDbEntity
  8
2
370
    25
100
AcDbText
 10
-593.405824
 20
109.126016
 30
0.0
 40
6.0
  1
２８～４０
 72
     5
 11
-564.605824
 21
109.126016
 31
0.0
100
AcDbText
  0
DIMENSION
  5
4D3
100
AcDbEntity
  8
2
370
    25
100
AcDbDimension
  2
*D9
 10
-558.405824
 20
108.126016
 30
0.0
 11
-578.405824
 21
110.126016
 31
0.0
 71
     0
 72
     0
 41
0.0
 42
0.0
  3
Standard
100
AcDbAlignedDimension
 13
-598.405824
 23
68.182254
 33
0.0
 14
-558.405824
 24
68.182254
 34
0.0
100
AcDbRotatedDimension
  0
DIMENSION
  5
4D4
100
AcDbEntity
  8
2
370
    25
100
AcDbDimension
  2
*D10
 10
-634.976334
 20
56.882254
 30
0.0
 11
-641.976334
 21
42.882254
 31
0.0
 71
     0
 72
     0
 41
0.0
 42
0.0
  3
Standard
100
AcDbAlignedDimension
 13
-608.905824
 23
28.882254
 33
0.0
 14
-608.905824
 24
56.882254
 34
0.0
 50
90.0
100
AcDbRotatedDimension
  0
DIMENSION
  5
4D5
100
AcDbEntity
  8
2
370
    25
100
AcDbDimension
  2
*D11
 10
-644.927994
 20
68.182254
 30
0.0
 11
-654.927994
 21
44.182254
 31
0.0
 71
     0
 72
     0
 41
0.0
 42
0.0
  3
Standard
100
AcDbAlignedDimension
 13
-598.405824
 23
26.182254
 33
0.0
 14
-598.405824
 24
68.182254
 34
0.0
 50
90.0
100
AcDbRotatedDimension
  0
DIMENSION
  5
4D6
100
AcDbEntity
  8
2
370
    25
100
AcDbDimension
  2
*D12
 10
-516.079597
 20
56.882254
 30
0.0
 11
-523.079598
 21
42.882254
 31
0.0
 71
     0
 72
     0
 41
0.0
 42
0.0
  3
Standard
100
AcDbAlignedDimension
 13
-547.905824
 23
28.882254
 33
0.0
 14
-547.905824
 24
56.882254
 34
0.0
 50
90.0
100
AcDbRotatedDimension
  0
DIMENSION
  5
4D7
100
AcDbEntity
  8
2
370
    25
100
AcDbDimension
  2
*D13
 10
-505.430298
 20
68.182254
 30
0.0
 11
-515.430298
 21
44.182254
 31
0.0
 71
     0
 72
     0
 41
0.0
 42
0.0
  3
Standard
100
AcDbAlignedDimension
 13
-558.405824
 23
26.182254
 33
0.0
 14
-558.405824
 24
68.182254
 34
0.0
 50
90.0
100
AcDbRotatedDimension
  0
DIMENSION
  5
4D8
100
AcDbEntity
  8
2
370
    25
100
AcDbDimension
  2
*D14
 10
-443.750477
 20
56.882254
 30
0.0
 11
-456.750477
 21
41.182254
 31
0.0
 71
     0
 72
     0
 41
0.0
 42
0.0
  3
Standard
100
AcDbAlignedDimension
 13
-429.812143
 23
37.482254
 33
0.0
 14
-429.812143
 24
56.882254
 34
0.0
 50
90.0
100
AcDbRotatedDimension
  0
DIMENSION
  5
4D9
100
AcDbEntity
  8
2
370
    25
100
AcDbDimension
  2
*D15
 10
-454.547691
 20
68.682254
 30
0.0
 11
-461.547691
 21
47.182254
 31
0.0
 71
     0
 72
     0
 41
0.0
 42
0.0
  3
Standard
100
AcDbAlignedDimension
 13
-417.497701
 23
25.682254
 33
0.0
 14
-416.754941
 24
68.682254
 34
0.0
 50
90.0
100
AcDbRotatedDimension
  0
DIMENSION
  5
4DA
100
AcDbEntity
  8
2
370
    25
100
AcDbDimension
  2
*D16
 10
-465.369797
 20
82.182254
 30
0.0
 11
-472.369797
 21
47.182254
 31
0.0
 71
     0
 72
     0
 41
0.0
 42
0.0
  3
Standard
100
AcDbAlignedDimension
 13
-415.012143
 23
12.182254
 33
0.0
 14
-415.012143
 24
82.182254
 34
0.0
 50
90.0
100
AcDbRotatedDimension
  0
DIMENSION
  5
4DB
100
AcDbEntity
  8
2
370
    25
100
AcDbDimension
  2
*D17
 10
-415.012143
 20
108.126016
 30
0.0
 11
-440.012143
 21
112.126016
 31
0.0
 71
     0
 72
     0
 41
0.0
 42
0.0
  3
Standard
100
AcDbAlignedDimension
 13
-430.012143
 23
56.682254
 33
0.0
 14
-415.012143
 24
82.182254
 34
0.0
100
AcDbRotatedDimension
  0
DIMENSION
  5
4DC
100
AcDbEntity
  8
2
370
    25
100
AcDbDimension
  2
*D18
 10
-339.012143
 20
119.03499
 30
0.0
 11
-377.012143
 21
123.03499
 31
0.0
 71
     0
 72
     0
 41
0.0
 42
0.0
  3
Standard
100
AcDbAlignedDimension
 13
-415.012143
 23
82.182254
 33
0.0
 14
-339.012143
 24
54.682254
 34
0.0
100
AcDbRotatedDimension
  0
TEXT
  5
4DD
100
AcDbEntity
  8
2
370
    25
100
AcDbText
 10
-407.512143
 20
109.126016
 30
0.0
 40
6.0
  1
Ｂ．Ｓ．５１
 72
     5
 11
-372.712143
 21
109.126016
 31
0.0
100
AcDbText
  0
DIMENSION
  5
4DE
100
AcDbEntity
  8
2
370
    25
100
AcDbDimension
  2
*D19
 10
-364.012143
 20
108.126016
 30
0.0
 11
-389.512143
 21
110.126016
 31
0.0
 71
     0
 72
     0
 41
0.0
 42
0.0
  3
Standard
100
AcDbAlignedDimension
 13
-415.012143
 23
82.182254
 33
0.0
 14
-364.012143
 24
72.432254
 34
0.0
100
AcDbRotatedDimension
  0
LWPOLYLINE
  5
4DF
100
AcDbEntity
  8
2
370
    25
100
AcDbPolyline
 90
        2
 70
     0
 10
-414.414706
 20
18.906198
 10
-435.110226
 20
-5.049124
  0
LINE
  5
4E3
100
AcDbEntity
  8
2
370
    25
100
AcDbLine
 10
-414.037267
 20
19.343088
 30
0.0
 11
-414.793983
 21
19.996832
 31
0.0
  0
LINE
  5
4E4
100
AcDbEntity
  8
2
370
    25
100
AcDbLine
 10
-414.793983
 20
19.996832
 30
0.0
 11
-415.169584
 21
18.032417
 31
0.0
  0
LINE
  5
4E5
100
AcDbEntity
  8
2
370
    25
100
AcDbLine
 10
-415.169584
 20
18.032417
 30
0.0
 11
-413.280551
 21
18.689345
 31
0.0
  0
LINE
  5
4E6
100
AcDbEntity
  8
2
370
    25
100
AcDbLine
 10
-413.280551
 20
18.689345
 30
0.0
 11
-414.037267
 21
19.343088
 31
0.0
  0
CIRCLE
  5
4E7
100
AcDbEntity
  8
2
370
    25
100
AcDbCircle
 10
-438.320253
 20
-8.931213
 30
0.0
 40
5.0
  0
LWPOLYLINE
  5
4E8
100
AcDbEntity
  8
2
370
    25
100
AcDbPolyline
 90
        2
 70
     0
 10
-403.512143
 20
25.682254
 10
-406.5083
 20
-3.629095
  0
LINE
  5
4EC
100
AcDbEntity
  8
2
370
    25
100
AcDbLine
 10
-403.453433
 20
26.256612
 30
0.0
 11
-404.448249
 21
26.3583
 31
0.0
  0
LINE
  5
4ED
100
AcDbEntity
  8
2
370
    25
100
AcDbLine
 10
-404.448249
 20
26.3583
 30
0.0
 11
-403.629563
 21
24.533539
 31
0.0
  0
LINE
  5
4EE
100
AcDbEntity
  8
2
370
    25
100
AcDbLine
 10
-403.629563
 20
24.533539
 30
0.0
 11
-402.458617
 21
26.154923
 31
0.0
  0
LINE
  5
4EF
100
AcDbEntity
  8
2
370
    25
100
AcDbLine
 10
-402.458617
 20
26.154923
 30
0.0
 11
-403.453433
 21
26.256612
 31
0.0
  0
CIRCLE
  5
4F0
100
AcDbEntity
  8
2
370
    25
100
AcDbCircle
 10
-406.98617
 20
-8.635383
 30
0.0
 40
5.0
  0
CIRCLE
  5
4F1
100
AcDbEntity
  8
2
370
    25
100
AcDbCircle
 10
-374.179295
 20
-8.722149
 30
0.0
 40
5.0
  0
LWPOLYLINE
  5
4F2
100
AcDbEntity
  8
2
370
    25
100
AcDbPolyline
 90
        2
 70
     0
 10
-394.779109
 20
42.871064
 10
-376.108446
 20
-4.008949
  0
LINE
  5
4F6
100
AcDbEntity
  8
2
370
    25
100
AcDbLine
 10
-394.992729
 20
43.407441
 30
0.0
 11
-395.92176
 21
43.03744
 31
0.0
  0
LINE
  5
4F7
100
AcDbEntity
  8
2
370
    25
100
AcDbLine
 10
-395.92176
 20
43.03744
 30
0.0
 11
-394.351869
 21
41.798311
 31
0.0
  0
LINE
  5
4F8
100
AcDbEntity
  8
2
370
    25
100
AcDbLine
 10
-394.351869
 20
41.798311
 30
0.0
 11
-394.063697
 21
43.777442
 31
0.0
  0
LINE
  5
4F9
100
AcDbEntity
  8
2
370
    25
100
AcDbLine
 10
-394.063697
 20
43.777442
 30
0.0
 11
-394.992729
 21
43.407441
 31
0.0
  0
TEXT
  5
4FA
100
AcDbEntity
  8
2
370
    25
100
AcDbText
 10
-376.679295
 20
-11.222149
 30
0.0
 40
5.0
  1
５
 72
     5
 11
-372.679295
 21
-11.222149
 31
0.0
100
AcDbText
  0
TEXT
  5
4FB
100
AcDbEntity
  8
2
370
    25
100
AcDbText
 10
-440.820253
 20
-11.431213
 30
0.0
 40
5.0
  1
６
 72
     5
 11
-436.820253
 21
-11.431213
 31
0.0
100
AcDbText
  0
TEXT
  5
4FC
100
AcDbEntity
  8
2
370
    25
100
AcDbText
 10
-409.48617
 20
-11.135383
 30
0.0
 40
5.0
  1
７
 72
     5
 11
-405.48617
 21
-11.135383
 31
0.0
100
AcDbText
  0
CIRCLE
  5
4FD
100
AcDbEntity
  8
2
370
    25
100
AcDbCircle
 10
-558.023971
 20
248.660359
 30
0.0
 40
5.0
  0
DIMENSION
  5
4FE
100
AcDbEntity
  8
2
370
    25
100
AcDbDimension
  2
*D20
 10
-571.655824
 20
-3.326696
 30
0.0
 11
-601.155824
 21
0.673304
 31
0.0
 71
     0
 72
     0
 41
0.0
 42
0.0
  3
Standard
100
AcDbAlignedDimension
 13
-585.155824
 23
40.216086
 33
0.0
 14
-571.655824
 24
40.216086
 34
0.0
100
AcDbRotatedDimension
  0
CIRCLE
  5
4FF
100
AcDbEntity
  8
2
370
    25
100
AcDbCircle
 10
-337.179295
 20
-8.722149
 30
0.0
 40
5.0
  0
LWPOLYLINE
  5
500
100
AcDbEntity
  8
2
370
    25
100
AcDbPolyline
 90
        2
 70
     0
 10
-352.324799
 20
35.698265
 10
-338.792872
 20
-3.989669
  0
LINE
  5
504
100
AcDbEntity
  8
2
370
    25
100
AcDbLine
 10
-352.511119
 20
36.244725
 30
0.0
 11
-353.457614
 21
35.922009
 31
0.0
  0
LINE
  5
505
100
AcDbEntity
  8
2
370
    25
100
AcDbLine
 10
-353.457614
 20
35.922009
 30
0.0
 11
-351.952159
 21
34.605346
 31
0.0
  0
LINE
  5
506
100
AcDbEntity
  8
2
370
    25
100
AcDbLine
 10
-351.952159
 20
34.605346
 30
0.0
 11
-351.564623
 21
36.56744
 31
0.0
  0
LINE
  5
507
100
AcDbEntity
  8
2
370
    25
100
AcDbLine
 10
-351.564623
 20
36.56744
 30
0.0
 11
-352.511119
 21
36.244725
 31
0.0
  0
CIRCLE
  5
508
100
AcDbEntity
  8
2
370
    25
100
AcDbCircle
 10
-743.01325
 20
-8.722149
 30
0.0
 40
5.0
  0
LWPOLYLINE
  5
509
100
AcDbEntity
  8
2
370
    25
100
AcDbPolyline
 90
        2
 70
     0
 10
-727.867746
 20
35.698265
 10
-741.399672
 20
-3.989669
  0
LINE
  5
50D
100
AcDbEntity
  8
2
370
    25
100
AcDbLine
 10
-727.681426
 20
36.244725
 30
0.0
 11
-728.627922
 21
36.56744
 31
0.0
  0
LINE
  5
50E
100
AcDbEntity
  8
2
370
    25
100
AcDbLine
 10
-728.627922
 20
36.56744
 30
0.0
 11
-728.240386
 21
34.605346
 31
0.0
  0
LINE
  5
50F
100
AcDbEntity
  8
2
370
    25
100
AcDbLine
 10
-728.240386
 20
34.605346
 30
0.0
 11
-726.73493
 21
35.922009
 31
0.0
  0
LINE
  5
510
100
AcDbEntity
  8
2
370
    25
100
AcDbLine
 10
-726.73493
 20
35.922009
 30
0.0
 11
-727.681426
 21
36.244725
 31
0.0
  0
TEXT
  5
511
100
AcDbEntity
  8
2
370
    25
100
AcDbText
 10
-339.679295
 20
-11.222149
 30
0.0
 40
5.0
  1
１
 72
     5
 11
-335.679295
 21
-11.222149
 31
0.0
100
AcDbText
  0
TEXT
  5
512
100
AcDbEntity
  8
2
370
    25
100
AcDbText
 10
-745.51325
 20
-11.222149
 30
0.0
 40
5.0
  1
２
 72
     5
 11
-741.51325
 21
-11.222149
 31
0.0
100
AcDbText
  0
LWPOLYLINE
  5
513
100
AcDbEntity
  8
2
370
    25
100
AcDbPolyline
 90
        2
 70
     0
 10
-569.489456
 20
204.459
 10
-559.279385
 20
243.82053
  0
LINE
  5
517
100
AcDbEntity
  8
2
370
    25
100
AcDbLine
 10
-569.634419
 20
203.900144
 30
0.0
 11
-568.666453
 21
203.649062
 31
0.0
  0
LINE
  5
518
100
AcDbEntity
  8
2
370
    25
100
AcDbLine
 10
-568.666453
 20
203.649062
 30
0.0
 11
-569.199531
 21
205.57671
 31
0.0
  0
LINE
  5
519
100
AcDbEntity
  8
2
370
    25
100
AcDbLine
 10
-569.199531
 20
205.57671
 30
0.0
 11
-570.602384
 21
204.151227
 31
0.0
  0
LINE
  5
51A
100
AcDbEntity
  8
2
370
    25
100
AcDbLine
 10
-570.602384
 20
204.151227
 30
0.0
 11
-569.634419
 21
203.900144
 31
0.0
  0
TEXT
  5
51B
100
AcDbEntity
  8
2
370
    25
100
AcDbText
 10
-560.523971
 20
246.160359
 30
0.0
 40
5.0
  1
３
 72
     5
 11
-556.523971
 21
246.160359
 31
0.0
100
AcDbText
  0
TEXT
  5
51C
100
AcDbEntity
  8
2
370
    25
100
AcDbText
 10
-687.812578
 20
-11.108631
 30
0.0
 40
5.0
  1
４
 72
     5
 11
-683.812578
 21
-11.108631
 31
0.0
100
AcDbText
  0
DIMENSION
  5
51D
100
AcDbEntity
  8
2
370
    25
100
AcDbDimension
  2
*D21
 10
-319.03923
 20
58.882254
 30
0.0
 11
-335.03923
 21
68.882254
 31
0.0
 71
     0
 72
     0
 41
0.0
 42
0.0
  3
Standard
100
AcDbAlignedDimension
 13
-342.111648
 23
35.482254
 33
0.0
 14
-342.111648
 24
58.882254
 34
0.0
 50
90.0
100
AcDbRotatedDimension
  0
CIRCLE
  5
51E
100
AcDbEntity
  8
2
370
    25
100
AcDbCircle
 10
-103.400591
 20
127.780746
 30
0.0
 40
5.0
  0
CIRCLE
  5
51F
100
AcDbEntity
  8
2
370
    25
100
AcDbCircle
 10
-213.400591
 20
127.780746
 30
0.0
 40
5.0
  0
CIRCLE
  5
520
100
AcDbEntity
  8
2
370
    25
100
AcDbCircle
 10
-233.400591
 20
127.780746
 30
0.0
 40
5.0
  0
TEXT
  5
521
100
AcDbEntity
  8
2
370
    25
100
AcDbText
 10
-237.400591
 20
125.280746
 30
0.0
 40
5.0
  1
1
 72
     5
 11
-233.400591
 21
125.280746
 31
0.0
100
AcDbText
  0
LWPOLYLINE
  5
522
100
AcDbEntity
  8
2
370
    25
100
AcDbPolyline
 90
        2
 70
     0
 10
-130.493607
 20
78.715457
 10
-105.613966
 20
123.297335
  0
LINE
  5
526
100
AcDbEntity
  8
2
370
    25
100
AcDbLine
 10
-130.774959
 20
78.2113
 30
0.0
 11
-129.901734
 21
77.723983
 31
0.0
  0
LINE
  5
527
100
AcDbEntity
  8
2
370
    25
100
AcDbLine
 10
-129.901734
 20
77.723983
 30
0.0
 11
-129.930901
 21
79.72377
 31
0.0
  0
LINE
  5
528
100
AcDbEntity
  8
2
370
    25
100
AcDbLine
 10
-129.930901
 20
79.72377
 30
0.0
 11
-131.648184
 21
78.698617
 31
0.0
  0
LINE
  5
529
100
AcDbEntity
  8
2
370
    25
100
AcDbLine
 10
-131.648184
 20
78.698617
 30
0.0
 11
-130.774959
 21
78.2113
 31
0.0
  0
LWPOLYLINE
  5
52A
100
AcDbEntity
  8
2
370
    25
100
AcDbPolyline
 90
        2
 70
     0
 10
-227.405136
 20
83.134879
 10
-232.494942
 20
122.86345
  0
LINE
  5
52E
100
AcDbEntity
  8
2
370
    25
100
AcDbLine
 10
-227.331769
 20
82.562209
 30
0.0
 11
-226.339876
 21
82.689285
 31
0.0
  0
LINE
  5
52F
100
AcDbEntity
  8
2
370
    25
100
AcDbLine
 10
-226.339876
 20
82.689285
 30
0.0
 11
-227.551871
 21
84.280218
 31
0.0
  0
LINE
  5
530
100
AcDbEntity
  8
2
370
    25
100
AcDbLine
 10
-227.551871
 20
84.280218
 30
0.0
 11
-228.323662
 21
82.435133
 31
0.0
  0
LINE
  5
531
100
AcDbEntity
  8
2
370
    25
100
AcDbLine
 10
-228.323662
 20
82.435133
 30
0.0
 11
-227.331769
 21
82.562209
 31
0.0
  0
LWPOLYLINE
  5
532
100
AcDbEntity
  8
2
370
    25
100
AcDbPolyline
 90
        2
 70
     0
 10
-221.407349
 20
66.088633
 10
-214.007871
 20
122.817761
  0
LINE
  5
536
100
AcDbEntity
  8
2
370
    25
100
AcDbLine
 10
-221.482023
 20
65.516133
 30
0.0
 11
-220.490423
 21
65.386793
 31
0.0
  0
LINE
  5
537
100
AcDbEntity
  8
2
370
    25
100
AcDbLine
 10
-220.490423
 20
65.386793
 30
0.0
 11
-221.258
 21
67.233635
 31
0.0
  0
LINE
  5
538
100
AcDbEntity
  8
2
370
    25
100
AcDbLine
 10
-221.258
 20
67.233635
 30
0.0
 11
-222.473623
 21
65.645472
 31
0.0
  0
LINE
  5
539
100
AcDbEntity
  8
2
370
    25
100
AcDbLine
 10
-222.473623
 20
65.645472
 30
0.0
 11
-221.482023
 21
65.516133
 31
0.0
  0
TEXT
  5
53A
100
AcDbEntity
  8
2
370
    25
100
AcDbText
 10
-233.900591
 20
125.280746
 30
0.0
 40
5.0
  1
０
 72
     5
 11
-229.900591
 21
125.280746
 31
0.0
100
AcDbText
  0
TEXT
  5
53B
100
AcDbEntity
  8
2
370
    25
100
AcDbText
 10
-105.900591
 20
125.280746
 30
0.0
 40
5.0
  1
８
 72
     5
 11
-101.900591
 21
125.280746
 31
0.0
100
AcDbText
  0
TEXT
  5
53C
100
AcDbEntity
  8
2
370
    25
100
AcDbText
 10
-215.900591
 20
125.280746
 30
0.0
 40
5.0
  1
９
 72
     5
 11
-211.900591
 21
125.280746
 31
0.0
100
AcDbText
  0
DIMENSION
  5
53D
100
AcDbEntity
  8
2
370
    25
100
AcDbDimension
  2
*D22
 10
-410.812143
 20
96.348598
 30
0.0
 11
-397.812143
 21
100.348598
 31
0.0
 71
     0
 72
     0
 41
0.0
 42
0.0
  3
Standard
100
AcDbAlignedDimension
 13
-415.012143
 23
82.182254
 33
0.0
 14
-410.812143
 24
81.882254
 34
0.0
100
AcDbRotatedDimension
  0
DIMENSION
  5
53E
100
AcDbEntity
  8
2
370
    25
100
AcDbDimension
  2
*D23
 10
-163.699036
 20
70.805204
 30
0.0
 11
-167.699036
 21
55.805204
 31
0.0
 71
     0
 72
     0
 41
0.0
 42
0.0
  3
Standard
100
AcDbAlignedDimension
 13
-146.098495
 23
40.805204
 33
0.0
 14
-146.098495
 24
70.805204
 34
0.0
 50
90.0
100
AcDbRotatedDimension
  0
DIMENSION
  5
53F
100
AcDbEntity
  8
2
370
    25
100
AcDbDimension
  2
*D24
 10
-129.598495
 20
61.82308
 30
0.0
 11
-141.598495
 21
65.82308
 31
0.0
 71
     0
 72
     0
 41
0.0
 42
0.0
  3
Standard
100
AcDbAlignedDimension
 13
-147.598495
 23
63.063604
 33
0.0
 14
-129.598495
 24
63.063604
 34
0.0
100
AcDbRotatedDimension
  0
DIMENSION
  5
540
100
AcDbEntity
  8
2
370
    25
100
AcDbDimension
  2
*D25
 10
-126.098495
 20
105.861046
 30
0.0
 11
-141.598495
 21
109.861046
 31
0.0
 71
     0
 72
     0
 41
0.0
 42
0.0
  3
Standard
100
AcDbAlignedDimension
 13
-151.098495
 23
87.305204
 33
0.0
 14
-126.098495
 24
87.305204
 34
0.0
100
AcDbRotatedDimension
  0
DIMENSION
  5
541
100
AcDbEntity
  8
2
370
    25
100
AcDbDimension
  2
*D26
 10
-183.323639
 20
93.305204
 30
0.0
 11
-187.323639
 21
55.805204
 31
0.0
 71
     0
 72
     0
 41
0.0
 42
0.0
  3
Standard
100
AcDbAlignedDimension
 13
-145.098495
 23
18.305204
 33
0.0
 14
-145.098495
 24
93.305204
 34
0.0
 50
90.0
100
AcDbRotatedDimension
  0
DIMENSION
  5
542
100
AcDbEntity
  8
2
370
    25
100
AcDbDimension
  2
*D27
 10
-173.434845
 20
83.305204
 30
0.0
 11
-177.434845
 21
55.805204
 31
0.0
 71
     0
 72
     0
 41
0.0
 42
0.0
  3
Standard
100
AcDbAlignedDimension
 13
-146.031807
 23
28.305204
 33
0.0
 14
-146.031807
 24
83.305204
 34
0.0
 50
90.0
100
AcDbRotatedDimension
  0
DIMENSION
  5
543
100
AcDbEntity
  8
2
370
    25
100
AcDbDimension
  2
*D28
 10
-246.825455
 20
90.805204
 30
0.0
 11
-253.825455
 21
55.805204
 31
0.0
 71
     0
 72
     0
 41
0.0
 42
0.0
  3
Standard
100
AcDbAlignedDimension
 13
-214.736935
 23
20.805204
 33
0.0
 14
-214.736935
 24
90.805204
 34
0.0
 50
90.0
100
AcDbRotatedDimension
  0
DIMENSION
  5
544
100
AcDbEntity
  8
2
370
    25
100
AcDbDimension
  2
*D29
 10
-238.301331
 20
71.305204
 30
0.0
 11
-245.301331
 21
55.805204
 31
0.0
 71
     0
 72
     0
 41
0.0
 42
0.0
  3
Standard
100
AcDbAlignedDimension
 13
-228.936935
 23
40.305204
 33
0.0
 14
-228.936935
 24
71.305204
 34
0.0
 50
90.0
100
AcDbRotatedDimension
  0
DIMENSION
  5
545
100
AcDbEntity
  8
2
370
    25
100
AcDbDimension
  2
*D30
 10
-213.436935
 20
-2.340752
 30
0.0
 11
-221.436935
 21
1.659248
 31
0.0
 71
     0
 72
     0
 41
0.0
 42
0.0
  3
Standard
100
AcDbAlignedDimension
 13
-229.436935
 23
40.805204
 33
0.0
 14
-213.436935
 24
18.305204
 34
0.0
100
AcDbRotatedDimension
  0
DIMENSION
  5
546
100
AcDbEntity
  8
2
370
    25
100
AcDbDimension
  2
*D31
 10
-127.598498
 20
-38.260178
 30
0.0
 11
-138.598498
 21
-34.260178
 31
0.0
 71
     0
 72
     0
 41
0.0
 42
0.0
  3
Standard
100
AcDbAlignedDimension
 13
-149.598498
 23
-20.48784
 33
0.0
 14
-127.598498
 24
-20.48784
 34
0.0
100
AcDbRotatedDimension
  0
DIMENSION
  5
547
100
AcDbEntity
  8
2
370
    25
100
AcDbDimension
  2
*D32
 10
-213.436935
 20
7.790417
 30
0.0
 11
-196.436935
 21
11.790417
 31
0.0
 71
     0
 72
     0
 41
0.0
 42
0.0
  3
Standard
100
AcDbAlignedDimension
 13
-214.836935
 23
20.805204
 33
0.0
 14
-213.436935
 24
18.305204
 34
0.0
100
AcDbRotatedDimension
  0
DIMENSION
  5
548
100
AcDbEntity
  8
2
370
    25
100
AcDbDimension
  2
*D33
 10
155.819598
 20
75.59992
 30
0.0
 11
141.819598
 21
79.59992
 31
0.0
 71
     0
 72
     0
 41
0.0
 42
0.0
  3
Standard
100
AcDbAlignedDimension
 13
133.819598
 23
48.382254
 33
0.0
 14
155.819598
 24
48.382254
 34
0.0
100
AcDbRotatedDimension
  0
LWPOLYLINE
  5
549
100
AcDbEntity
  8
2
370
    18
100
AcDbPolyline
 90
        2
 70
     0
 10
157.617192
 20
40.267101
 10
173.154543
 20
-7.861182
  0
LINE
  5
54D
100
AcDbEntity
  8
2
370
    25
100
AcDbLine
 10
157.439819
 20
40.816529
 30
0.0
 11
156.488181
 21
40.50931
 31
0.0
  0
LINE
  5
54E
100
AcDbEntity
  8
2
370
    25
100
AcDbLine
 10
156.488181
 20
40.50931
 30
0.0
 11
157.971939
 21
39.168243
 31
0.0
  0
LINE
  5
54F
100
AcDbEntity
  8
2
370
    25
100
AcDbLine
 10
157.971939
 20
39.168243
 30
0.0
 11
158.391458
 21
41.123749
 31
0.0
  0
LINE
  5
550
100
AcDbEntity
  8
2
370
    25
100
AcDbLine
 10
158.391458
 20
41.123749
 30
0.0
 11
157.439819
 21
40.816529
 31
0.0
  0
CIRCLE
  5
551
100
AcDbEntity
  8
2
370
    18
100
AcDbCircle
 10
174.687422
 20
-12.608631
 30
0.0
 40
5.0
  0
DIMENSION
  5
552
100
AcDbEntity
  8
2
370
    25
100
AcDbDimension
  2
*D34
 10
151.319598
 20
5.491536
 30
0.0
 11
141.819598
 21
9.491536
 31
0.0
 71
     0
 72
     0
 41
0.0
 42
0.0
  3
Standard
100
AcDbAlignedDimension
 13
138.319598
 23
38.882254
 33
0.0
 14
151.319598
 24
38.882254
 34
0.0
100
AcDbRotatedDimension
  0
CIRCLE
  5
553
100
AcDbEntity
  8
2
370
    18
100
AcDbCircle
 10
220.842695
 20
-12.580379
 30
0.0
 40
5.0
  0
LWPOLYLINE
  5
554
100
AcDbEntity
  8
2
370
    18
100
AcDbPolyline
 90
        2
 70
     0
 10
238.222272
 20
32.977716
 10
222.666827
 20
-7.999237
  0
LINE
  5
558
100
AcDbEntity
  8
2
370
    25
100
AcDbLine
 10
238.427175
 20
33.517482
 30
0.0
 11
237.492272
 21
33.872385
 31
0.0
  0
LINE
  5
559
100
AcDbEntity
  8
2
370
    25
100
AcDbLine
 10
237.492272
 20
33.872385
 30
0.0
 11
237.812466
 21
31.898182
 31
0.0
  0
LINE
  5
55A
100
AcDbEntity
  8
2
370
    25
100
AcDbLine
 10
237.812466
 20
31.898182
 30
0.0
 11
239.362079
 21
33.16258
 31
0.0
  0
LINE
  5
55B
100
AcDbEntity
  8
2
370
    25
100
AcDbLine
 10
239.362079
 20
33.16258
 30
0.0
 11
238.427175
 21
33.517482
 31
0.0
  0
DIMENSION
  5
55C
100
AcDbEntity
  8
2
370
    25
100
AcDbDimension
  2
*D35
 10
490.987857
 20
115.03499
 30
0.0
 11
452.987857
 21
117.03499
 31
0.0
 71
     0
 72
     0
 41
0.0
 42
0.0
  3
Standard
100
AcDbAlignedDimension
 13
414.987857
 23
78.182254
 33
0.0
 14
490.987857
 24
50.682254
 34
0.0
100
AcDbRotatedDimension
  0
DIMENSION
  5
55D
100
AcDbEntity
  8
2
370
    25
100
AcDbDimension
  2
*D36
 10
465.987857
 20
104.126016
 30
0.0
 11
440.487857
 21
106.126016
 31
0.0
 71
     0
 72
     0
 41
0.0
 42
0.0
  3
Standard
100
AcDbAlignedDimension
 13
414.987857
 23
104.126016
 33
0.0
 14
465.987857
 24
68.432254
 34
0.0
100
AcDbRotatedDimension
  0
DIMENSION
  5
55E
100
AcDbEntity
  8
2
370
    25
100
AcDbDimension
  2
*D37
 10
414.987857
 20
104.126016
 30
0.0
 11
404.487857
 21
108.126016
 31
0.0
 71
     0
 72
     0
 41
0.0
 42
0.0
  3
Standard
100
AcDbAlignedDimension
 13
399.987857
 23
52.682254
 33
0.0
 14
414.987857
 24
104.126016
 34
0.0
100
AcDbRotatedDimension
  0
DIMENSION
  5
55F
100
AcDbEntity
  8
2
370
    25
100
AcDbDimension
  2
*D38
 10
375.191442
 20
64.682254
 30
0.0
 11
372.691442
 21
43.182254
 31
0.0
 71
     0
 72
     0
 41
0.0
 42
0.0
  3
Standard
100
AcDbAlignedDimension
 13
412.5023
 23
21.682254
 33
0.0
 14
413.245059
 24
64.682254
 34
0.0
 50
90.0
100
AcDbRotatedDimension
  0
TEXT
  5
560
100
AcDbEntity
  8
2
370
    18
100
AcDbText
 10
374.191442
 20
37.182254
 30
0.0
 40
6.0
  1
43
 50
90.0
 72
     5
 11
374.191442
 21
47.982254
 31
0.0
100
AcDbText
  0
DIMENSION
  5
561
100
AcDbEntity
  8
2
370
    25
100
AcDbDimension
  2
*D39
 10
363.983026
 20
78.182254
 30
0.0
 11
359.983026
 21
43.182254
 31
0.0
 71
     0
 72
     0
 41
0.0
 42
0.0
  3
Standard
100
AcDbAlignedDimension
 13
414.987857
 23
8.182254
 33
0.0
 14
414.987857
 24
78.182254
 34
0.0
 50
90.0
100
AcDbRotatedDimension
  0
DIMENSION
  5
562
100
AcDbEntity
  8
2
370
    25
100
AcDbDimension
  2
*D40
 10
386.258935
 20
33.482254
 30
0.0
 11
377.758935
 21
34.182254
 31
0.0
 70
     1
 71
     0
 72
     0
 41
0.0
 42
0.0
  3
Standard
100
AcDbAlignedDimension
 13
400.187857
 23
52.882254
 33
0.0
 14
400.187857
 24
33.482254
 34
0.0
 50
90.0
  0
LWPOLYLINE
  5
563
100
AcDbEntity
  8
2
370
    18
100
AcDbPolyline
 90
        2
 70
     0
 10
415.585294
 20
14.906198
 10
394.889774
 20
-9.049124
  0
LINE
  5
567
100
AcDbEntity
  8
2
370
    25
100
AcDbLine
 10
415.962733
 20
15.343088
 30
0.0
 11
415.206017
 21
15.996832
 31
0.0
  0
LINE
  5
568
100
AcDbEntity
  8
2
370
    25
100
AcDbLine
 10
415.206017
 20
15.996832
 30
0.0
 11
414.830416
 21
14.032417
 31
0.0
  0
LINE
  5
569
100
AcDbEntity
  8
2
370
    25
100
AcDbLine
 10
414.830416
 20
14.032417
 30
0.0
 11
416.719449
 21
14.689345
 31
0.0
  0
LINE
  5
56A
100
AcDbEntity
  8
2
370
    25
100
AcDbLine
 10
416.719449
 20
14.689345
 30
0.0
 11
415.962733
 21
15.343088
 31
0.0
  0
CIRCLE
  5
56B
100
AcDbEntity
  8
2
370
    18
100
AcDbCircle
 10
391.679747
 20
-12.931213
 30
0.0
 40
5.0
  0
LWPOLYLINE
  5
56C
100
AcDbEntity
  8
2
370
    18
100
AcDbPolyline
 90
        2
 70
     0
 10
426.487857
 20
21.682254
 10
423.4917
 20
-7.629095
  0
LINE
  5
570
100
AcDbEntity
  8
2
370
    25
100
AcDbLine
 10
426.546567
 20
22.256612
 30
0.0
 11
425.551751
 21
22.3583
 31
0.0
  0
LINE
  5
571
100
AcDbEntity
  8
2
370
    25
100
AcDbLine
 10
425.551751
 20
22.3583
 30
0.0
 11
426.370437
 21
20.533539
 31
0.0
  0
LINE
  5
572
100
AcDbEntity
  8
2
370
    25
100
AcDbLine
 10
426.370437
 20
20.533539
 30
0.0
 11
427.541383
 21
22.154923
 31
0.0
  0
LINE
  5
573
100
AcDbEntity
  8
2
370
    25
100
AcDbLine
 10
427.541383
 20
22.154923
 30
0.0
 11
426.546567
 21
22.256612
 31
0.0
  0
CIRCLE
  5
574
100
AcDbEntity
  8
2
370
    18
100
AcDbCircle
 10
423.01383
 20
-12.635383
 30
0.0
 40
5.0
  0
CIRCLE
  5
575
100
AcDbEntity
  8
2
370
    18
100
AcDbCircle
 10
455.820705
 20
-12.722149
 30
0.0
 40
5.0
  0
LWPOLYLINE
  5
576
100
AcDbEntity
  8
2
370
    18
100
AcDbPolyline
 90
        2
 70
     0
 10
435.220891
 20
38.871064
 10
453.891554
 20
-8.008949
  0
LINE
  5
57A
100
AcDbEntity
  8
2
370
    25
100
AcDbLine
 10
435.007271
 20
39.407441
 30
0.0
 11
434.07824
 21
39.03744
 31
0.0
  0
LINE
  5
57B
100
AcDbEntity
  8
2
370
    25
100
AcDbLine
 10
434.07824
 20
39.03744
 30
0.0
 11
435.648131
 21
37.798311
 31
0.0
  0
LINE
  5
57C
100
AcDbEntity
  8
2
370
    25
100
AcDbLine
 10
435.648131
 20
37.798311
 30
0.0
 11
435.936303
 21
39.777442
 31
0.0
  0
LINE
  5
57D
100
AcDbEntity
  8
2
370
    25
100
AcDbLine
 10
435.936303
 20
39.777442
 30
0.0
 11
435.007271
 21
39.407441
 31
0.0
  0
LWPOLYLINE
  5
57E
100
AcDbEntity
  8
2
370
    18
100
AcDbPolyline
 90
        2
 70
     0
 10
476.477071
 20
34.377612
 10
490.680912
 20
-7.899726
  0
LINE
  5
582
100
AcDbEntity
  8
2
370
    25
100
AcDbLine
 10
476.293199
 20
34.924901
 30
0.0
 11
475.345268
 21
34.606426
 31
0.0
  0
LINE
  5
583
100
AcDbEntity
  8
2
370
    25
100
AcDbLine
 10
475.345268
 20
34.606426
 30
0.0
 11
476.844814
 21
33.283036
 31
0.0
  0
LINE
  5
584
100
AcDbEntity
  8
2
370
    25
100
AcDbLine
 10
476.844814
 20
33.283036
 30
0.0
 11
477.241131
 21
35.243376
 31
0.0
  0
LINE
  5
585
100
AcDbEntity
  8
2
370
    25
100
AcDbLine
 10
477.241131
 20
35.243376
 30
0.0
 11
476.293199
 21
34.924901
 31
0.0
  0
CIRCLE
  5
586
100
AcDbEntity
  8
2
370
    18
100
AcDbCircle
 10
492.267597
 20
-12.596046
 30
0.0
 40
5.0
  0
TEXT
  5
587
100
AcDbEntity
  8
2
370
    18
100
AcDbText
 10
489.767597
 20
-15.096046
 30
0.0
 40
5.0
  1
1
 72
     5
 11
493.767597
 21
-15.096046
 31
0.0
100
AcDbText
  0
TEXT
  5
588
100
AcDbEntity
  8
2
370
    18
100
AcDbText
 10
218.342695
 20
-15.080379
 30
0.0
 40
5.0
  1
2
 72
     5
 11
222.342695
 21
-15.080379
 31
0.0
100
AcDbText
  0
TEXT
  5
589
100
AcDbEntity
  8
2
370
    18
100
AcDbText
 10
172.187422
 20
-15.108631
 30
0.0
 40
5.0
  1
3
 72
     5
 11
176.187422
 21
-15.108631
 31
0.0
100
AcDbText
  0
DIMENSION
  5
58A
100
AcDbEntity
  8
2
370
    25
100
AcDbDimension
  2
*D41
 10
294.094176
 20
92.348598
 30
0.0
 11
278.594176
 21
96.348598
 31
0.0
 71
     0
 72
     0
 41
0.0
 42
0.0
  3
Standard
100
AcDbAlignedDimension
 13
269.094176
 23
78.182254
 33
0.0
 14
294.094176
 24
78.182254
 34
0.0
100
AcDbRotatedDimension
  0
DIMENSION
  5
58B
100
AcDbEntity
  8
2
370
    25
100
AcDbDimension
  2
*D42
 10
288.344176
 20
-7.326696
 30
0.0
 11
300.344176
 21
-3.326696
 31
0.0
 71
     0
 72
     0
 41
0.0
 42
0.0
  3
Standard
100
AcDbAlignedDimension
 13
274.844176
 23
36.216086
 33
0.0
 14
288.344176
 24
36.216086
 34
0.0
100
AcDbRotatedDimension
  0
TEXT
  5
58C
100
AcDbEntity
  8
2
370
    18
100
AcDbText
 10
266.594176
 20
105.126016
 30
0.0
 40
6.0
  1
２８～４０
 72
     5
 11
295.394176
 21
105.126016
 31
0.0
100
AcDbText
  0
DIMENSION
  5
58D
100
AcDbEntity
  8
2
370
    25
100
AcDbDimension
  2
*D43
 10
301.594176
 20
104.126016
 30
0.0
 11
281.594176
 21
106.126016
 31
0.0
 71
     0
 72
     0
 41
0.0
 42
0.0
  3
Standard
100
AcDbAlignedDimension
 13
261.594176
 23
104.126016
 33
0.0
 14
301.594176
 24
64.182254
 34
0.0
100
AcDbRotatedDimension
  0
DIMENSION
  5
58E
100
AcDbEntity
  8
2
370
    25
100
AcDbDimension
  2
*D44
 10
261.594176
 20
104.126016
 30
0.0
 11
241.844176
 21
108.126016
 31
0.0
 71
     0
 72
     0
 41
0.0
 42
0.0
  3
Standard
100
AcDbAlignedDimension
 13
234.094176
 23
38.882254
 33
0.0
 14
261.594176
 24
64.182254
 34
0.0
100
AcDbRotatedDimension
  0
DIMENSION
  5
58F
100
AcDbEntity
  8
2
370
    25
100
AcDbDimension
  2
*D45
 10
309.594176
 20
104.126016
 30
0.0
 11
317.094176
 21
108.126016
 31
0.0
 71
     0
 72
     0
 41
0.0
 42
0.0
  3
Standard
100
AcDbAlignedDimension
 13
301.594176
 23
104.126016
 33
0.0
 14
309.594176
 24
62.742803
 34
0.0
100
AcDbRotatedDimension
  0
DIMENSION
  5
590
100
AcDbEntity
  8
2
370
    25
100
AcDbDimension
  2
*D46
 10
261.594176
 20
92.348598
 30
0.0
 11
253.594176
 21
96.348598
 31
0.0
 71
     0
 72
     0
 41
0.0
 42
0.0
  3
Standard
100
AcDbAlignedDimension
 13
251.594176
 23
62.731005
 33
0.0
 14
261.594176
 24
92.348598
 34
0.0
100
AcDbRotatedDimension
  0
DIMENSION
  5
591
100
AcDbEntity
  8
2
370
    25
100
AcDbDimension
  2
*D47
 10
215.072006
 20
64.182254
 30
0.0
 11
209.572006
 21
40.182254
 31
0.0
 71
     0
 72
     0
 41
0.0
 42
0.0
  3
Standard
100
AcDbAlignedDimension
 13
261.594176
 23
22.182254
 33
0.0
 14
261.594176
 24
64.182254
 34
0.0
 50
90.0
100
AcDbRotatedDimension
  0
DIMENSION
  5
592
100
AcDbEntity
  8
2
370
    25
100
AcDbDimension
  2
*D48
 10
329.280945
 20
64.182254
 30
0.0
 11
323.780945
 21
40.182254
 31
0.0
 71
     0
 72
     0
 41
0.0
 42
0.0
  3
Standard
100
AcDbAlignedDimension
 13
301.594176
 23
22.182254
 33
0.0
 14
301.594176
 24
64.182254
 34
0.0
 50
90.0
100
AcDbRotatedDimension
  0
DIMENSION
  5
593
100
AcDbEntity
  8
2
370
    25
100
AcDbDimension
  2
*D49
 10
112.341614
 20
43.182254
 30
0.0
 11
106.841614
 21
55.182254
 31
0.0
 71
     0
 72
     0
 41
0.0
 42
0.0
  3
Standard
100
AcDbAlignedDimension
 13
127.319598
 23
41.882254
 33
0.0
 14
112.341614
 24
43.182254
 34
0.0
 50
90.0
100
AcDbRotatedDimension
  0
DIMENSION
  5
594
100
AcDbEntity
  8
2
370
    25
100
AcDbDimension
  2
*D50
 10
102.835663
 20
43.182254
 30
0.0
 11
97.335663
 21
55.182254
 31
0.0
 71
     0
 72
     0
 41
0.0
 42
0.0
  3
Standard
100
AcDbAlignedDimension
 13
137.119029
 23
38.882254
 33
0.0
 14
120.319598
 24
43.182254
 34
0.0
 50
90.0
100
AcDbRotatedDimension
  0
DIMENSION
  5
595
100
AcDbEntity
  8
2
370
    25
100
AcDbDimension
  2
*D51
 10
225.023666
 20
52.882254
 30
0.0
 11
221.023666
 21
38.882254
 31
0.0
 71
     0
 72
     0
 41
0.0
 42
0.0
  3
Standard
100
AcDbAlignedDimension
 13
251.094176
 23
24.882254
 33
0.0
 14
251.094176
 24
52.882254
 34
0.0
 50
90.0
100
AcDbRotatedDimension
  0
TEXT
  5
596
100
AcDbEntity
  8
2
370
    18
100
AcDbText
 10
446.987857
 20
116.03499
 30
0.0
 40
6.0
  1
76
 72
     5
 11
457.787857
 21
116.03499
 31
0.0
100
AcDbText
  0
TEXT
  5
597
100
AcDbEntity
  8
2
370
    18
100
AcDbText
 10
422.487857
 20
105.126016
 30
0.0
 40
6.0
  1
B.S.51
 72
     5
 11
457.287857
 21
105.126016
 31
0.0
100
AcDbText
  0
DIMENSION
  5
598
100
AcDbEntity
  8
2
370
    25
100
AcDbDimension
  2
*D52
 10
513.604858
 20
54.882254
 30
0.0
 11
497.604858
 21
3.482254
 31
0.0
 71
     0
 72
     0
 41
0.0
 42
0.0
  3
Standard
100
AcDbAlignedDimension
 13
485.913303
 23
31.482254
 33
0.0
 14
485.913303
 24
54.882254
 34
0.0
 50
90.0
100
AcDbRotatedDimension
  0
POINT
  5
599
100
AcDbEntity
  8
2
370
    50
100
AcDbPoint
 10
506.477942
 20
88.181683
 30
0.0
  0
POINT
  5
59A
100
AcDbEntity
  8
2
370
    50
100
AcDbPoint
 10
469.113706
 20
52.437605
 30
0.0
  0
LWPOLYLINE
  5
59B
100
AcDbEntity
  8
2
370
    18
100
AcDbPolyline
 90
        3
 70
     0
 10
469.113706
 20
52.437605
 10
506.477942
 20
88.181683
 10
586.738281
 20
88.181683
  0
LINE
  5
5A0
100
AcDbEntity
  8
2
370
    25
100
AcDbLine
 10
471.189965
 20
55.856545
 30
0.0
 11
469.113706
 21
52.437605
 31
0.0
  0
LINE
  5
5A1
100
AcDbEntity
  8
2
370
    25
100
AcDbLine
 10
469.113706
 20
52.437605
 30
0.0
 11
472.621269
 21
54.360364
 31
0.0
  0
TEXT
  5
5A2
100
AcDbEntity
  8
2
370
    18
100
AcDbText
 10
509.090414
 20
89.671543
 30
0.0
 40
6.0
  1
表示窓，内締錠の時は無し。
 72
     5
 11
585.890414
 21
89.671543
 31
0.0
100
AcDbText
  0
DIMENSION
  5
5A3
100
AcDbEntity
  8
2
370
    25
100
AcDbDimension
  2
*D53
 10
419.187857
 20
92.348598
 30
0.0
 11
431.687857
 21
96.348598
 31
0.0
 71
     0
 72
     0
 41
0.0
 42
0.0
  3
Standard
100
AcDbAlignedDimension
 13
414.987857
 23
78.182254
 33
0.0
 14
419.187857
 24
77.882254
 34
0.0
100
AcDbRotatedDimension
  0
CIRCLE
  5
5A4
100
AcDbEntity
  8
2
370
    25
100
AcDbCircle
 10
774.599409
 20
115.157796
 30
0.0
 40
5.0
  0
CIRCLE
  5
5A5
100
AcDbEntity
  8
2
370
    25
100
AcDbCircle
 10
664.599409
 20
115.157796
 30
0.0
 40
5.0
  0
CIRCLE
  5
5A6
100
AcDbEntity
  8
2
370
    25
100
AcDbCircle
 10
644.599409
 20
115.157796
 30
0.0
 40
5.0
  0
LWPOLYLINE
  5
5A7
100
AcDbEntity
  8
2
370
    25
100
AcDbPolyline
 90
        2
 70
     0
 10
747.506393
 20
66.092507
 10
772.386034
 20
110.674385
  0
LINE
  5
5AB
100
AcDbEntity
  8
2
370
    25
100
AcDbLine
 10
747.225041
 20
65.58835
 30
0.0
 11
748.098266
 21
65.101033
 31
0.0
  0
LINE
  5
5AC
100
AcDbEntity
  8
2
370
    25
100
AcDbLine
 10
748.098266
 20
65.101033
 30
0.0
 11
748.069099
 21
67.10082
 31
0.0
  0
LINE
  5
5AD
100
AcDbEntity
  8
2
370
    25
100
AcDbLine
 10
748.069099
 20
67.10082
 30
0.0
 11
746.351816
 21
66.075668
 31
0.0
  0
LINE
  5
5AE
100
AcDbEntity
  8
2
370
    25
100
AcDbLine
 10
746.351816
 20
66.075668
 30
0.0
 11
747.225041
 21
65.58835
 31
0.0
  0
LWPOLYLINE
  5
5AF
100
AcDbEntity
  8
2
370
    25
100
AcDbPolyline
 90
        2
 70
     0
 10
650.594864
 20
70.511929
 10
645.505058
 20
110.2405
  0
LINE
  5
5B3
100
AcDbEntity
  8
2
370
    25
100
AcDbLine
 10
650.668231
 20
69.939259
 30
0.0
 11
651.660124
 21
70.066335
 31
0.0
  0
LINE
  5
5B4
100
AcDbEntity
  8
2
370
    25
100
AcDbLine
 10
651.660124
 20
70.066335
 30
0.0
 11
650.448129
 21
71.657268
 31
0.0
  0
LINE
  5
5B5
100
AcDbEntity
  8
2
370
    25
100
AcDbLine
 10
650.448129
 20
71.657268
 30
0.0
 11
649.676338
 21
69.812183
 31
0.0
  0
LINE
  5
5B6
100
AcDbEntity
  8
2
370
    25
100
AcDbLine
 10
649.676338
 20
69.812183
 30
0.0
 11
650.668231
 21
69.939259
 31
0.0
  0
LWPOLYLINE
  5
5B7
100
AcDbEntity
  8
2
370
    25
100
AcDbPolyline
 90
        2
 70
     0
 10
656.592651
 20
53.465683
 10
663.992129
 20
110.194812
  0
LINE
  5
5BB
100
AcDbEntity
  8
2
370
    25
100
AcDbLine
 10
656.517977
 20
52.893183
 30
0.0
 11
657.509577
 21
52.763843
 31
0.0
  0
LINE
  5
5BC
100
AcDbEntity
  8
2
370
    25
100
AcDbLine
 10
657.509577
 20
52.763843
 30
0.0
 11
656.742
 21
54.610685
 31
0.0
  0
LINE
  5
5BD
100
AcDbEntity
  8
2
370
    25
100
AcDbLine
 10
656.742
 20
54.610685
 30
0.0
 11
655.526377
 21
53.022522
 31
0.0
  0
LINE
  5
5BE
100
AcDbEntity
  8
2
370
    25
100
AcDbLine
 10
655.526377
 20
53.022522
 30
0.0
 11
656.517977
 21
52.893183
 31
0.0
  0
DIMENSION
  5
5BF
100
AcDbEntity
  8
2
370
    25
100
AcDbDimension
  2
*D54
 10
714.300964
 20
58.182254
 30
0.0
 11
710.300964
 21
43.182254
 31
0.0
 71
     0
 72
     0
 41
0.0
 42
0.0
  3
Standard
100
AcDbAlignedDimension
 13
731.901505
 23
28.182254
 33
0.0
 14
731.901505
 24
58.182254
 34
0.0
 50
90.0
100
AcDbRotatedDimension
  0
DIMENSION
  5
5C0
100
AcDbEntity
  8
2
370
    25
100
AcDbDimension
  2
*D55
 10
748.401505
 20
49.20013
 30
0.0
 11
736.401505
 21
53.20013
 31
0.0
 71
     0
 72
     0
 41
0.0
 42
0.0
  3
Standard
100
AcDbAlignedDimension
 13
730.401505
 23
50.440654
 33
0.0
 14
748.401505
 24
50.440654
 34
0.0
100
AcDbRotatedDimension
  0
DIMENSION
  5
5C1
100
AcDbEntity
  8
2
370
    25
100
AcDbDimension
  2
*D56
 10
751.901505
 20
93.238096
 30
0.0
 11
736.401505
 21
97.238096
 31
0.0
 71
     0
 72
     0
 41
0.0
 42
0.0
  3
Standard
100
AcDbAlignedDimension
 13
726.901505
 23
74.682254
 33
0.0
 14
751.901505
 24
74.682254
 34
0.0
100
AcDbRotatedDimension
  0
DIMENSION
  5
5C2
100
AcDbEntity
  8
2
370
    25
100
AcDbDimension
  2
*D57
 10
694.676361
 20
80.682254
 30
0.0
 11
690.676361
 21
43.182254
 31
0.0
 71
     0
 72
     0
 41
0.0
 42
0.0
  3
Standard
100
AcDbAlignedDimension
 13
732.901505
 23
5.682254
 33
0.0
 14
732.901505
 24
80.682254
 34
0.0
 50
90.0
100
AcDbRotatedDimension
  0
DIMENSION
  5
5C3
100
AcDbEntity
  8
2
370
    25
100
AcDbDimension
  2
*D58
 10
704.565155
 20
70.682254
 30
0.0
 11
700.565155
 21
43.182254
 31
0.0
 71
     0
 72
     0
 41
0.0
 42
0.0
  3
Standard
100
AcDbAlignedDimension
 13
731.968193
 23
15.682254
 33
0.0
 14
731.968193
 24
70.682254
 34
0.0
 50
90.0
100
AcDbRotatedDimension
  0
DIMENSION
  5
5C4
100
AcDbEntity
  8
2
370
    25
100
AcDbDimension
  2
*D59
 10
631.174545
 20
78.182254
 30
0.0
 11
624.174545
 21
43.182254
 31
0.0
 71
     0
 72
     0
 41
0.0
 42
0.0
  3
Standard
100
AcDbAlignedDimension
 13
663.263065
 23
8.182254
 33
0.0
 14
663.263065
 24
78.182254
 34
0.0
 50
90.0
100
AcDbRotatedDimension
  0
DIMENSION
  5
5C5
100
AcDbEntity
  8
2
370
    25
100
AcDbDimension
  2
*D60
 10
639.698669
 20
58.682254
 30
0.0
 11
632.698669
 21
43.182254
 31
0.0
 71
     0
 72
     0
 41
0.0
 42
0.0
  3
Standard
100
AcDbAlignedDimension
 13
649.063065
 23
27.682254
 33
0.0
 14
649.063065
 24
58.682254
 34
0.0
 50
90.0
100
AcDbRotatedDimension
  0
DIMENSION
  5
5C6
100
AcDbEntity
  8
2
370
    25
100
AcDbDimension
  2
*D61
 10
664.563065
 20
-14.963701
 30
0.0
 11
656.563065
 21
-10.963701
 31
0.0
 71
     0
 72
     0
 41
0.0
 42
0.0
  3
Standard
100
AcDbAlignedDimension
 13
648.563065
 23
28.182254
 33
0.0
 14
664.563065
 24
5.682254
 34
0.0
100
AcDbRotatedDimension
  0
DIMENSION
  5
5C7
100
AcDbEntity
  8
2
370
    25
100
AcDbDimension
  2
*D62
 10
750.401502
 20
-50.883127
 30
0.0
 11
739.401502
 21
-46.883127
 31
0.0
 71
     0
 72
     0
 41
0.0
 42
0.0
  3
Standard
100
AcDbAlignedDimension
 13
728.401502
 23
-33.110789
 33
0.0
 14
750.401502
 24
-33.110789
 34
0.0
100
AcDbRotatedDimension
  0
DIMENSION
  5
5C8
100
AcDbEntity
  8
2
370
    25
100
AcDbDimension
  2
*D63
 10
664.563065
 20
-4.832533
 30
0.0
 11
681.563065
 21
-0.832533
 31
0.0
 71
     0
 72
     0
 41
0.0
 42
0.0
  3
Standard
100
AcDbAlignedDimension
 13
663.163065
 23
8.182254
 33
0.0
 14
664.563065
 24
5.682254
 34
0.0
100
AcDbRotatedDimension
  0
TEXT
  5
5C9
100
AcDbEntity
  8
2
370
    18
100
AcDbText
 10
453.320705
 20
-15.222149
 30
0.0
 40
5.0
  1
４
 72
     5
 11
457.320705
 21
-15.222149
 31
0.0
100
AcDbText
  0
TEXT
  5
5CA
100
AcDbEntity
  8
2
370
    18
100
AcDbText
 10
389.179747
 20
-15.431213
 30
0.0
 40
5.0
  1
５
 72
     5
 11
393.179747
 21
-15.431213
 31
0.0
100
AcDbText
  0
TEXT
  5
5CB
100
AcDbEntity
  8
2
370
    18
100
AcDbText
 10
420.51383
 20
-15.135383
 30
0.0
 40
5.0
  1
６
 72
     5
 11
424.51383
 21
-15.135383
 31
0.0
100
AcDbText
  0
TEXT
  5
5CC
100
AcDbEntity
  8
2
370
    18
100
AcDbText
 10
642.099409
 20
112.657796
 30
0.0
 40
5.0
  1
９
 72
     5
 11
646.099409
 21
112.657796
 31
0.0
100
AcDbText
  0
TEXT
  5
5CD
100
AcDbEntity
  8
2
370
    18
100
AcDbText
 10
662.099409
 20
112.657796
 30
0.0
 40
5.0
  1
８
 72
     5
 11
666.099409
 21
112.657796
 31
0.0
100
AcDbText
  0
TEXT
  5
5CE
100
AcDbEntity
  8
2
370
    18
100
AcDbText
 10
772.099409
 20
112.657796
 30
0.0
 40
5.0
  1
７
 72
     5
 11
776.099409
 21
112.657796
 31
0.0
100
AcDbText
  0
TEXT
  5
5CF
100
AcDbEntity
  8
2
370
    25
100
AcDbText
 10
474.928642
 20
-69.152557
 30
0.0
 40
7.0
  1
※本図は、Ｓ４を表わす。
 72
     5
 11
557.528642
 21
-69.152557
 31
0.0
100
AcDbText
  0
LINE
  5
5D0
100
AcDbEntity
  8
3
370
   100
100
AcDbLine
 10
-810.0
 20
276.0
 30
0.0
 11
-810.0
 21
-276.0
 31
0.0
  0
LINE
  5
5D1
100
AcDbEntity
  8
3
370
   100
100
AcDbLine
 10
-30.0
 20
276.0
 30
0.0
 11
-30.0
 21
-276.0
 31
0.0
  0
LINE
  5
5D2
100
AcDbEntity
  8
3
370
   100
100
AcDbLine
 10
-810.0
 20
276.0
 30
0.0
 11
-30.0
 21
276.0
 31
0.0
  0
LINE
  5
5D3
100
AcDbEntity
  8
3
370
   100
100
AcDbLine
 10
-810.0
 20
-276.0
 30
0.0
 11
-30.0
 21
-276.0
 31
0.0
  0
LINE
  5
5D4
100
AcDbEntity
  8
3
370
    50
100
AcDbLine
 10
-810.0
 20
-216.0
 30
0.0
 11
-30.0
 21
-216.0
 31
0.0
  0
LINE
  5
5D5
100
AcDbEntity
  8
3
370
    25
100
AcDbLine
 10
-410.0
 20
-225.999897
 30
0.0
 11
-213.998946
 21
-225.999729
 31
0.0
  0
LINE
  5
5D6
100
AcDbEntity
  8
3
370
   100
100
AcDbLine
 10
-810.6
 20
276.6
 30
0.0
 11
-29.4
 21
276.6
 31
0.0
  0
LINE
  5
5D7
100
AcDbEntity
  8
3
370
   100
100
AcDbLine
 10
-29.4
 20
276.6
 30
0.0
 11
-29.4
 21
-276.6
 31
0.0
  0
LINE
  5
5D8
100
AcDbEntity
  8
3
370
   100
100
AcDbLine
 10
-29.4
 20
-276.6
 30
0.0
 11
-810.6
 21
-276.6
 31
0.0
  0
LINE
  5
5D9
100
AcDbEntity
  8
3
370
   100
100
AcDbLine
 10
-810.6
 20
-276.6
 30
0.0
 11
-810.6
 21
276.6
 31
0.0
  0
LINE
  5
5DA
100
AcDbEntity
  8
3
370
    25
100
AcDbLine
 10
-213.998946
 20
-225.999729
 30
0.0
 11
-213.998946
 21
-216.0
 31
0.0
  0
LINE
  5
5DB
100
AcDbEntity
  8
3
370
    25
100
AcDbLine
 10
-250.0
 20
-259.999729
 30
0.0
 11
-213.998946
 21
-259.999729
 31
0.0
  0
LINE
  5
5DC
100
AcDbEntity
  8
3
370
    25
100
AcDbLine
 10
-213.998946
 20
-259.999729
 30
0.0
 11
-213.998946
 21
-250.0
 31
0.0
  0
LINE
  5
5DD
100
AcDbEntity
  8
3
370
    50
100
AcDbLine
 10
-470.0
 20
-202.0
 30
0.0
 11
-30.0
 21
-202.0
 31
0.0
  0
LINE
  5
5DE
100
AcDbEntity
  8
3
370
    50
100
AcDbLine
 10
-250.0
 20
-132.0
 30
0.0
 11
-250.0
 21
-216.0
 31
0.0
  0
LINE
  5
5DF
100
AcDbEntity
  8
3
370
    50
100
AcDbLine
 10
-50.0
 20
-132.0
 30
0.0
 11
-50.0
 21
-216.0
 31
0.0
  0
LINE
  5
5E0
100
AcDbEntity
  8
3
370
    50
100
AcDbLine
 10
-410.0
 20
-216.0
 30
0.0
 11
-410.0
 21
-276.0
 31
0.0
  0
TEXT
  5
5E1
100
AcDbEntity
  8
3
370
   100
100
AcDbText
 10
-386.0
 20
-271.0
 30
0.0
 40
16.0
  1
（株）川口技研
 72
     5
 11
-277.2
 21
-271.0
 31
0.0
100
AcDbText
  0
TEXT
  5
5E2
100
AcDbEntity
  8
3
370
    25
100
AcDbText
 10
-246.399473
 20
-224.59988
 30
0.0
 40
7.2
  1
図面名称
 72
     5
 11
-219.039473
 21
-224.59988
 31
0.0
100
AcDbText
  0
TEXT
  5
5E3
100
AcDbEntity
  8
3
370
    25
100
AcDbText
 10
-246.399473
 20
-258.599849
 30
0.0
 40
7.2
  1
図面番号
 72
     5
 11
-219.039473
 21
-258.599849
 31
0.0
100
AcDbText
  0
TEXT
  5
5E4
100
AcDbEntity
  8
3
370
    25
100
AcDbText
 10
-397.733333
 20
-224.599983
 30
0.0
 40
7.2
  1
図　　法
 72
     5
 11
-370.373333
 21
-224.599983
 31
0.0
100
AcDbText
  0
TEXT
  5
5E5
100
AcDbEntity
  8
3
370
    25
100
AcDbText
 10
-344.4
 20
-224.599949
 30
0.0
 40
7.2
  1
単　　位
 72
     5
 11
-317.04
 21
-224.599949
 31
0.0
100
AcDbText
  0
TEXT
  5
5E6
100
AcDbEntity
  8
3
370
    25
100
AcDbText
 10
-291.066667
 20
-224.599914
 30
0.0
 40
7.2
  1
尺　　度
 72
     5
 11
-263.706667
 21
-224.599914
 31
0.0
100
AcDbText
  0
TEXT
  5
5E7
100
AcDbEntity
  8
3
370
    25
100
AcDbText
 10
-247.2
 20
-212.6
 30
0.0
 40
7.2
  1
品番
 72
     5
 11
-234.24
 21
-212.6
 31
0.0
100
AcDbText
  0
TEXT
  5
5E8
100
AcDbEntity
  8
3
370
    25
100
AcDbText
 10
-195.2
 20
-212.6
 30
0.0
 40
7.2
  1
品　　　　　名
 72
     5
 11
-146.24
 21
-212.6
 31
0.0
100
AcDbText
  0
TEXT
  5
5E9
100
AcDbEntity
  8
3
370
    25
100
AcDbText
 10
-47.2
 20
-212.6
 30
0.0
 40
7.2
  1
員数
 72
     5
 11
-34.24
 21
-212.6
 31
0.0
100
AcDbText
  0
TEXT
  5
5EA
100
AcDbEntity
  8
3
370
    25
100
AcDbText
 10
-338.0
 20
-241.999914
 30
0.0
 40
8.0
  1
ｍｍ
 72
     5
 11
-323.6
 21
-241.999914
 31
0.0
100
AcDbText
  0
LINE
  5
5EB
100
AcDbEntity
  8
3
370
    50
100
AcDbLine
 10
-470.0
 20
-188.0
 30
0.0
 11
-30.0
 21
-188.0
 31
0.0
  0
LINE
  5
5EC
100
AcDbEntity
  8
3
370
    50
100
AcDbLine
 10
-470.0
 20
-174.0
 30
0.0
 11
-30.0
 21
-174.0
 31
0.0
  0
LINE
  5
5ED
100
AcDbEntity
  8
3
370
    50
100
AcDbLine
 10
-470.0
 20
-160.0
 30
0.0
 11
-30.0
 21
-160.0
 31
0.0
  0
LINE
  5
5EE
100
AcDbEntity
  8
3
370
    50
100
AcDbLine
 10
-470.0
 20
-146.0
 30
0.0
 11
-30.0
 21
-146.0
 31
0.0
  0
LINE
  5
5EF
100
AcDbEntity
  8
3
370
    50
100
AcDbLine
 10
-250.0
 20
-132.0
 30
0.0
 11
-30.0
 21
-132.0
 31
0.0
  0
TEXT
  5
5F0
100
AcDbEntity
  8
3
370
    25
100
AcDbText
 10
-244.0
 20
-199.0
 30
0.0
 40
8.0
  1
１
 72
     5
 11
-237.6
 21
-199.0
 31
0.0
100
AcDbText
  0
TEXT
  5
5F1
100
AcDbEntity
  8
3
370
    25
100
AcDbText
 10
-244.0
 20
-185.0
 30
0.0
 40
8.0
  1
２
 72
     5
 11
-237.6
 21
-185.0
 31
0.0
100
AcDbText
  0
TEXT
  5
5F2
100
AcDbEntity
  8
3
370
    25
100
AcDbText
 10
-244.0
 20
-171.0
 30
0.0
 40
8.0
  1
３
 72
     5
 11
-237.6
 21
-171.0
 31
0.0
100
AcDbText
  0
TEXT
  5
5F3
100
AcDbEntity
  8
3
370
    25
100
AcDbText
 10
-244.0
 20
-157.0
 30
0.0
 40
8.0
  1
４
 72
     5
 11
-237.6
 21
-157.0
 31
0.0
100
AcDbText
  0
TEXT
  5
5F4
100
AcDbEntity
  8
3
370
    25
100
AcDbText
 10
-244.0
 20
-143.0
 30
0.0
 40
8.0
  1
５
 72
     5
 11
-237.6
 21
-143.0
 31
0.0
100
AcDbText
  0
LINE
  5
5F5
100
AcDbEntity
  8
3
370
    50
100
AcDbLine
 10
-250.0
 20
-132.0
 30
0.0
 11
-250.0
 21
-216.0
 31
0.0
  0
LINE
  5
5F6
100
AcDbEntity
  8
3
370
    50
100
AcDbLine
 10
-270.0
 20
-132.0
 30
0.0
 11
-270.0
 21
-216.0
 31
0.0
  0
LINE
  5
5F7
100
AcDbEntity
  8
3
370
    50
100
AcDbLine
 10
-330.0
 20
-216.0
 30
0.0
 11
-330.0
 21
-132.0
 31
0.0
  0
TEXT
  5
5F8
100
AcDbEntity
  8
3
370
    25
100
AcDbText
 10
-44.0
 20
-199.0
 30
0.0
 40
8.0
  1
１
 72
     5
 11
-37.6
 21
-199.0
 31
0.0
100
AcDbText
  0
TEXT
  5
5F9
100
AcDbEntity
  8
3
370
    25
100
AcDbText
 10
-44.0
 20
-171.0
 30
0.0
 40
8.0
  1
１
 72
     5
 11
-37.6
 21
-171.0
 31
0.0
100
AcDbText
  0
TEXT
  5
5FA
100
AcDbEntity
  8
3
370
    25
100
AcDbText
 10
-464.0
 20
-199.0
 30
0.0
 40
8.0
  1
６
 72
     5
 11
-457.6
 21
-199.0
 31
0.0
100
AcDbText
  0
TEXT
  5
5FB
100
AcDbEntity
  8
3
370
    25
100
AcDbText
 10
-44.0
 20
-157.0
 30
0.0
 40
8.0
  1
２
 72
     5
 11
-37.6
 21
-157.0
 31
0.0
100
AcDbText
  0
TEXT
  5
5FC
100
AcDbEntity
  8
3
370
    25
100
AcDbText
 10
-288.666667
 20
-241.999914
 30
0.0
 40
8.0
  1
１／２
 72
     5
 11
-266.266667
 21
-241.999914
 31
0.0
100
AcDbText
  0
TEXT
  5
5FD
100
AcDbEntity
  8
3
370
    25
100
AcDbText
 10
-395.333333
 20
-241.999914
 30
0.0
 40
8.0
  1
３角法
 72
     5
 11
-372.933333
 21
-241.999914
 31
0.0
100
AcDbText
  0
TEXT
  5
5FE
100
AcDbEntity
  8
3
370
    25
100
AcDbText
 10
-464.0
 20
-185.0
 30
0.0
 40
8.0
  1
７
 72
     5
 11
-457.6
 21
-185.0
 31
0.0
100
AcDbText
  0
TEXT
  5
5FF
100
AcDbEntity
  8
3
370
    25
100
AcDbText
 10
-464.0
 20
-171.0
 30
0.0
 40
8.0
  1
８
 72
     5
 11
-457.6
 21
-171.0
 31
0.0
100
AcDbText
  0
TEXT
  5
600
100
AcDbEntity
  8
3
370
    25
100
AcDbText
 10
-464.0
 20
-157.0
 30
0.0
 40
8.0
  1
９
 72
     5
 11
-457.6
 21
-157.0
 31
0.0
100
AcDbText
  0
TEXT
  5
601
100
AcDbEntity
  8
3
370
    25
100
AcDbText
 10
-468.0
 20
-143.0
 30
0.0
 40
8.0
  1
１０
 72
     5
 11
-453.6
 21
-143.0
 31
0.0
100
AcDbText
  0
LINE
  5
602
100
AcDbEntity
  8
3
370
    50
100
AcDbLine
 10
-250.0
 20
-276.0
 30
0.0
 11
-250.0
 21
-216.0
 31
0.0
  0
LINE
  5
603
100
AcDbEntity
  8
3
370
    50
100
AcDbLine
 10
-110.0
 20
-216.0
 30
0.0
 11
-110.0
 21
-132.0
 31
0.0
  0
LINE
  5
604
100
AcDbEntity
  8
3
370
    50
100
AcDbLine
 10
-230.0
 20
-216.0
 30
0.0
 11
-230.0
 21
-132.0
 31
0.0
  0
LINE
  5
605
100
AcDbEntity
  8
3
370
    50
100
AcDbLine
 10
-410.0
 20
-250.0
 30
0.0
 11
-250.0
 21
-250.0
 31
0.0
  0
LINE
  5
606
100
AcDbEntity
  8
3
370
    50
100
AcDbLine
 10
-250.0
 20
-250.0
 30
0.0
 11
-30.0
 21
-250.0
 31
0.0
  0
TEXT
  5
607
100
AcDbEntity
  8
3
370
    25
100
AcDbText
 10
-467.2
 20
-212.6
 30
0.0
 40
7.2
  1
品番
 72
     5
 11
-454.24
 21
-212.6
 31
0.0
100
AcDbText
  0
TEXT
  5
608
100
AcDbEntity
  8
3
370
    25
100
AcDbText
 10
-415.2
 20
-212.6
 30
0.0
 40
7.2
  1
品　　　　　名
 72
     5
 11
-366.24
 21
-212.6
 31
0.0
100
AcDbText
  0
TEXT
  5
609
100
AcDbEntity
  8
3
370
    25
100
AcDbText
 10
-267.2
 20
-212.6
 30
0.0
 40
7.2
  1
員数
 72
     5
 11
-254.24
 21
-212.6
 31
0.0
100
AcDbText
  0
LINE
  5
60A
100
AcDbEntity
  8
3
370
    50
100
AcDbLine
 10
-356.666667
 20
-250.0
 30
0.0
 11
-356.666667
 21
-216.0
 31
0.0
  0
LINE
  5
60B
100
AcDbEntity
  8
3
370
    50
100
AcDbLine
 10
-303.333333
 20
-250.0
 30
0.0
 11
-303.333333
 21
-216.0
 31
0.0
  0
TEXT
  5
60C
100
AcDbEntity
  8
3
370
    25
100
AcDbText
 10
-90.8
 20
-212.6
 30
0.0
 40
7.2
  1
寸　法
 72
     5
 11
-70.64
 21
-212.6
 31
0.0
100
AcDbText
  0
TEXT
  5
60D
100
AcDbEntity
  8
3
370
    25
100
AcDbText
 10
-310.8
 20
-212.6
 30
0.0
 40
7.2
  1
寸　法
 72
     5
 11
-290.64
 21
-212.6
 31
0.0
100
AcDbText
  0
TEXT
  5
60E
100
AcDbEntity
  8
3
370
    25
100
AcDbText
 10
-324.698105
 20
-142.974701
 30
0.0
 40
6.4
  1
サラ木ネジ３．５×２２
 41
0.7
 72
     5
 11
-276.314104
 21
-142.974701
 31
0.0
100
AcDbText
  0
TEXT
  5
60F
100
AcDbEntity
  8
3
370
    25
100
AcDbText
 10
-44.0
 20
-185.0
 30
0.0
 40
8.0
  1
１
 72
     5
 11
-37.6
 21
-185.0
 31
0.0
100
AcDbText
  0
TEXT
  5
610
100
AcDbEntity
  8
3
370
    25
100
AcDbText
 10
-44.0
 20
-143.0
 30
0.0
 40
8.0
  1
１
 72
     5
 11
-37.6
 21
-143.0
 31
0.0
100
AcDbText
  0
LINE
  5
611
100
AcDbEntity
  8
3
370
    50
100
AcDbLine
 10
-470.0
 20
-202.0
 30
0.0
 11
-250.0
 21
-202.0
 31
0.0
  0
LINE
  5
612
100
AcDbEntity
  8
3
370
    50
100
AcDbLine
 10
-470.0
 20
-188.0
 30
0.0
 11
-250.0
 21
-188.0
 31
0.0
  0
LINE
  5
613
100
AcDbEntity
  8
3
370
    50
100
AcDbLine
 10
-470.0
 20
-174.0
 30
0.0
 11
-250.0
 21
-174.0
 31
0.0
  0
TEXT
  5
614
100
AcDbEntity
  8
3
370
    25
100
AcDbText
 10
-264.0
 20
-171.0
 30
0.0
 40
8.0
  1
１
 72
     5
 11
-257.6
 21
-171.0
 31
0.0
100
AcDbText
  0
LINE
  5
615
100
AcDbEntity
  8
3
370
    50
100
AcDbLine
 10
-450.0
 20
-216.0
 30
0.0
 11
-450.0
 21
-132.0
 31
0.0
  0
LINE
  5
616
100
AcDbEntity
  8
3
370
    50
100
AcDbLine
 10
-470.0
 20
-132.0
 30
0.0
 11
-470.0
 21
-216.0
 31
0.0
  0
LINE
  5
617
100
AcDbEntity
  8
3
370
    50
100
AcDbLine
 10
-470.0
 20
-132.0
 30
0.0
 11
-30.0
 21
-132.0
 31
0.0
  0
TEXT
  5
618
100
AcDbEntity
  8
3
370
    50
100
AcDbText
 10
-203.35376
 20
-232.0
 30
0.0
 40
10.0
  1
サムターン錠
 72
     5
 11
-145.35376
 21
-232.0
 31
0.0
100
AcDbText
  0
TEXT
  5
619
100
AcDbEntity
  8
3
370
    50
100
AcDbText
 10
-224.35376
 20
-246.0
 30
0.0
 40
10.0
  1
空錠（両面サムターン錠）　Ｓ１　外観図
 41
0.9
 72
     5
 11
-55.15376
 21
-246.0
 31
0.0
100
AcDbText
  0
TEXT
  5
61A
100
AcDbEntity
  8
3
370
    25
100
AcDbText
 10
-224.698105
 20
-198.974701
 30
0.0
 40
6.4
  1
サムターン座（取付脚側）
 72
     5
 11
-149.178104
 21
-198.974701
 31
0.0
100
AcDbText
  0
TEXT
  5
61B
100
AcDbEntity
  8
3
370
    25
100
AcDbText
 10
-224.698105
 20
-184.974701
 30
0.0
 40
6.4
  1
サムターン座（ネジ側）
 72
     5
 11
-155.578104
 21
-184.974701
 31
0.0
100
AcDbText
  0
TEXT
  5
61C
100
AcDbEntity
  8
3
370
    25
100
AcDbText
 10
-224.698105
 20
-170.974701
 30
0.0
 40
6.4
  1
操作バー
 72
     5
 11
-200.378104
 21
-170.974701
 31
0.0
100
AcDbText
  0
TEXT
  5
61D
100
AcDbEntity
  8
3
370
    25
100
AcDbText
 10
-224.698105
 20
-156.974701
 30
0.0
 40
6.4
  1
座取付ネジ
 72
     5
 11
-193.978104
 21
-156.974701
 31
0.0
100
AcDbText
  0
TEXT
  5
61E
100
AcDbEntity
  8
3
370
    25
100
AcDbText
 10
-224.698105
 20
-142.974701
 30
0.0
 40
6.4
  1
ＢＳ－５１チュ－ブラ本締錠
 72
     5
 11
-142.778104
 21
-142.974701
 31
0.0
100
AcDbText
  0
TEXT
  5
61F
100
AcDbEntity
  8
3
370
    25
100
AcDbText
 10
-444.698105
 20
-198.974701
 30
0.0
 40
6.4
  1
フロントプレ－ト
 72
     5
 11
-394.778104
 21
-198.974701
 31
0.0
100
AcDbText
  0
TEXT
  5
620
100
AcDbEntity
  8
3
370
    25
100
AcDbText
 10
-444.698105
 20
-184.974701
 30
0.0
 40
6.4
  1
錠取付木ネジ
 72
     5
 11
-407.578104
 21
-184.974701
 31
0.0
100
AcDbText
  0
TEXT
  5
621
100
AcDbEntity
  8
3
370
    25
100
AcDbText
 10
-444.698105
 20
-170.974701
 30
0.0
 40
6.4
  1
ストライク（本締錠）
 72
     5
 11
-381.978104
 21
-170.974701
 31
0.0
100
AcDbText
  0
TEXT
  5
622
100
AcDbEntity
  8
3
370
    25
100
AcDbText
 10
-444.698105
 20
-156.974701
 30
0.0
 40
6.4
  1
受　箱
 72
     5
 11
-426.778105
 21
-156.974701
 31
0.0
100
AcDbText
  0
TEXT
  5
623
100
AcDbEntity
  8
3
370
    25
100
AcDbText
 10
-444.698105
 20
-142.974701
 30
0.0
 40
6.4
  1
ストライク取付木ネジ
 72
     5
 11
-381.978104
 21
-142.974701
 31
0.0
100
AcDbText
  0
TEXT
  5
624
100
AcDbEntity
  8
3
370
    25
100
AcDbText
 10
-107.2
 20
-156.6
 30
0.0
 40
7.2
  1
ナベＭ４×３０歯付座金付
 41
0.65
 72
     5
 11
-51.976
 21
-156.6
 31
0.0
100
AcDbText
  0
TEXT
  5
625
100
AcDbEntity
  8
3
370
    25
100
AcDbText
 10
-324.698105
 20
-184.974701
 30
0.0
 40
6.4
  1
サラ木ネジ３．５×２２
 41
0.7
 72
     5
 11
-276.314104
 21
-184.974701
 31
0.0
100
AcDbText
  0
TEXT
  5
626
100
AcDbEntity
  8
3
370
    25
100
AcDbText
 10
-264.0
 20
-143.0
 30
0.0
 40
8.0
  1
２
 72
     5
 11
-257.6
 21
-143.0
 31
0.0
100
AcDbText
  0
TEXT
  5
627
100
AcDbEntity
  8
3
370
    25
100
AcDbText
 10
-264.0
 20
-157.0
 30
0.0
 40
8.0
  1
１
 72
     5
 11
-257.6
 21
-157.0
 31
0.0
100
AcDbText
  0
TEXT
  5
628
100
AcDbEntity
  8
3
370
    25
100
AcDbText
 10
-264.0
 20
-185.0
 30
0.0
 40
8.0
  1
２
 72
     5
 11
-257.6
 21
-185.0
 31
0.0
100
AcDbText
  0
TEXT
  5
629
100
AcDbEntity
  8
3
370
    25
100
AcDbText
 10
-264.0
 20
-199.0
 30
0.0
 40
8.0
  1
１
 72
     5
 11
-257.6
 21
-199.0
 31
0.0
100
AcDbText
  0
TEXT
  5
62A
100
AcDbEntity
  8
3
370
   100
100
AcDbText
 10
-181.157089
 20
-269.090942
 30
0.0
 40
12.0
  1
ＤＺ－２０２９－００
 72
     5
 11
-63.557089
 21
-269.090942
 31
0.0
100
AcDbText
  0
LINE
  5
62B
100
AcDbEntity
  8
3
370
   100
100
AcDbLine
 10
50.0
 20
276.0
 30
0.0
 11
50.0
 21
-276.0
 31
0.0
  0
LINE
  5
62C
100
AcDbEntity
  8
3
370
   100
100
AcDbLine
 10
830.0
 20
276.0
 30
0.0
 11
830.0
 21
-276.0
 31
0.0
  0
LINE
  5
62D
100
AcDbEntity
  8
3
370
   100
100
AcDbLine
 10
50.0
 20
276.0
 30
0.0
 11
830.0
 21
276.0
 31
0.0
  0
LINE
  5
62E
100
AcDbEntity
  8
3
370
   100
100
AcDbLine
 10
50.0
 20
-276.0
 30
0.0
 11
830.0
 21
-276.0
 31
0.0
  0
LINE
  5
62F
100
AcDbEntity
  8
3
370
    50
100
AcDbLine
 10
50.0
 20
-216.0
 30
0.0
 11
830.0
 21
-216.0
 31
0.0
  0
LINE
  5
630
100
AcDbEntity
  8
3
370
    25
100
AcDbLine
 10
450.0
 20
-225.999897
 30
0.0
 11
646.001054
 21
-225.999729
 31
0.0
  0
LINE
  5
631
100
AcDbEntity
  8
3
370
   100
100
AcDbLine
 10
49.4
 20
276.6
 30
0.0
 11
830.6
 21
276.6
 31
0.0
  0
LINE
  5
632
100
AcDbEntity
  8
3
370
   100
100
AcDbLine
 10
830.6
 20
276.6
 30
0.0
 11
830.6
 21
-276.6
 31
0.0
  0
LINE
  5
633
100
AcDbEntity
  8
3
370
   100
100
AcDbLine
 10
830.6
 20
-276.6
 30
0.0
 11
49.4
 21
-276.6
 31
0.0
  0
LINE
  5
634
100
AcDbEntity
  8
3
370
   100
100
AcDbLine
 10
49.4
 20
-276.6
 30
0.0
 11
49.4
 21
276.6
 31
0.0
  0
LINE
  5
635
100
AcDbEntity
  8
3
370
    25
100
AcDbLine
 10
646.001054
 20
-225.999729
 30
0.0
 11
646.001054
 21
-216.0
 31
0.0
  0
LINE
  5
636
100
AcDbEntity
  8
3
370
    25
100
AcDbLine
 10
610.0
 20
-259.999729
 30
0.0
 11
646.001054
 21
-259.999729
 31
0.0
  0
LINE
  5
637
100
AcDbEntity
  8
3
370
    25
100
AcDbLine
 10
646.001054
 20
-259.999729
 30
0.0
 11
646.001054
 21
-250.0
 31
0.0
  0
LINE
  5
638
100
AcDbEntity
  8
3
370
    50
100
AcDbLine
 10
390.0
 20
-202.0
 30
0.0
 11
830.0
 21
-202.0
 31
0.0
  0
LINE
  5
639
100
AcDbEntity
  8
3
370
    50
100
AcDbLine
 10
610.0
 20
-132.0
 30
0.0
 11
610.0
 21
-216.0
 31
0.0
  0
LINE
  5
63A
100
AcDbEntity
  8
3
370
    50
100
AcDbLine
 10
810.0
 20
-132.0
 30
0.0
 11
810.0
 21
-216.0
 31
0.0
  0
LINE
  5
63B
100
AcDbEntity
  8
3
370
    50
100
AcDbLine
 10
450.0
 20
-216.0
 30
0.0
 11
450.0
 21
-276.0
 31
0.0
  0
TEXT
  5
63C
100
AcDbEntity
  8
3
370
   100
100
AcDbText
 10
474.0
 20
-271.0
 30
0.0
 40
16.0
  1
（株）川口技研
 72
     5
 11
582.8
 21
-271.0
 31
0.0
100
AcDbText
  0
TEXT
  5
63D
100
AcDbEntity
  8
3
370
    25
100
AcDbText
 10
613.600527
 20
-224.59988
 30
0.0
 40
7.2
  1
図面名称
 72
     5
 11
640.960527
 21
-224.59988
 31
0.0
100
AcDbText
  0
TEXT
  5
63E
100
AcDbEntity
  8
3
370
    25
100
AcDbText
 10
613.600527
 20
-258.599849
 30
0.0
 40
7.2
  1
図面番号
 72
     5
 11
640.960527
 21
-258.599849
 31
0.0
100
AcDbText
  0
TEXT
  5
63F
100
AcDbEntity
  8
3
370
    25
100
AcDbText
 10
462.266667
 20
-224.599983
 30
0.0
 40
7.2
  1
図　　法
 72
     5
 11
489.626667
 21
-224.599983
 31
0.0
100
AcDbText
  0
TEXT
  5
640
100
AcDbEntity
  8
3
370
    25
100
AcDbText
 10
515.6
 20
-224.599949
 30
0.0
 40
7.2
  1
単　　位
 72
     5
 11
542.96
 21
-224.599949
 31
0.0
100
AcDbText
  0
TEXT
  5
641
100
AcDbEntity
  8
3
370
    25
100
AcDbText
 10
568.933333
 20
-224.599914
 30
0.0
 40
7.2
  1
尺　　度
 72
     5
 11
596.293333
 21
-224.599914
 31
0.0
100
AcDbText
  0
TEXT
  5
642
100
AcDbEntity
  8
3
370
    25
100
AcDbText
 10
612.8
 20
-212.6
 30
0.0
 40
7.2
  1
品番
 72
     5
 11
625.76
 21
-212.6
 31
0.0
100
AcDbText
  0
TEXT
  5
643
100
AcDbEntity
  8
3
370
    25
100
AcDbText
 10
664.8
 20
-212.6
 30
0.0
 40
7.2
  1
品　　　　　名
 72
     5
 11
713.76
 21
-212.6
 31
0.0
100
AcDbText
  0
TEXT
  5
644
100
AcDbEntity
  8
3
370
    25
100
AcDbText
 10
812.8
 20
-212.6
 30
0.0
 40
7.2
  1
員数
 72
     5
 11
825.76
 21
-212.6
 31
0.0
100
AcDbText
  0
TEXT
  5
645
100
AcDbEntity
  8
3
370
    25
100
AcDbText
 10
522.0
 20
-241.999914
 30
0.0
 40
8.0
  1
ｍｍ
 72
     5
 11
536.4
 21
-241.999914
 31
0.0
100
AcDbText
  0
LINE
  5
646
100
AcDbEntity
  8
3
370
    50
100
AcDbLine
 10
390.0
 20
-188.0
 30
0.0
 11
830.0
 21
-188.0
 31
0.0
  0
LINE
  5
647
100
AcDbEntity
  8
3
370
    50
100
AcDbLine
 10
390.0
 20
-174.0
 30
0.0
 11
830.0
 21
-174.0
 31
0.0
  0
LINE
  5
648
100
AcDbEntity
  8
3
370
    50
100
AcDbLine
 10
390.0
 20
-160.0
 30
0.0
 11
830.0
 21
-160.0
 31
0.0
  0
LINE
  5
649
100
AcDbEntity
  8
3
370
    50
100
AcDbLine
 10
390.0
 20
-146.0
 30
0.0
 11
830.0
 21
-146.0
 31
0.0
  0
LINE
  5
64A
100
AcDbEntity
  8
3
370
    50
100
AcDbLine
 10
610.0
 20
-132.0
 30
0.0
 11
830.0
 21
-132.0
 31
0.0
  0
TEXT
  5
64B
100
AcDbEntity
  8
3
370
    25
100
AcDbText
 10
616.0
 20
-199.0
 30
0.0
 40
8.0
  1
１
 72
     5
 11
622.4
 21
-199.0
 31
0.0
100
AcDbText
  0
TEXT
  5
64C
100
AcDbEntity
  8
3
370
    25
100
AcDbText
 10
616.0
 20
-185.0
 30
0.0
 40
8.0
  1
２
 72
     5
 11
622.4
 21
-185.0
 31
0.0
100
AcDbText
  0
TEXT
  5
64D
100
AcDbEntity
  8
3
370
    25
100
AcDbText
 10
616.0
 20
-171.0
 30
0.0
 40
8.0
  1
３
 72
     5
 11
622.4
 21
-171.0
 31
0.0
100
AcDbText
  0
TEXT
  5
64E
100
AcDbEntity
  8
3
370
    25
100
AcDbText
 10
616.0
 20
-157.0
 30
0.0
 40
8.0
  1
４
 72
     5
 11
622.4
 21
-157.0
 31
0.0
100
AcDbText
  0
TEXT
  5
64F
100
AcDbEntity
  8
3
370
    25
100
AcDbText
 10
616.0
 20
-143.0
 30
0.0
 40
8.0
  1
５
 72
     5
 11
622.4
 21
-143.0
 31
0.0
100
AcDbText
  0
LINE
  5
650
100
AcDbEntity
  8
3
370
    50
100
AcDbLine
 10
610.0
 20
-132.0
 30
0.0
 11
610.0
 21
-216.0
 31
0.0
  0
LINE
  5
651
100
AcDbEntity
  8
3
370
    50
100
AcDbLine
 10
590.0
 20
-146.0
 30
0.0
 11
590.0
 21
-216.0
 31
0.0
  0
LINE
  5
652
100
AcDbEntity
  8
3
370
    50
100
AcDbLine
 10
530.0
 20
-216.0
 30
0.0
 11
530.0
 21
-146.0
 31
0.0
  0
TEXT
  5
653
100
AcDbEntity
  8
3
370
    25
100
AcDbText
 10
816.0
 20
-199.0
 30
0.0
 40
8.0
  1
１
 72
     5
 11
822.4
 21
-199.0
 31
0.0
100
AcDbText
  0
TEXT
  5
654
100
AcDbEntity
  8
3
370
    25
100
AcDbText
 10
816.0
 20
-171.0
 30
0.0
 40
8.0
  1
１
 72
     5
 11
822.4
 21
-171.0
 31
0.0
100
AcDbText
  0
TEXT
  5
655
100
AcDbEntity
  8
3
370
    25
100
AcDbText
 10
396.0
 20
-199.0
 30
0.0
 40
8.0
  1
６
 72
     5
 11
402.4
 21
-199.0
 31
0.0
100
AcDbText
  0
TEXT
  5
656
100
AcDbEntity
  8
3
370
    25
100
AcDbText
 10
816.0
 20
-157.0
 30
0.0
 40
8.0
  1
２
 72
     5
 11
822.4
 21
-157.0
 31
0.0
100
AcDbText
  0
TEXT
  5
657
100
AcDbEntity
  8
3
370
    25
100
AcDbText
 10
571.333333
 20
-241.999914
 30
0.0
 40
8.0
  1
１／２
 72
     5
 11
593.733333
 21
-241.999914
 31
0.0
100
AcDbText
  0
TEXT
  5
658
100
AcDbEntity
  8
3
370
    25
100
AcDbText
 10
464.666667
 20
-241.999914
 30
0.0
 40
8.0
  1
３角法
 72
     5
 11
487.066667
 21
-241.999914
 31
0.0
100
AcDbText
  0
TEXT
  5
659
100
AcDbEntity
  8
3
370
    25
100
AcDbText
 10
396.0
 20
-185.0
 30
0.0
 40
8.0
  1
７
 72
     5
 11
402.4
 21
-185.0
 31
0.0
100
AcDbText
  0
TEXT
  5
65A
100
AcDbEntity
  8
3
370
    25
100
AcDbText
 10
396.0
 20
-171.0
 30
0.0
 40
8.0
  1
８
 72
     5
 11
402.4
 21
-171.0
 31
0.0
100
AcDbText
  0
TEXT
  5
65B
100
AcDbEntity
  8
3
370
    25
100
AcDbText
 10
396.0
 20
-157.0
 30
0.0
 40
8.0
  1
９
 72
     5
 11
402.4
 21
-157.0
 31
0.0
100
AcDbText
  0
LINE
  5
65C
100
AcDbEntity
  8
3
370
    50
100
AcDbLine
 10
610.0
 20
-276.0
 30
0.0
 11
610.0
 21
-216.0
 31
0.0
  0
LINE
  5
65D
100
AcDbEntity
  8
3
370
    50
100
AcDbLine
 10
750.0
 20
-216.0
 30
0.0
 11
750.0
 21
-132.0
 31
0.0
  0
LINE
  5
65E
100
AcDbEntity
  8
3
370
    50
100
AcDbLine
 10
630.0
 20
-216.0
 30
0.0
 11
630.0
 21
-132.0
 31
0.0
  0
LINE
  5
65F
100
AcDbEntity
  8
3
370
    50
100
AcDbLine
 10
450.0
 20
-250.0
 30
0.0
 11
610.0
 21
-250.0
 31
0.0
  0
LINE
  5
660
100
AcDbEntity
  8
3
370
    50
100
AcDbLine
 10
610.0
 20
-250.0
 30
0.0
 11
830.0
 21
-250.0
 31
0.0
  0
TEXT
  5
661
100
AcDbEntity
  8
3
370
    25
100
AcDbText
 10
392.8
 20
-212.6
 30
0.0
 40
7.2
  1
品番
 72
     5
 11
405.76
 21
-212.6
 31
0.0
100
AcDbText
  0
TEXT
  5
662
100
AcDbEntity
  8
3
370
    25
100
AcDbText
 10
444.8
 20
-212.6
 30
0.0
 40
7.2
  1
品　　　　　名
 72
     5
 11
493.76
 21
-212.6
 31
0.0
100
AcDbText
  0
TEXT
  5
663
100
AcDbEntity
  8
3
370
    25
100
AcDbText
 10
592.8
 20
-212.6
 30
0.0
 40
7.2
  1
員数
 72
     5
 11
605.76
 21
-212.6
 31
0.0
100
AcDbText
  0
LINE
  5
664
100
AcDbEntity
  8
3
370
    50
100
AcDbLine
 10
503.333333
 20
-250.0
 30
0.0
 11
503.333333
 21
-216.0
 31
0.0
  0
LINE
  5
665
100
AcDbEntity
  8
3
370
    50
100
AcDbLine
 10
556.666667
 20
-250.0
 30
0.0
 11
556.666667
 21
-216.0
 31
0.0
  0
TEXT
  5
666
100
AcDbEntity
  8
3
370
    25
100
AcDbText
 10
769.2
 20
-212.6
 30
0.0
 40
7.2
  1
寸　法
 72
     5
 11
789.36
 21
-212.6
 31
0.0
100
AcDbText
  0
TEXT
  5
667
100
AcDbEntity
  8
3
370
    25
100
AcDbText
 10
549.2
 20
-212.6
 30
0.0
 40
7.2
  1
寸　法
 72
     5
 11
569.36
 21
-212.6
 31
0.0
100
AcDbText
  0
TEXT
  5
668
100
AcDbEntity
  8
3
370
    25
100
AcDbText
 10
535.301895
 20
-156.974701
 30
0.0
 40
6.4
  1
サラ木ネジ３．５×２２
 41
0.7
 72
     5
 11
583.685896
 21
-156.974701
 31
0.0
100
AcDbText
  0
TEXT
  5
669
100
AcDbEntity
  8
3
370
    25
100
AcDbText
 10
816.0
 20
-185.0
 30
0.0
 40
8.0
  1
１
 72
     5
 11
822.4
 21
-185.0
 31
0.0
100
AcDbText
  0
TEXT
  5
66A
100
AcDbEntity
  8
3
370
    25
100
AcDbText
 10
816.0
 20
-143.0
 30
0.0
 40
8.0
  1
１
 72
     5
 11
822.4
 21
-143.0
 31
0.0
100
AcDbText
  0
LINE
  5
66B
100
AcDbEntity
  8
3
370
    50
100
AcDbLine
 10
390.0
 20
-202.0
 30
0.0
 11
610.0
 21
-202.0
 31
0.0
  0
LINE
  5
66C
100
AcDbEntity
  8
3
370
    50
100
AcDbLine
 10
390.0
 20
-188.0
 30
0.0
 11
610.0
 21
-188.0
 31
0.0
  0
LINE
  5
66D
100
AcDbEntity
  8
3
370
    50
100
AcDbLine
 10
390.0
 20
-174.0
 30
0.0
 11
610.0
 21
-174.0
 31
0.0
  0
TEXT
  5
66E
100
AcDbEntity
  8
3
370
    25
100
AcDbText
 10
596.0
 20
-171.0
 30
0.0
 40
8.0
  1
１
 72
     5
 11
602.4
 21
-171.0
 31
0.0
100
AcDbText
  0
LINE
  5
66F
100
AcDbEntity
  8
3
370
    50
100
AcDbLine
 10
410.0
 20
-216.0
 30
0.0
 11
410.0
 21
-146.0
 31
0.0
  0
LINE
  5
670
100
AcDbEntity
  8
3
370
    50
100
AcDbLine
 10
390.0
 20
-146.0
 30
0.0
 11
390.0
 21
-216.0
 31
0.0
  0
LINE
  5
671
100
AcDbEntity
  8
3
370
    50
100
AcDbLine
 10
610.0
 20
-132.0
 30
0.0
 11
830.0
 21
-132.0
 31
0.0
  0
TEXT
  5
672
100
AcDbEntity
  8
3
370
    25
100
AcDbText
 10
752.8
 20
-170.6
 30
0.0
 40
7.2
  1
ナベＭ４×３０歯付座金付
 41
0.65
 72
     5
 11
808.024
 21
-170.6
 31
0.0
100
AcDbText
  0
TEXT
  5
673
100
AcDbEntity
  8
3
370
    25
100
AcDbText
 10
535.301895
 20
-198.974701
 30
0.0
 40
6.4
  1
サラ木ネジ３．５×２２
 41
0.7
 72
     5
 11
583.685896
 21
-198.974701
 31
0.0
100
AcDbText
  0
TEXT
  5
674
100
AcDbEntity
  8
3
370
    25
100
AcDbText
 10
596.0
 20
-157.0
 30
0.0
 40
8.0
  1
１
 72
     5
 11
602.4
 21
-157.0
 31
0.0
100
AcDbText
  0
TEXT
  5
675
100
AcDbEntity
  8
3
370
    25
100
AcDbText
 10
596.0
 20
-185.0
 30
0.0
 40
8.0
  1
２
 72
     5
 11
602.4
 21
-185.0
 31
0.0
100
AcDbText
  0
TEXT
  5
676
100
AcDbEntity
  8
3
370
    25
100
AcDbText
 10
596.0
 20
-199.0
 30
0.0
 40
8.0
  1
１
 72
     5
 11
602.4
 21
-199.0
 31
0.0
100
AcDbText
  0
TEXT
  5
677
100
AcDbEntity
  8
3
370
    25
100
AcDbText
 10
635.301895
 20
-198.974701
 30
0.0
 40
6.4
  1
表示座（内締座）
 72
     5
 11
685.221896
 21
-198.974701
 31
0.0
100
AcDbText
  0
TEXT
  5
678
100
AcDbEntity
  8
3
370
    25
100
AcDbText
 10
635.301895
 20
-184.974701
 30
0.0
 40
6.4
  1
サムタ－ン
 72
     5
 11
666.021896
 21
-184.974701
 31
0.0
100
AcDbText
  0
TEXT
  5
679
100
AcDbEntity
  8
3
370
    25
100
AcDbText
 10
635.301895
 20
-170.974701
 30
0.0
 40
6.4
  1
サムタ－ン取付ネジ
 72
     5
 11
691.621896
 21
-170.974701
 31
0.0
100
AcDbText
  0
TEXT
  5
67A
100
AcDbEntity
  8
3
370
    25
100
AcDbText
 10
635.301895
 20
-156.974701
 30
0.0
 40
6.4
  1
ＢＳ－５１チュ－ブラ本締錠
 72
     5
 11
717.221896
 21
-156.974701
 31
0.0
100
AcDbText
  0
TEXT
  5
67B
100
AcDbEntity
  8
3
370
    25
100
AcDbText
 10
635.301895
 20
-142.974701
 30
0.0
 40
6.4
  1
フロントプレ－ト
 72
     5
 11
685.221896
 21
-142.974701
 31
0.0
100
AcDbText
  0
TEXT
  5
67C
100
AcDbEntity
  8
3
370
    25
100
AcDbText
 10
415.301895
 20
-198.974701
 30
0.0
 40
6.4
  1
錠取付木ネジ
 72
     5
 11
452.421896
 21
-198.974701
 31
0.0
100
AcDbText
  0
TEXT
  5
67D
100
AcDbEntity
  8
3
370
    25
100
AcDbText
 10
415.301895
 20
-184.974701
 30
0.0
 40
6.4
  1
ストライク（本締錠）
 72
     5
 11
478.021896
 21
-184.974701
 31
0.0
100
AcDbText
  0
TEXT
  5
67E
100
AcDbEntity
  8
3
370
    25
100
AcDbText
 10
415.301895
 20
-170.974701
 30
0.0
 40
6.4
  1
受　箱
 72
     5
 11
433.221895
 21
-170.974701
 31
0.0
100
AcDbText
  0
TEXT
  5
67F
100
AcDbEntity
  8
3
370
    25
100
AcDbText
 10
415.301895
 20
-156.974701
 30
0.0
 40
6.4
  1
ストライク取付木ネジ
 72
     5
 11
478.021896
 21
-156.974701
 31
0.0
100
AcDbText
  0
TEXT
  5
680
100
AcDbEntity
  8
3
370
    50
100
AcDbText
 10
660.944916
 20
-240.691589
 30
0.0
 40
10.0
  1
サムタ－ン錠、Ｓ４（３）　外観図
 41
0.9
 72
     5
 11
803.144916
 21
-240.691589
 31
0.0
100
AcDbText
  0
TEXT
  5
681
100
AcDbEntity
  8
3
370
   100
100
AcDbText
 10
678.842911
 20
-269.090942
 30
0.0
 40
12.0
  1
ＤＺ－２０３０－００
 72
     5
 11
796.442911
 21
-269.090942
 31
0.0
100
AcDbText
  0
ENDSEC
  0
SECTION
  2
OBJECTS
  0
DICTIONARY
  5
8F6
100
AcDbDictionary
280
     0
281
     1
  3
ACAD_GROUP
350
8F7
  3
ACAD_MLINESTYLE
350
8F8
  0
DICTIONARY
  5
8F7
102
{ACAD_REACTORS
330
8F6
102
}
100
AcDbDictionary
280
     0
281
     1
  0
DICTIONARY
  5
8F8
102
{ACAD_REACTORS
330
8F6
102
}
100
AcDbDictionary
280
     0
281
     1
  3
Standard
350
8F9
  0
MLINESTYLE
  5
8F9
102
{ACAD_REACTORS
330
8F8
102
}
100
AcDbMlineStyle
  2
Standard
 70
     0
  3

 62
     0
 51
90.0
 52
90.0
 71
     2
 49
0.5
 62
   256
  6
ByLayer
 49
-0.5
 62
   256
  6
ByLayer
  0
ENDSEC
  0
EOF
