  0
SECTION
  2
HEADER
  9
$ACADVER
  1
AC1015
  9
$ACADMAINTVER
 70
     6
  9
$DWGCODEPAGE
  3
ANSI_932
  9
$INSBASE
 10
0.0
 20
0.0
 30
0.0
  9
$EXTMIN
 10
-210.0
 20
-148.5
 30
1.000000E+20
  9
$EXTMAX
 10
210.0
 20
148.5
 30
-1.000000E+20
  9
$LIMMIN
 10
-210.0
 20
-148.5
  9
$LIMMAX
 10
210.0
 20
148.5
  9
$ORTHOMODE
 70
     0
  9
$REGENMODE
 70
     1
  9
$FILLMODE
 70
     1
  9
$QTEXTMODE
 70
     0
  9
$MIRRTEXT
 70
     1
  9
$LTSCALE
 40
1.0
  9
$ATTMODE
 70
     1
  9
$TEXTSIZE
 40
0.2
  9
$TRACEWID
 40
0.05
  9
$TEXTSTYLE
  7
STANDARD
  9
$CLAYER
  8
0
  9
$CELTYPE
  6
CONTINUOUS
  9
$CECOLOR
 62
   256
  9
$CELTSCALE
 40
1.0
  9
$DISPSILH
 70
     0
  9
$DIMSCALE
 40
1.0
  9
$DIMASZ
 40
2.0
  9
$DIMEXO
 40
0.5
  9
$DIMDLI
 40
0.38
  9
$DIMRND
 40
0.0
  9
$DIMDLE
 40
0.0
  9
$DIMEXE
 40
2.0
  9
$DIMTP
 40
0.0
  9
$DIMTM
 40
0.0
  9
$DIMTXT
 40
3.0
  9
$DIMCEN
 40
0.09
  9
$DIMTSZ
 40
0.0
  9
$DIMTOL
 70
     0
  9
$DIMLIM
 70
     0
  9
$DIMTIH
 70
     0
  9
$DIMTOH
 70
     0
  9
$DIMSE1
 70
     0
  9
$DIMSE2
 70
     0
  9
$DIMTAD
 70
     1
  9
$DIMZIN
 70
     0
  9
$DIMBLK
  1

  9
$DIMASO
 70
     1
  9
$DIMSHO
 70
     1
  9
$DIMPOST
  1

  9
$DIMAPOST
  1

  9
$DIMALT
 70
     0
  9
$DIMALTD
 70
     2
  9
$DIMALTF
 40
25.4
  9
$DIMLFAC
 40
1.0
  9
$DIMTOFL
 70
     0
  9
$DIMTVP
 40
0.0
  9
$DIMTIX
 70
     0
  9
$DIMSOXD
 70
     0
  9
$DIMSAH
 70
     0
  9
$DIMBLK1
  1

  9
$DIMBLK2
  1

  9
$DIMSTYLE
  2
Standard
  9
$DIMCLRD
 70
     0
  9
$DIMCLRE
 70
     0
  9
$DIMCLRT
 70
     0
  9
$DIMTFAC
 40
1.0
  9
$DIMGAP
 40
0.5
  9
$DIMJUST
 70
     0
  9
$DIMSD1
 70
     0
  9
$DIMSD2
 70
     0
  9
$DIMTOLJ
 70
     1
  9
$DIMTZIN
 70
     0
  9
$DIMALTZ
 70
     0
  9
$DIMALTTZ
 70
     0
  9
$DIMUPT
 70
     0
  9
$DIMDEC
 70
     2
  9
$DIMTDEC
 70
     4
  9
$DIMALTU
 70
     2
  9
$DIMALTTD
 70
     2
  9
$DIMTXSTY
  7
STANDARD
  9
$DIMAUNIT
 70
     0
  9
$DIMADEC
 70
     2
  9
$DIMALTRND
 40
0.0
  9
$DIMAZIN
 70
     0
  9
$DIMDSEP
 70
     0
  9
$DIMATFIT
 70
     3
  9
$DIMFRAC
 70
     0
  9
$DIMLDRBLK
  1

  9
$DIMLUNIT
 70
     2
  9
$DIMLWD
 70
     0
  9
$DIMLWE
 70
     0
  9
$DIMTMOVE
 70
     0
  9
$LUNITS
 70
     2
  9
$LUPREC
 70
     4
  9
$SKETCHINC
 40
0.1
  9
$FILLETRAD
 40
0.0
  9
$AUNITS
 70
     0
  9
$AUPREC
 70
     0
  9
$MENU
  1
acad
  9
$ELEVATION
 40
0.0
  9
$PELEVATION
 40
0.0
  9
$THICKNESS
 40
0.0
  9
$LIMCHECK
 70
     0
  9
$CHAMFERA
 40
0.0
  9
$CHAMFERB
 40
0.0
  9
$CHAMFERC
 40
0.0
  9
$CHAMFERD
 40
0.0
  9
$SKPOLY
 70
     0
  9
$TDCREATE
 40
2448436.000000000
  9
$TDUCREATE
 40
0.000000000
  9
$TDUPDATE
 40
0.000000000
  9
$TDUUPDATE
 40
2447892.625000000
  9
$TDINDWG
 40
0.0000000000
  9
$TDUSRTIMER
 40
0.0000000000
  9
$USRTIMER
 70
     1
  9
$ANGBASE
 50
0.0
  9
$ANGDIR
 70
     0
  9
$PDMODE
 70
     0
  9
$PDSIZE
 40
0.0
  9
$PLINEWID
 40
0.0
  9
$SPLFRAME
 70
     0
  9
$SPLINETYPE
 70
     6
  9
$SPLINESEGS
 70
     8
  9
$HANDSEED
  5
406
  9
$SURFTAB1
 70
     6
  9
$SURFTAB2
 70
     6
  9
$SURFTYPE
 70
     6
  9
$SURFU
 70
     6
  9
$SURFV
 70
     6
  9
$UCSBASE
  2

  9
$UCSNAME
  2

  9
$UCSORG
 10
0.0
 20
0.0
 30
0.0
  9
$UCSXDIR
 10
1.0
 20
0.0
 30
0.0
  9
$UCSYDIR
 10
0.0
 20
1.0
 30
0.0
  9
$UCSORTHOREF
  2

  9
$UCSORTHOVIEW
 70
     0
  9
$UCSORGTOP
 10
0.0
 20
0.0
 30
0.0
  9
$UCSORGBOTTOM
 10
0.0
 20
0.0
 30
0.0
  9
$UCSORGLEFT
 10
0.0
 20
0.0
 30
0.0
  9
$UCSORGRIGHT
 10
0.0
 20
0.0
 30
0.0
  9
$UCSORGFRONT
 10
0.0
 20
0.0
 30
0.0
  9
$UCSORGBACK
 10
0.0
 20
0.0
 30
0.0
  9
$PUCSBASE
  2

  9
$PUCSNAME
  2

  9
$PUCSORG
 10
0.0
 20
0.0
 30
0.0
  9
$PUCSXDIR
 10
1.0
 20
0.0
 30
0.0
  9
$PUCSYDIR
 10
0.0
 20
1.0
 30
0.0
  9
$PUCSORTHOREF
  2

  9
$PUCSORTHOVIEW
 70
     0
  9
$PUCSORGTOP
 10
0.0
 20
0.0
 30
0.0
  9
$PUCSORGBOTTOM
 10
0.0
 20
0.0
 30
0.0
  9
$PUCSORGLEFT
 10
0.0
 20
0.0
 30
0.0
  9
$PUCSORGRIGHT
 10
0.0
 20
0.0
 30
0.0
  9
$PUCSORGFRONT
 10
0.0
 20
0.0
 30
0.0
  9
$PUCSORGBACK
 10
0.0
 20
0.0
 30
0.0
  9
$USERI1
 70
     0
  9
$USERI2
 70
     0
  9
$USERI3
 70
     0
  9
$USERI4
 70
     0
  9
$USERI5
 70
     0
  9
$USERR1
 40
0.0
  9
$USERR2
 40
0.0
  9
$USERR3
 40
0.0
  9
$USERR4
 40
0.0
  9
$USERR5
 40
0.0
  9
$WORLDVIEW
 70
     1
  9
$SHADEDGE
 70
     3
  9
$SHADEDIF
 70
    70
  9
$TILEMODE
 70
     1
  9
$MAXACTVP
 70
    16
  9
$PINSBASE
 10
0.0
 20
0.0
 30
0.0
  9
$PLIMCHECK
 70
     0
  9
$PEXTMIN
 10
1.000000E+20
 20
1.000000E+20
 30
1.000000E+20
  9
$PEXTMAX
 10
-1.000000E+20
 20
-1.000000E+20
 30
-1.000000E+20
  9
$PLIMMIN
 10
0.0
 20
0.0
  9
$PLIMMAX
 10
12.0
 20
9.0
  9
$UNITMODE
 70
     0
  9
$VISRETAIN
 70
     0
  9
$PLINEGEN
 70
     1
  9
$PSLTSCALE
 70
     0
  9
$TREEDEPTH
 70
  3020
  9
$CMLSTYLE
  2
Standard
  9
$CMLJUST
 70
     0
  9
$CMLSCALE
 40
1.0
  9
$PROXYGRAPHICS
 70
     0
  9
$MEASUREMENT
 70
     0
  9
$CELWEIGHT
370
     0
  9
$ENDCAPS
280
     0
  9
$JOINSTYLE
280
     0
  9
$LWDISPLAY
290
     0
  9
$INSUNITS
 70
     0
  9
$HYPERLINKBASE
  1

  9
$STYLESHEET
  1

  9
$XEDIT
290
     1
  9
$CEPSNTYPE
380
     0
  9
$PSTYLEMODE
290
     1
  9
$FINGERPRINTGUID
  2

  9
$VERSIONGUID
  2

  9
$EXTNAMES
290
     1
  9
$PSVPSCALE
 40
0.0
  0
ENDSEC
  0
SECTION
  2
CLASSES
  0
CLASS
  1
LWPOLYLINE
  2
AcDbPolyline
  3
AutoCAD 2000
 90
        0
280
     0
281
     1
  0
CLASS
  1
IMAGE
  2
AcDbRasterImage
  3
ISM
 90
      127
280
     0
281
     1
  0
CLASS
  1
OLE2FRAME
  2
AcDbOle2Frame
  3
AutoCAD 2000
 90
        0
280
     0
281
     1
  0
CLASS
  1
HATCH
  2
AcDbHatch
  3
AutoCAD 2000
 90
        0
280
     0
281
     1
  0
CLASS
  1
DICTIONARYVAR
  2
AcDbDictionaryVar
  3
AutoCAD 2000
 90
        0
280
     0
281
     0
  0
CLASS
  1
RASTERVARIABLES
  2
AcDbRasterVariables
  3
ISM
 90
        0
280
     0
281
     0
  0
CLASS
  1
IMAGEDEF
  2
AcDbRasterImageDef
  3
ISM
 90
        0
280
     0
281
     0
  0
CLASS
  1
IMAGEDEF_REACTOR
  2
AcDbRasterImageDefReactor
  3
ISM
 90
        1
280
     0
281
     0
  0
CLASS
  1
IDBUFFER
  2
AcDbIdBuffer
  3
AutoCAD 2000
 90
        0
280
     0
281
     0
  0
CLASS
  1
SPATIAL_FILTER
  2
AcDbSpatialFilter
  3
AutoCAD 2000
 90
        0
280
     0
281
     0
  0
CLASS
  1
XRECORD
  2
AcDbXrecord
  3
AutoCAD 2000
 90
        0
280
     0
281
     0
  0
CLASS
  1
SORTENTSTABLE
  2
AcDbSortentsTable
  3
AutoCAD 2000
 90
        0
280
     0
281
     0
  0
CLASS
  1
LAYER_INDEX
  2
AcDbLayerIndex
  3
AutoCAD 2000
 90
        0
280
     0
281
     0
  0
CLASS
  1
SPATIAL_INDEX
  2
AcDbSpatialIndex
  3
AutoCAD 2000
 90
        0
280
     0
281
     0
  0
CLASS
  1
OBJECT_PTR
  2
CAseDLPNTableRecord
  3
"ASE-LPNTableRecord"
 90
        1
280
     0
281
     0
  0
CLASS
  1
LAYOUT
  2
AcDbLayout
  3
AutoCAD 2000
 90
        0
280
     0
281
     0
  0
CLASS
  1
PLOTSETTINGS
  2
AcDbPlotSettings
  3
AutoCAD 2000
 90
        0
280
     0
281
     0
  0
CLASS
  1
ACDBDICTIONARYWDFLT
  2
AcDbDictionaryWithDefault
  3
AutoCAD 2000
 90
        0
280
     0
281
     0
  0
CLASS
  1
ACDBPLACEHOLDER
  2
AcDbPlaceHolder
  3
AutoCAD 2000
 90
        0
280
     0
281
     0
  0
CLASS
  1
VBA_PROJECT
  2
AcDbVbaProject
  3
acadvba
 90
        0
280
     0
281
     0
  0
CLASS
  1
WIPEOUT
  2
AcDbWipeout
  3
WipeOut|AutoCAD Express Tool|expresstools@autodesk.com
 90
      127
280
     0
281
     1
  0
CLASS
  1
WIPEOUTVARIABLES
  2
AcDbWipeoutVariables
  3
WipeOut|AutoCAD Express Tool|expresstools@autodesk.com
 90
        0
280
     0
281
     0
  0
CLASS
  1
RTEXT
  2
RText
  3
RText|AutoCAD Express Tool|expresstools@autodesk.com
 90
        0
280
     0
281
     1
  0
CLASS
  1
ARCALIGNEDTEXT
  2
AcDbArcAlignedText
  3
ATEXT|AutoCAD Express Tool|expresstools@autodesk.com
 90
        0
280
     0
281
     1
  0
ENDSEC
  0
SECTION
  2
TABLES
  0
TABLE
  2
VPORT
  5
6
100
AcDbSymbolTable
 70
     1
  0
VPORT
  5
1A
100
AcDbSymbolTableRecord
100
AcDbViewportTableRecord
  2
*ACTIVE
 70
     0
 10
0.0
 20
0.0
 11
1.0
 21
1.0
 12
0.0
 22
0.0
 13
0.0
 23
0.0
 14
1.0
 24
1.0
 15
0.0
 25
0.0
 16
0.0
 26
0.0
 36
1.0
 17
0.0
 27
0.0
 37
0.0
 40
297.0
 41
1.414141
 42
50.0
 43
0.0
 44
0.0
 50
0.0
 51
0.0
 71
     0
 72
   500
 73
     1
 74
     1
 75
     0
 76
     0
 77
     0
 78
     0
281
     0
 65
     0
110
0.0
120
0.0
130
0.0
111
1.0
121
0.0
131
0.0
112
0.0
122
1.0
132
0.0
345
0
346
0
 79
     0
146
0.0
  0
ENDTAB
  0
TABLE
  2
LTYPE
  5
3
100
AcDbSymbolTable
 70
     9
  0
LTYPE
  5
C
100
AcDbSymbolTableRecord
100
AcDbLinetypeTableRecord
  2
ByBlock
 70
    64
  3

 72
    65
 73
     0
 40
0.0
  0
LTYPE
  5
D
100
AcDbSymbolTableRecord
100
AcDbLinetypeTableRecord
  2
ByLayer
 70
    64
  3

 72
    65
 73
     0
 40
0.0
  0
LTYPE
  5
E
100
AcDbSymbolTableRecord
100
AcDbLinetypeTableRecord
  2
CONTINUOUS
 70
     0
  3
Solid line
 72
    65
 73
     0
 40
0.0
  0
LTYPE
  5
F
100
AcDbSymbolTableRecord
100
AcDbLinetypeTableRecord
  2
DASHED
 70
     0
  3
__ __ __ __ __ __ __ __ __ __ __ __ __ __ __
 72
    65
 73
     2
 40
2.0
 49
1.2
 74
     0
 49
-0.8
 74
     0
  0
LTYPE
  5
10
100
AcDbSymbolTableRecord
100
AcDbLinetypeTableRecord
  2
CENTER
 70
     0
  3
____ _ ____ _ ____ _ ____ _ ____ _ ____ _ ____
 72
    65
 73
     4
 40
12.0
 49
9.0
 74
     0
 49
-1.0
 74
     0
 49
1.0
 74
     0
 49
-1.0
 74
     0
  0
LTYPE
  5
11
100
AcDbSymbolTableRecord
100
AcDbLinetypeTableRecord
  2
HIDDEN
 70
     0
  3
_ _ _ _ _ _ _ _ _ _ _ _ _ _ _ _ _ _ _ _ _ _ _
 72
    65
 73
     2
 40
3.2
 49
1.3
 74
     0
 49
-1.9
 74
     0
  0
LTYPE
  5
12
100
AcDbSymbolTableRecord
100
AcDbLinetypeTableRecord
  2
PHANTOM
 70
     0
  3
_____ _ _ _____ _ _ _____ _ _ _____ _ _ _____
 72
    65
 73
     6
 40
12.5
 49
9.0
 74
     0
 49
-1.0
 74
     0
 49
0.5
 74
     0
 49
-0.5
 74
     0
 49
0.5
 74
     0
 49
-1.0
 74
     0
  0
LTYPE
  5
13
100
AcDbSymbolTableRecord
100
AcDbLinetypeTableRecord
  2
DOT
 70
     0
  3
...............................................
 72
    65
 73
     2
 40
1.0
 49
0.5
 74
     0
 49
-0.5
 74
     0
  0
LTYPE
  5
14
100
AcDbSymbolTableRecord
100
AcDbLinetypeTableRecord
  2
DASHDOT
 70
     0
  3
__ . __ . __ . __ . __ . __ . __ . __ . __ . __
 72
    65
 73
     4
 40
8.0
 49
5.0
 74
     0
 49
-1.0
 74
     0
 49
1.0
 74
     0
 49
-1.0
 74
     0
  0
ENDTAB
  0
TABLE
  2
LAYER
  5
1
100
AcDbSymbolTable
 70
     5
  0
LAYER
  5
15
100
AcDbSymbolTableRecord
100
AcDbLayerTableRecord
  2
0
 70
     0
 62
     8
  6
CONTINUOUS
290
     1
370
    -3
390
0
  0
LAYER
  5
16
100
AcDbSymbolTableRecord
100
AcDbLayerTableRecord
  2
1
 70
     0
 62
     2
  6
CONTINUOUS
290
     1
370
    -3
390
0
  0
LAYER
  5
17
100
AcDbSymbolTableRecord
100
AcDbLayerTableRecord
  2
2
 70
     0
 62
     3
  6
CONTINUOUS
290
     1
370
    -3
390
0
  0
LAYER
  5
18
100
AcDbSymbolTableRecord
100
AcDbLayerTableRecord
  2
3
 70
     0
 62
     4
  6
CONTINUOUS
290
     1
370
    -3
390
0
  0
LAYER
  5
19
100
AcDbSymbolTableRecord
100
AcDbLayerTableRecord
  2
4
 70
     0
 62
     1
  6
CONTINUOUS
290
     1
370
    -3
390
0
  0
ENDTAB
  0
TABLE
  2
STYLE
  5
2
100
AcDbSymbolTable
 70
     1
  0
STYLE
  5
1C
100
AcDbSymbolTableRecord
100
AcDbTextStyleTableRecord
  2
STANDARD
 70
    64
 40
0.0
 41
1.0
 50
0.0
 71
     0
 42
1.0
  3
txt
  4
BIGFONT
  0
ENDTAB
  0
TABLE
  2
VIEW
  5
4
100
AcDbSymbolTable
 70
     0
  0
ENDTAB
  0
TABLE
  2
UCS
  5
5
100
AcDbSymbolTable
 70
     0
  0
ENDTAB
  0
TABLE
  2
APPID
  5
7
100
AcDbSymbolTable
 70
     1
  0
APPID
  5
1B
100
AcDbSymbolTableRecord
100
AcDbRegAppTableRecord
  2
ACAD
 70
     0
  0
ENDTAB
  0
TABLE
  2
DIMSTYLE
  5
8
100
AcDbSymbolTable
 70
     1
100
AcDbDimStyleTable
 71
     0
  0
DIMSTYLE
105
41
100
AcDbSymbolTableRecord
100
AcDbDimStyleTableRecord
  2
Standard
 70
     0
  3

  4

 40
1.0
 41
2.0
 42
0.5
 43
0.38
 44
2.0
 45
0.0
 46
0.0
 47
0.0
 48
0.0
 71
     0
 72
     0
 73
     0
 74
     0
 75
     0
 76
     0
 77
     1
 78
     0
 79
     0
140
3.0
141
0.09
142
0.0
143
25.4
144
1.0
145
0.0
146
1.0
147
0.5
148
0.0
170
     0
171
     2
172
     0
173
     0
174
     0
175
     0
176
     0
177
     0
178
     0
179
     0
271
     2
272
     4
273
     2
274
     2
275
     0
276
     0
277
     2
278
    46
279
     0
280
     0
281
     0
282
     0
283
     1
284
     0
285
     0
286
     0
288
     0
289
     3
340
1C
341
0
342
0
343
0
344
0
371
    -2
372
    -2
  0
ENDTAB
  0
TABLE
  2
BLOCK_RECORD
  5
3C
100
AcDbSymbolTable
 70
    29
  0
BLOCK_RECORD
  5
3A
100
AcDbSymbolTableRecord
100
AcDbBlockTableRecord
  2
*Model_Space
340
0
  0
BLOCK_RECORD
  5
3B
100
AcDbSymbolTableRecord
100
AcDbBlockTableRecord
  2
*Paper_Space
340
0
  0
BLOCK_RECORD
  5
1D
100
AcDbSymbolTableRecord
100
AcDbBlockTableRecord
  2
*D0
340
0
  0
BLOCK_RECORD
  5
1E
100
AcDbSymbolTableRecord
100
AcDbBlockTableRecord
  2
*D1
340
0
  0
BLOCK_RECORD
  5
1F
100
AcDbSymbolTableRecord
100
AcDbBlockTableRecord
  2
*D2
340
0
  0
BLOCK_RECORD
  5
20
100
AcDbSymbolTableRecord
100
AcDbBlockTableRecord
  2
*D3
340
0
  0
BLOCK_RECORD
  5
21
100
AcDbSymbolTableRecord
100
AcDbBlockTableRecord
  2
*D4
340
0
  0
BLOCK_RECORD
  5
22
100
AcDbSymbolTableRecord
100
AcDbBlockTableRecord
  2
*D5
340
0
  0
BLOCK_RECORD
  5
23
100
AcDbSymbolTableRecord
100
AcDbBlockTableRecord
  2
*D6
340
0
  0
BLOCK_RECORD
  5
24
100
AcDbSymbolTableRecord
100
AcDbBlockTableRecord
  2
*D7
340
0
  0
BLOCK_RECORD
  5
25
100
AcDbSymbolTableRecord
100
AcDbBlockTableRecord
  2
*D8
340
0
  0
BLOCK_RECORD
  5
26
100
AcDbSymbolTableRecord
100
AcDbBlockTableRecord
  2
*D9
340
0
  0
BLOCK_RECORD
  5
27
100
AcDbSymbolTableRecord
100
AcDbBlockTableRecord
  2
*D10
340
0
  0
BLOCK_RECORD
  5
28
100
AcDbSymbolTableRecord
100
AcDbBlockTableRecord
  2
*D11
340
0
  0
BLOCK_RECORD
  5
29
100
AcDbSymbolTableRecord
100
AcDbBlockTableRecord
  2
*D12
340
0
  0
BLOCK_RECORD
  5
2A
100
AcDbSymbolTableRecord
100
AcDbBlockTableRecord
  2
*D13
340
0
  0
BLOCK_RECORD
  5
2B
100
AcDbSymbolTableRecord
100
AcDbBlockTableRecord
  2
*D14
340
0
  0
BLOCK_RECORD
  5
2C
100
AcDbSymbolTableRecord
100
AcDbBlockTableRecord
  2
*D15
340
0
  0
BLOCK_RECORD
  5
2D
100
AcDbSymbolTableRecord
100
AcDbBlockTableRecord
  2
*D16
340
0
  0
BLOCK_RECORD
  5
2E
100
AcDbSymbolTableRecord
100
AcDbBlockTableRecord
  2
*D17
340
0
  0
BLOCK_RECORD
  5
2F
100
AcDbSymbolTableRecord
100
AcDbBlockTableRecord
  2
*D18
340
0
  0
BLOCK_RECORD
  5
30
100
AcDbSymbolTableRecord
100
AcDbBlockTableRecord
  2
*D19
340
0
  0
BLOCK_RECORD
  5
31
100
AcDbSymbolTableRecord
100
AcDbBlockTableRecord
  2
*D20
340
0
  0
BLOCK_RECORD
  5
32
100
AcDbSymbolTableRecord
100
AcDbBlockTableRecord
  2
*D21
340
0
  0
BLOCK_RECORD
  5
33
100
AcDbSymbolTableRecord
100
AcDbBlockTableRecord
  2
*D22
340
0
  0
BLOCK_RECORD
  5
34
100
AcDbSymbolTableRecord
100
AcDbBlockTableRecord
  2
*D23
340
0
  0
BLOCK_RECORD
  5
35
100
AcDbSymbolTableRecord
100
AcDbBlockTableRecord
  2
*D24
340
0
  0
BLOCK_RECORD
  5
36
100
AcDbSymbolTableRecord
100
AcDbBlockTableRecord
  2
*D25
340
0
  0
BLOCK_RECORD
  5
37
100
AcDbSymbolTableRecord
100
AcDbBlockTableRecord
  2
*D26
340
0
  0
BLOCK_RECORD
  5
38
100
AcDbSymbolTableRecord
100
AcDbBlockTableRecord
  2
*D27
340
0
  0
BLOCK_RECORD
  5
39
100
AcDbSymbolTableRecord
100
AcDbBlockTableRecord
  2
*D28
340
0
  0
ENDTAB
  0
ENDSEC
  0
SECTION
  2
BLOCKS
  0
BLOCK
  5
3D
100
AcDbEntity
  8
0
390
0
100
AcDbBlockBegin
  2
*Model_Space
 70
     0
 10
0.0
 20
0.0
 30
0.0
  3
*Model_Space
  1

  0
ENDBLK
  5
3E
100
AcDbEntity
  8
0
390
0
100
AcDbBlockEnd
  0
BLOCK
  5
3F
100
AcDbEntity
 67
     1
  8
0
390
0
100
AcDbBlockBegin
  2
*Paper_Space
 70
     0
 10
0.0
 20
0.0
 30
0.0
  3
*Paper_Space
  1

  0
ENDBLK
  5
40
100
AcDbEntity
 67
     1
  8
0
390
0
100
AcDbBlockEnd
  0
BLOCK
  5
2ED
100
AcDbEntity
  8
2
100
AcDbBlockBegin
  2
*D0
 70
     1
 10
0.0
 20
0.0
 30
0.0
  3
*D0
  1

  0
TEXT
  5
2EE
100
AcDbEntity
  8
2
370
    18
100
AcDbText
 10
-95.243363
 20
49.943916
 30
0.0
 40
3.0
  1
27
 50
90.0
 72
     5
 11
-95.243363
 21
55.343916
 31
0.0
100
AcDbText
  0
LINE
  5
2EF
100
AcDbEntity
  8
2
370
    25
100
AcDbLine
 10
-107.894107
 20
39.443916
 30
0.0
 11
-93.743363
 21
39.443916
 31
0.0
  0
LINE
  5
2F0
100
AcDbEntity
  8
2
370
    25
100
AcDbLine
 10
-94.743363
 20
39.443916
 30
0.0
 11
-94.225725
 21
41.375768
 31
0.0
  0
LINE
  5
2F1
100
AcDbEntity
  8
2
370
    25
100
AcDbLine
 10
-94.743363
 20
39.443916
 30
0.0
 11
-95.261001
 21
41.375768
 31
0.0
  0
LINE
  5
2F2
100
AcDbEntity
  8
2
370
    25
100
AcDbLine
 10
-94.743363
 20
39.443916
 30
0.0
 11
-94.743363
 21
66.443916
 31
0.0
  0
LINE
  5
2F3
100
AcDbEntity
  8
2
370
    25
100
AcDbLine
 10
-94.743363
 20
66.443916
 30
0.0
 11
-95.261001
 21
64.512064
 31
0.0
  0
LINE
  5
2F4
100
AcDbEntity
  8
2
370
    25
100
AcDbLine
 10
-94.743363
 20
66.443916
 30
0.0
 11
-94.225725
 21
64.512064
 31
0.0
  0
LINE
  5
2F5
100
AcDbEntity
  8
2
370
    25
100
AcDbLine
 10
-107.894107
 20
66.443916
 30
0.0
 11
-93.743363
 21
66.443916
 31
0.0
  0
ENDBLK
  5
2F6
100
AcDbEntity
  8
2
100
AcDbBlockEnd
  0
BLOCK
  5
2F7
100
AcDbEntity
  8
2
100
AcDbBlockBegin
  2
*D1
 70
     1
 10
0.0
 20
0.0
 30
0.0
  3
*D1
  1

  0
TEXT
  5
2F8
100
AcDbEntity
  8
2
370
    18
100
AcDbText
 10
-90.292145
 20
49.943916
 30
0.0
 40
3.0
  1
50
 50
90.0
 72
     5
 11
-90.292145
 21
55.343916
 31
0.0
100
AcDbText
  0
LINE
  5
2F9
100
AcDbEntity
  8
2
370
    25
100
AcDbLine
 10
-99.526852
 20
27.943916
 30
0.0
 11
-88.792145
 21
27.943916
 31
0.0
  0
LINE
  5
2FA
100
AcDbEntity
  8
2
370
    25
100
AcDbLine
 10
-89.792145
 20
27.943916
 30
0.0
 11
-89.274507
 21
29.875768
 31
0.0
  0
LINE
  5
2FB
100
AcDbEntity
  8
2
370
    25
100
AcDbLine
 10
-89.792145
 20
27.943916
 30
0.0
 11
-90.309783
 21
29.875768
 31
0.0
  0
LINE
  5
2FC
100
AcDbEntity
  8
2
370
    25
100
AcDbLine
 10
-89.792145
 20
27.943916
 30
0.0
 11
-89.792145
 21
77.943916
 31
0.0
  0
LINE
  5
2FD
100
AcDbEntity
  8
2
370
    25
100
AcDbLine
 10
-89.792145
 20
77.943916
 30
0.0
 11
-90.309783
 21
76.012064
 31
0.0
  0
LINE
  5
2FE
100
AcDbEntity
  8
2
370
    25
100
AcDbLine
 10
-89.792145
 20
77.943916
 30
0.0
 11
-89.274507
 21
76.012064
 31
0.0
  0
LINE
  5
2FF
100
AcDbEntity
  8
2
370
    25
100
AcDbLine
 10
-99.526852
 20
77.943916
 30
0.0
 11
-88.792145
 21
77.943916
 31
0.0
  0
ENDBLK
  5
300
100
AcDbEntity
  8
2
100
AcDbBlockEnd
  0
BLOCK
  5
301
100
AcDbEntity
  8
2
100
AcDbBlockBegin
  2
*D2
 70
     1
 10
0.0
 20
0.0
 30
0.0
  3
*D2
  1

  0
TEXT
  5
302
100
AcDbEntity
  8
2
370
    18
100
AcDbText
 10
-126.144107
 20
5.945101
 30
0.0
 40
3.0
  1
37.5
 72
     5
 11
-114.744107
 21
5.945101
 31
0.0
100
AcDbText
  0
LINE
  5
303
100
AcDbEntity
  8
2
370
    25
100
AcDbLine
 10
-138.894107
 20
24.443916
 30
0.0
 11
-138.894107
 21
4.445101
 31
0.0
  0
LINE
  5
304
100
AcDbEntity
  8
2
370
    25
100
AcDbLine
 10
-138.894107
 20
5.445101
 30
0.0
 11
-136.962256
 21
4.927463
 31
0.0
  0
LINE
  5
305
100
AcDbEntity
  8
2
370
    25
100
AcDbLine
 10
-138.894107
 20
5.445101
 30
0.0
 11
-136.962256
 21
5.962739
 31
0.0
  0
LINE
  5
306
100
AcDbEntity
  8
2
370
    25
100
AcDbLine
 10
-138.894107
 20
5.445101
 30
0.0
 11
-101.394107
 21
5.445101
 31
0.0
  0
LINE
  5
307
100
AcDbEntity
  8
2
370
    25
100
AcDbLine
 10
-101.394107
 20
5.445101
 30
0.0
 11
-103.325959
 21
5.962739
 31
0.0
  0
LINE
  5
308
100
AcDbEntity
  8
2
370
    25
100
AcDbLine
 10
-101.394107
 20
5.445101
 30
0.0
 11
-103.325959
 21
4.927463
 31
0.0
  0
LINE
  5
309
100
AcDbEntity
  8
2
370
    25
100
AcDbLine
 10
-101.394107
 20
19.443916
 30
0.0
 11
-101.394107
 21
4.445101
 31
0.0
  0
ENDBLK
  5
30A
100
AcDbEntity
  8
2
100
AcDbBlockEnd
  0
BLOCK
  5
30B
100
AcDbEntity
  8
2
100
AcDbBlockBegin
  2
*D3
 70
     1
 10
0.0
 20
0.0
 30
0.0
  3
*D3
  1

  0
TEXT
  5
30C
100
AcDbEntity
  8
2
370
    18
100
AcDbText
 10
-129.394107
 20
13.632204
 30
0.0
 40
3.0
  1
25
 72
     5
 11
-123.994107
 21
13.632204
 31
0.0
100
AcDbText
  0
LINE
  5
30D
100
AcDbEntity
  8
2
370
    25
100
AcDbLine
 10
-138.894107
 20
13.132204
 30
0.0
 11
-136.962256
 21
12.614566
 31
0.0
  0
LINE
  5
30E
100
AcDbEntity
  8
2
370
    25
100
AcDbLine
 10
-138.894107
 20
13.132204
 30
0.0
 11
-136.962256
 21
13.649842
 31
0.0
  0
LINE
  5
30F
100
AcDbEntity
  8
2
370
    25
100
AcDbLine
 10
-138.894107
 20
13.132204
 30
0.0
 11
-113.894107
 21
13.132204
 31
0.0
  0
LINE
  5
310
100
AcDbEntity
  8
2
370
    25
100
AcDbLine
 10
-113.894107
 20
13.132204
 30
0.0
 11
-115.825959
 21
13.649842
 31
0.0
  0
LINE
  5
311
100
AcDbEntity
  8
2
370
    25
100
AcDbLine
 10
-113.894107
 20
13.132204
 30
0.0
 11
-115.825959
 21
12.614566
 31
0.0
  0
LINE
  5
312
100
AcDbEntity
  8
2
370
    25
100
AcDbLine
 10
-113.894107
 20
17.328291
 30
0.0
 11
-113.894107
 21
12.132204
 31
0.0
  0
ENDBLK
  5
313
100
AcDbEntity
  8
2
100
AcDbBlockEnd
  0
BLOCK
  5
314
100
AcDbEntity
  8
2
100
AcDbBlockBegin
  2
*D4
 70
     1
 10
0.0
 20
0.0
 30
0.0
  3
*D4
  1

  0
TEXT
  5
315
100
AcDbEntity
  8
2
370
    18
100
AcDbText
 10
-149.347534
 20
49.943916
 30
0.0
 40
3.0
  1
66
 50
90.0
 72
     5
 11
-149.347534
 21
55.343916
 31
0.0
100
AcDbText
  0
LINE
  5
316
100
AcDbEntity
  8
2
370
    25
100
AcDbLine
 10
-134.394107
 20
19.943916
 30
0.0
 11
-149.847534
 21
19.943916
 31
0.0
  0
LINE
  5
317
100
AcDbEntity
  8
2
370
    25
100
AcDbLine
 10
-148.847534
 20
19.943916
 30
0.0
 11
-148.329896
 21
21.875768
 31
0.0
  0
LINE
  5
318
100
AcDbEntity
  8
2
370
    25
100
AcDbLine
 10
-148.847534
 20
19.943916
 30
0.0
 11
-149.365172
 21
21.875768
 31
0.0
  0
LINE
  5
319
100
AcDbEntity
  8
2
370
    25
100
AcDbLine
 10
-148.847534
 20
19.943916
 30
0.0
 11
-148.847534
 21
85.943916
 31
0.0
  0
LINE
  5
31A
100
AcDbEntity
  8
2
370
    25
100
AcDbLine
 10
-148.847534
 20
85.943916
 30
0.0
 11
-149.365172
 21
84.012064
 31
0.0
  0
LINE
  5
31B
100
AcDbEntity
  8
2
370
    25
100
AcDbLine
 10
-148.847534
 20
85.943916
 30
0.0
 11
-148.329896
 21
84.012064
 31
0.0
  0
LINE
  5
31C
100
AcDbEntity
  8
2
370
    25
100
AcDbLine
 10
-134.394107
 20
85.943916
 30
0.0
 11
-149.847534
 21
85.943916
 31
0.0
  0
ENDBLK
  5
31D
100
AcDbEntity
  8
2
100
AcDbBlockEnd
  0
BLOCK
  5
31E
100
AcDbEntity
  8
2
100
AcDbBlockBegin
  2
*D5
 70
     1
 10
0.0
 20
0.0
 30
0.0
  3
*D5
  1

  0
TEXT
  5
31F
100
AcDbEntity
  8
2
370
    18
100
AcDbText
 10
-110.255112
 20
103.136474
 30
0.0
 40
3.0
  1
2
 72
     5
 11
-107.855112
 21
103.136474
 31
0.0
100
AcDbText
  0
LINE
  5
320
100
AcDbEntity
  8
2
370
    25
100
AcDbLine
 10
-120.894107
 20
102.718085
 30
0.0
 11
-106.894107
 21
102.718085
 31
0.0
  0
LINE
  5
321
100
AcDbEntity
  8
2
370
    25
100
AcDbLine
 10
-118.894107
 20
102.718085
 30
0.0
 11
-116.962256
 21
102.200447
 31
0.0
  0
LINE
  5
322
100
AcDbEntity
  8
2
370
    25
100
AcDbLine
 10
-118.894107
 20
102.718085
 30
0.0
 11
-116.962256
 21
103.235723
 31
0.0
  0
LINE
  5
323
100
AcDbEntity
  8
2
370
    25
100
AcDbLine
 10
-118.894107
 20
66.943916
 30
0.0
 11
-118.894107
 21
103.718085
 31
0.0
  0
CIRCLE
  5
324
100
AcDbEntity
  8
2
370
    25
100
AcDbCircle
 10
-120.894107
 20
102.718085
 30
0.0
 40
0.5
  0
CIRCLE
  5
325
100
AcDbEntity
  8
2
370
    25
100
AcDbCircle
 10
-120.894107
 20
102.718085
 30
0.0
 40
0.3
  0
ENDBLK
  5
326
100
AcDbEntity
  8
2
100
AcDbBlockEnd
  0
BLOCK
  5
327
100
AcDbEntity
  8
2
100
AcDbBlockBegin
  2
*D6
 70
     1
 10
0.0
 20
0.0
 30
0.0
  3
*D6
  1

  0
TEXT
  5
328
100
AcDbEntity
  8
2
370
    18
100
AcDbText
 10
-129.894107
 20
103.218085
 30
0.0
 40
3.0
  1
3
 72
     5
 11
-127.494107
 21
103.218085
 31
0.0
100
AcDbText
  0
LINE
  5
329
100
AcDbEntity
  8
2
370
    25
100
AcDbLine
 10
-123.894107
 20
66.943916
 30
0.0
 11
-123.894107
 21
103.718085
 31
0.0
  0
LINE
  5
32A
100
AcDbEntity
  8
2
370
    25
100
AcDbLine
 10
-123.894107
 20
102.718085
 30
0.0
 11
-125.825959
 21
103.235723
 31
0.0
  0
LINE
  5
32B
100
AcDbEntity
  8
2
370
    25
100
AcDbLine
 10
-123.894107
 20
102.718085
 30
0.0
 11
-125.825959
 21
102.200447
 31
0.0
  0
LINE
  5
32C
100
AcDbEntity
  8
2
370
    25
100
AcDbLine
 10
-135.894107
 20
102.718085
 30
0.0
 11
-120.894107
 21
102.718085
 31
0.0
  0
CIRCLE
  5
32D
100
AcDbEntity
  8
2
370
    25
100
AcDbCircle
 10
-120.894107
 20
102.718085
 30
0.0
 40
0.5
  0
CIRCLE
  5
32E
100
AcDbEntity
  8
2
370
    25
100
AcDbCircle
 10
-120.894107
 20
102.718085
 30
0.0
 40
0.3
  0
ENDBLK
  5
32F
100
AcDbEntity
  8
2
100
AcDbBlockEnd
  0
BLOCK
  5
330
100
AcDbEntity
  8
2
100
AcDbBlockBegin
  2
*D7
 70
     1
 10
0.0
 20
0.0
 30
0.0
  3
*D7
  1

  0
TEXT
  5
331
100
AcDbEntity
  8
2
370
    18
100
AcDbText
 10
-113.644107
 20
13.632204
 30
0.0
 40
3.0
  1
12.5
 72
     5
 11
-102.244107
 21
13.632204
 31
0.0
100
AcDbText
  0
LINE
  5
332
100
AcDbEntity
  8
2
370
    25
100
AcDbLine
 10
-113.894107
 20
13.132204
 30
0.0
 11
-111.962256
 21
12.614566
 31
0.0
  0
LINE
  5
333
100
AcDbEntity
  8
2
370
    25
100
AcDbLine
 10
-113.894107
 20
13.132204
 30
0.0
 11
-111.962256
 21
13.649842
 31
0.0
  0
LINE
  5
334
100
AcDbEntity
  8
2
370
    25
100
AcDbLine
 10
-113.894107
 20
13.132204
 30
0.0
 11
-101.394107
 21
13.132204
 31
0.0
  0
LINE
  5
335
100
AcDbEntity
  8
2
370
    25
100
AcDbLine
 10
-101.394107
 20
13.132204
 30
0.0
 11
-103.325959
 21
13.649842
 31
0.0
  0
LINE
  5
336
100
AcDbEntity
  8
2
370
    25
100
AcDbLine
 10
-101.394107
 20
13.132204
 30
0.0
 11
-103.325959
 21
12.614566
 31
0.0
  0
ENDBLK
  5
337
100
AcDbEntity
  8
2
100
AcDbBlockEnd
  0
BLOCK
  5
338
100
AcDbEntity
  8
2
100
AcDbBlockBegin
  2
*D8
 70
     1
 10
0.0
 20
0.0
 30
0.0
  3
*D8
  1

  0
TEXT
  5
339
100
AcDbEntity
  8
2
370
    18
100
AcDbText
 10
-90.461345
 20
-31.284803
 30
0.0
 40
3.0
  1
10
 50
90.0
 72
     5
 11
-90.461345
 21
-25.884803
 31
0.0
100
AcDbText
  0
LINE
  5
33A
100
AcDbEntity
  8
2
370
    25
100
AcDbLine
 10
-106.273422
 20
-33.284803
 30
0.0
 11
-88.961345
 21
-33.284803
 31
0.0
  0
LINE
  5
33B
100
AcDbEntity
  8
2
370
    25
100
AcDbLine
 10
-89.961345
 20
-33.284803
 30
0.0
 11
-89.443707
 21
-31.352952
 31
0.0
  0
LINE
  5
33C
100
AcDbEntity
  8
2
370
    25
100
AcDbLine
 10
-89.961345
 20
-33.284803
 30
0.0
 11
-90.478983
 21
-31.352952
 31
0.0
  0
LINE
  5
33D
100
AcDbEntity
  8
2
370
    25
100
AcDbLine
 10
-89.961345
 20
-33.284803
 30
0.0
 11
-89.961345
 21
-23.284803
 31
0.0
  0
LINE
  5
33E
100
AcDbEntity
  8
2
370
    25
100
AcDbLine
 10
-89.961345
 20
-23.284803
 30
0.0
 11
-90.478983
 21
-25.216655
 31
0.0
  0
LINE
  5
33F
100
AcDbEntity
  8
2
370
    25
100
AcDbLine
 10
-89.961345
 20
-23.284803
 30
0.0
 11
-89.443707
 21
-25.216655
 31
0.0
  0
LINE
  5
340
100
AcDbEntity
  8
2
370
    25
100
AcDbLine
 10
-100.894107
 20
-23.284803
 30
0.0
 11
-88.961345
 21
-23.284803
 31
0.0
  0
ENDBLK
  5
341
100
AcDbEntity
  8
2
100
AcDbBlockEnd
  0
BLOCK
  5
342
100
AcDbEntity
  8
2
100
AcDbBlockBegin
  2
*D9
 70
     1
 10
0.0
 20
0.0
 30
0.0
  3
*D9
  1

  0
TEXT
  5
343
100
AcDbEntity
  8
2
370
    18
100
AcDbText
 10
-149.523248
 20
-20.284803
 30
0.0
 40
3.0
  1
3
 50
90.0
 72
     5
 11
-149.523248
 21
-17.884803
 31
0.0
100
AcDbText
  0
LINE
  5
344
100
AcDbEntity
  8
2
370
    25
100
AcDbLine
 10
-138.769843
 20
-26.284803
 30
0.0
 11
-150.023248
 21
-26.284803
 31
0.0
  0
LINE
  5
345
100
AcDbEntity
  8
2
370
    25
100
AcDbLine
 10
-149.023248
 20
-26.284803
 30
0.0
 11
-149.540886
 21
-28.216655
 31
0.0
  0
LINE
  5
346
100
AcDbEntity
  8
2
370
    25
100
AcDbLine
 10
-149.023248
 20
-26.284803
 30
0.0
 11
-148.50561
 21
-28.216655
 31
0.0
  0
LINE
  5
347
100
AcDbEntity
  8
2
370
    25
100
AcDbLine
 10
-149.023248
 20
-31.284803
 30
0.0
 11
-149.023248
 21
-14.284803
 31
0.0
  0
LINE
  5
348
100
AcDbEntity
  8
2
370
    25
100
AcDbLine
 10
-149.023248
 20
-23.284803
 30
0.0
 11
-148.50561
 21
-21.352952
 31
0.0
  0
LINE
  5
349
100
AcDbEntity
  8
2
370
    25
100
AcDbLine
 10
-149.023248
 20
-23.284803
 30
0.0
 11
-149.540886
 21
-21.352952
 31
0.0
  0
LINE
  5
34A
100
AcDbEntity
  8
2
370
    25
100
AcDbLine
 10
-136.521315
 20
-23.284803
 30
0.0
 11
-150.023248
 21
-23.284803
 31
0.0
  0
ENDBLK
  5
34B
100
AcDbEntity
  8
2
100
AcDbBlockEnd
  0
BLOCK
  5
34C
100
AcDbEntity
  8
2
100
AcDbBlockBegin
  2
*D10
 70
     1
 10
0.0
 20
0.0
 30
0.0
  3
*D10
  1

  0
TEXT
  5
34D
100
AcDbEntity
  8
2
370
    18
100
AcDbText
 10
-57.361596
 20
46.943915
 30
0.0
 40
3.0
  1
30.2
 50
90.0
 72
     5
 11
-57.361596
 21
58.343915
 31
0.0
100
AcDbText
  0
LINE
  5
34E
100
AcDbEntity
  8
2
370
    25
100
AcDbLine
 10
-76.195415
 20
37.843917
 30
0.0
 11
-55.861596
 21
37.843917
 31
0.0
  0
LINE
  5
34F
100
AcDbEntity
  8
2
370
    25
100
AcDbLine
 10
-56.861596
 20
37.843917
 30
0.0
 11
-56.343958
 21
39.775769
 31
0.0
  0
LINE
  5
350
100
AcDbEntity
  8
2
370
    25
100
AcDbLine
 10
-56.861596
 20
37.843917
 30
0.0
 11
-57.379234
 21
39.775769
 31
0.0
  0
LINE
  5
351
100
AcDbEntity
  8
2
370
    25
100
AcDbLine
 10
-56.861596
 20
37.843917
 30
0.0
 11
-56.861596
 21
68.043912
 31
0.0
  0
LINE
  5
352
100
AcDbEntity
  8
2
370
    25
100
AcDbLine
 10
-56.861596
 20
68.043912
 30
0.0
 11
-57.379234
 21
66.11206
 31
0.0
  0
LINE
  5
353
100
AcDbEntity
  8
2
370
    25
100
AcDbLine
 10
-56.861596
 20
68.043912
 30
0.0
 11
-56.343958
 21
66.11206
 31
0.0
  0
LINE
  5
354
100
AcDbEntity
  8
2
370
    25
100
AcDbLine
 10
-76.195415
 20
68.043912
 30
0.0
 11
-55.861596
 21
68.043912
 31
0.0
  0
ENDBLK
  5
355
100
AcDbEntity
  8
2
100
AcDbBlockEnd
  0
BLOCK
  5
356
100
AcDbEntity
  8
2
100
AcDbBlockBegin
  2
*D11
 70
     1
 10
0.0
 20
0.0
 30
0.0
  3
*D11
  1

  0
TEXT
  5
357
100
AcDbEntity
  8
2
370
    18
100
AcDbText
 10
-118.894107
 20
107.887298
 30
0.0
 40
3.0
  1
7
 72
     5
 11
-116.494107
 21
107.887298
 31
0.0
100
AcDbText
  0
LINE
  5
358
100
AcDbEntity
  8
2
370
    25
100
AcDbLine
 10
-120.894107
 20
66.943916
 30
0.0
 11
-120.894107
 21
108.387298
 31
0.0
  0
LINE
  5
359
100
AcDbEntity
  8
2
370
    25
100
AcDbLine
 10
-120.894107
 20
107.387298
 30
0.0
 11
-118.962256
 21
106.869659
 31
0.0
  0
LINE
  5
35A
100
AcDbEntity
  8
2
370
    25
100
AcDbLine
 10
-120.894107
 20
107.387298
 30
0.0
 11
-118.962256
 21
107.904936
 31
0.0
  0
LINE
  5
35B
100
AcDbEntity
  8
2
370
    25
100
AcDbLine
 10
-120.894107
 20
107.387298
 30
0.0
 11
-113.894107
 21
107.387298
 31
0.0
  0
LINE
  5
35C
100
AcDbEntity
  8
2
370
    25
100
AcDbLine
 10
-113.894107
 20
107.387298
 30
0.0
 11
-115.825959
 21
107.904936
 31
0.0
  0
LINE
  5
35D
100
AcDbEntity
  8
2
370
    25
100
AcDbLine
 10
-113.894107
 20
107.387298
 30
0.0
 11
-115.825959
 21
106.869659
 31
0.0
  0
LINE
  5
35E
100
AcDbEntity
  8
2
370
    25
100
AcDbLine
 10
-113.894107
 20
91.391332
 30
0.0
 11
-113.894107
 21
108.387298
 31
0.0
  0
ENDBLK
  5
35F
100
AcDbEntity
  8
2
100
AcDbBlockEnd
  0
BLOCK
  5
360
100
AcDbEntity
  8
2
100
AcDbBlockBegin
  2
*D12
 70
     1
 10
0.0
 20
0.0
 30
0.0
  3
*D12
  1

  0
TEXT
  5
361
100
AcDbEntity
  8
2
370
    25
100
AcDbText
 10
-96.849235
 20
-22.284803
 30
0.0
 40
3.0
  1
2.9
 50
90.0
 41
2.0
 72
     5
 11
-96.849235
 21
-14.484803
 31
0.0
100
AcDbText
  0
LINE
  5
362
100
AcDbEntity
  8
2
370
    25
100
AcDbLine
 10
-103.560515
 20
-26.184803
 30
0.0
 11
-95.349235
 21
-26.184803
 31
0.0
  0
LINE
  5
363
100
AcDbEntity
  8
2
370
    25
100
AcDbLine
 10
-96.349235
 20
-26.184803
 30
0.0
 11
-96.866873
 21
-28.116655
 31
0.0
  0
LINE
  5
364
100
AcDbEntity
  8
2
370
    25
100
AcDbLine
 10
-96.349235
 20
-26.184803
 30
0.0
 11
-95.831596
 21
-28.116655
 31
0.0
  0
LINE
  5
365
100
AcDbEntity
  8
2
370
    25
100
AcDbLine
 10
-96.349235
 20
-31.184803
 30
0.0
 11
-96.349235
 21
-12.284803
 31
0.0
  0
LINE
  5
366
100
AcDbEntity
  8
2
370
    25
100
AcDbLine
 10
-96.349235
 20
-23.284803
 30
0.0
 11
-95.831596
 21
-21.352952
 31
0.0
  0
LINE
  5
367
100
AcDbEntity
  8
2
370
    25
100
AcDbLine
 10
-96.349235
 20
-23.284803
 30
0.0
 11
-96.866873
 21
-21.352952
 31
0.0
  0
LINE
  5
368
100
AcDbEntity
  8
2
370
    25
100
AcDbLine
 10
-100.894107
 20
-23.284803
 30
0.0
 11
-95.349235
 21
-23.284803
 31
0.0
  0
ENDBLK
  5
369
100
AcDbEntity
  8
2
100
AcDbBlockEnd
  0
BLOCK
  5
36A
100
AcDbEntity
  8
2
100
AcDbBlockBegin
  2
*D13
 70
     1
 10
0.0
 20
0.0
 30
0.0
  3
*D13
  1

  0
TEXT
  5
36B
100
AcDbEntity
  8
2
370
    25
100
AcDbText
 10
-119.644107
 20
-52.264774
 30
0.0
 40
3.0
  1
18.1
 41
2.0
 72
     5
 11
-108.844107
 21
-52.264774
 31
0.0
100
AcDbText
  0
LINE
  5
36C
100
AcDbEntity
  8
2
370
    25
100
AcDbLine
 10
-122.694107
 20
-26.684803
 30
0.0
 11
-122.694107
 21
-53.764774
 31
0.0
  0
LINE
  5
36D
100
AcDbEntity
  8
2
370
    25
100
AcDbLine
 10
-122.694107
 20
-52.764774
 30
0.0
 11
-120.762256
 21
-53.282412
 31
0.0
  0
LINE
  5
36E
100
AcDbEntity
  8
2
370
    25
100
AcDbLine
 10
-122.694107
 20
-52.764774
 30
0.0
 11
-120.762256
 21
-52.247136
 31
0.0
  0
LINE
  5
36F
100
AcDbEntity
  8
2
370
    25
100
AcDbLine
 10
-122.694107
 20
-52.764774
 30
0.0
 11
-104.594107
 21
-52.764774
 31
0.0
  0
LINE
  5
370
100
AcDbEntity
  8
2
370
    25
100
AcDbLine
 10
-104.594107
 20
-52.764774
 30
0.0
 11
-106.525959
 21
-52.247136
 31
0.0
  0
LINE
  5
371
100
AcDbEntity
  8
2
370
    25
100
AcDbLine
 10
-104.594107
 20
-52.764774
 30
0.0
 11
-106.525959
 21
-53.282412
 31
0.0
  0
LINE
  5
372
100
AcDbEntity
  8
2
370
    25
100
AcDbLine
 10
-104.594107
 20
-26.684803
 30
0.0
 11
-104.594107
 21
-53.764774
 31
0.0
  0
ENDBLK
  5
373
100
AcDbEntity
  8
2
100
AcDbBlockEnd
  0
BLOCK
  5
374
100
AcDbEntity
  8
2
100
AcDbBlockBegin
  2
*D14
 70
     1
 10
0.0
 20
0.0
 30
0.0
  3
*D14
  1

  0
TEXT
  5
375
100
AcDbEntity
  8
2
370
    18
100
AcDbText
 10
114.756637
 20
49.943916
 30
0.0
 40
3.0
  1
27
 50
90.0
 72
     5
 11
114.756637
 21
55.343916
 31
0.0
100
AcDbText
  0
LINE
  5
376
100
AcDbEntity
  8
2
370
    25
100
AcDbLine
 10
102.105893
 20
39.443916
 30
0.0
 11
116.256637
 21
39.443916
 31
0.0
  0
LINE
  5
377
100
AcDbEntity
  8
2
370
    25
100
AcDbLine
 10
115.256637
 20
39.443916
 30
0.0
 11
115.774275
 21
41.375768
 31
0.0
  0
LINE
  5
378
100
AcDbEntity
  8
2
370
    25
100
AcDbLine
 10
115.256637
 20
39.443916
 30
0.0
 11
114.738999
 21
41.375768
 31
0.0
  0
LINE
  5
379
100
AcDbEntity
  8
2
370
    25
100
AcDbLine
 10
115.256637
 20
39.443916
 30
0.0
 11
115.256637
 21
66.443916
 31
0.0
  0
LINE
  5
37A
100
AcDbEntity
  8
2
370
    25
100
AcDbLine
 10
115.256637
 20
66.443916
 30
0.0
 11
114.738999
 21
64.512064
 31
0.0
  0
LINE
  5
37B
100
AcDbEntity
  8
2
370
    25
100
AcDbLine
 10
115.256637
 20
66.443916
 30
0.0
 11
115.774275
 21
64.512064
 31
0.0
  0
LINE
  5
37C
100
AcDbEntity
  8
2
370
    25
100
AcDbLine
 10
102.105893
 20
66.443916
 30
0.0
 11
116.256637
 21
66.443916
 31
0.0
  0
ENDBLK
  5
37D
100
AcDbEntity
  8
2
100
AcDbBlockEnd
  0
BLOCK
  5
37E
100
AcDbEntity
  8
2
100
AcDbBlockBegin
  2
*D15
 70
     1
 10
0.0
 20
0.0
 30
0.0
  3
*D15
  1

  0
TEXT
  5
37F
100
AcDbEntity
  8
2
370
    18
100
AcDbText
 10
119.707855
 20
49.943916
 30
0.0
 40
3.0
  1
50
 50
90.0
 72
     5
 11
119.707855
 21
55.343916
 31
0.0
100
AcDbText
  0
LINE
  5
380
100
AcDbEntity
  8
2
370
    25
100
AcDbLine
 10
110.473148
 20
27.943916
 30
0.0
 11
121.207855
 21
27.943916
 31
0.0
  0
LINE
  5
381
100
AcDbEntity
  8
2
370
    25
100
AcDbLine
 10
120.207855
 20
27.943916
 30
0.0
 11
120.725493
 21
29.875768
 31
0.0
  0
LINE
  5
382
100
AcDbEntity
  8
2
370
    25
100
AcDbLine
 10
120.207855
 20
27.943916
 30
0.0
 11
119.690217
 21
29.875768
 31
0.0
  0
LINE
  5
383
100
AcDbEntity
  8
2
370
    25
100
AcDbLine
 10
120.207855
 20
27.943916
 30
0.0
 11
120.207855
 21
77.943916
 31
0.0
  0
LINE
  5
384
100
AcDbEntity
  8
2
370
    25
100
AcDbLine
 10
120.207855
 20
77.943916
 30
0.0
 11
119.690217
 21
76.012064
 31
0.0
  0
LINE
  5
385
100
AcDbEntity
  8
2
370
    25
100
AcDbLine
 10
120.207855
 20
77.943916
 30
0.0
 11
120.725493
 21
76.012064
 31
0.0
  0
LINE
  5
386
100
AcDbEntity
  8
2
370
    25
100
AcDbLine
 10
110.473148
 20
77.943916
 30
0.0
 11
121.207855
 21
77.943916
 31
0.0
  0
ENDBLK
  5
387
100
AcDbEntity
  8
2
100
AcDbBlockEnd
  0
BLOCK
  5
388
100
AcDbEntity
  8
2
100
AcDbBlockBegin
  2
*D16
 70
     1
 10
0.0
 20
0.0
 30
0.0
  3
*D16
  1

  0
TEXT
  5
389
100
AcDbEntity
  8
2
370
    18
100
AcDbText
 10
80.605893
 20
13.632204
 30
0.0
 40
3.0
  1
25
 72
     5
 11
86.005893
 21
13.632204
 31
0.0
100
AcDbText
  0
LINE
  5
38A
100
AcDbEntity
  8
2
370
    25
100
AcDbLine
 10
71.105893
 20
13.132204
 30
0.0
 11
73.037744
 21
12.614566
 31
0.0
  0
LINE
  5
38B
100
AcDbEntity
  8
2
370
    25
100
AcDbLine
 10
71.105893
 20
13.132204
 30
0.0
 11
73.037744
 21
13.649842
 31
0.0
  0
LINE
  5
38C
100
AcDbEntity
  8
2
370
    25
100
AcDbLine
 10
71.105893
 20
13.132204
 30
0.0
 11
96.105893
 21
13.132204
 31
0.0
  0
LINE
  5
38D
100
AcDbEntity
  8
2
370
    25
100
AcDbLine
 10
96.105893
 20
13.132204
 30
0.0
 11
94.174041
 21
13.649842
 31
0.0
  0
LINE
  5
38E
100
AcDbEntity
  8
2
370
    25
100
AcDbLine
 10
96.105893
 20
13.132204
 30
0.0
 11
94.174041
 21
12.614566
 31
0.0
  0
LINE
  5
38F
100
AcDbEntity
  8
2
370
    25
100
AcDbLine
 10
96.105893
 20
17.328291
 30
0.0
 11
96.105893
 21
12.132204
 31
0.0
  0
ENDBLK
  5
390
100
AcDbEntity
  8
2
100
AcDbBlockEnd
  0
BLOCK
  5
391
100
AcDbEntity
  8
2
100
AcDbBlockBegin
  2
*D17
 70
     1
 10
0.0
 20
0.0
 30
0.0
  3
*D17
  1

  0
TEXT
  5
392
100
AcDbEntity
  8
2
370
    18
100
AcDbText
 10
60.652466
 20
49.943916
 30
0.0
 40
3.0
  1
66
 50
90.0
 72
     5
 11
60.652466
 21
55.343916
 31
0.0
100
AcDbText
  0
LINE
  5
393
100
AcDbEntity
  8
2
370
    25
100
AcDbLine
 10
75.605893
 20
19.943916
 30
0.0
 11
60.152466
 21
19.943916
 31
0.0
  0
LINE
  5
394
100
AcDbEntity
  8
2
370
    25
100
AcDbLine
 10
61.152466
 20
19.943916
 30
0.0
 11
61.670104
 21
21.875768
 31
0.0
  0
LINE
  5
395
100
AcDbEntity
  8
2
370
    25
100
AcDbLine
 10
61.152466
 20
19.943916
 30
0.0
 11
60.634828
 21
21.875768
 31
0.0
  0
LINE
  5
396
100
AcDbEntity
  8
2
370
    25
100
AcDbLine
 10
61.152466
 20
19.943916
 30
0.0
 11
61.152466
 21
85.943916
 31
0.0
  0
LINE
  5
397
100
AcDbEntity
  8
2
370
    25
100
AcDbLine
 10
61.152466
 20
85.943916
 30
0.0
 11
60.634828
 21
84.012064
 31
0.0
  0
LINE
  5
398
100
AcDbEntity
  8
2
370
    25
100
AcDbLine
 10
61.152466
 20
85.943916
 30
0.0
 11
61.670104
 21
84.012064
 31
0.0
  0
LINE
  5
399
100
AcDbEntity
  8
2
370
    25
100
AcDbLine
 10
75.605893
 20
85.943916
 30
0.0
 11
60.152466
 21
85.943916
 31
0.0
  0
ENDBLK
  5
39A
100
AcDbEntity
  8
2
100
AcDbBlockEnd
  0
BLOCK
  5
39B
100
AcDbEntity
  8
2
100
AcDbBlockBegin
  2
*D18
 70
     1
 10
0.0
 20
0.0
 30
0.0
  3
*D18
  1

  0
TEXT
  5
39C
100
AcDbEntity
  8
2
370
    18
100
AcDbText
 10
99.744888
 20
103.136474
 30
0.0
 40
3.0
  1
2
 72
     5
 11
102.144888
 21
103.136474
 31
0.0
100
AcDbText
  0
LINE
  5
39D
100
AcDbEntity
  8
2
370
    25
100
AcDbLine
 10
89.105893
 20
102.718085
 30
0.0
 11
103.105893
 21
102.718085
 31
0.0
  0
LINE
  5
39E
100
AcDbEntity
  8
2
370
    25
100
AcDbLine
 10
91.105893
 20
102.718085
 30
0.0
 11
93.037744
 21
102.200447
 31
0.0
  0
LINE
  5
39F
100
AcDbEntity
  8
2
370
    25
100
AcDbLine
 10
91.105893
 20
102.718085
 30
0.0
 11
93.037744
 21
103.235723
 31
0.0
  0
LINE
  5
3A0
100
AcDbEntity
  8
2
370
    25
100
AcDbLine
 10
91.105893
 20
66.943916
 30
0.0
 11
91.105893
 21
103.718085
 31
0.0
  0
CIRCLE
  5
3A1
100
AcDbEntity
  8
2
370
    25
100
AcDbCircle
 10
89.105893
 20
102.718085
 30
0.0
 40
0.5
  0
CIRCLE
  5
3A2
100
AcDbEntity
  8
2
370
    25
100
AcDbCircle
 10
89.105893
 20
102.718085
 30
0.0
 40
0.3
  0
ENDBLK
  5
3A3
100
AcDbEntity
  8
2
100
AcDbBlockEnd
  0
BLOCK
  5
3A4
100
AcDbEntity
  8
2
100
AcDbBlockBegin
  2
*D19
 70
     1
 10
0.0
 20
0.0
 30
0.0
  3
*D19
  1

  0
TEXT
  5
3A5
100
AcDbEntity
  8
2
370
    18
100
AcDbText
 10
80.105893
 20
103.218085
 30
0.0
 40
3.0
  1
3
 72
     5
 11
82.505893
 21
103.218085
 31
0.0
100
AcDbText
  0
LINE
  5
3A6
100
AcDbEntity
  8
2
370
    25
100
AcDbLine
 10
86.105893
 20
66.943916
 30
0.0
 11
86.105893
 21
103.718085
 31
0.0
  0
LINE
  5
3A7
100
AcDbEntity
  8
2
370
    25
100
AcDbLine
 10
86.105893
 20
102.718085
 30
0.0
 11
84.174041
 21
103.235723
 31
0.0
  0
LINE
  5
3A8
100
AcDbEntity
  8
2
370
    25
100
AcDbLine
 10
86.105893
 20
102.718085
 30
0.0
 11
84.174041
 21
102.200447
 31
0.0
  0
LINE
  5
3A9
100
AcDbEntity
  8
2
370
    25
100
AcDbLine
 10
74.105893
 20
102.718085
 30
0.0
 11
89.105893
 21
102.718085
 31
0.0
  0
CIRCLE
  5
3AA
100
AcDbEntity
  8
2
370
    25
100
AcDbCircle
 10
89.105893
 20
102.718085
 30
0.0
 40
0.5
  0
CIRCLE
  5
3AB
100
AcDbEntity
  8
2
370
    25
100
AcDbCircle
 10
89.105893
 20
102.718085
 30
0.0
 40
0.3
  0
ENDBLK
  5
3AC
100
AcDbEntity
  8
2
100
AcDbBlockEnd
  0
BLOCK
  5
3AD
100
AcDbEntity
  8
2
100
AcDbBlockBegin
  2
*D20
 70
     1
 10
0.0
 20
0.0
 30
0.0
  3
*D20
  1

  0
TEXT
  5
3AE
100
AcDbEntity
  8
2
370
    18
100
AcDbText
 10
96.355893
 20
13.632204
 30
0.0
 40
3.0
  1
12.5
 72
     5
 11
107.755893
 21
13.632204
 31
0.0
100
AcDbText
  0
LINE
  5
3AF
100
AcDbEntity
  8
2
370
    25
100
AcDbLine
 10
96.105893
 20
13.132204
 30
0.0
 11
98.037744
 21
12.614566
 31
0.0
  0
LINE
  5
3B0
100
AcDbEntity
  8
2
370
    25
100
AcDbLine
 10
96.105893
 20
13.132204
 30
0.0
 11
98.037744
 21
13.649842
 31
0.0
  0
LINE
  5
3B1
100
AcDbEntity
  8
2
370
    25
100
AcDbLine
 10
96.105893
 20
13.132204
 30
0.0
 11
108.605893
 21
13.132204
 31
0.0
  0
LINE
  5
3B2
100
AcDbEntity
  8
2
370
    25
100
AcDbLine
 10
108.605893
 20
13.132204
 30
0.0
 11
106.674041
 21
13.649842
 31
0.0
  0
LINE
  5
3B3
100
AcDbEntity
  8
2
370
    25
100
AcDbLine
 10
108.605893
 20
13.132204
 30
0.0
 11
106.674041
 21
12.614566
 31
0.0
  0
ENDBLK
  5
3B4
100
AcDbEntity
  8
2
100
AcDbBlockEnd
  0
BLOCK
  5
3B5
100
AcDbEntity
  8
2
100
AcDbBlockBegin
  2
*D21
 70
     1
 10
0.0
 20
0.0
 30
0.0
  3
*D21
  1

  0
TEXT
  5
3B6
100
AcDbEntity
  8
2
370
    18
100
AcDbText
 10
119.538655
 20
-31.284803
 30
0.0
 40
3.0
  1
10
 50
90.0
 72
     5
 11
119.538655
 21
-25.884803
 31
0.0
100
AcDbText
  0
LINE
  5
3B7
100
AcDbEntity
  8
2
370
    25
100
AcDbLine
 10
103.726578
 20
-33.284803
 30
0.0
 11
121.038655
 21
-33.284803
 31
0.0
  0
LINE
  5
3B8
100
AcDbEntity
  8
2
370
    25
100
AcDbLine
 10
120.038655
 20
-33.284803
 30
0.0
 11
120.556293
 21
-31.352952
 31
0.0
  0
LINE
  5
3B9
100
AcDbEntity
  8
2
370
    25
100
AcDbLine
 10
120.038655
 20
-33.284803
 30
0.0
 11
119.521017
 21
-31.352952
 31
0.0
  0
LINE
  5
3BA
100
AcDbEntity
  8
2
370
    25
100
AcDbLine
 10
120.038655
 20
-33.284803
 30
0.0
 11
120.038655
 21
-23.284803
 31
0.0
  0
LINE
  5
3BB
100
AcDbEntity
  8
2
370
    25
100
AcDbLine
 10
120.038655
 20
-23.284803
 30
0.0
 11
119.521017
 21
-25.216655
 31
0.0
  0
LINE
  5
3BC
100
AcDbEntity
  8
2
370
    25
100
AcDbLine
 10
120.038655
 20
-23.284803
 30
0.0
 11
120.556293
 21
-25.216655
 31
0.0
  0
LINE
  5
3BD
100
AcDbEntity
  8
2
370
    25
100
AcDbLine
 10
109.105893
 20
-23.284803
 30
0.0
 11
121.038655
 21
-23.284803
 31
0.0
  0
ENDBLK
  5
3BE
100
AcDbEntity
  8
2
100
AcDbBlockEnd
  0
BLOCK
  5
3BF
100
AcDbEntity
  8
2
100
AcDbBlockBegin
  2
*D22
 70
     1
 10
0.0
 20
0.0
 30
0.0
  3
*D22
  1

  0
TEXT
  5
3C0
100
AcDbEntity
  8
2
370
    18
100
AcDbText
 10
60.476752
 20
-20.284803
 30
0.0
 40
3.0
  1
3
 50
90.0
 72
     5
 11
60.476752
 21
-17.884803
 31
0.0
100
AcDbText
  0
LINE
  5
3C1
100
AcDbEntity
  8
2
370
    25
100
AcDbLine
 10
71.230157
 20
-26.284803
 30
0.0
 11
59.976752
 21
-26.284803
 31
0.0
  0
LINE
  5
3C2
100
AcDbEntity
  8
2
370
    25
100
AcDbLine
 10
60.976752
 20
-26.284803
 30
0.0
 11
60.459114
 21
-28.216655
 31
0.0
  0
LINE
  5
3C3
100
AcDbEntity
  8
2
370
    25
100
AcDbLine
 10
60.976752
 20
-26.284803
 30
0.0
 11
61.49439
 21
-28.216655
 31
0.0
  0
LINE
  5
3C4
100
AcDbEntity
  8
2
370
    25
100
AcDbLine
 10
60.976752
 20
-31.284803
 30
0.0
 11
60.976752
 21
-14.284803
 31
0.0
  0
LINE
  5
3C5
100
AcDbEntity
  8
2
370
    25
100
AcDbLine
 10
60.976752
 20
-23.284803
 30
0.0
 11
61.49439
 21
-21.352952
 31
0.0
  0
LINE
  5
3C6
100
AcDbEntity
  8
2
370
    25
100
AcDbLine
 10
60.976752
 20
-23.284803
 30
0.0
 11
60.459114
 21
-21.352952
 31
0.0
  0
LINE
  5
3C7
100
AcDbEntity
  8
2
370
    25
100
AcDbLine
 10
73.478685
 20
-23.284803
 30
0.0
 11
59.976752
 21
-23.284803
 31
0.0
  0
ENDBLK
  5
3C8
100
AcDbEntity
  8
2
100
AcDbBlockEnd
  0
BLOCK
  5
3C9
100
AcDbEntity
  8
2
100
AcDbBlockBegin
  2
*D23
 70
     1
 10
0.0
 20
0.0
 30
0.0
  3
*D23
  1

  0
TEXT
  5
3CA
100
AcDbEntity
  8
2
370
    18
100
AcDbText
 10
152.638404
 20
46.943915
 30
0.0
 40
3.0
  1
30.2
 50
90.0
 72
     5
 11
152.638404
 21
58.343915
 31
0.0
100
AcDbText
  0
LINE
  5
3CB
100
AcDbEntity
  8
2
370
    25
100
AcDbLine
 10
133.804585
 20
37.843917
 30
0.0
 11
154.138404
 21
37.843917
 31
0.0
  0
LINE
  5
3CC
100
AcDbEntity
  8
2
370
    25
100
AcDbLine
 10
153.138404
 20
37.843917
 30
0.0
 11
153.656042
 21
39.775769
 31
0.0
  0
LINE
  5
3CD
100
AcDbEntity
  8
2
370
    25
100
AcDbLine
 10
153.138404
 20
37.843917
 30
0.0
 11
152.620766
 21
39.775769
 31
0.0
  0
LINE
  5
3CE
100
AcDbEntity
  8
2
370
    25
100
AcDbLine
 10
153.138404
 20
37.843917
 30
0.0
 11
153.138404
 21
68.043912
 31
0.0
  0
LINE
  5
3CF
100
AcDbEntity
  8
2
370
    25
100
AcDbLine
 10
153.138404
 20
68.043912
 30
0.0
 11
152.620766
 21
66.11206
 31
0.0
  0
LINE
  5
3D0
100
AcDbEntity
  8
2
370
    25
100
AcDbLine
 10
153.138404
 20
68.043912
 30
0.0
 11
153.656042
 21
66.11206
 31
0.0
  0
LINE
  5
3D1
100
AcDbEntity
  8
2
370
    25
100
AcDbLine
 10
133.804585
 20
68.043912
 30
0.0
 11
154.138404
 21
68.043912
 31
0.0
  0
ENDBLK
  5
3D2
100
AcDbEntity
  8
2
100
AcDbBlockEnd
  0
BLOCK
  5
3D3
100
AcDbEntity
  8
2
100
AcDbBlockBegin
  2
*D24
 70
     1
 10
0.0
 20
0.0
 30
0.0
  3
*D24
  1

  0
TEXT
  5
3D4
100
AcDbEntity
  8
2
370
    18
100
AcDbText
 10
91.105893
 20
107.887298
 30
0.0
 40
3.0
  1
7
 72
     5
 11
93.505893
 21
107.887298
 31
0.0
100
AcDbText
  0
LINE
  5
3D5
100
AcDbEntity
  8
2
370
    25
100
AcDbLine
 10
89.105893
 20
66.943916
 30
0.0
 11
89.105893
 21
108.387298
 31
0.0
  0
LINE
  5
3D6
100
AcDbEntity
  8
2
370
    25
100
AcDbLine
 10
89.105893
 20
107.387298
 30
0.0
 11
91.037744
 21
106.869659
 31
0.0
  0
LINE
  5
3D7
100
AcDbEntity
  8
2
370
    25
100
AcDbLine
 10
89.105893
 20
107.387298
 30
0.0
 11
91.037744
 21
107.904936
 31
0.0
  0
LINE
  5
3D8
100
AcDbEntity
  8
2
370
    25
100
AcDbLine
 10
89.105893
 20
107.387298
 30
0.0
 11
96.105893
 21
107.387298
 31
0.0
  0
LINE
  5
3D9
100
AcDbEntity
  8
2
370
    25
100
AcDbLine
 10
96.105893
 20
107.387298
 30
0.0
 11
94.174041
 21
107.904936
 31
0.0
  0
LINE
  5
3DA
100
AcDbEntity
  8
2
370
    25
100
AcDbLine
 10
96.105893
 20
107.387298
 30
0.0
 11
94.174041
 21
106.869659
 31
0.0
  0
LINE
  5
3DB
100
AcDbEntity
  8
2
370
    25
100
AcDbLine
 10
96.105893
 20
91.391332
 30
0.0
 11
96.105893
 21
108.387298
 31
0.0
  0
ENDBLK
  5
3DC
100
AcDbEntity
  8
2
100
AcDbBlockEnd
  0
BLOCK
  5
3DD
100
AcDbEntity
  8
2
100
AcDbBlockBegin
  2
*D25
 70
     1
 10
0.0
 20
0.0
 30
0.0
  3
*D25
  1

  0
TEXT
  5
3DE
100
AcDbEntity
  8
2
370
    25
100
AcDbText
 10
113.150765
 20
-22.284803
 30
0.0
 40
3.0
  1
2.9
 50
90.0
 41
2.0
 72
     5
 11
113.150765
 21
-14.484803
 31
0.0
100
AcDbText
  0
LINE
  5
3DF
100
AcDbEntity
  8
2
370
    25
100
AcDbLine
 10
106.439485
 20
-26.184803
 30
0.0
 11
114.650765
 21
-26.184803
 31
0.0
  0
LINE
  5
3E0
100
AcDbEntity
  8
2
370
    25
100
AcDbLine
 10
113.650765
 20
-26.184803
 30
0.0
 11
113.133127
 21
-28.116655
 31
0.0
  0
LINE
  5
3E1
100
AcDbEntity
  8
2
370
    25
100
AcDbLine
 10
113.650765
 20
-26.184803
 30
0.0
 11
114.168404
 21
-28.116655
 31
0.0
  0
LINE
  5
3E2
100
AcDbEntity
  8
2
370
    25
100
AcDbLine
 10
113.650765
 20
-31.184803
 30
0.0
 11
113.650765
 21
-12.284803
 31
0.0
  0
LINE
  5
3E3
100
AcDbEntity
  8
2
370
    25
100
AcDbLine
 10
113.650765
 20
-23.284803
 30
0.0
 11
114.168404
 21
-21.352952
 31
0.0
  0
LINE
  5
3E4
100
AcDbEntity
  8
2
370
    25
100
AcDbLine
 10
113.650765
 20
-23.284803
 30
0.0
 11
113.133127
 21
-21.352952
 31
0.0
  0
LINE
  5
3E5
100
AcDbEntity
  8
2
370
    25
100
AcDbLine
 10
109.105893
 20
-23.284803
 30
0.0
 11
114.650765
 21
-23.284803
 31
0.0
  0
ENDBLK
  5
3E6
100
AcDbEntity
  8
2
100
AcDbBlockEnd
  0
BLOCK
  5
3E7
100
AcDbEntity
  8
2
100
AcDbBlockBegin
  2
*D26
 70
     1
 10
0.0
 20
0.0
 30
0.0
  3
*D26
  1

  0
TEXT
  5
3E8
100
AcDbEntity
  8
2
370
    25
100
AcDbText
 10
90.355893
 20
-52.264774
 30
0.0
 40
3.0
  1
18.1
 41
2.0
 72
     5
 11
101.155893
 21
-52.264774
 31
0.0
100
AcDbText
  0
LINE
  5
3E9
100
AcDbEntity
  8
2
370
    25
100
AcDbLine
 10
87.305893
 20
-26.684803
 30
0.0
 11
87.305893
 21
-53.764774
 31
0.0
  0
LINE
  5
3EA
100
AcDbEntity
  8
2
370
    25
100
AcDbLine
 10
87.305893
 20
-52.764774
 30
0.0
 11
89.237744
 21
-53.282412
 31
0.0
  0
LINE
  5
3EB
100
AcDbEntity
  8
2
370
    25
100
AcDbLine
 10
87.305893
 20
-52.764774
 30
0.0
 11
89.237744
 21
-52.247136
 31
0.0
  0
LINE
  5
3EC
100
AcDbEntity
  8
2
370
    25
100
AcDbLine
 10
87.305893
 20
-52.764774
 30
0.0
 11
105.405893
 21
-52.764774
 31
0.0
  0
LINE
  5
3ED
100
AcDbEntity
  8
2
370
    25
100
AcDbLine
 10
105.405893
 20
-52.764774
 30
0.0
 11
103.474041
 21
-52.247136
 31
0.0
  0
LINE
  5
3EE
100
AcDbEntity
  8
2
370
    25
100
AcDbLine
 10
105.405893
 20
-52.764774
 30
0.0
 11
103.474041
 21
-53.282412
 31
0.0
  0
LINE
  5
3EF
100
AcDbEntity
  8
2
370
    25
100
AcDbLine
 10
105.405893
 20
-26.684803
 30
0.0
 11
105.405893
 21
-53.764774
 31
0.0
  0
ENDBLK
  5
3F0
100
AcDbEntity
  8
2
100
AcDbBlockEnd
  0
BLOCK
  5
3F1
100
AcDbEntity
  8
2
100
AcDbBlockBegin
  2
*D27
 70
     1
 10
0.0
 20
0.0
 30
0.0
  3
*D27
  1

  0
TEXT
  5
3F2
100
AcDbEntity
  8
2
370
    25
100
AcDbText
 10
83.855893
 20
5.945101
 30
0.0
 40
3.0
  1
37.5
 41
2.0
 72
     5
 11
94.655893
 21
5.945101
 31
0.0
100
AcDbText
  0
LINE
  5
3F3
100
AcDbEntity
  8
2
370
    25
100
AcDbLine
 10
71.105893
 20
24.443916
 30
0.0
 11
71.105893
 21
4.445101
 31
0.0
  0
LINE
  5
3F4
100
AcDbEntity
  8
2
370
    25
100
AcDbLine
 10
71.105893
 20
5.445101
 30
0.0
 11
73.037744
 21
4.927463
 31
0.0
  0
LINE
  5
3F5
100
AcDbEntity
  8
2
370
    25
100
AcDbLine
 10
71.105893
 20
5.445101
 30
0.0
 11
73.037744
 21
5.962739
 31
0.0
  0
LINE
  5
3F6
100
AcDbEntity
  8
2
370
    25
100
AcDbLine
 10
71.105893
 20
5.445101
 30
0.0
 11
108.605893
 21
5.445101
 31
0.0
  0
LINE
  5
3F7
100
AcDbEntity
  8
2
370
    25
100
AcDbLine
 10
108.605893
 20
5.445101
 30
0.0
 11
106.674041
 21
5.962739
 31
0.0
  0
LINE
  5
3F8
100
AcDbEntity
  8
2
370
    25
100
AcDbLine
 10
108.605893
 20
5.445101
 30
0.0
 11
106.674041
 21
4.927463
 31
0.0
  0
LINE
  5
3F9
100
AcDbEntity
  8
2
370
    25
100
AcDbLine
 10
108.605893
 20
25.443916
 30
0.0
 11
108.605893
 21
4.445101
 31
0.0
  0
ENDBLK
  5
3FA
100
AcDbEntity
  8
2
100
AcDbBlockEnd
  0
BLOCK
  5
3FB
100
AcDbEntity
  8
2
100
AcDbBlockBegin
  2
*D28
 70
     1
 10
0.0
 20
0.0
 30
0.0
  3
*D28
  1

  0
TEXT
  5
3FC
100
AcDbEntity
  8
2
370
    25
100
AcDbText
 10
107.495975
 20
84.977513
 30
0.0
 40
3.0
  1
R6
 50
41.742928
 41
2.0
 72
     5
 11
111.077445
 21
88.173303
 31
0.0
100
AcDbText
  0
LINE
  5
3FD
100
AcDbEntity
  8
2
370
    25
100
AcDbLine
 10
102.605893
 20
79.943916
 30
0.0
 11
113.051847
 21
89.26497
 31
0.0
  0
LINE
  5
3FE
100
AcDbEntity
  8
2
370
    25
100
AcDbLine
 10
107.08273
 20
83.938654
 30
0.0
 11
108.868799
 21
84.83863
 31
0.0
  0
LINE
  5
3FF
100
AcDbEntity
  8
2
370
    25
100
AcDbLine
 10
107.08273
 20
83.938654
 30
0.0
 11
108.179523
 21
85.61109
 31
0.0
  0
ENDBLK
  5
400
100
AcDbEntity
  8
2
100
AcDbBlockEnd
  0
ENDSEC
  0
SECTION
  2
ENTITIES
  0
LINE
  5
42
100
AcDbEntity
  8
1
370
    18
  6
CENTER
100
AcDbLine
 10
-81.720402
 20
52.943915
 30
0.0
 11
-67.767644
 21
52.943915
 31
0.0
  0
LINE
  5
43
100
AcDbEntity
  8
1
370
    50
100
AcDbLine
 10
-79.795415
 20
52.943915
 30
0.0
 11
-79.795415
 21
49.602652
 31
0.0
  0
LINE
  5
44
100
AcDbEntity
  8
1
370
    50
100
AcDbLine
 10
-69.595415
 20
52.943915
 30
0.0
 11
-69.595415
 21
40.023232
 31
0.0
  0
LINE
  5
45
100
AcDbEntity
  8
1
370
    50
100
AcDbLine
 10
-79.595415
 20
49.402644
 30
0.0
 11
-79.59716
 21
49.40266
 31
0.0
  0
ARC
  5
46
100
AcDbEntity
  8
1
370
    50
100
AcDbCircle
 10
-79.595415
 20
49.602652
 30
0.0
 40
0.2
100
AcDbArc
 50
180.0
 51
269.5
  0
LINE
  5
47
100
AcDbEntity
  8
1
370
    50
100
AcDbLine
 10
-76.695415
 20
37.843917
 30
0.0
 11
-71.525616
 21
38.024451
 31
0.0
  0
ARC
  5
48
100
AcDbEntity
  8
1
370
    50
100
AcDbCircle
 10
-71.595415
 20
40.023232
 30
0.0
 40
2.0
100
AcDbArc
 50
272.0
 51
0.0
  0
LINE
  5
49
100
AcDbEntity
  8
1
370
    18
  6
CENTER
100
AcDbLine
 10
-83.656609
 20
27.943917
 30
0.0
 11
-52.363755
 21
27.943917
 31
0.0
  0
LINE
  5
4A
100
AcDbEntity
  8
1
370
    50
100
AcDbLine
 10
-76.695415
 20
20.810322
 30
0.0
 11
-76.695415
 21
52.943915
 31
0.0
  0
LINE
  5
4B
100
AcDbEntity
  8
1
370
    50
100
AcDbLine
 10
-78.0961
 20
20.143794
 30
0.0
 11
-77.10859
 21
20.317918
 31
0.0
  0
ARC
  5
4C
100
AcDbEntity
  8
1
370
    50
100
AcDbCircle
 10
-77.195415
 20
20.810322
 30
0.0
 40
0.5
100
AcDbArc
 50
280.0
 51
360.0
  0
LINE
  5
4D
100
AcDbEntity
  8
1
370
    50
100
AcDbLine
 10
-78.0961
 20
20.143794
 30
0.0
 11
-78.595415
 21
20.169962
 31
0.0
  0
LINE
  5
4E
100
AcDbEntity
  8
1
370
    50
100
AcDbLine
 10
-127.194107
 20
56.193916
 30
0.0
 11
-127.194107
 21
49.693916
 31
0.0
  0
ARC
  5
4F
100
AcDbEntity
  8
1
370
    50
100
AcDbCircle
 10
-117.894107
 20
63.743916
 30
0.0
 40
3.0
100
AcDbArc
 50
115.841933
 51
180.0
  0
LINE
  5
50
100
AcDbEntity
  8
1
370
    50
100
AcDbLine
 10
-120.894107
 20
56.493916
 30
0.0
 11
-126.894107
 21
56.493916
 31
0.0
  0
LINE
  5
51
100
AcDbEntity
  8
1
370
    50
100
AcDbLine
 10
-120.894107
 20
63.743916
 30
0.0
 11
-120.894107
 21
42.143916
 31
0.0
  0
ARC
  5
52
100
AcDbEntity
  8
1
370
    50
100
AcDbCircle
 10
-126.894107
 20
56.193916
 30
0.0
 40
0.3
100
AcDbArc
 50
90.0
 51
180.0
  0
LINE
  5
53
100
AcDbEntity
  8
1
370
    50
100
AcDbLine
 10
-123.194107
 20
56.493916
 30
0.0
 11
-123.194107
 21
60.943916
 31
0.0
  0
LINE
  5
54
100
AcDbEntity
  8
1
370
    50
100
AcDbLine
 10
-122.194107
 20
56.493916
 30
0.0
 11
-122.194107
 21
60.943916
 31
0.0
  0
LINE
  5
55
100
AcDbEntity
  8
1
370
    50
100
AcDbLine
 10
-124.194107
 20
56.493916
 30
0.0
 11
-124.194107
 21
62.943916
 31
0.0
  0
ARC
  5
56
100
AcDbEntity
  8
1
370
    50
100
AcDbCircle
 10
-117.894107
 20
42.143916
 30
0.0
 40
3.0
100
AcDbArc
 50
180.0
 51
244.158067
  0
LINE
  5
57
100
AcDbEntity
  8
1
370
    50
100
AcDbLine
 10
-120.894107
 20
49.393916
 30
0.0
 11
-126.894107
 21
49.393916
 31
0.0
  0
ARC
  5
58
100
AcDbEntity
  8
1
370
    50
100
AcDbCircle
 10
-126.894107
 20
49.693916
 30
0.0
 40
0.3
100
AcDbArc
 50
180.0
 51
270.0
  0
LINE
  5
59
100
AcDbEntity
  8
1
370
    50
100
AcDbLine
 10
-123.194107
 20
49.393916
 30
0.0
 11
-123.194107
 21
44.943916
 31
0.0
  0
LINE
  5
5A
100
AcDbEntity
  8
1
370
    50
100
AcDbLine
 10
-122.194107
 20
49.393916
 30
0.0
 11
-122.194107
 21
44.943916
 31
0.0
  0
LINE
  5
5B
100
AcDbEntity
  8
1
370
    50
100
AcDbLine
 10
-124.194107
 20
49.393916
 30
0.0
 11
-124.194107
 21
42.943916
 31
0.0
  0
LINE
  5
5C
100
AcDbEntity
  8
1
370
    50
100
AcDbLine
 10
-126.985373
 20
-23.084803
 30
0.0
 11
-121.885419
 21
-23.084803
 31
0.0
  0
ARC
  5
5D
100
AcDbEntity
  8
1
370
    50
100
AcDbCircle
 10
-121.885419
 20
-24.084803
 30
0.0
 40
1.0
100
AcDbArc
 50
53.130102
 51
90.0
  0
LINE
  5
5E
100
AcDbEntity
  8
1
370
    50
100
AcDbLine
 10
-132.694107
 20
-24.784803
 30
0.0
 11
-132.194107
 21
-24.284803
 31
0.0
  0
LINE
  5
5F
100
AcDbEntity
  8
1
370
    50
100
AcDbLine
 10
-132.694107
 20
-24.784803
 30
0.0
 11
-132.520104
 21
-25.771627
 31
0.0
  0
ARC
  5
60
100
AcDbEntity
  8
1
370
    50
100
AcDbCircle
 10
-132.0277
 20
-25.684803
 30
0.0
 40
0.5
100
AcDbArc
 50
190.0
 51
270.0
  0
LINE
  5
61
100
AcDbEntity
  8
1
370
    50
100
AcDbLine
 10
-103.394107
 20
-24.784803
 30
0.0
 11
-103.568111
 21
-25.771627
 31
0.0
  0
LINE
  5
62
100
AcDbEntity
  8
1
370
    50
100
AcDbLine
 10
-104.594107
 20
-26.184803
 30
0.0
 11
-104.774641
 21
-31.354602
 31
0.0
  0
ARC
  5
63
100
AcDbEntity
  8
1
370
    50
100
AcDbCircle
 10
-106.773422
 20
-31.284803
 30
0.0
 40
2.0
100
AcDbArc
 50
270.0
 51
358.0
  0
LINE
  5
64
100
AcDbEntity
  8
1
370
    50
100
AcDbLine
 10
-122.694107
 20
-26.184803
 30
0.0
 11
-122.513574
 21
-31.354602
 31
0.0
  0
ARC
  5
65
100
AcDbEntity
  8
1
370
    50
100
AcDbCircle
 10
-120.514792
 20
-31.284803
 30
0.0
 40
2.0
100
AcDbArc
 50
182.0
 51
270.0
  0
LINE
  5
66
100
AcDbEntity
  8
1
370
    50
100
AcDbLine
 10
-104.060515
 20
-26.184803
 30
0.0
 11
-132.0277
 21
-26.184803
 31
0.0
  0
LINE
  5
67
100
AcDbEntity
  8
1
370
    50
100
AcDbLine
 10
-127.185365
 20
-23.283058
 30
0.0
 11
-127.18538
 21
-23.284803
 31
0.0
  0
ARC
  5
68
100
AcDbEntity
  8
1
370
    50
100
AcDbCircle
 10
-126.985373
 20
-23.284803
 30
0.0
 40
0.2
100
AcDbArc
 50
90.0
 51
179.5
  0
ARC
  5
69
100
AcDbEntity
  8
1
370
    50
100
AcDbCircle
 10
-104.060515
 20
-25.684803
 30
0.0
 40
0.5
100
AcDbArc
 50
270.0
 51
350.0
  0
LINE
  5
6A
100
AcDbEntity
  8
1
370
    50
100
AcDbLine
 10
-103.394107
 20
-24.784803
 30
0.0
 11
-103.420311
 21
-24.284803
 31
0.0
  0
LINE
  5
6B
100
AcDbEntity
  8
1
370
    50
100
AcDbLine
 10
-78.595415
 20
20.169962
 30
0.0
 11
-78.595415
 21
52.943915
 31
0.0
  0
LINE
  5
6C
100
AcDbEntity
  8
1
370
    50
100
AcDbLine
 10
-120.514792
 20
-33.284803
 30
0.0
 11
-115.394107
 21
-33.284803
 31
0.0
  0
LINE
  5
6D
100
AcDbEntity
  8
1
370
    50
100
AcDbLine
 10
-112.394107
 20
-33.284803
 30
0.0
 11
-106.773422
 21
-33.284803
 31
0.0
  0
LINE
  5
6E
100
AcDbEntity
  8
1
370
    18
  6
CENTER
100
AcDbLine
 10
-113.894107
 20
-18.869352
 30
0.0
 11
-113.894107
 21
-47.582727
 31
0.0
  0
ARC
  5
6F
100
AcDbEntity
  8
1
370
    25
  6
PHANTOM
100
AcDbCircle
 10
-120.894107
 20
63.743916
 30
0.0
 40
3.0
100
AcDbArc
 50
115.841933
 51
180.0
  0
LINE
  5
70
100
AcDbEntity
  8
1
370
    25
  6
PHANTOM
100
AcDbLine
 10
-123.894107
 20
63.743916
 30
0.0
 11
-123.894107
 21
42.143916
 31
0.0
  0
ARC
  5
71
100
AcDbEntity
  8
1
370
    25
  6
PHANTOM
100
AcDbCircle
 10
-120.894107
 20
42.143916
 30
0.0
 40
3.0
100
AcDbArc
 50
180.0
 51
244.158067
  0
ARC
  5
72
100
AcDbEntity
  8
1
370
    25
  6
PHANTOM
100
AcDbCircle
 10
-115.894107
 20
63.743916
 30
0.0
 40
3.0
100
AcDbArc
 50
115.841933
 51
180.0
  0
LINE
  5
73
100
AcDbEntity
  8
1
370
    25
  6
PHANTOM
100
AcDbLine
 10
-118.894107
 20
63.743916
 30
0.0
 11
-118.894107
 21
42.143916
 31
0.0
  0
ARC
  5
74
100
AcDbEntity
  8
1
370
    25
  6
PHANTOM
100
AcDbCircle
 10
-115.894107
 20
42.143916
 30
0.0
 40
3.0
100
AcDbArc
 50
180.0
 51
244.158067
  0
LINE
  5
75
100
AcDbEntity
  8
1
370
    50
100
AcDbLine
 10
-79.795415
 20
52.943915
 30
0.0
 11
-79.795415
 21
56.285178
 31
0.0
  0
LINE
  5
76
100
AcDbEntity
  8
1
370
    50
100
AcDbLine
 10
-69.595415
 20
52.943915
 30
0.0
 11
-69.595415
 21
65.864597
 31
0.0
  0
LINE
  5
77
100
AcDbEntity
  8
1
370
    50
100
AcDbLine
 10
-79.595415
 20
56.485185
 30
0.0
 11
-79.59716
 21
56.48517
 31
0.0
  0
ARC
  5
78
100
AcDbEntity
  8
1
370
    50
100
AcDbCircle
 10
-79.595415
 20
56.285178
 30
0.0
 40
0.2
100
AcDbArc
 50
90.5
 51
180.0
  0
LINE
  5
79
100
AcDbEntity
  8
1
370
    50
100
AcDbLine
 10
-76.695415
 20
68.043912
 30
0.0
 11
-71.525616
 21
67.863379
 31
0.0
  0
ARC
  5
7A
100
AcDbEntity
  8
1
370
    50
100
AcDbCircle
 10
-71.595415
 20
65.864597
 30
0.0
 40
2.0
100
AcDbArc
 50
360.0
 51
88.0
  0
LINE
  5
7B
100
AcDbEntity
  8
1
370
    18
  6
CENTER
100
AcDbLine
 10
-83.656609
 20
77.943913
 30
0.0
 11
-52.363755
 21
77.943913
 31
0.0
  0
LINE
  5
7C
100
AcDbEntity
  8
1
370
    50
100
AcDbLine
 10
-76.695415
 20
85.077507
 30
0.0
 11
-76.695415
 21
52.943915
 31
0.0
  0
LINE
  5
7D
100
AcDbEntity
  8
1
370
    50
100
AcDbLine
 10
-78.0961
 20
85.744036
 30
0.0
 11
-77.10859
 21
85.569911
 31
0.0
  0
ARC
  5
7E
100
AcDbEntity
  8
1
370
    50
100
AcDbCircle
 10
-77.195415
 20
85.077507
 30
0.0
 40
0.5
100
AcDbArc
 50
0.0
 51
80.0
  0
LINE
  5
7F
100
AcDbEntity
  8
1
370
    50
100
AcDbLine
 10
-78.0961
 20
85.744036
 30
0.0
 11
-78.595415
 21
85.717868
 31
0.0
  0
LINE
  5
80
100
AcDbEntity
  8
1
370
    50
100
AcDbLine
 10
-78.595415
 20
85.717868
 30
0.0
 11
-78.595415
 21
52.943915
 31
0.0
  0
LINE
  5
81
100
AcDbEntity
  8
1
370
    50
100
AcDbLine
 10
-105.848342
 20
-26.561562
 30
0.0
 11
-105.828597
 21
-26.184803
 31
0.0
  0
LINE
  5
82
100
AcDbEntity
  8
1
370
    50
100
AcDbLine
 10
-120.940619
 20
-26.54733
 30
0.0
 11
-120.959618
 21
-26.184803
 31
0.0
  0
LINE
  5
83
100
AcDbEntity
  8
1
370
    50
100
AcDbLine
 10
-114.144108
 20
-26.184803
 30
0.0
 11
-114.114463
 21
-26.220378
 31
0.0
  0
LINE
  5
84
100
AcDbEntity
  8
1
370
    50
100
AcDbLine
 10
-113.144108
 20
-26.184803
 30
0.0
 11
-113.114463
 21
-26.220378
 31
0.0
  0
LINE
  5
85
100
AcDbEntity
  8
1
370
    50
100
AcDbLine
 10
-115.144108
 20
-26.184803
 30
0.0
 11
-115.114461
 21
-26.22038
 31
0.0
  0
LINE
  5
86
100
AcDbEntity
  8
1
370
    50
100
AcDbLine
 10
-113.894109
 20
-26.634802
 30
0.0
 11
-114.114463
 21
-26.220378
 31
0.0
  0
LINE
  5
87
100
AcDbEntity
  8
1
370
    50
100
AcDbLine
 10
-113.894109
 20
-26.634802
 30
0.0
 11
-113.612919
 21
-26.184803
 31
0.0
  0
LINE
  5
88
100
AcDbEntity
  8
1
370
    50
100
AcDbLine
 10
-114.894109
 20
-26.634802
 30
0.0
 11
-115.114461
 21
-26.22038
 31
0.0
  0
LINE
  5
89
100
AcDbEntity
  8
1
370
    50
100
AcDbLine
 10
-114.894109
 20
-26.634802
 30
0.0
 11
-114.612918
 21
-26.184803
 31
0.0
  0
LINE
  5
8A
100
AcDbEntity
  8
1
370
    50
100
AcDbLine
 10
-112.894109
 20
-26.634802
 30
0.0
 11
-113.114463
 21
-26.220378
 31
0.0
  0
LINE
  5
8B
100
AcDbEntity
  8
1
370
    50
100
AcDbLine
 10
-112.894109
 20
-26.634802
 30
0.0
 11
-112.612919
 21
-26.184803
 31
0.0
  0
LINE
  5
8C
100
AcDbEntity
  8
1
370
    50
100
AcDbLine
 10
-117.144108
 20
-26.184803
 30
0.0
 11
-117.114463
 21
-26.220378
 31
0.0
  0
LINE
  5
8D
100
AcDbEntity
  8
1
370
    50
100
AcDbLine
 10
-116.144108
 20
-26.184803
 30
0.0
 11
-116.114463
 21
-26.220378
 31
0.0
  0
LINE
  5
8E
100
AcDbEntity
  8
1
370
    50
100
AcDbLine
 10
-118.144108
 20
-26.184803
 30
0.0
 11
-118.114461
 21
-26.22038
 31
0.0
  0
LINE
  5
8F
100
AcDbEntity
  8
1
370
    50
100
AcDbLine
 10
-116.894109
 20
-26.634802
 30
0.0
 11
-117.114463
 21
-26.220378
 31
0.0
  0
LINE
  5
90
100
AcDbEntity
  8
1
370
    50
100
AcDbLine
 10
-116.894109
 20
-26.634802
 30
0.0
 11
-116.612919
 21
-26.184803
 31
0.0
  0
LINE
  5
91
100
AcDbEntity
  8
1
370
    50
100
AcDbLine
 10
-117.894109
 20
-26.634802
 30
0.0
 11
-118.114461
 21
-26.22038
 31
0.0
  0
LINE
  5
92
100
AcDbEntity
  8
1
370
    50
100
AcDbLine
 10
-117.894109
 20
-26.634802
 30
0.0
 11
-117.612918
 21
-26.184803
 31
0.0
  0
LINE
  5
93
100
AcDbEntity
  8
1
370
    50
100
AcDbLine
 10
-115.894109
 20
-26.634802
 30
0.0
 11
-116.114463
 21
-26.220378
 31
0.0
  0
LINE
  5
94
100
AcDbEntity
  8
1
370
    50
100
AcDbLine
 10
-115.894109
 20
-26.634802
 30
0.0
 11
-115.612919
 21
-26.184803
 31
0.0
  0
LINE
  5
95
100
AcDbEntity
  8
1
370
    50
100
AcDbLine
 10
-120.144108
 20
-26.184803
 30
0.0
 11
-120.114463
 21
-26.220378
 31
0.0
  0
LINE
  5
96
100
AcDbEntity
  8
1
370
    50
100
AcDbLine
 10
-119.144108
 20
-26.184803
 30
0.0
 11
-119.114463
 21
-26.220378
 31
0.0
  0
LINE
  5
97
100
AcDbEntity
  8
1
370
    50
100
AcDbLine
 10
-119.894109
 20
-26.634802
 30
0.0
 11
-120.114463
 21
-26.220378
 31
0.0
  0
LINE
  5
98
100
AcDbEntity
  8
1
370
    50
100
AcDbLine
 10
-119.894109
 20
-26.634802
 30
0.0
 11
-119.612919
 21
-26.184803
 31
0.0
  0
LINE
  5
99
100
AcDbEntity
  8
1
370
    50
100
AcDbLine
 10
-120.894109
 20
-26.634802
 30
0.0
 11
-120.940619
 21
-26.54733
 31
0.0
  0
LINE
  5
9A
100
AcDbEntity
  8
1
370
    50
100
AcDbLine
 10
-120.894109
 20
-26.634802
 30
0.0
 11
-120.612918
 21
-26.184803
 31
0.0
  0
LINE
  5
9B
100
AcDbEntity
  8
1
370
    50
100
AcDbLine
 10
-118.894109
 20
-26.634802
 30
0.0
 11
-119.114463
 21
-26.220378
 31
0.0
  0
LINE
  5
9C
100
AcDbEntity
  8
1
370
    50
100
AcDbLine
 10
-118.894109
 20
-26.634802
 30
0.0
 11
-118.612919
 21
-26.184803
 31
0.0
  0
LINE
  5
9D
100
AcDbEntity
  8
1
370
    50
100
AcDbLine
 10
-111.144108
 20
-26.184803
 30
0.0
 11
-111.114463
 21
-26.220378
 31
0.0
  0
LINE
  5
9E
100
AcDbEntity
  8
1
370
    50
100
AcDbLine
 10
-110.144108
 20
-26.184803
 30
0.0
 11
-110.114463
 21
-26.220378
 31
0.0
  0
LINE
  5
9F
100
AcDbEntity
  8
1
370
    50
100
AcDbLine
 10
-112.144108
 20
-26.184803
 30
0.0
 11
-112.114461
 21
-26.22038
 31
0.0
  0
LINE
  5
A0
100
AcDbEntity
  8
1
370
    50
100
AcDbLine
 10
-110.894109
 20
-26.634802
 30
0.0
 11
-111.114463
 21
-26.220378
 31
0.0
  0
LINE
  5
A1
100
AcDbEntity
  8
1
370
    50
100
AcDbLine
 10
-110.894109
 20
-26.634802
 30
0.0
 11
-110.612919
 21
-26.184803
 31
0.0
  0
LINE
  5
A2
100
AcDbEntity
  8
1
370
    50
100
AcDbLine
 10
-111.894109
 20
-26.634802
 30
0.0
 11
-112.114461
 21
-26.22038
 31
0.0
  0
LINE
  5
A3
100
AcDbEntity
  8
1
370
    50
100
AcDbLine
 10
-111.894109
 20
-26.634802
 30
0.0
 11
-111.612918
 21
-26.184803
 31
0.0
  0
LINE
  5
A4
100
AcDbEntity
  8
1
370
    50
100
AcDbLine
 10
-109.894109
 20
-26.634802
 30
0.0
 11
-110.114463
 21
-26.220378
 31
0.0
  0
LINE
  5
A5
100
AcDbEntity
  8
1
370
    50
100
AcDbLine
 10
-109.894109
 20
-26.634802
 30
0.0
 11
-109.612919
 21
-26.184803
 31
0.0
  0
LINE
  5
A6
100
AcDbEntity
  8
1
370
    50
100
AcDbLine
 10
-108.144108
 20
-26.184803
 30
0.0
 11
-108.114463
 21
-26.220378
 31
0.0
  0
LINE
  5
A7
100
AcDbEntity
  8
1
370
    50
100
AcDbLine
 10
-107.144108
 20
-26.184803
 30
0.0
 11
-107.114463
 21
-26.220378
 31
0.0
  0
LINE
  5
A8
100
AcDbEntity
  8
1
370
    50
100
AcDbLine
 10
-109.144108
 20
-26.184803
 30
0.0
 11
-109.114461
 21
-26.22038
 31
0.0
  0
LINE
  5
A9
100
AcDbEntity
  8
1
370
    50
100
AcDbLine
 10
-107.894109
 20
-26.634802
 30
0.0
 11
-108.114463
 21
-26.220378
 31
0.0
  0
LINE
  5
AA
100
AcDbEntity
  8
1
370
    50
100
AcDbLine
 10
-107.894109
 20
-26.634802
 30
0.0
 11
-107.612919
 21
-26.184803
 31
0.0
  0
LINE
  5
AB
100
AcDbEntity
  8
1
370
    50
100
AcDbLine
 10
-108.894109
 20
-26.634802
 30
0.0
 11
-109.114461
 21
-26.22038
 31
0.0
  0
LINE
  5
AC
100
AcDbEntity
  8
1
370
    50
100
AcDbLine
 10
-108.894109
 20
-26.634802
 30
0.0
 11
-108.612918
 21
-26.184803
 31
0.0
  0
LINE
  5
AD
100
AcDbEntity
  8
1
370
    50
100
AcDbLine
 10
-106.894109
 20
-26.634802
 30
0.0
 11
-107.114463
 21
-26.220378
 31
0.0
  0
LINE
  5
AE
100
AcDbEntity
  8
1
370
    50
100
AcDbLine
 10
-106.894109
 20
-26.634802
 30
0.0
 11
-106.612919
 21
-26.184803
 31
0.0
  0
LINE
  5
AF
100
AcDbEntity
  8
1
370
    50
100
AcDbLine
 10
-106.144108
 20
-26.184803
 30
0.0
 11
-106.114461
 21
-26.22038
 31
0.0
  0
LINE
  5
B0
100
AcDbEntity
  8
1
370
    50
100
AcDbLine
 10
-105.894109
 20
-26.634802
 30
0.0
 11
-106.114461
 21
-26.22038
 31
0.0
  0
LINE
  5
B1
100
AcDbEntity
  8
1
370
    50
100
AcDbLine
 10
-105.894107
 20
-26.634802
 30
0.0
 11
-105.848342
 21
-26.561562
 31
0.0
  0
LINE
  5
B2
100
AcDbEntity
  8
1
370
    50
100
AcDbLine
 10
-76.245415
 20
82.88584
 30
0.0
 11
-76.695415
 21
82.909423
 31
0.0
  0
LINE
  5
B3
100
AcDbEntity
  8
1
370
    50
100
AcDbLine
 10
-76.245415
 20
82.88584
 30
0.0
 11
-76.245415
 21
73.001987
 31
0.0
  0
LINE
  5
B4
100
AcDbEntity
  8
1
370
    50
100
AcDbLine
 10
-76.245415
 20
73.001987
 30
0.0
 11
-76.695415
 21
72.978404
 31
0.0
  0
LINE
  5
B5
100
AcDbEntity
  8
1
370
    50
100
AcDbLine
 10
-76.245415
 20
23.00199
 30
0.0
 11
-76.695415
 21
22.978406
 31
0.0
  0
LINE
  5
B6
100
AcDbEntity
  8
1
370
    50
100
AcDbLine
 10
-76.245415
 20
23.00199
 30
0.0
 11
-76.245415
 21
32.885842
 31
0.0
  0
LINE
  5
B7
100
AcDbEntity
  8
1
370
    50
100
AcDbLine
 10
-76.245415
 20
32.885842
 30
0.0
 11
-76.695415
 21
32.909426
 31
0.0
  0
LINE
  5
B8
100
AcDbEntity
  8
1
370
    50
100
AcDbLine
 10
-101.394107
 20
85.943916
 30
0.0
 11
-133.894107
 21
85.943916
 31
0.0
  0
LINE
  5
B9
100
AcDbEntity
  8
1
370
    50
100
AcDbLine
 10
-101.394107
 20
85.943916
 30
0.0
 11
-101.394107
 21
19.943916
 31
0.0
  0
LINE
  5
BA
100
AcDbEntity
  8
1
370
    50
100
AcDbLine
 10
-138.894107
 20
80.943916
 30
0.0
 11
-138.894107
 21
24.943916
 31
0.0
  0
ARC
  5
BB
100
AcDbEntity
  8
1
370
    50
100
AcDbCircle
 10
-133.894107
 20
80.943916
 30
0.0
 40
5.0
100
AcDbArc
 50
90.0
 51
180.0
  0
LINE
  5
BC
100
AcDbEntity
  8
1
370
    50
100
AcDbLine
 10
-106.394107
 20
64.443916
 30
0.0
 11
-106.394107
 21
41.443916
 31
0.0
  0
LINE
  5
BD
100
AcDbEntity
  8
1
370
    50
100
AcDbLine
 10
-108.394107
 20
66.443916
 30
0.0
 11
-122.194107
 21
66.443916
 31
0.0
  0
ARC
  5
BE
100
AcDbEntity
  8
1
370
    50
100
AcDbCircle
 10
-108.394107
 20
64.443916
 30
0.0
 40
2.0
100
AcDbArc
 50
0.0
 51
90.0
  0
LINE
  5
BF
100
AcDbEntity
  8
1
370
    50
100
AcDbLine
 10
-124.494107
 20
56.543916
 30
0.0
 11
-129.894107
 21
56.543916
 31
0.0
  0
LINE
  5
C0
100
AcDbEntity
  8
1
370
    18
  6
DASHED
100
AcDbLine
 10
-136.394107
 20
85.274043
 30
0.0
 11
-136.394107
 21
20.613789
 31
0.0
  0
ARC
  5
C1
100
AcDbEntity
  8
1
370
    50
100
AcDbCircle
 10
-122.194107
 20
64.443916
 30
0.0
 40
2.0
100
AcDbArc
 50
90.0
 51
180.0
  0
LINE
  5
C2
100
AcDbEntity
  8
1
370
    50
100
AcDbLine
 10
-124.194107
 20
62.943916
 30
0.0
 11
-124.194107
 21
64.443916
 31
0.0
  0
ARC
  5
C3
100
AcDbEntity
  8
1
370
    50
100
AcDbCircle
 10
-124.494107
 20
56.843916
 30
0.0
 40
0.3
100
AcDbArc
 50
270.0
 51
360.0
  0
LINE
  5
C4
100
AcDbEntity
  8
1
370
    50
100
AcDbLine
 10
-130.194107
 20
56.243916
 30
0.0
 11
-130.194107
 21
49.643916
 31
0.0
  0
ARC
  5
C5
100
AcDbEntity
  8
1
370
    50
100
AcDbCircle
 10
-129.894107
 20
56.243916
 30
0.0
 40
0.3
100
AcDbArc
 50
90.0
 51
180.0
  0
CIRCLE
  5
C6
100
AcDbEntity
  8
1
370
    25
100
AcDbCircle
 10
-113.894107
 20
77.943916
 30
0.0
 40
4.1
  0
LINE
  5
C7
100
AcDbEntity
  8
1
370
    50
100
AcDbLine
 10
-101.394107
 20
19.943916
 30
0.0
 11
-133.894107
 21
19.943916
 31
0.0
  0
ARC
  5
C8
100
AcDbEntity
  8
1
370
    50
100
AcDbCircle
 10
-133.894107
 20
24.943916
 30
0.0
 40
5.0
100
AcDbArc
 50
180.0
 51
270.0
  0
LINE
  5
C9
100
AcDbEntity
  8
1
370
    50
100
AcDbLine
 10
-108.394107
 20
39.443916
 30
0.0
 11
-122.194107
 21
39.443916
 31
0.0
  0
ARC
  5
CA
100
AcDbEntity
  8
1
370
    50
100
AcDbCircle
 10
-108.394107
 20
41.443916
 30
0.0
 40
2.0
100
AcDbArc
 50
270.0
 51
360.0
  0
LINE
  5
CB
100
AcDbEntity
  8
1
370
    50
100
AcDbLine
 10
-124.494107
 20
49.343916
 30
0.0
 11
-129.894107
 21
49.343916
 31
0.0
  0
ARC
  5
CC
100
AcDbEntity
  8
1
370
    50
100
AcDbCircle
 10
-122.194107
 20
41.443916
 30
0.0
 40
2.0
100
AcDbArc
 50
180.0
 51
270.0
  0
LINE
  5
CD
100
AcDbEntity
  8
1
370
    50
100
AcDbLine
 10
-124.194107
 20
42.943916
 30
0.0
 11
-124.194107
 21
41.443916
 31
0.0
  0
ARC
  5
CE
100
AcDbEntity
  8
1
370
    50
100
AcDbCircle
 10
-124.494107
 20
49.043916
 30
0.0
 40
0.3
100
AcDbArc
 50
0.0
 51
90.0
  0
ARC
  5
CF
100
AcDbEntity
  8
1
370
    50
100
AcDbCircle
 10
-129.894107
 20
49.643916
 30
0.0
 40
0.3
100
AcDbArc
 50
180.0
 51
270.0
  0
CIRCLE
  5
D0
100
AcDbEntity
  8
1
370
    25
100
AcDbCircle
 10
-113.894107
 20
27.943916
 30
0.0
 40
4.1
  0
LINE
  5
D1
100
AcDbEntity
  8
1
370
    50
100
AcDbLine
 10
-101.394107
 20
-24.284803
 30
0.0
 11
-101.394107
 21
-23.284803
 31
0.0
  0
LINE
  5
D2
100
AcDbEntity
  8
1
370
    50
100
AcDbLine
 10
-138.835529
 20
-25.560539
 30
0.0
 11
-136.940554
 21
-23.665564
 31
0.0
  0
LINE
  5
D3
100
AcDbEntity
  8
1
370
    50
100
AcDbLine
 10
-138.057711
 20
-26.196935
 30
0.0
 11
-136.233447
 21
-24.372671
 31
0.0
  0
LINE
  5
D4
100
AcDbEntity
  8
1
370
    50
100
AcDbLine
 10
-138.481975
 20
-26.196935
 30
0.0
 11
-138.835529
 21
-25.843382
 31
0.0
  0
ARC
  5
D5
100
AcDbEntity
  8
1
370
    50
100
AcDbCircle
 10
-138.269843
 20
-25.984803
 30
0.0
 40
0.3
100
AcDbArc
 50
225.0
 51
315.0
  0
ARC
  5
D6
100
AcDbEntity
  8
1
370
    50
100
AcDbCircle
 10
-138.694107
 20
-25.70196
 30
0.0
 40
0.2
100
AcDbArc
 50
135.0
 51
225.0
  0
ARC
  5
D7
100
AcDbEntity
  8
1
370
    50
100
AcDbCircle
 10
-136.021315
 20
-24.584803
 30
0.0
 40
1.3
100
AcDbArc
 50
90.0
 51
135.0
  0
ARC
  5
D8
100
AcDbEntity
  8
1
370
    50
100
AcDbCircle
 10
-136.021315
 20
-24.584803
 30
0.0
 40
0.3
100
AcDbArc
 50
90.0
 51
135.0
  0
LINE
  5
D9
100
AcDbEntity
  8
1
370
    50
100
AcDbLine
 10
-79.595415
 20
19.943915
 30
0.0
 11
-78.595415
 21
19.943915
 31
0.0
  0
ARC
  5
DA
100
AcDbEntity
  8
1
370
    50
100
AcDbCircle
 10
-83.845415
 20
24.943915
 30
0.0
 40
7.25
100
AcDbArc
 50
316.397181
 51
318.707567
  0
LINE
  5
DB
100
AcDbEntity
  8
1
370
    50
100
AcDbLine
 10
-78.595415
 20
19.943915
 30
0.0
 11
-78.595415
 21
20.169962
 31
0.0
  0
LINE
  5
DC
100
AcDbEntity
  8
1
370
    50
100
AcDbLine
 10
-79.595415
 20
19.943915
 30
0.0
 11
-79.595415
 21
52.943915
 31
0.0
  0
LINE
  5
DD
100
AcDbEntity
  8
1
370
    50
100
AcDbLine
 10
-136.021315
 20
-24.284803
 30
0.0
 11
-101.394107
 21
-24.284803
 31
0.0
  0
LINE
  5
DE
100
AcDbEntity
  8
1
370
    50
100
AcDbLine
 10
-101.394107
 20
-23.284803
 30
0.0
 11
-136.021315
 21
-23.284803
 31
0.0
  0
LINE
  5
DF
100
AcDbEntity
  8
1
370
    18
  6
CENTER
100
AcDbLine
 10
-100.026852
 20
52.943916
 30
0.0
 11
-141.497542
 21
52.943916
 31
0.0
  0
LINE
  5
E0
100
AcDbEntity
  8
1
370
    18
  6
CENTER
100
AcDbLine
 10
-113.894107
 20
90.891332
 30
0.0
 11
-113.894107
 21
17.610036
 31
0.0
  0
LINE
  5
E1
100
AcDbEntity
  8
1
370
    18
  6
CENTER
100
AcDbLine
 10
-100.026852
 20
77.943916
 30
0.0
 11
-124.948624
 21
77.943916
 31
0.0
  0
LINE
  5
E2
100
AcDbEntity
  8
1
370
    18
  6
CENTER
100
AcDbLine
 10
-100.026852
 20
27.943916
 30
0.0
 11
-124.948624
 21
27.943916
 31
0.0
  0
POINT
  5
E3
100
AcDbEntity
  8
1
370
    50
100
AcDbPoint
 10
-138.269843
 20
-26.284803
 30
0.0
  0
LINE
  5
E4
100
AcDbEntity
  8
1
370
    50
100
AcDbLine
 10
-79.595415
 20
85.943915
 30
0.0
 11
-78.595415
 21
85.943915
 31
0.0
  0
ARC
  5
E5
100
AcDbEntity
  8
1
370
    50
100
AcDbCircle
 10
-83.845415
 20
80.943915
 30
0.0
 40
7.25
100
AcDbArc
 50
41.292433
 51
43.602819
  0
LINE
  5
E6
100
AcDbEntity
  8
1
370
    50
100
AcDbLine
 10
-78.595415
 20
85.943915
 30
0.0
 11
-78.595415
 21
85.717868
 31
0.0
  0
LINE
  5
E7
100
AcDbEntity
  8
1
370
    50
100
AcDbLine
 10
-79.595415
 20
85.943915
 30
0.0
 11
-79.595415
 21
52.943915
 31
0.0
  0
LINE
  5
E8
100
AcDbEntity
  8
1
370
    50
100
AcDbLine
 10
-73.111444
 20
29.443916
 30
0.0
 11
-64.843495
 21
29.443916
 31
0.0
  0
LINE
  5
E9
100
AcDbEntity
  8
1
370
    50
100
AcDbLine
 10
-72.307596
 20
26.443916
 30
0.0
 11
-64.843495
 21
26.443916
 31
0.0
  0
LINE
  5
EA
100
AcDbEntity
  8
1
370
    50
100
AcDbLine
 10
-59.245418
 20
27.943916
 30
0.0
 11
-64.843495
 21
26.443916
 31
0.0
  0
LINE
  5
EB
100
AcDbEntity
  8
1
370
    50
100
AcDbLine
 10
-59.245418
 20
27.943916
 30
0.0
 11
-64.843495
 21
29.443916
 31
0.0
  0
LINE
  5
EC
100
AcDbEntity
  8
1
370
    25
100
AcDbLine
 10
-71.178431
 20
29.693916
 30
0.0
 11
-70.240609
 21
26.193916
 31
0.0
  0
LINE
  5
ED
100
AcDbEntity
  8
1
370
    25
100
AcDbLine
 10
-69.178431
 20
29.693916
 30
0.0
 11
-68.240609
 21
26.193916
 31
0.0
  0
LINE
  5
EE
100
AcDbEntity
  8
1
370
    25
100
AcDbLine
 10
-67.178431
 20
29.693916
 30
0.0
 11
-66.240609
 21
26.193916
 31
0.0
  0
LINE
  5
EF
100
AcDbEntity
  8
1
370
    25
100
AcDbLine
 10
-65.178431
 20
29.693916
 30
0.0
 11
-64.240609
 21
26.193916
 31
0.0
  0
LINE
  5
F0
100
AcDbEntity
  8
1
370
    25
100
AcDbLine
 10
-63.126899
 20
29.501594
 30
0.0
 11
-62.34806
 21
26.594928
 31
0.0
  0
LINE
  5
F1
100
AcDbEntity
  8
1
370
    25
100
AcDbLine
 10
-60.972198
 20
28.924243
 30
0.0
 11
-60.482034
 21
27.094928
 31
0.0
  0
LINE
  5
F2
100
AcDbEntity
  8
1
370
    25
100
AcDbLine
 10
-73.178431
 20
29.693916
 30
0.0
 11
-72.240609
 21
26.193916
 31
0.0
  0
LINE
  5
F3
100
AcDbEntity
  8
1
370
    50
100
AcDbLine
 10
-76.245415
 20
29.693916
 30
0.0
 11
-73.178431
 21
29.693916
 31
0.0
  0
LINE
  5
F4
100
AcDbEntity
  8
1
370
    50
100
AcDbLine
 10
-76.245415
 20
26.193916
 30
0.0
 11
-72.240609
 21
26.193916
 31
0.0
  0
CIRCLE
  5
F5
100
AcDbEntity
  8
1
370
    50
100
AcDbCircle
 10
-113.894107
 20
77.943916
 30
0.0
 40
3.5
  0
ARC
  5
F6
100
AcDbEntity
  8
1
370
    25
100
AcDbCircle
 10
-111.744107
 20
80.093916
 30
0.0
 40
1.658571
100
AcDbArc
 50
180.0
 51
270.0
  0
ARC
  5
F7
100
AcDbEntity
  8
1
370
    25
100
AcDbCircle
 10
-116.044107
 20
80.093916
 30
0.0
 40
1.658571
100
AcDbArc
 50
270.0
 51
360.0
  0
ARC
  5
F8
100
AcDbEntity
  8
1
370
    25
100
AcDbCircle
 10
-116.044107
 20
75.793916
 30
0.0
 40
1.658571
100
AcDbArc
 50
0.0
 51
90.0
  0
ARC
  5
F9
100
AcDbEntity
  8
1
370
    25
100
AcDbCircle
 10
-111.744107
 20
75.793916
 30
0.0
 40
1.658571
100
AcDbArc
 50
90.0
 51
180.0
  0
LINE
  5
FA
100
AcDbEntity
  8
1
370
    25
100
AcDbLine
 10
-113.894107
 20
75.793916
 30
0.0
 11
-113.402679
 21
75.793916
 31
0.0
  0
LINE
  5
FB
100
AcDbEntity
  8
1
370
    25
100
AcDbLine
 10
-113.894107
 20
75.793916
 30
0.0
 11
-114.385536
 21
75.793916
 31
0.0
  0
LINE
  5
FC
100
AcDbEntity
  8
1
370
    25
100
AcDbLine
 10
-116.044107
 20
77.452488
 30
0.0
 11
-116.044107
 21
77.943916
 31
0.0
  0
LINE
  5
FD
100
AcDbEntity
  8
1
370
    25
100
AcDbLine
 10
-116.044107
 20
78.435345
 30
0.0
 11
-116.044107
 21
77.943916
 31
0.0
  0
LINE
  5
FE
100
AcDbEntity
  8
1
370
    25
100
AcDbLine
 10
-113.894107
 20
80.093916
 30
0.0
 11
-114.385536
 21
80.093916
 31
0.0
  0
LINE
  5
FF
100
AcDbEntity
  8
1
370
    25
100
AcDbLine
 10
-113.894107
 20
80.093916
 30
0.0
 11
-113.402679
 21
80.093916
 31
0.0
  0
LINE
  5
100
100
AcDbEntity
  8
1
370
    25
100
AcDbLine
 10
-111.744107
 20
78.435345
 30
0.0
 11
-111.744107
 21
77.943916
 31
0.0
  0
LINE
  5
101
100
AcDbEntity
  8
1
370
    25
100
AcDbLine
 10
-111.744107
 20
77.452488
 30
0.0
 11
-111.744107
 21
77.943916
 31
0.0
  0
CIRCLE
  5
102
100
AcDbEntity
  8
1
370
    50
100
AcDbCircle
 10
-113.894107
 20
27.943916
 30
0.0
 40
3.5
  0
ARC
  5
103
100
AcDbEntity
  8
1
370
    25
100
AcDbCircle
 10
-111.744107
 20
30.093916
 30
0.0
 40
1.658571
100
AcDbArc
 50
180.0
 51
270.0
  0
ARC
  5
104
100
AcDbEntity
  8
1
370
    25
100
AcDbCircle
 10
-116.044107
 20
30.093916
 30
0.0
 40
1.658571
100
AcDbArc
 50
270.0
 51
360.0
  0
ARC
  5
105
100
AcDbEntity
  8
1
370
    25
100
AcDbCircle
 10
-116.044107
 20
25.793916
 30
0.0
 40
1.658571
100
AcDbArc
 50
0.0
 51
90.0
  0
ARC
  5
106
100
AcDbEntity
  8
1
370
    25
100
AcDbCircle
 10
-111.744107
 20
25.793916
 30
0.0
 40
1.658571
100
AcDbArc
 50
90.0
 51
180.0
  0
LINE
  5
107
100
AcDbEntity
  8
1
370
    25
100
AcDbLine
 10
-113.894107
 20
25.793916
 30
0.0
 11
-113.402679
 21
25.793916
 31
0.0
  0
LINE
  5
108
100
AcDbEntity
  8
1
370
    25
100
AcDbLine
 10
-113.894107
 20
25.793916
 30
0.0
 11
-114.385536
 21
25.793916
 31
0.0
  0
LINE
  5
109
100
AcDbEntity
  8
1
370
    25
100
AcDbLine
 10
-116.044107
 20
27.452488
 30
0.0
 11
-116.044107
 21
27.943916
 31
0.0
  0
LINE
  5
10A
100
AcDbEntity
  8
1
370
    25
100
AcDbLine
 10
-116.044107
 20
28.435345
 30
0.0
 11
-116.044107
 21
27.943916
 31
0.0
  0
LINE
  5
10B
100
AcDbEntity
  8
1
370
    25
100
AcDbLine
 10
-113.894107
 20
30.093916
 30
0.0
 11
-114.385536
 21
30.093916
 31
0.0
  0
LINE
  5
10C
100
AcDbEntity
  8
1
370
    25
100
AcDbLine
 10
-113.894107
 20
30.093916
 30
0.0
 11
-113.402679
 21
30.093916
 31
0.0
  0
LINE
  5
10D
100
AcDbEntity
  8
1
370
    25
100
AcDbLine
 10
-111.744107
 20
28.435345
 30
0.0
 11
-111.744107
 21
27.943916
 31
0.0
  0
LINE
  5
10E
100
AcDbEntity
  8
1
370
    25
100
AcDbLine
 10
-111.744107
 20
27.452488
 30
0.0
 11
-111.744107
 21
27.943916
 31
0.0
  0
LINE
  5
10F
100
AcDbEntity
  8
1
370
    50
100
AcDbLine
 10
-112.394107
 20
-29.770078
 30
0.0
 11
-112.394107
 21
-38.038027
 31
0.0
  0
LINE
  5
110
100
AcDbEntity
  8
1
370
    50
100
AcDbLine
 10
-115.394107
 20
-30.573925
 30
0.0
 11
-115.394107
 21
-38.038027
 31
0.0
  0
LINE
  5
111
100
AcDbEntity
  8
1
370
    50
100
AcDbLine
 10
-113.894107
 20
-43.636103
 30
0.0
 11
-115.394107
 21
-38.038027
 31
0.0
  0
LINE
  5
112
100
AcDbEntity
  8
1
370
    50
100
AcDbLine
 10
-113.894107
 20
-43.636103
 30
0.0
 11
-112.394107
 21
-38.038027
 31
0.0
  0
LINE
  5
113
100
AcDbEntity
  8
1
370
    25
100
AcDbLine
 10
-112.144107
 20
-31.70309
 30
0.0
 11
-115.644107
 21
-32.640913
 31
0.0
  0
LINE
  5
114
100
AcDbEntity
  8
1
370
    25
100
AcDbLine
 10
-112.144107
 20
-33.70309
 30
0.0
 11
-115.644107
 21
-34.640913
 31
0.0
  0
LINE
  5
115
100
AcDbEntity
  8
1
370
    25
100
AcDbLine
 10
-112.144107
 20
-35.70309
 30
0.0
 11
-115.644107
 21
-36.640913
 31
0.0
  0
LINE
  5
116
100
AcDbEntity
  8
1
370
    25
100
AcDbLine
 10
-112.144107
 20
-37.70309
 30
0.0
 11
-115.644107
 21
-38.640913
 31
0.0
  0
LINE
  5
117
100
AcDbEntity
  8
1
370
    25
100
AcDbLine
 10
-112.33643
 20
-39.754623
 30
0.0
 11
-115.243096
 21
-40.533462
 31
0.0
  0
LINE
  5
118
100
AcDbEntity
  8
1
370
    25
100
AcDbLine
 10
-112.91378
 20
-41.909324
 30
0.0
 11
-114.743096
 21
-42.399487
 31
0.0
  0
LINE
  5
119
100
AcDbEntity
  8
1
370
    25
100
AcDbLine
 10
-112.144107
 20
-29.70309
 30
0.0
 11
-115.644107
 21
-30.640913
 31
0.0
  0
LINE
  5
11A
100
AcDbEntity
  8
1
370
    50
100
AcDbLine
 10
-112.144107
 20
-26.184804
 30
0.0
 11
-112.144107
 21
-29.70309
 31
0.0
  0
LINE
  5
11B
100
AcDbEntity
  8
1
370
    50
100
AcDbLine
 10
-115.644107
 20
-26.184802
 30
0.0
 11
-115.644107
 21
-30.640913
 31
0.0
  0
LINE
  5
11C
100
AcDbEntity
  8
1
370
    50
100
AcDbLine
 10
-73.111444
 20
79.443912
 30
0.0
 11
-64.843495
 21
79.443912
 31
0.0
  0
LINE
  5
11D
100
AcDbEntity
  8
1
370
    50
100
AcDbLine
 10
-72.307596
 20
76.443912
 30
0.0
 11
-64.843495
 21
76.443912
 31
0.0
  0
LINE
  5
11E
100
AcDbEntity
  8
1
370
    50
100
AcDbLine
 10
-59.245418
 20
77.943912
 30
0.0
 11
-64.843495
 21
76.443912
 31
0.0
  0
LINE
  5
11F
100
AcDbEntity
  8
1
370
    50
100
AcDbLine
 10
-59.245418
 20
77.943912
 30
0.0
 11
-64.843495
 21
79.443912
 31
0.0
  0
LINE
  5
120
100
AcDbEntity
  8
1
370
    25
100
AcDbLine
 10
-71.178431
 20
79.693912
 30
0.0
 11
-70.240609
 21
76.193912
 31
0.0
  0
LINE
  5
121
100
AcDbEntity
  8
1
370
    25
100
AcDbLine
 10
-69.178431
 20
79.693912
 30
0.0
 11
-68.240609
 21
76.193912
 31
0.0
  0
LINE
  5
122
100
AcDbEntity
  8
1
370
    25
100
AcDbLine
 10
-67.178431
 20
79.693912
 30
0.0
 11
-66.240609
 21
76.193912
 31
0.0
  0
LINE
  5
123
100
AcDbEntity
  8
1
370
    25
100
AcDbLine
 10
-65.178431
 20
79.693912
 30
0.0
 11
-64.240609
 21
76.193912
 31
0.0
  0
LINE
  5
124
100
AcDbEntity
  8
1
370
    25
100
AcDbLine
 10
-63.126899
 20
79.50159
 30
0.0
 11
-62.34806
 21
76.594924
 31
0.0
  0
LINE
  5
125
100
AcDbEntity
  8
1
370
    25
100
AcDbLine
 10
-60.972198
 20
78.924239
 30
0.0
 11
-60.482034
 21
77.094924
 31
0.0
  0
LINE
  5
126
100
AcDbEntity
  8
1
370
    25
100
AcDbLine
 10
-73.178431
 20
79.693912
 30
0.0
 11
-72.240609
 21
76.193912
 31
0.0
  0
LINE
  5
127
100
AcDbEntity
  8
1
370
    50
100
AcDbLine
 10
-76.245415
 20
79.693912
 30
0.0
 11
-73.178431
 21
79.693912
 31
0.0
  0
LINE
  5
128
100
AcDbEntity
  8
1
370
    50
100
AcDbLine
 10
-76.245415
 20
76.193912
 30
0.0
 11
-72.240609
 21
76.193912
 31
0.0
  0
POINT
  5
129
100
AcDbEntity
  8
1
370
    50
100
AcDbPoint
 10
-120.894107
 20
66.443916
 30
0.0
  0
POINT
  5
12A
100
AcDbEntity
  8
1
370
    50
100
AcDbPoint
 10
-123.894107
 20
66.443916
 30
0.0
  0
POINT
  5
12B
100
AcDbEntity
  8
1
370
    50
100
AcDbPoint
 10
-118.894107
 20
66.443916
 30
0.0
  0
LINE
  5
12C
100
AcDbEntity
  8
1
370
    18
  6
CENTER
100
AcDbLine
 10
128.279598
 20
52.943915
 30
0.0
 11
142.232356
 21
52.943915
 31
0.0
  0
LINE
  5
12D
100
AcDbEntity
  8
1
370
    50
100
AcDbLine
 10
130.204585
 20
52.943915
 30
0.0
 11
130.204585
 21
49.602652
 31
0.0
  0
LINE
  5
12E
100
AcDbEntity
  8
1
370
    50
100
AcDbLine
 10
140.404585
 20
52.943915
 30
0.0
 11
140.404585
 21
40.023232
 31
0.0
  0
LINE
  5
12F
100
AcDbEntity
  8
1
370
    50
100
AcDbLine
 10
130.404585
 20
49.402644
 30
0.0
 11
130.40284
 21
49.40266
 31
0.0
  0
ARC
  5
130
100
AcDbEntity
  8
1
370
    50
100
AcDbCircle
 10
130.404585
 20
49.602652
 30
0.0
 40
0.2
100
AcDbArc
 50
180.0
 51
269.5
  0
LINE
  5
131
100
AcDbEntity
  8
1
370
    50
100
AcDbLine
 10
133.304585
 20
37.843917
 30
0.0
 11
138.474384
 21
38.024451
 31
0.0
  0
ARC
  5
132
100
AcDbEntity
  8
1
370
    50
100
AcDbCircle
 10
138.404585
 20
40.023232
 30
0.0
 40
2.0
100
AcDbArc
 50
272.0
 51
0.0
  0
LINE
  5
133
100
AcDbEntity
  8
1
370
    18
  6
CENTER
100
AcDbLine
 10
126.343391
 20
27.943917
 30
0.0
 11
157.636245
 21
27.943917
 31
0.0
  0
LINE
  5
134
100
AcDbEntity
  8
1
370
    50
100
AcDbLine
 10
133.304585
 20
20.810322
 30
0.0
 11
133.304585
 21
52.943915
 31
0.0
  0
LINE
  5
135
100
AcDbEntity
  8
1
370
    50
100
AcDbLine
 10
131.9039
 20
20.143794
 30
0.0
 11
132.89141
 21
20.317918
 31
0.0
  0
ARC
  5
136
100
AcDbEntity
  8
1
370
    50
100
AcDbCircle
 10
132.804585
 20
20.810322
 30
0.0
 40
0.5
100
AcDbArc
 50
280.0
 51
360.0
  0
LINE
  5
137
100
AcDbEntity
  8
1
370
    50
100
AcDbLine
 10
131.9039
 20
20.143794
 30
0.0
 11
131.404585
 21
20.169962
 31
0.0
  0
LINE
  5
138
100
AcDbEntity
  8
1
370
    50
100
AcDbLine
 10
82.805893
 20
56.193916
 30
0.0
 11
82.805893
 21
49.693916
 31
0.0
  0
ARC
  5
139
100
AcDbEntity
  8
1
370
    50
100
AcDbCircle
 10
92.105893
 20
63.743916
 30
0.0
 40
3.0
100
AcDbArc
 50
115.841933
 51
180.0
  0
LINE
  5
13A
100
AcDbEntity
  8
1
370
    50
100
AcDbLine
 10
89.105893
 20
56.493916
 30
0.0
 11
83.105893
 21
56.493916
 31
0.0
  0
LINE
  5
13B
100
AcDbEntity
  8
1
370
    50
100
AcDbLine
 10
89.105893
 20
63.743916
 30
0.0
 11
89.105893
 21
42.143916
 31
0.0
  0
ARC
  5
13C
100
AcDbEntity
  8
1
370
    50
100
AcDbCircle
 10
83.105893
 20
56.193916
 30
0.0
 40
0.3
100
AcDbArc
 50
90.0
 51
180.0
  0
LINE
  5
13D
100
AcDbEntity
  8
1
370
    50
100
AcDbLine
 10
86.805893
 20
56.493916
 30
0.0
 11
86.805893
 21
60.943916
 31
0.0
  0
LINE
  5
13E
100
AcDbEntity
  8
1
370
    50
100
AcDbLine
 10
87.805893
 20
56.493916
 30
0.0
 11
87.805893
 21
60.943916
 31
0.0
  0
LINE
  5
13F
100
AcDbEntity
  8
1
370
    50
100
AcDbLine
 10
85.805893
 20
56.493916
 30
0.0
 11
85.805893
 21
62.943916
 31
0.0
  0
ARC
  5
140
100
AcDbEntity
  8
1
370
    50
100
AcDbCircle
 10
92.105893
 20
42.143916
 30
0.0
 40
3.0
100
AcDbArc
 50
180.0
 51
244.158067
  0
LINE
  5
141
100
AcDbEntity
  8
1
370
    50
100
AcDbLine
 10
89.105893
 20
49.393916
 30
0.0
 11
83.105893
 21
49.393916
 31
0.0
  0
ARC
  5
142
100
AcDbEntity
  8
1
370
    50
100
AcDbCircle
 10
83.105893
 20
49.693916
 30
0.0
 40
0.3
100
AcDbArc
 50
180.0
 51
270.0
  0
LINE
  5
143
100
AcDbEntity
  8
1
370
    50
100
AcDbLine
 10
86.805893
 20
49.393916
 30
0.0
 11
86.805893
 21
44.943916
 31
0.0
  0
LINE
  5
144
100
AcDbEntity
  8
1
370
    50
100
AcDbLine
 10
87.805893
 20
49.393916
 30
0.0
 11
87.805893
 21
44.943916
 31
0.0
  0
LINE
  5
145
100
AcDbEntity
  8
1
370
    50
100
AcDbLine
 10
85.805893
 20
49.393916
 30
0.0
 11
85.805893
 21
42.943916
 31
0.0
  0
LINE
  5
146
100
AcDbEntity
  8
1
370
    50
100
AcDbLine
 10
83.014627
 20
-23.084803
 30
0.0
 11
88.114581
 21
-23.084803
 31
0.0
  0
ARC
  5
147
100
AcDbEntity
  8
1
370
    50
100
AcDbCircle
 10
88.114581
 20
-24.084803
 30
0.0
 40
1.0
100
AcDbArc
 50
53.130102
 51
90.0
  0
LINE
  5
148
100
AcDbEntity
  8
1
370
    50
100
AcDbLine
 10
77.305893
 20
-24.784803
 30
0.0
 11
77.805893
 21
-24.284803
 31
0.0
  0
LINE
  5
149
100
AcDbEntity
  8
1
370
    50
100
AcDbLine
 10
77.305893
 20
-24.784803
 30
0.0
 11
77.479896
 21
-25.771627
 31
0.0
  0
ARC
  5
14A
100
AcDbEntity
  8
1
370
    50
100
AcDbCircle
 10
77.9723
 20
-25.684803
 30
0.0
 40
0.5
100
AcDbArc
 50
190.0
 51
270.0
  0
LINE
  5
14B
100
AcDbEntity
  8
1
370
    50
100
AcDbLine
 10
106.605893
 20
-24.784803
 30
0.0
 11
106.431889
 21
-25.771627
 31
0.0
  0
LINE
  5
14C
100
AcDbEntity
  8
1
370
    50
100
AcDbLine
 10
105.405893
 20
-26.184803
 30
0.0
 11
105.225359
 21
-31.354602
 31
0.0
  0
ARC
  5
14D
100
AcDbEntity
  8
1
370
    50
100
AcDbCircle
 10
103.226578
 20
-31.284803
 30
0.0
 40
2.0
100
AcDbArc
 50
270.0
 51
358.0
  0
LINE
  5
14E
100
AcDbEntity
  8
1
370
    50
100
AcDbLine
 10
87.305893
 20
-26.184803
 30
0.0
 11
87.486426
 21
-31.354602
 31
0.0
  0
ARC
  5
14F
100
AcDbEntity
  8
1
370
    50
100
AcDbCircle
 10
89.485208
 20
-31.284803
 30
0.0
 40
2.0
100
AcDbArc
 50
182.0
 51
270.0
  0
LINE
  5
150
100
AcDbEntity
  8
1
370
    50
100
AcDbLine
 10
105.939485
 20
-26.184803
 30
0.0
 11
77.9723
 21
-26.184803
 31
0.0
  0
LINE
  5
151
100
AcDbEntity
  8
1
370
    50
100
AcDbLine
 10
82.814635
 20
-23.283058
 30
0.0
 11
82.81462
 21
-23.284803
 31
0.0
  0
ARC
  5
152
100
AcDbEntity
  8
1
370
    50
100
AcDbCircle
 10
83.014627
 20
-23.284803
 30
0.0
 40
0.2
100
AcDbArc
 50
90.0
 51
179.5
  0
ARC
  5
153
100
AcDbEntity
  8
1
370
    50
100
AcDbCircle
 10
105.939485
 20
-25.684803
 30
0.0
 40
0.5
100
AcDbArc
 50
270.0
 51
350.0
  0
LINE
  5
154
100
AcDbEntity
  8
1
370
    50
100
AcDbLine
 10
106.605893
 20
-24.784803
 30
0.0
 11
106.579689
 21
-24.284803
 31
0.0
  0
LINE
  5
155
100
AcDbEntity
  8
1
370
    50
100
AcDbLine
 10
131.404585
 20
20.169962
 30
0.0
 11
131.404585
 21
52.943915
 31
0.0
  0
LINE
  5
156
100
AcDbEntity
  8
1
370
    50
100
AcDbLine
 10
89.485208
 20
-33.284803
 30
0.0
 11
94.605893
 21
-33.284803
 31
0.0
  0
LINE
  5
157
100
AcDbEntity
  8
1
370
    50
100
AcDbLine
 10
97.605893
 20
-33.284803
 30
0.0
 11
103.226578
 21
-33.284803
 31
0.0
  0
LINE
  5
158
100
AcDbEntity
  8
1
370
    18
  6
CENTER
100
AcDbLine
 10
96.105893
 20
-18.869352
 30
0.0
 11
96.105893
 21
-47.582727
 31
0.0
  0
ARC
  5
159
100
AcDbEntity
  8
1
370
    25
  6
PHANTOM
100
AcDbCircle
 10
89.105893
 20
63.743916
 30
0.0
 40
3.0
100
AcDbArc
 50
115.841933
 51
180.0
  0
LINE
  5
15A
100
AcDbEntity
  8
1
370
    25
  6
PHANTOM
100
AcDbLine
 10
86.105893
 20
63.743916
 30
0.0
 11
86.105893
 21
42.143916
 31
0.0
  0
ARC
  5
15B
100
AcDbEntity
  8
1
370
    25
  6
PHANTOM
100
AcDbCircle
 10
89.105893
 20
42.143916
 30
0.0
 40
3.0
100
AcDbArc
 50
180.0
 51
244.158067
  0
ARC
  5
15C
100
AcDbEntity
  8
1
370
    25
  6
PHANTOM
100
AcDbCircle
 10
94.105893
 20
63.743916
 30
0.0
 40
3.0
100
AcDbArc
 50
115.841933
 51
180.0
  0
LINE
  5
15D
100
AcDbEntity
  8
1
370
    25
  6
PHANTOM
100
AcDbLine
 10
91.105893
 20
63.743916
 30
0.0
 11
91.105893
 21
42.143916
 31
0.0
  0
ARC
  5
15E
100
AcDbEntity
  8
1
370
    25
  6
PHANTOM
100
AcDbCircle
 10
94.105893
 20
42.143916
 30
0.0
 40
3.0
100
AcDbArc
 50
180.0
 51
244.158067
  0
LINE
  5
15F
100
AcDbEntity
  8
1
370
    50
100
AcDbLine
 10
130.204585
 20
52.943915
 30
0.0
 11
130.204585
 21
56.285178
 31
0.0
  0
LINE
  5
160
100
AcDbEntity
  8
1
370
    50
100
AcDbLine
 10
140.404585
 20
52.943915
 30
0.0
 11
140.404585
 21
65.864597
 31
0.0
  0
LINE
  5
161
100
AcDbEntity
  8
1
370
    50
100
AcDbLine
 10
130.404585
 20
56.485185
 30
0.0
 11
130.40284
 21
56.48517
 31
0.0
  0
ARC
  5
162
100
AcDbEntity
  8
1
370
    50
100
AcDbCircle
 10
130.404585
 20
56.285178
 30
0.0
 40
0.2
100
AcDbArc
 50
90.5
 51
180.0
  0
LINE
  5
163
100
AcDbEntity
  8
1
370
    50
100
AcDbLine
 10
133.304585
 20
68.043912
 30
0.0
 11
138.474384
 21
67.863379
 31
0.0
  0
ARC
  5
164
100
AcDbEntity
  8
1
370
    50
100
AcDbCircle
 10
138.404585
 20
65.864597
 30
0.0
 40
2.0
100
AcDbArc
 50
360.0
 51
88.0
  0
LINE
  5
165
100
AcDbEntity
  8
1
370
    18
  6
CENTER
100
AcDbLine
 10
126.343391
 20
77.943913
 30
0.0
 11
157.636245
 21
77.943913
 31
0.0
  0
LINE
  5
166
100
AcDbEntity
  8
1
370
    50
100
AcDbLine
 10
133.304585
 20
85.077507
 30
0.0
 11
133.304585
 21
52.943915
 31
0.0
  0
LINE
  5
167
100
AcDbEntity
  8
1
370
    50
100
AcDbLine
 10
131.9039
 20
85.744036
 30
0.0
 11
132.89141
 21
85.569911
 31
0.0
  0
ARC
  5
168
100
AcDbEntity
  8
1
370
    50
100
AcDbCircle
 10
132.804585
 20
85.077507
 30
0.0
 40
0.5
100
AcDbArc
 50
0.0
 51
80.0
  0
LINE
  5
169
100
AcDbEntity
  8
1
370
    50
100
AcDbLine
 10
131.9039
 20
85.744036
 30
0.0
 11
131.404585
 21
85.717868
 31
0.0
  0
LINE
  5
16A
100
AcDbEntity
  8
1
370
    50
100
AcDbLine
 10
131.404585
 20
85.717868
 30
0.0
 11
131.404585
 21
52.943915
 31
0.0
  0
LINE
  5
16B
100
AcDbEntity
  8
1
370
    50
100
AcDbLine
 10
104.151658
 20
-26.561562
 30
0.0
 11
104.171403
 21
-26.184803
 31
0.0
  0
LINE
  5
16C
100
AcDbEntity
  8
1
370
    50
100
AcDbLine
 10
89.059381
 20
-26.54733
 30
0.0
 11
89.040382
 21
-26.184803
 31
0.0
  0
LINE
  5
16D
100
AcDbEntity
  8
1
370
    50
100
AcDbLine
 10
95.855892
 20
-26.184803
 30
0.0
 11
95.885537
 21
-26.220378
 31
0.0
  0
LINE
  5
16E
100
AcDbEntity
  8
1
370
    50
100
AcDbLine
 10
96.855892
 20
-26.184803
 30
0.0
 11
96.885537
 21
-26.220378
 31
0.0
  0
LINE
  5
16F
100
AcDbEntity
  8
1
370
    50
100
AcDbLine
 10
94.855892
 20
-26.184803
 30
0.0
 11
94.885539
 21
-26.22038
 31
0.0
  0
LINE
  5
170
100
AcDbEntity
  8
1
370
    50
100
AcDbLine
 10
96.105891
 20
-26.634802
 30
0.0
 11
95.885537
 21
-26.220378
 31
0.0
  0
LINE
  5
171
100
AcDbEntity
  8
1
370
    50
100
AcDbLine
 10
96.105891
 20
-26.634802
 30
0.0
 11
96.387081
 21
-26.184803
 31
0.0
  0
LINE
  5
172
100
AcDbEntity
  8
1
370
    50
100
AcDbLine
 10
95.105891
 20
-26.634802
 30
0.0
 11
94.885539
 21
-26.22038
 31
0.0
  0
LINE
  5
173
100
AcDbEntity
  8
1
370
    50
100
AcDbLine
 10
95.105891
 20
-26.634802
 30
0.0
 11
95.387082
 21
-26.184803
 31
0.0
  0
LINE
  5
174
100
AcDbEntity
  8
1
370
    50
100
AcDbLine
 10
97.105891
 20
-26.634802
 30
0.0
 11
96.885537
 21
-26.220378
 31
0.0
  0
LINE
  5
175
100
AcDbEntity
  8
1
370
    50
100
AcDbLine
 10
97.105891
 20
-26.634802
 30
0.0
 11
97.387081
 21
-26.184803
 31
0.0
  0
LINE
  5
176
100
AcDbEntity
  8
1
370
    50
100
AcDbLine
 10
92.855892
 20
-26.184803
 30
0.0
 11
92.885537
 21
-26.220378
 31
0.0
  0
LINE
  5
177
100
AcDbEntity
  8
1
370
    50
100
AcDbLine
 10
93.855892
 20
-26.184803
 30
0.0
 11
93.885537
 21
-26.220378
 31
0.0
  0
LINE
  5
178
100
AcDbEntity
  8
1
370
    50
100
AcDbLine
 10
91.855892
 20
-26.184803
 30
0.0
 11
91.885539
 21
-26.22038
 31
0.0
  0
LINE
  5
179
100
AcDbEntity
  8
1
370
    50
100
AcDbLine
 10
93.105891
 20
-26.634802
 30
0.0
 11
92.885537
 21
-26.220378
 31
0.0
  0
LINE
  5
17A
100
AcDbEntity
  8
1
370
    50
100
AcDbLine
 10
93.105891
 20
-26.634802
 30
0.0
 11
93.387081
 21
-26.184803
 31
0.0
  0
LINE
  5
17B
100
AcDbEntity
  8
1
370
    50
100
AcDbLine
 10
92.105891
 20
-26.634802
 30
0.0
 11
91.885539
 21
-26.22038
 31
0.0
  0
LINE
  5
17C
100
AcDbEntity
  8
1
370
    50
100
AcDbLine
 10
92.105891
 20
-26.634802
 30
0.0
 11
92.387082
 21
-26.184803
 31
0.0
  0
LINE
  5
17D
100
AcDbEntity
  8
1
370
    50
100
AcDbLine
 10
94.105891
 20
-26.634802
 30
0.0
 11
93.885537
 21
-26.220378
 31
0.0
  0
LINE
  5
17E
100
AcDbEntity
  8
1
370
    50
100
AcDbLine
 10
94.105891
 20
-26.634802
 30
0.0
 11
94.387081
 21
-26.184803
 31
0.0
  0
LINE
  5
17F
100
AcDbEntity
  8
1
370
    50
100
AcDbLine
 10
89.855892
 20
-26.184803
 30
0.0
 11
89.885537
 21
-26.220378
 31
0.0
  0
LINE
  5
180
100
AcDbEntity
  8
1
370
    50
100
AcDbLine
 10
90.855892
 20
-26.184803
 30
0.0
 11
90.885537
 21
-26.220378
 31
0.0
  0
LINE
  5
181
100
AcDbEntity
  8
1
370
    50
100
AcDbLine
 10
90.105891
 20
-26.634802
 30
0.0
 11
89.885537
 21
-26.220378
 31
0.0
  0
LINE
  5
182
100
AcDbEntity
  8
1
370
    50
100
AcDbLine
 10
90.105891
 20
-26.634802
 30
0.0
 11
90.387081
 21
-26.184803
 31
0.0
  0
LINE
  5
183
100
AcDbEntity
  8
1
370
    50
100
AcDbLine
 10
89.105891
 20
-26.634802
 30
0.0
 11
89.059381
 21
-26.54733
 31
0.0
  0
LINE
  5
184
100
AcDbEntity
  8
1
370
    50
100
AcDbLine
 10
89.105891
 20
-26.634802
 30
0.0
 11
89.387082
 21
-26.184803
 31
0.0
  0
LINE
  5
185
100
AcDbEntity
  8
1
370
    50
100
AcDbLine
 10
91.105891
 20
-26.634802
 30
0.0
 11
90.885537
 21
-26.220378
 31
0.0
  0
LINE
  5
186
100
AcDbEntity
  8
1
370
    50
100
AcDbLine
 10
91.105891
 20
-26.634802
 30
0.0
 11
91.387081
 21
-26.184803
 31
0.0
  0
LINE
  5
187
100
AcDbEntity
  8
1
370
    50
100
AcDbLine
 10
98.855892
 20
-26.184803
 30
0.0
 11
98.885537
 21
-26.220378
 31
0.0
  0
LINE
  5
188
100
AcDbEntity
  8
1
370
    50
100
AcDbLine
 10
99.855892
 20
-26.184803
 30
0.0
 11
99.885537
 21
-26.220378
 31
0.0
  0
LINE
  5
189
100
AcDbEntity
  8
1
370
    50
100
AcDbLine
 10
97.855892
 20
-26.184803
 30
0.0
 11
97.885539
 21
-26.22038
 31
0.0
  0
LINE
  5
18A
100
AcDbEntity
  8
1
370
    50
100
AcDbLine
 10
99.105891
 20
-26.634802
 30
0.0
 11
98.885537
 21
-26.220378
 31
0.0
  0
LINE
  5
18B
100
AcDbEntity
  8
1
370
    50
100
AcDbLine
 10
99.105891
 20
-26.634802
 30
0.0
 11
99.387081
 21
-26.184803
 31
0.0
  0
LINE
  5
18C
100
AcDbEntity
  8
1
370
    50
100
AcDbLine
 10
98.105891
 20
-26.634802
 30
0.0
 11
97.885539
 21
-26.22038
 31
0.0
  0
LINE
  5
18D
100
AcDbEntity
  8
1
370
    50
100
AcDbLine
 10
98.105891
 20
-26.634802
 30
0.0
 11
98.387082
 21
-26.184803
 31
0.0
  0
LINE
  5
18E
100
AcDbEntity
  8
1
370
    50
100
AcDbLine
 10
100.105891
 20
-26.634802
 30
0.0
 11
99.885537
 21
-26.220378
 31
0.0
  0
LINE
  5
18F
100
AcDbEntity
  8
1
370
    50
100
AcDbLine
 10
100.105891
 20
-26.634802
 30
0.0
 11
100.387081
 21
-26.184803
 31
0.0
  0
LINE
  5
190
100
AcDbEntity
  8
1
370
    50
100
AcDbLine
 10
101.855892
 20
-26.184803
 30
0.0
 11
101.885537
 21
-26.220378
 31
0.0
  0
LINE
  5
191
100
AcDbEntity
  8
1
370
    50
100
AcDbLine
 10
102.855892
 20
-26.184803
 30
0.0
 11
102.885537
 21
-26.220378
 31
0.0
  0
LINE
  5
192
100
AcDbEntity
  8
1
370
    50
100
AcDbLine
 10
100.855892
 20
-26.184803
 30
0.0
 11
100.885539
 21
-26.22038
 31
0.0
  0
LINE
  5
193
100
AcDbEntity
  8
1
370
    50
100
AcDbLine
 10
102.105891
 20
-26.634802
 30
0.0
 11
101.885537
 21
-26.220378
 31
0.0
  0
LINE
  5
194
100
AcDbEntity
  8
1
370
    50
100
AcDbLine
 10
102.105891
 20
-26.634802
 30
0.0
 11
102.387081
 21
-26.184803
 31
0.0
  0
LINE
  5
195
100
AcDbEntity
  8
1
370
    50
100
AcDbLine
 10
101.105891
 20
-26.634802
 30
0.0
 11
100.885539
 21
-26.22038
 31
0.0
  0
LINE
  5
196
100
AcDbEntity
  8
1
370
    50
100
AcDbLine
 10
101.105891
 20
-26.634802
 30
0.0
 11
101.387082
 21
-26.184803
 31
0.0
  0
LINE
  5
197
100
AcDbEntity
  8
1
370
    50
100
AcDbLine
 10
103.105891
 20
-26.634802
 30
0.0
 11
102.885537
 21
-26.220378
 31
0.0
  0
LINE
  5
198
100
AcDbEntity
  8
1
370
    50
100
AcDbLine
 10
103.105891
 20
-26.634802
 30
0.0
 11
103.387081
 21
-26.184803
 31
0.0
  0
LINE
  5
199
100
AcDbEntity
  8
1
370
    50
100
AcDbLine
 10
103.855892
 20
-26.184803
 30
0.0
 11
103.885539
 21
-26.22038
 31
0.0
  0
LINE
  5
19A
100
AcDbEntity
  8
1
370
    50
100
AcDbLine
 10
104.105891
 20
-26.634802
 30
0.0
 11
103.885539
 21
-26.22038
 31
0.0
  0
LINE
  5
19B
100
AcDbEntity
  8
1
370
    50
100
AcDbLine
 10
104.105893
 20
-26.634802
 30
0.0
 11
104.151658
 21
-26.561562
 31
0.0
  0
LINE
  5
19C
100
AcDbEntity
  8
1
370
    50
100
AcDbLine
 10
133.754585
 20
82.88584
 30
0.0
 11
133.304585
 21
82.909423
 31
0.0
  0
LINE
  5
19D
100
AcDbEntity
  8
1
370
    50
100
AcDbLine
 10
133.754585
 20
82.88584
 30
0.0
 11
133.754585
 21
73.001987
 31
0.0
  0
LINE
  5
19E
100
AcDbEntity
  8
1
370
    50
100
AcDbLine
 10
133.754585
 20
73.001987
 30
0.0
 11
133.304585
 21
72.978404
 31
0.0
  0
LINE
  5
19F
100
AcDbEntity
  8
1
370
    50
100
AcDbLine
 10
133.754585
 20
23.00199
 30
0.0
 11
133.304585
 21
22.978406
 31
0.0
  0
LINE
  5
1A0
100
AcDbEntity
  8
1
370
    50
100
AcDbLine
 10
133.754585
 20
23.00199
 30
0.0
 11
133.754585
 21
32.885842
 31
0.0
  0
LINE
  5
1A1
100
AcDbEntity
  8
1
370
    50
100
AcDbLine
 10
133.754585
 20
32.885842
 30
0.0
 11
133.304585
 21
32.909426
 31
0.0
  0
LINE
  5
1A2
100
AcDbEntity
  8
1
370
    50
100
AcDbLine
 10
102.605893
 20
85.943916
 30
0.0
 11
76.105893
 21
85.943916
 31
0.0
  0
LINE
  5
1A3
100
AcDbEntity
  8
1
370
    50
100
AcDbLine
 10
108.605893
 20
79.943916
 30
0.0
 11
108.605893
 21
25.943916
 31
0.0
  0
LINE
  5
1A4
100
AcDbEntity
  8
1
370
    50
100
AcDbLine
 10
71.105893
 20
80.943916
 30
0.0
 11
71.105893
 21
24.943916
 31
0.0
  0
ARC
  5
1A5
100
AcDbEntity
  8
1
370
    50
100
AcDbCircle
 10
76.105893
 20
80.943916
 30
0.0
 40
5.0
100
AcDbArc
 50
90.0
 51
180.0
  0
LINE
  5
1A6
100
AcDbEntity
  8
1
370
    50
100
AcDbLine
 10
103.605893
 20
64.443916
 30
0.0
 11
103.605893
 21
41.443916
 31
0.0
  0
LINE
  5
1A7
100
AcDbEntity
  8
1
370
    50
100
AcDbLine
 10
101.605893
 20
66.443916
 30
0.0
 11
87.805893
 21
66.443916
 31
0.0
  0
ARC
  5
1A8
100
AcDbEntity
  8
1
370
    50
100
AcDbCircle
 10
101.605893
 20
64.443916
 30
0.0
 40
2.0
100
AcDbArc
 50
0.0
 51
90.0
  0
LINE
  5
1A9
100
AcDbEntity
  8
1
370
    50
100
AcDbLine
 10
85.505893
 20
56.543916
 30
0.0
 11
80.105893
 21
56.543916
 31
0.0
  0
LINE
  5
1AA
100
AcDbEntity
  8
1
370
    18
  6
DASHED
100
AcDbLine
 10
73.605893
 20
85.274043
 30
0.0
 11
73.605893
 21
20.613789
 31
0.0
  0
ARC
  5
1AB
100
AcDbEntity
  8
1
370
    50
100
AcDbCircle
 10
87.805893
 20
64.443916
 30
0.0
 40
2.0
100
AcDbArc
 50
90.0
 51
180.0
  0
LINE
  5
1AC
100
AcDbEntity
  8
1
370
    50
100
AcDbLine
 10
85.805893
 20
62.943916
 30
0.0
 11
85.805893
 21
64.443916
 31
0.0
  0
ARC
  5
1AD
100
AcDbEntity
  8
1
370
    50
100
AcDbCircle
 10
85.505893
 20
56.843916
 30
0.0
 40
0.3
100
AcDbArc
 50
270.0
 51
360.0
  0
LINE
  5
1AE
100
AcDbEntity
  8
1
370
    50
100
AcDbLine
 10
79.805893
 20
56.243916
 30
0.0
 11
79.805893
 21
49.643916
 31
0.0
  0
ARC
  5
1AF
100
AcDbEntity
  8
1
370
    50
100
AcDbCircle
 10
80.105893
 20
56.243916
 30
0.0
 40
0.3
100
AcDbArc
 50
90.0
 51
180.0
  0
CIRCLE
  5
1B0
100
AcDbEntity
  8
1
370
    25
100
AcDbCircle
 10
96.105893
 20
77.943916
 30
0.0
 40
4.1
  0
LINE
  5
1B1
100
AcDbEntity
  8
1
370
    50
100
AcDbLine
 10
102.605893
 20
19.943916
 30
0.0
 11
76.105893
 21
19.943916
 31
0.0
  0
ARC
  5
1B2
100
AcDbEntity
  8
1
370
    50
100
AcDbCircle
 10
76.105893
 20
24.943916
 30
0.0
 40
5.0
100
AcDbArc
 50
180.0
 51
270.0
  0
LINE
  5
1B3
100
AcDbEntity
  8
1
370
    50
100
AcDbLine
 10
101.605893
 20
39.443916
 30
0.0
 11
87.805893
 21
39.443916
 31
0.0
  0
ARC
  5
1B4
100
AcDbEntity
  8
1
370
    50
100
AcDbCircle
 10
101.605893
 20
41.443916
 30
0.0
 40
2.0
100
AcDbArc
 50
270.0
 51
360.0
  0
LINE
  5
1B5
100
AcDbEntity
  8
1
370
    50
100
AcDbLine
 10
85.505893
 20
49.343916
 30
0.0
 11
80.105893
 21
49.343916
 31
0.0
  0
ARC
  5
1B6
100
AcDbEntity
  8
1
370
    50
100
AcDbCircle
 10
87.805893
 20
41.443916
 30
0.0
 40
2.0
100
AcDbArc
 50
180.0
 51
270.0
  0
LINE
  5
1B7
100
AcDbEntity
  8
1
370
    50
100
AcDbLine
 10
85.805893
 20
42.943916
 30
0.0
 11
85.805893
 21
41.443916
 31
0.0
  0
ARC
  5
1B8
100
AcDbEntity
  8
1
370
    50
100
AcDbCircle
 10
85.505893
 20
49.043916
 30
0.0
 40
0.3
100
AcDbArc
 50
0.0
 51
90.0
  0
ARC
  5
1B9
100
AcDbEntity
  8
1
370
    50
100
AcDbCircle
 10
80.105893
 20
49.643916
 30
0.0
 40
0.3
100
AcDbArc
 50
180.0
 51
270.0
  0
CIRCLE
  5
1BA
100
AcDbEntity
  8
1
370
    25
100
AcDbCircle
 10
96.105893
 20
27.943916
 30
0.0
 40
4.1
  0
LINE
  5
1BB
100
AcDbEntity
  8
1
370
    50
100
AcDbLine
 10
108.605893
 20
-24.284803
 30
0.0
 11
108.605893
 21
-23.284803
 31
0.0
  0
LINE
  5
1BC
100
AcDbEntity
  8
1
370
    50
100
AcDbLine
 10
71.164471
 20
-25.560539
 30
0.0
 11
73.059446
 21
-23.665564
 31
0.0
  0
LINE
  5
1BD
100
AcDbEntity
  8
1
370
    50
100
AcDbLine
 10
71.942289
 20
-26.196935
 30
0.0
 11
73.766553
 21
-24.372671
 31
0.0
  0
LINE
  5
1BE
100
AcDbEntity
  8
1
370
    50
100
AcDbLine
 10
71.518025
 20
-26.196935
 30
0.0
 11
71.164471
 21
-25.843382
 31
0.0
  0
ARC
  5
1BF
100
AcDbEntity
  8
1
370
    50
100
AcDbCircle
 10
71.730157
 20
-25.984803
 30
0.0
 40
0.3
100
AcDbArc
 50
225.0
 51
315.0
  0
ARC
  5
1C0
100
AcDbEntity
  8
1
370
    50
100
AcDbCircle
 10
71.305893
 20
-25.70196
 30
0.0
 40
0.2
100
AcDbArc
 50
135.0
 51
225.0
  0
ARC
  5
1C1
100
AcDbEntity
  8
1
370
    50
100
AcDbCircle
 10
73.978685
 20
-24.584803
 30
0.0
 40
1.3
100
AcDbArc
 50
90.0
 51
135.0
  0
ARC
  5
1C2
100
AcDbEntity
  8
1
370
    50
100
AcDbCircle
 10
73.978685
 20
-24.584803
 30
0.0
 40
0.3
100
AcDbArc
 50
90.0
 51
135.0
  0
LINE
  5
1C3
100
AcDbEntity
  8
1
370
    50
100
AcDbLine
 10
130.404585
 20
19.943915
 30
0.0
 11
131.404585
 21
19.943915
 31
0.0
  0
ARC
  5
1C4
100
AcDbEntity
  8
1
370
    50
100
AcDbCircle
 10
126.154585
 20
24.943915
 30
0.0
 40
7.25
100
AcDbArc
 50
316.397181
 51
318.707567
  0
LINE
  5
1C5
100
AcDbEntity
  8
1
370
    50
100
AcDbLine
 10
131.404585
 20
19.943915
 30
0.0
 11
131.404585
 21
20.169962
 31
0.0
  0
LINE
  5
1C6
100
AcDbEntity
  8
1
370
    50
100
AcDbLine
 10
130.404585
 20
19.943915
 30
0.0
 11
130.404585
 21
52.943915
 31
0.0
  0
LINE
  5
1C7
100
AcDbEntity
  8
1
370
    50
100
AcDbLine
 10
73.978685
 20
-24.284803
 30
0.0
 11
108.605893
 21
-24.284803
 31
0.0
  0
LINE
  5
1C8
100
AcDbEntity
  8
1
370
    50
100
AcDbLine
 10
108.605893
 20
-23.284803
 30
0.0
 11
73.978685
 21
-23.284803
 31
0.0
  0
LINE
  5
1C9
100
AcDbEntity
  8
1
370
    18
  6
CENTER
100
AcDbLine
 10
109.973148
 20
52.943916
 30
0.0
 11
68.502458
 21
52.943916
 31
0.0
  0
LINE
  5
1CA
100
AcDbEntity
  8
1
370
    18
  6
CENTER
100
AcDbLine
 10
96.105893
 20
90.891332
 30
0.0
 11
96.105893
 21
17.610036
 31
0.0
  0
LINE
  5
1CB
100
AcDbEntity
  8
1
370
    18
  6
CENTER
100
AcDbLine
 10
109.973148
 20
77.943916
 30
0.0
 11
85.051376
 21
77.943916
 31
0.0
  0
LINE
  5
1CC
100
AcDbEntity
  8
1
370
    18
  6
CENTER
100
AcDbLine
 10
109.973148
 20
27.943916
 30
0.0
 11
85.051376
 21
27.943916
 31
0.0
  0
POINT
  5
1CD
100
AcDbEntity
  8
1
370
    50
100
AcDbPoint
 10
71.730157
 20
-26.284803
 30
0.0
  0
LINE
  5
1CE
100
AcDbEntity
  8
1
370
    50
100
AcDbLine
 10
130.404585
 20
85.943915
 30
0.0
 11
131.404585
 21
85.943915
 31
0.0
  0
ARC
  5
1CF
100
AcDbEntity
  8
1
370
    50
100
AcDbCircle
 10
126.154585
 20
80.943915
 30
0.0
 40
7.25
100
AcDbArc
 50
41.292433
 51
43.602819
  0
LINE
  5
1D0
100
AcDbEntity
  8
1
370
    50
100
AcDbLine
 10
131.404585
 20
85.943915
 30
0.0
 11
131.404585
 21
85.717868
 31
0.0
  0
LINE
  5
1D1
100
AcDbEntity
  8
1
370
    50
100
AcDbLine
 10
130.404585
 20
85.943915
 30
0.0
 11
130.404585
 21
52.943915
 31
0.0
  0
LINE
  5
1D2
100
AcDbEntity
  8
1
370
    50
100
AcDbLine
 10
136.888556
 20
29.443916
 30
0.0
 11
145.156505
 21
29.443916
 31
0.0
  0
LINE
  5
1D3
100
AcDbEntity
  8
1
370
    50
100
AcDbLine
 10
137.692404
 20
26.443916
 30
0.0
 11
145.156505
 21
26.443916
 31
0.0
  0
LINE
  5
1D4
100
AcDbEntity
  8
1
370
    50
100
AcDbLine
 10
150.754582
 20
27.943916
 30
0.0
 11
145.156505
 21
26.443916
 31
0.0
  0
LINE
  5
1D5
100
AcDbEntity
  8
1
370
    50
100
AcDbLine
 10
150.754582
 20
27.943916
 30
0.0
 11
145.156505
 21
29.443916
 31
0.0
  0
LINE
  5
1D6
100
AcDbEntity
  8
1
370
    25
100
AcDbLine
 10
138.821569
 20
29.693916
 30
0.0
 11
139.759391
 21
26.193916
 31
0.0
  0
LINE
  5
1D7
100
AcDbEntity
  8
1
370
    25
100
AcDbLine
 10
140.821569
 20
29.693916
 30
0.0
 11
141.759391
 21
26.193916
 31
0.0
  0
LINE
  5
1D8
100
AcDbEntity
  8
1
370
    25
100
AcDbLine
 10
142.821569
 20
29.693916
 30
0.0
 11
143.759391
 21
26.193916
 31
0.0
  0
LINE
  5
1D9
100
AcDbEntity
  8
1
370
    25
100
AcDbLine
 10
144.821569
 20
29.693916
 30
0.0
 11
145.759391
 21
26.193916
 31
0.0
  0
LINE
  5
1DA
100
AcDbEntity
  8
1
370
    25
100
AcDbLine
 10
146.873101
 20
29.501594
 30
0.0
 11
147.65194
 21
26.594928
 31
0.0
  0
LINE
  5
1DB
100
AcDbEntity
  8
1
370
    25
100
AcDbLine
 10
149.027802
 20
28.924243
 30
0.0
 11
149.517966
 21
27.094928
 31
0.0
  0
LINE
  5
1DC
100
AcDbEntity
  8
1
370
    25
100
AcDbLine
 10
136.821569
 20
29.693916
 30
0.0
 11
137.759391
 21
26.193916
 31
0.0
  0
LINE
  5
1DD
100
AcDbEntity
  8
1
370
    50
100
AcDbLine
 10
133.754585
 20
29.693916
 30
0.0
 11
136.821569
 21
29.693916
 31
0.0
  0
LINE
  5
1DE
100
AcDbEntity
  8
1
370
    50
100
AcDbLine
 10
133.754585
 20
26.193916
 30
0.0
 11
137.759391
 21
26.193916
 31
0.0
  0
CIRCLE
  5
1DF
100
AcDbEntity
  8
1
370
    50
100
AcDbCircle
 10
96.105893
 20
77.943916
 30
0.0
 40
3.5
  0
ARC
  5
1E0
100
AcDbEntity
  8
1
370
    25
100
AcDbCircle
 10
98.255893
 20
80.093916
 30
0.0
 40
1.658571
100
AcDbArc
 50
180.0
 51
270.0
  0
ARC
  5
1E1
100
AcDbEntity
  8
1
370
    25
100
AcDbCircle
 10
93.955893
 20
80.093916
 30
0.0
 40
1.658571
100
AcDbArc
 50
270.0
 51
360.0
  0
ARC
  5
1E2
100
AcDbEntity
  8
1
370
    25
100
AcDbCircle
 10
93.955893
 20
75.793916
 30
0.0
 40
1.658571
100
AcDbArc
 50
0.0
 51
90.0
  0
ARC
  5
1E3
100
AcDbEntity
  8
1
370
    25
100
AcDbCircle
 10
98.255893
 20
75.793916
 30
0.0
 40
1.658571
100
AcDbArc
 50
90.0
 51
180.0
  0
LINE
  5
1E4
100
AcDbEntity
  8
1
370
    25
100
AcDbLine
 10
96.105893
 20
75.793916
 30
0.0
 11
96.597321
 21
75.793916
 31
0.0
  0
LINE
  5
1E5
100
AcDbEntity
  8
1
370
    25
100
AcDbLine
 10
96.105893
 20
75.793916
 30
0.0
 11
95.614464
 21
75.793916
 31
0.0
  0
LINE
  5
1E6
100
AcDbEntity
  8
1
370
    25
100
AcDbLine
 10
93.955893
 20
77.452488
 30
0.0
 11
93.955893
 21
77.943916
 31
0.0
  0
LINE
  5
1E7
100
AcDbEntity
  8
1
370
    25
100
AcDbLine
 10
93.955893
 20
78.435345
 30
0.0
 11
93.955893
 21
77.943916
 31
0.0
  0
LINE
  5
1E8
100
AcDbEntity
  8
1
370
    25
100
AcDbLine
 10
96.105893
 20
80.093916
 30
0.0
 11
95.614464
 21
80.093916
 31
0.0
  0
LINE
  5
1E9
100
AcDbEntity
  8
1
370
    25
100
AcDbLine
 10
96.105893
 20
80.093916
 30
0.0
 11
96.597321
 21
80.093916
 31
0.0
  0
LINE
  5
1EA
100
AcDbEntity
  8
1
370
    25
100
AcDbLine
 10
98.255893
 20
78.435345
 30
0.0
 11
98.255893
 21
77.943916
 31
0.0
  0
LINE
  5
1EB
100
AcDbEntity
  8
1
370
    25
100
AcDbLine
 10
98.255893
 20
77.452488
 30
0.0
 11
98.255893
 21
77.943916
 31
0.0
  0
CIRCLE
  5
1EC
100
AcDbEntity
  8
1
370
    50
100
AcDbCircle
 10
96.105893
 20
27.943916
 30
0.0
 40
3.5
  0
ARC
  5
1ED
100
AcDbEntity
  8
1
370
    25
100
AcDbCircle
 10
98.255893
 20
30.093916
 30
0.0
 40
1.658571
100
AcDbArc
 50
180.0
 51
270.0
  0
ARC
  5
1EE
100
AcDbEntity
  8
1
370
    25
100
AcDbCircle
 10
93.955893
 20
30.093916
 30
0.0
 40
1.658571
100
AcDbArc
 50
270.0
 51
360.0
  0
ARC
  5
1EF
100
AcDbEntity
  8
1
370
    25
100
AcDbCircle
 10
93.955893
 20
25.793916
 30
0.0
 40
1.658571
100
AcDbArc
 50
0.0
 51
90.0
  0
ARC
  5
1F0
100
AcDbEntity
  8
1
370
    25
100
AcDbCircle
 10
98.255893
 20
25.793916
 30
0.0
 40
1.658571
100
AcDbArc
 50
90.0
 51
180.0
  0
LINE
  5
1F1
100
AcDbEntity
  8
1
370
    25
100
AcDbLine
 10
96.105893
 20
25.793916
 30
0.0
 11
96.597321
 21
25.793916
 31
0.0
  0
LINE
  5
1F2
100
AcDbEntity
  8
1
370
    25
100
AcDbLine
 10
96.105893
 20
25.793916
 30
0.0
 11
95.614464
 21
25.793916
 31
0.0
  0
LINE
  5
1F3
100
AcDbEntity
  8
1
370
    25
100
AcDbLine
 10
93.955893
 20
27.452488
 30
0.0
 11
93.955893
 21
27.943916
 31
0.0
  0
LINE
  5
1F4
100
AcDbEntity
  8
1
370
    25
100
AcDbLine
 10
93.955893
 20
28.435345
 30
0.0
 11
93.955893
 21
27.943916
 31
0.0
  0
LINE
  5
1F5
100
AcDbEntity
  8
1
370
    25
100
AcDbLine
 10
96.105893
 20
30.093916
 30
0.0
 11
95.614464
 21
30.093916
 31
0.0
  0
LINE
  5
1F6
100
AcDbEntity
  8
1
370
    25
100
AcDbLine
 10
96.105893
 20
30.093916
 30
0.0
 11
96.597321
 21
30.093916
 31
0.0
  0
LINE
  5
1F7
100
AcDbEntity
  8
1
370
    25
100
AcDbLine
 10
98.255893
 20
28.435345
 30
0.0
 11
98.255893
 21
27.943916
 31
0.0
  0
LINE
  5
1F8
100
AcDbEntity
  8
1
370
    25
100
AcDbLine
 10
98.255893
 20
27.452488
 30
0.0
 11
98.255893
 21
27.943916
 31
0.0
  0
LINE
  5
1F9
100
AcDbEntity
  8
1
370
    50
100
AcDbLine
 10
97.605893
 20
-29.770078
 30
0.0
 11
97.605893
 21
-38.038027
 31
0.0
  0
LINE
  5
1FA
100
AcDbEntity
  8
1
370
    50
100
AcDbLine
 10
94.605893
 20
-30.573925
 30
0.0
 11
94.605893
 21
-38.038027
 31
0.0
  0
LINE
  5
1FB
100
AcDbEntity
  8
1
370
    50
100
AcDbLine
 10
96.105893
 20
-43.636103
 30
0.0
 11
94.605893
 21
-38.038027
 31
0.0
  0
LINE
  5
1FC
100
AcDbEntity
  8
1
370
    50
100
AcDbLine
 10
96.105893
 20
-43.636103
 30
0.0
 11
97.605893
 21
-38.038027
 31
0.0
  0
LINE
  5
1FD
100
AcDbEntity
  8
1
370
    25
100
AcDbLine
 10
97.855893
 20
-31.70309
 30
0.0
 11
94.355893
 21
-32.640913
 31
0.0
  0
LINE
  5
1FE
100
AcDbEntity
  8
1
370
    25
100
AcDbLine
 10
97.855893
 20
-33.70309
 30
0.0
 11
94.355893
 21
-34.640913
 31
0.0
  0
LINE
  5
1FF
100
AcDbEntity
  8
1
370
    25
100
AcDbLine
 10
97.855893
 20
-35.70309
 30
0.0
 11
94.355893
 21
-36.640913
 31
0.0
  0
LINE
  5
200
100
AcDbEntity
  8
1
370
    25
100
AcDbLine
 10
97.855893
 20
-37.70309
 30
0.0
 11
94.355893
 21
-38.640913
 31
0.0
  0
LINE
  5
201
100
AcDbEntity
  8
1
370
    25
100
AcDbLine
 10
97.66357
 20
-39.754623
 30
0.0
 11
94.756904
 21
-40.533462
 31
0.0
  0
LINE
  5
202
100
AcDbEntity
  8
1
370
    25
100
AcDbLine
 10
97.08622
 20
-41.909324
 30
0.0
 11
95.256904
 21
-42.399487
 31
0.0
  0
LINE
  5
203
100
AcDbEntity
  8
1
370
    25
100
AcDbLine
 10
97.855893
 20
-29.70309
 30
0.0
 11
94.355893
 21
-30.640913
 31
0.0
  0
LINE
  5
204
100
AcDbEntity
  8
1
370
    50
100
AcDbLine
 10
97.855893
 20
-26.184804
 30
0.0
 11
97.855893
 21
-29.70309
 31
0.0
  0
LINE
  5
205
100
AcDbEntity
  8
1
370
    50
100
AcDbLine
 10
94.355893
 20
-26.184802
 30
0.0
 11
94.355893
 21
-30.640913
 31
0.0
  0
LINE
  5
206
100
AcDbEntity
  8
1
370
    50
100
AcDbLine
 10
136.888556
 20
79.443912
 30
0.0
 11
145.156505
 21
79.443912
 31
0.0
  0
LINE
  5
207
100
AcDbEntity
  8
1
370
    50
100
AcDbLine
 10
137.692404
 20
76.443912
 30
0.0
 11
145.156505
 21
76.443912
 31
0.0
  0
LINE
  5
208
100
AcDbEntity
  8
1
370
    50
100
AcDbLine
 10
150.754582
 20
77.943912
 30
0.0
 11
145.156505
 21
76.443912
 31
0.0
  0
LINE
  5
209
100
AcDbEntity
  8
1
370
    50
100
AcDbLine
 10
150.754582
 20
77.943912
 30
0.0
 11
145.156505
 21
79.443912
 31
0.0
  0
LINE
  5
20A
100
AcDbEntity
  8
1
370
    25
100
AcDbLine
 10
138.821569
 20
79.693912
 30
0.0
 11
139.759391
 21
76.193912
 31
0.0
  0
LINE
  5
20B
100
AcDbEntity
  8
1
370
    25
100
AcDbLine
 10
140.821569
 20
79.693912
 30
0.0
 11
141.759391
 21
76.193912
 31
0.0
  0
LINE
  5
20C
100
AcDbEntity
  8
1
370
    25
100
AcDbLine
 10
142.821569
 20
79.693912
 30
0.0
 11
143.759391
 21
76.193912
 31
0.0
  0
LINE
  5
20D
100
AcDbEntity
  8
1
370
    25
100
AcDbLine
 10
144.821569
 20
79.693912
 30
0.0
 11
145.759391
 21
76.193912
 31
0.0
  0
LINE
  5
20E
100
AcDbEntity
  8
1
370
    25
100
AcDbLine
 10
146.873101
 20
79.50159
 30
0.0
 11
147.65194
 21
76.594924
 31
0.0
  0
LINE
  5
20F
100
AcDbEntity
  8
1
370
    25
100
AcDbLine
 10
149.027802
 20
78.924239
 30
0.0
 11
149.517966
 21
77.094924
 31
0.0
  0
LINE
  5
210
100
AcDbEntity
  8
1
370
    25
100
AcDbLine
 10
136.821569
 20
79.693912
 30
0.0
 11
137.759391
 21
76.193912
 31
0.0
  0
LINE
  5
211
100
AcDbEntity
  8
1
370
    50
100
AcDbLine
 10
133.754585
 20
79.693912
 30
0.0
 11
136.821569
 21
79.693912
 31
0.0
  0
LINE
  5
212
100
AcDbEntity
  8
1
370
    50
100
AcDbLine
 10
133.754585
 20
76.193912
 30
0.0
 11
137.759391
 21
76.193912
 31
0.0
  0
POINT
  5
213
100
AcDbEntity
  8
1
370
    50
100
AcDbPoint
 10
89.105893
 20
66.443916
 30
0.0
  0
POINT
  5
214
100
AcDbEntity
  8
1
370
    50
100
AcDbPoint
 10
86.105893
 20
66.443916
 30
0.0
  0
POINT
  5
215
100
AcDbEntity
  8
1
370
    50
100
AcDbPoint
 10
91.105893
 20
66.443916
 30
0.0
  0
ARC
  5
216
100
AcDbEntity
  8
1
370
    50
100
AcDbCircle
 10
102.605893
 20
79.943916
 30
0.0
 40
6.0
100
AcDbArc
 50
0.0
 51
90.0
  0
ARC
  5
217
100
AcDbEntity
  8
1
370
    50
100
AcDbCircle
 10
102.605893
 20
25.943916
 30
0.0
 40
6.0
100
AcDbArc
 50
270.0
 51
360.0
  0
CIRCLE
  5
218
100
AcDbEntity
  8
2
370
    25
100
AcDbCircle
 10
-90.359334
 20
9.852429
 30
0.0
 40
3.0
  0
CIRCLE
  5
219
100
AcDbEntity
  8
2
370
    25
100
AcDbCircle
 10
-63.386992
 20
96.035401
 30
0.0
 40
3.0
  0
CIRCLE
  5
21A
100
AcDbEntity
  8
2
370
    25
100
AcDbCircle
 10
-52.996232
 20
9.84236
 30
0.0
 40
3.0
  0
TEXT
  5
21B
100
AcDbEntity
  8
2
370
    25
100
AcDbText
 10
-64.886992
 20
94.535401
 30
0.0
 40
3.0
  1
２
 72
     5
 11
-62.486992
 21
94.535401
 31
0.0
100
AcDbText
  0
TEXT
  5
21C
100
AcDbEntity
  8
2
370
    25
100
AcDbText
 10
-54.496232
 20
8.34236
 30
0.0
 40
3.0
  1
３
 72
     5
 11
-52.096232
 21
8.34236
 31
0.0
100
AcDbText
  0
TEXT
  5
21D
100
AcDbEntity
  8
2
370
    25
100
AcDbText
 10
-91.859334
 20
8.352429
 30
0.0
 40
3.0
  1
１
 72
     5
 11
-89.459334
 21
8.352429
 31
0.0
100
AcDbText
  0
LWPOLYLINE
  5
21E
100
AcDbEntity
  8
2
370
    25
100
AcDbPolyline
 90
        2
 70
     0
 10
-79.595415
 20
24.546576
 10
-88.427064
 20
12.490227
  0
LINE
  5
222
100
AcDbEntity
  8
2
370
    25
100
AcDbLine
 10
-79.424824
 20
24.779454
 30
0.0
 11
-79.828181
 21
25.074925
 31
0.0
  0
LINE
  5
223
100
AcDbEntity
  8
2
370
    25
100
AcDbLine
 10
-79.828181
 20
25.074925
 30
0.0
 11
-79.936596
 21
24.080819
 31
0.0
  0
LINE
  5
224
100
AcDbEntity
  8
2
370
    25
100
AcDbLine
 10
-79.936596
 20
24.080819
 30
0.0
 11
-79.021467
 21
24.483982
 31
0.0
  0
LINE
  5
225
100
AcDbEntity
  8
2
370
    25
100
AcDbLine
 10
-79.021467
 20
24.483982
 30
0.0
 11
-79.424824
 21
24.779454
 31
0.0
  0
LWPOLYLINE
  5
226
100
AcDbEntity
  8
2
370
    25
100
AcDbPolyline
 90
        2
 70
     0
 10
-68.70952
 20
27.943917
 10
-54.972576
 20
12.18227
  0
LINE
  5
22A
100
AcDbEntity
  8
2
370
    25
100
AcDbLine
 10
-68.899188
 20
28.161539
 30
0.0
 11
-69.276121
 21
27.833026
 31
0.0
  0
LINE
  5
22B
100
AcDbEntity
  8
2
370
    25
100
AcDbLine
 10
-69.276121
 20
27.833026
 30
0.0
 11
-68.330186
 21
27.508671
 31
0.0
  0
LINE
  5
22C
100
AcDbEntity
  8
2
370
    25
100
AcDbLine
 10
-68.330186
 20
27.508671
 30
0.0
 11
-68.522254
 21
28.490053
 31
0.0
  0
LINE
  5
22D
100
AcDbEntity
  8
2
370
    25
100
AcDbLine
 10
-68.522254
 20
28.490053
 30
0.0
 11
-68.899188
 21
28.161539
 31
0.0
  0
LWPOLYLINE
  5
22E
100
AcDbEntity
  8
2
370
    25
100
AcDbPolyline
 90
        2
 70
     0
 10
-76.695415
 20
83.543518
 10
-65.745961
 20
93.821167
  0
LINE
  5
232
100
AcDbEntity
  8
2
370
    25
100
AcDbLine
 10
-76.905894
 20
83.345953
 30
0.0
 11
-76.563701
 21
82.981393
 31
0.0
  0
LINE
  5
233
100
AcDbEntity
  8
2
370
    25
100
AcDbLine
 10
-76.563701
 20
82.981393
 30
0.0
 11
-76.274457
 21
83.938648
 31
0.0
  0
LINE
  5
234
100
AcDbEntity
  8
2
370
    25
100
AcDbLine
 10
-76.274457
 20
83.938648
 30
0.0
 11
-77.248086
 21
83.710513
 31
0.0
  0
LINE
  5
235
100
AcDbEntity
  8
2
370
    25
100
AcDbLine
 10
-77.248086
 20
83.710513
 30
0.0
 11
-76.905894
 21
83.345953
 31
0.0
  0
DIMENSION
  5
236
100
AcDbEntity
  8
2
370
    25
100
AcDbDimension
  2
*D0
 10
-94.743363
 20
66.443916
 30
0.0
 11
-96.743363
 21
52.943916
 31
0.0
 71
     0
 72
     0
 41
0.0
 42
0.0
  3
Standard
100
AcDbAlignedDimension
 13
-108.394107
 23
39.443916
 33
0.0
 14
-108.394107
 24
66.443916
 34
0.0
 50
90.0
100
AcDbRotatedDimension
  0
DIMENSION
  5
237
100
AcDbEntity
  8
2
370
    25
100
AcDbDimension
  2
*D1
 10
-89.792145
 20
77.943916
 30
0.0
 11
-91.792145
 21
52.943916
 31
0.0
 71
     0
 72
     0
 41
0.0
 42
0.0
  3
Standard
100
AcDbAlignedDimension
 13
-100.026852
 23
27.943916
 33
0.0
 14
-100.026852
 24
77.943916
 34
0.0
 50
90.0
100
AcDbRotatedDimension
  0
DIMENSION
  5
238
100
AcDbEntity
  8
2
370
    25
100
AcDbDimension
  2
*D2
 10
-101.394107
 20
5.445101
 30
0.0
 11
-123.144107
 21
7.445101
 31
0.0
 71
     0
 72
     0
 41
0.0
 42
0.0
  3
Standard
100
AcDbAlignedDimension
 13
-138.894107
 23
24.943916
 33
0.0
 14
-101.394107
 24
19.943916
 34
0.0
100
AcDbRotatedDimension
  0
DIMENSION
  5
239
100
AcDbEntity
  8
2
370
    25
100
AcDbDimension
  2
*D3
 10
-113.894107
 20
13.132204
 30
0.0
 11
-127.894107
 21
15.132204
 31
0.0
 71
     0
 72
     0
 41
0.0
 42
0.0
  3
Standard
100
AcDbAlignedDimension
 13
-138.894107
 23
13.132204
 33
0.0
 14
-113.894107
 24
17.828291
 34
0.0
100
AcDbRotatedDimension
  0
DIMENSION
  5
23A
100
AcDbEntity
  8
2
370
    25
100
AcDbDimension
  2
*D4
 10
-148.847534
 20
85.943916
 30
0.0
 11
-150.847534
 21
52.943916
 31
0.0
 71
     0
 72
     0
 41
0.0
 42
0.0
  3
Standard
100
AcDbAlignedDimension
 13
-133.894107
 23
19.943916
 33
0.0
 14
-133.894107
 24
85.943916
 34
0.0
 50
90.0
100
AcDbRotatedDimension
  0
TEXT
  5
23B
100
AcDbEntity
  8
2
370
    18
100
AcDbText
 10
-113.255112
 20
103.136474
 30
0.0
 40
3.0
  1
-
 72
     5
 11
-110.855112
 21
103.136474
 31
0.0
100
AcDbText
  0
DIMENSION
  5
23C
100
AcDbEntity
  8
2
370
    25
100
AcDbDimension
  2
*D5
 10
-118.894107
 20
102.718085
 30
0.0
 11
-109.505112
 21
104.636474
 31
0.0
 71
     0
 72
     0
 41
0.0
 42
0.0
  3
Standard
100
AcDbAlignedDimension
 13
-120.894107
 23
102.718085
 33
0.0
 14
-118.894107
 24
66.443916
 34
0.0
100
AcDbRotatedDimension
  0
TEXT
  5
23D
100
AcDbEntity
  8
2
370
    18
100
AcDbText
 10
-132.894107
 20
103.218085
 30
0.0
 40
3.0
  1
+
 72
     5
 11
-130.494107
 21
103.218085
 31
0.0
100
AcDbText
  0
DIMENSION
  5
23E
100
AcDbEntity
  8
2
370
    25
100
AcDbDimension
  2
*D6
 10
-120.894107
 20
102.718085
 30
0.0
 11
-129.144107
 21
104.718085
 31
0.0
 71
     0
 72
     0
 41
0.0
 42
0.0
  3
Standard
100
AcDbAlignedDimension
 13
-123.894107
 23
66.443916
 33
0.0
 14
-120.894107
 24
102.718085
 34
0.0
100
AcDbRotatedDimension
  0
DIMENSION
  5
23F
100
AcDbEntity
  8
2
370
    25
100
AcDbDimension
  2
*D7
 10
-101.394107
 20
13.132204
 30
0.0
 11
-110.644107
 21
15.132204
 31
0.0
 71
     0
 72
     0
 41
0.0
 42
0.0
  3
Standard
100
AcDbAlignedDimension
 13
-113.894107
 23
13.132204
 33
0.0
 14
-101.394107
 24
13.132204
 34
0.0
100
AcDbRotatedDimension
  0
DIMENSION
  5
240
100
AcDbEntity
  8
2
370
    25
100
AcDbDimension
  2
*D8
 10
-89.961345
 20
-23.284803
 30
0.0
 11
-91.961345
 21
-28.284803
 31
0.0
 71
     0
 72
     0
 41
0.0
 42
0.0
  3
Standard
100
AcDbAlignedDimension
 13
-106.773422
 23
-33.284803
 33
0.0
 14
-101.394107
 24
-23.284803
 34
0.0
 50
90.0
100
AcDbRotatedDimension
  0
DIMENSION
  5
241
100
AcDbEntity
  8
2
370
    25
100
AcDbDimension
  2
*D9
 10
-149.023248
 20
-23.284803
 30
0.0
 11
-150.273248
 21
-17.284803
 31
0.0
 71
     0
 72
     0
 41
0.0
 42
0.0
  3
Standard
100
AcDbAlignedDimension
 13
-138.269843
 23
-26.284803
 33
0.0
 14
-136.021315
 24
-23.284803
 34
0.0
 50
90.0
100
AcDbRotatedDimension
  0
DIMENSION
  5
242
100
AcDbEntity
  8
2
370
    25
100
AcDbDimension
  2
*D10
 10
-56.861596
 20
68.043912
 30
0.0
 11
-60.361596
 21
49.943915
 31
0.0
 71
     0
 72
     0
 41
0.0
 42
0.0
  3
Standard
100
AcDbAlignedDimension
 13
-76.695415
 23
37.843917
 33
0.0
 14
-76.695415
 24
68.043912
 34
0.0
 50
90.0
100
AcDbRotatedDimension
  0
TEXT
  5
243
100
AcDbEntity
  8
2
370
    18
100
AcDbText
 10
-150.948534
 20
107.205542
 30
0.0
 40
3.2
  1
（調整範囲５ｍｍ）
 72
     5
 11
-122.788534
 21
107.205542
 31
0.0
100
AcDbText
  0
DIMENSION
  5
244
100
AcDbEntity
  8
2
370
    25
100
AcDbDimension
  2
*D11
 10
-113.894107
 20
107.387298
 30
0.0
 11
-118.144107
 21
109.387298
 31
0.0
 71
     0
 72
     0
 41
0.0
 42
0.0
  3
Standard
100
AcDbAlignedDimension
 13
-120.894107
 23
66.443916
 33
0.0
 14
-113.894107
 24
90.891332
 34
0.0
100
AcDbRotatedDimension
  0
TEXT
  5
245
100
AcDbEntity
  8
2
370
    18
100
AcDbText
 10
-116.024657
 20
116.844687
 30
0.0
 40
3.2
  1
調整基準位置
 72
     5
 11
-97.464656
 21
116.844687
 31
0.0
100
AcDbText
  0
LWPOLYLINE
  5
246
100
AcDbEntity
  8
2
370
    18
100
AcDbPolyline
 90
        3
 70
     0
 10
-120.894074
 20
108.387229
 10
-117.934282
 20
116.344687
 10
-96.5427
 20
116.344687
  0
LINE
  5
24B
100
AcDbEntity
  8
2
370
    25
100
AcDbLine
 10
-120.705761
 20
110.378344
 30
0.0
 11
-120.894074
 21
108.387229
 31
0.0
  0
LINE
  5
24C
100
AcDbEntity
  8
2
370
    25
100
AcDbLine
 10
-120.894074
 20
108.387229
 30
0.0
 11
-119.735433
 21
110.017428
 31
0.0
  0
DIMENSION
  5
24D
100
AcDbEntity
  8
2
370
    25
100
AcDbDimension
  2
*D12
 10
-96.349235
 20
-23.284803
 30
0.0
 11
-101.349235
 21
-19.284803
 31
0.0
 71
     0
 72
     0
 41
0.0
 42
0.0
  3
Standard
100
AcDbAlignedDimension
 13
-104.060515
 23
-26.184803
 33
0.0
 14
-101.394107
 24
-23.284803
 34
0.0
 50
90.0
100
AcDbRotatedDimension
  0
DIMENSION
  5
24E
100
AcDbEntity
  8
2
370
    25
100
AcDbDimension
  2
*D13
 10
-104.594107
 20
-52.764774
 30
0.0
 11
-113.644107
 21
-50.764774
 31
0.0
 71
     0
 72
     0
 41
0.0
 42
0.0
  3
Standard
100
AcDbAlignedDimension
 13
-122.694107
 23
-26.184803
 33
0.0
 14
-104.594107
 24
-26.184803
 34
0.0
100
AcDbRotatedDimension
  0
CIRCLE
  5
24F
100
AcDbEntity
  8
2
370
    25
100
AcDbCircle
 10
119.640666
 20
9.852429
 30
0.0
 40
3.0
  0
CIRCLE
  5
250
100
AcDbEntity
  8
2
370
    25
100
AcDbCircle
 10
146.613008
 20
96.035401
 30
0.0
 40
3.0
  0
CIRCLE
  5
251
100
AcDbEntity
  8
2
370
    25
100
AcDbCircle
 10
157.003768
 20
9.84236
 30
0.0
 40
3.0
  0
TEXT
  5
252
100
AcDbEntity
  8
2
370
    25
100
AcDbText
 10
145.113008
 20
94.535401
 30
0.0
 40
3.0
  1
２
 72
     5
 11
147.513008
 21
94.535401
 31
0.0
100
AcDbText
  0
TEXT
  5
253
100
AcDbEntity
  8
2
370
    25
100
AcDbText
 10
155.503768
 20
8.34236
 30
0.0
 40
3.0
  1
３
 72
     5
 11
157.903768
 21
8.34236
 31
0.0
100
AcDbText
  0
TEXT
  5
254
100
AcDbEntity
  8
2
370
    25
100
AcDbText
 10
118.140666
 20
8.352429
 30
0.0
 40
3.0
  1
１
 72
     5
 11
120.540666
 21
8.352429
 31
0.0
100
AcDbText
  0
LWPOLYLINE
  5
255
100
AcDbEntity
  8
2
370
    25
100
AcDbPolyline
 90
        2
 70
     0
 10
130.404585
 20
24.546576
 10
121.572936
 20
12.490227
  0
LINE
  5
259
100
AcDbEntity
  8
2
370
    25
100
AcDbLine
 10
130.575176
 20
24.779454
 30
0.0
 11
130.171819
 21
25.074925
 31
0.0
  0
LINE
  5
25A
100
AcDbEntity
  8
2
370
    25
100
AcDbLine
 10
130.171819
 20
25.074925
 30
0.0
 11
130.063404
 21
24.080819
 31
0.0
  0
LINE
  5
25B
100
AcDbEntity
  8
2
370
    25
100
AcDbLine
 10
130.063404
 20
24.080819
 30
0.0
 11
130.978533
 21
24.483982
 31
0.0
  0
LINE
  5
25C
100
AcDbEntity
  8
2
370
    25
100
AcDbLine
 10
130.978533
 20
24.483982
 30
0.0
 11
130.575176
 21
24.779454
 31
0.0
  0
LWPOLYLINE
  5
25D
100
AcDbEntity
  8
2
370
    25
100
AcDbPolyline
 90
        2
 70
     0
 10
141.29048
 20
27.943917
 10
155.027424
 20
12.18227
  0
LINE
  5
261
100
AcDbEntity
  8
2
370
    25
100
AcDbLine
 10
141.100812
 20
28.161539
 30
0.0
 11
140.723879
 21
27.833026
 31
0.0
  0
LINE
  5
262
100
AcDbEntity
  8
2
370
    25
100
AcDbLine
 10
140.723879
 20
27.833026
 30
0.0
 11
141.669814
 21
27.508671
 31
0.0
  0
LINE
  5
263
100
AcDbEntity
  8
2
370
    25
100
AcDbLine
 10
141.669814
 20
27.508671
 30
0.0
 11
141.477746
 21
28.490053
 31
0.0
  0
LINE
  5
264
100
AcDbEntity
  8
2
370
    25
100
AcDbLine
 10
141.477746
 20
28.490053
 30
0.0
 11
141.100812
 21
28.161539
 31
0.0
  0
LWPOLYLINE
  5
265
100
AcDbEntity
  8
2
370
    25
100
AcDbPolyline
 90
        2
 70
     0
 10
133.304585
 20
83.543518
 10
144.254039
 20
93.821167
  0
LINE
  5
269
100
AcDbEntity
  8
2
370
    25
100
AcDbLine
 10
133.094106
 20
83.345953
 30
0.0
 11
133.436299
 21
82.981393
 31
0.0
  0
LINE
  5
26A
100
AcDbEntity
  8
2
370
    25
100
AcDbLine
 10
133.436299
 20
82.981393
 30
0.0
 11
133.725543
 21
83.938648
 31
0.0
  0
LINE
  5
26B
100
AcDbEntity
  8
2
370
    25
100
AcDbLine
 10
133.725543
 20
83.938648
 30
0.0
 11
132.751914
 21
83.710513
 31
0.0
  0
LINE
  5
26C
100
AcDbEntity
  8
2
370
    25
100
AcDbLine
 10
132.751914
 20
83.710513
 30
0.0
 11
133.094106
 21
83.345953
 31
0.0
  0
DIMENSION
  5
26D
100
AcDbEntity
  8
2
370
    25
100
AcDbDimension
  2
*D14
 10
115.256637
 20
66.443916
 30
0.0
 11
113.256637
 21
52.943916
 31
0.0
 71
     0
 72
     0
 41
0.0
 42
0.0
  3
Standard
100
AcDbAlignedDimension
 13
101.605893
 23
39.443916
 33
0.0
 14
101.605893
 24
66.443916
 34
0.0
 50
90.0
100
AcDbRotatedDimension
  0
DIMENSION
  5
26E
100
AcDbEntity
  8
2
370
    25
100
AcDbDimension
  2
*D15
 10
120.207855
 20
77.943916
 30
0.0
 11
118.207855
 21
52.943916
 31
0.0
 71
     0
 72
     0
 41
0.0
 42
0.0
  3
Standard
100
AcDbAlignedDimension
 13
109.973148
 23
27.943916
 33
0.0
 14
109.973148
 24
77.943916
 34
0.0
 50
90.0
100
AcDbRotatedDimension
  0
DIMENSION
  5
26F
100
AcDbEntity
  8
2
370
    25
100
AcDbDimension
  2
*D16
 10
96.105893
 20
13.132204
 30
0.0
 11
82.105893
 21
15.132204
 31
0.0
 71
     0
 72
     0
 41
0.0
 42
0.0
  3
Standard
100
AcDbAlignedDimension
 13
71.105893
 23
13.132204
 33
0.0
 14
96.105893
 24
17.828291
 34
0.0
100
AcDbRotatedDimension
  0
DIMENSION
  5
270
100
AcDbEntity
  8
2
370
    25
100
AcDbDimension
  2
*D17
 10
61.152466
 20
85.943916
 30
0.0
 11
59.152466
 21
52.943916
 31
0.0
 71
     0
 72
     0
 41
0.0
 42
0.0
  3
Standard
100
AcDbAlignedDimension
 13
76.105893
 23
19.943916
 33
0.0
 14
76.105893
 24
85.943916
 34
0.0
 50
90.0
100
AcDbRotatedDimension
  0
TEXT
  5
271
100
AcDbEntity
  8
2
370
    18
100
AcDbText
 10
96.744888
 20
103.136474
 30
0.0
 40
3.0
  1
-
 72
     5
 11
99.144888
 21
103.136474
 31
0.0
100
AcDbText
  0
DIMENSION
  5
272
100
AcDbEntity
  8
2
370
    25
100
AcDbDimension
  2
*D18
 10
91.105893
 20
102.718085
 30
0.0
 11
100.494888
 21
104.636474
 31
0.0
 71
     0
 72
     0
 41
0.0
 42
0.0
  3
Standard
100
AcDbAlignedDimension
 13
89.105893
 23
102.718085
 33
0.0
 14
91.105893
 24
66.443916
 34
0.0
100
AcDbRotatedDimension
  0
TEXT
  5
273
100
AcDbEntity
  8
2
370
    18
100
AcDbText
 10
77.105893
 20
103.218085
 30
0.0
 40
3.0
  1
+
 72
     5
 11
79.505893
 21
103.218085
 31
0.0
100
AcDbText
  0
DIMENSION
  5
274
100
AcDbEntity
  8
2
370
    25
100
AcDbDimension
  2
*D19
 10
89.105893
 20
102.718085
 30
0.0
 11
80.855893
 21
104.718085
 31
0.0
 71
     0
 72
     0
 41
0.0
 42
0.0
  3
Standard
100
AcDbAlignedDimension
 13
86.105893
 23
66.443916
 33
0.0
 14
89.105893
 24
102.718085
 34
0.0
100
AcDbRotatedDimension
  0
DIMENSION
  5
275
100
AcDbEntity
  8
2
370
    25
100
AcDbDimension
  2
*D20
 10
108.605893
 20
13.132204
 30
0.0
 11
99.355893
 21
15.132204
 31
0.0
 71
     0
 72
     0
 41
0.0
 42
0.0
  3
Standard
100
AcDbAlignedDimension
 13
96.105893
 23
13.132204
 33
0.0
 14
108.605893
 24
13.132204
 34
0.0
100
AcDbRotatedDimension
  0
DIMENSION
  5
276
100
AcDbEntity
  8
2
370
    25
100
AcDbDimension
  2
*D21
 10
120.038655
 20
-23.284803
 30
0.0
 11
118.038655
 21
-28.284803
 31
0.0
 71
     0
 72
     0
 41
0.0
 42
0.0
  3
Standard
100
AcDbAlignedDimension
 13
103.226578
 23
-33.284803
 33
0.0
 14
108.605893
 24
-23.284803
 34
0.0
 50
90.0
100
AcDbRotatedDimension
  0
DIMENSION
  5
277
100
AcDbEntity
  8
2
370
    25
100
AcDbDimension
  2
*D22
 10
60.976752
 20
-23.284803
 30
0.0
 11
59.726752
 21
-17.284803
 31
0.0
 71
     0
 72
     0
 41
0.0
 42
0.0
  3
Standard
100
AcDbAlignedDimension
 13
71.730157
 23
-26.284803
 33
0.0
 14
73.978685
 24
-23.284803
 34
0.0
 50
90.0
100
AcDbRotatedDimension
  0
DIMENSION
  5
278
100
AcDbEntity
  8
2
370
    25
100
AcDbDimension
  2
*D23
 10
153.138404
 20
68.043912
 30
0.0
 11
149.638404
 21
49.943915
 31
0.0
 71
     0
 72
     0
 41
0.0
 42
0.0
  3
Standard
100
AcDbAlignedDimension
 13
133.304585
 23
37.843917
 33
0.0
 14
133.304585
 24
68.043912
 34
0.0
 50
90.0
100
AcDbRotatedDimension
  0
TEXT
  5
279
100
AcDbEntity
  8
2
370
    18
100
AcDbText
 10
59.051466
 20
107.205542
 30
0.0
 40
3.2
  1
（調整範囲５ｍｍ）
 72
     5
 11
87.211466
 21
107.205542
 31
0.0
100
AcDbText
  0
DIMENSION
  5
27A
100
AcDbEntity
  8
2
370
    25
100
AcDbDimension
  2
*D24
 10
96.105893
 20
107.387298
 30
0.0
 11
91.855893
 21
109.387298
 31
0.0
 71
     0
 72
     0
 41
0.0
 42
0.0
  3
Standard
100
AcDbAlignedDimension
 13
89.105893
 23
66.443916
 33
0.0
 14
96.105893
 24
90.891332
 34
0.0
100
AcDbRotatedDimension
  0
TEXT
  5
27B
100
AcDbEntity
  8
2
370
    18
100
AcDbText
 10
93.975343
 20
116.844687
 30
0.0
 40
3.2
  1
調整基準位置
 72
     5
 11
112.535344
 21
116.844687
 31
0.0
100
AcDbText
  0
LWPOLYLINE
  5
27C
100
AcDbEntity
  8
2
370
    18
100
AcDbPolyline
 90
        3
 70
     0
 10
89.105926
 20
108.387229
 10
92.065718
 20
116.344687
 10
113.4573
 20
116.344687
  0
LINE
  5
281
100
AcDbEntity
  8
2
370
    25
100
AcDbLine
 10
89.294239
 20
110.378344
 30
0.0
 11
89.105926
 21
108.387229
 31
0.0
  0
LINE
  5
282
100
AcDbEntity
  8
2
370
    25
100
AcDbLine
 10
89.105926
 20
108.387229
 30
0.0
 11
90.264567
 21
110.017428
 31
0.0
  0
DIMENSION
  5
283
100
AcDbEntity
  8
2
370
    25
100
AcDbDimension
  2
*D25
 10
113.650765
 20
-23.284803
 30
0.0
 11
108.650765
 21
-19.284803
 31
0.0
 71
     0
 72
     0
 41
0.0
 42
0.0
  3
Standard
100
AcDbAlignedDimension
 13
105.939485
 23
-26.184803
 33
0.0
 14
108.605893
 24
-23.284803
 34
0.0
 50
90.0
100
AcDbRotatedDimension
  0
DIMENSION
  5
284
100
AcDbEntity
  8
2
370
    25
100
AcDbDimension
  2
*D26
 10
105.405893
 20
-52.764774
 30
0.0
 11
96.355893
 21
-50.764774
 31
0.0
 71
     0
 72
     0
 41
0.0
 42
0.0
  3
Standard
100
AcDbAlignedDimension
 13
87.305893
 23
-26.184803
 33
0.0
 14
105.405893
 24
-26.184803
 34
0.0
100
AcDbRotatedDimension
  0
DIMENSION
  5
285
100
AcDbEntity
  8
2
370
    25
100
AcDbDimension
  2
*D27
 10
108.605893
 20
5.445101
 30
0.0
 11
89.855893
 21
7.445101
 31
0.0
 71
     0
 72
     0
 41
0.0
 42
0.0
  3
Standard
100
AcDbAlignedDimension
 13
71.105893
 23
24.943916
 33
0.0
 14
108.605893
 24
25.943916
 34
0.0
100
AcDbRotatedDimension
  0
DIMENSION
  5
286
100
AcDbEntity
  8
2
370
    25
100
AcDbDimension
  2
*D28
 10
102.605893
 20
79.943916
 30
0.0
 11
111.972812
 21
88.97225
 31
0.0
 70
     4
 71
     0
 72
     0
 41
0.0
 42
0.0
  3
Standard
100
AcDbRadialDimension
 15
107.08273
 25
83.938654
 35
0.0
 40
4.0
  0
LINE
  5
287
100
AcDbEntity
  8
3
370
   100
100
AcDbLine
 10
-187.5
 20
138.0
 30
0.0
 11
-187.5
 21
-138.0
 31
0.0
  0
LINE
  5
288
100
AcDbEntity
  8
3
370
   100
100
AcDbLine
 10
-9.5
 20
-138.0
 30
0.0
 11
-9.5
 21
138.0
 31
0.0
  0
LINE
  5
289
100
AcDbEntity
  8
3
370
   100
100
AcDbLine
 10
-187.5
 20
-138.0
 30
0.0
 11
-9.5
 21
-138.0
 31
0.0
  0
LINE
  5
28A
100
AcDbEntity
  8
3
370
   100
100
AcDbLine
 10
-9.5
 20
138.0
 30
0.0
 11
-187.5
 21
138.0
 31
0.0
  0
LINE
  5
28B
100
AcDbEntity
  8
3
370
   100
100
AcDbLine
 10
-187.5
 20
138.3
 30
0.0
 11
-9.2
 21
138.3
 31
0.0
  0
LINE
  5
28C
100
AcDbEntity
  8
3
370
   100
100
AcDbLine
 10
-9.2
 20
138.3
 30
0.0
 11
-9.2
 21
-138.3
 31
0.0
  0
LINE
  5
28D
100
AcDbEntity
  8
3
370
   100
100
AcDbLine
 10
-9.2
 20
-138.3
 30
0.0
 11
-187.8
 21
-138.3
 31
0.0
  0
LINE
  5
28E
100
AcDbEntity
  8
3
370
   100
100
AcDbLine
 10
-187.8
 20
-138.3
 30
0.0
 11
-187.8
 21
138.0
 31
0.0
  0
LINE
  5
28F
100
AcDbEntity
  8
3
370
    50
100
AcDbLine
 10
-187.5
 20
-108.0
 30
0.0
 11
-9.5
 21
-108.0
 31
0.0
  0
LINE
  5
290
100
AcDbEntity
  8
3
370
    50
100
AcDbLine
 10
-119.5
 20
-101.5
 30
0.0
 11
-9.5
 21
-101.5
 31
0.0
  0
LINE
  5
291
100
AcDbEntity
  8
3
370
    50
100
AcDbLine
 10
-109.5
 20
-108.0
 30
0.0
 11
-109.5
 21
-138.0
 31
0.0
  0
LINE
  5
292
100
AcDbEntity
  8
3
370
    50
100
AcDbLine
 10
-109.5
 20
-82.0
 30
0.0
 11
-109.5
 21
-108.0
 31
0.0
  0
LINE
  5
293
100
AcDbEntity
  8
3
370
    50
100
AcDbLine
 10
-49.5
 20
-82.0
 30
0.0
 11
-49.5
 21
-108.0
 31
0.0
  0
TEXT
  5
294
100
AcDbEntity
  8
3
370
    25
100
AcDbText
 10
-118.5
 20
-106.75
 30
0.0
 40
4.0
  1
品番
 72
     5
 11
-111.3
 21
-106.75
 31
0.0
100
AcDbText
  0
TEXT
  5
295
100
AcDbEntity
  8
3
370
    25
100
AcDbText
 10
-94.5
 20
-106.75
 30
0.0
 40
4.0
  1
品     名
 72
     5
 11
-67.3
 21
-106.75
 31
0.0
100
AcDbText
  0
TEXT
  5
296
100
AcDbEntity
  8
3
370
    25
100
AcDbText
 10
-18.5
 20
-106.75
 30
0.0
 40
4.0
  1
員数
 72
     5
 11
-11.3
 21
-106.75
 31
0.0
100
AcDbText
  0
TEXT
  5
297
100
AcDbEntity
  8
3
370
    25
100
AcDbText
 10
-182.5
 20
-112.5
 30
0.0
 40
4.0
  1
図  法
 72
     5
 11
-167.3
 21
-112.5
 31
0.0
100
AcDbText
  0
TEXT
  5
298
100
AcDbEntity
  8
3
370
    25
100
AcDbText
 10
-156.5
 20
-112.5
 30
0.0
 40
4.0
  1
単  位
 72
     5
 11
-141.3
 21
-112.5
 31
0.0
100
AcDbText
  0
TEXT
  5
299
100
AcDbEntity
  8
3
370
    25
100
AcDbText
 10
-130.5
 20
-112.5
 30
0.0
 40
4.0
  1
尺  度
 72
     5
 11
-115.3
 21
-112.5
 31
0.0
100
AcDbText
  0
TEXT
  5
29A
100
AcDbEntity
  8
3
370
   100
100
AcDbText
 10
-176.5
 20
-135.5
 30
0.0
 40
8.0
  1
（株）川口技研
 72
     5
 11
-122.1
 21
-135.5
 31
0.0
100
AcDbText
  0
TEXT
  5
29B
100
AcDbEntity
  8
3
370
    25
100
AcDbText
 10
-107.5
 20
-112.5
 30
0.0
 40
4.0
  1
図面名称
 72
     5
 11
-92.3
 21
-112.5
 31
0.0
100
AcDbText
  0
TEXT
  5
29C
100
AcDbEntity
  8
3
370
    25
100
AcDbText
 10
-107.5
 20
-129.5
 30
0.0
 40
4.0
  1
図面番号
 72
     5
 11
-92.3
 21
-129.5
 31
0.0
100
AcDbText
  0
LINE
  5
29D
100
AcDbEntity
  8
3
370
    25
100
AcDbLine
 10
-187.5
 20
-113.0
 30
0.0
 11
-89.5
 21
-113.0
 31
0.0
  0
LINE
  5
29E
100
AcDbEntity
  8
3
370
    25
100
AcDbLine
 10
-89.5
 20
-108.0
 30
0.0
 11
-89.5
 21
-113.0
 31
0.0
  0
LINE
  5
29F
100
AcDbEntity
  8
3
370
    25
100
AcDbLine
 10
-109.5
 20
-130.0
 30
0.0
 11
-89.5
 21
-130.0
 31
0.0
  0
LINE
  5
2A0
100
AcDbEntity
  8
3
370
    25
100
AcDbLine
 10
-89.5
 20
-125.0
 30
0.0
 11
-89.5
 21
-130.0
 31
0.0
  0
TEXT
  5
2A1
100
AcDbEntity
  8
3
370
    25
100
AcDbText
 10
-153.5
 20
-121.5
 30
0.0
 40
5.0
  1
ｍｍ
 72
     5
 11
-144.5
 21
-121.5
 31
0.0
100
AcDbText
  0
TEXT
  5
2A2
100
AcDbEntity
  8
3
370
    25
100
AcDbText
 10
-128.5
 20
-121.5
 30
0.0
 40
4.0
  1
１／１
 72
     5
 11
-117.3
 21
-121.5
 31
0.0
100
AcDbText
  0
LINE
  5
2A3
100
AcDbEntity
  8
3
370
    50
100
AcDbLine
 10
-119.5
 20
-95.0
 30
0.0
 11
-9.5
 21
-95.0
 31
0.0
  0
LINE
  5
2A4
100
AcDbEntity
  8
3
370
    50
100
AcDbLine
 10
-119.5
 20
-88.5
 30
0.0
 11
-9.5
 21
-88.5
 31
0.0
  0
LINE
  5
2A5
100
AcDbEntity
  8
3
370
    50
100
AcDbLine
 10
-119.5
 20
-82.0
 30
0.0
 11
-9.5
 21
-82.0
 31
0.0
  0
TEXT
  5
2A6
100
AcDbEntity
  8
3
370
    25
100
AcDbText
 10
-116.5
 20
-100.25
 30
0.0
 40
4.0
  1
１
 72
     5
 11
-113.3
 21
-100.25
 31
0.0
100
AcDbText
  0
TEXT
  5
2A7
100
AcDbEntity
  8
3
370
    25
100
AcDbText
 10
-116.5
 20
-93.75
 30
0.0
 40
4.0
  1
２
 72
     5
 11
-113.3
 21
-93.75
 31
0.0
100
AcDbText
  0
TEXT
  5
2A8
100
AcDbEntity
  8
3
370
    25
100
AcDbText
 10
-116.5
 20
-87.25
 30
0.0
 40
4.0
  1
３
 72
     5
 11
-113.3
 21
-87.25
 31
0.0
100
AcDbText
  0
TEXT
  5
2A9
100
AcDbEntity
  8
3
370
    25
100
AcDbText
 10
-107.5
 20
-93.75
 30
0.0
 40
3.5
  1
受 箱
 72
     5
 11
-97.7
 21
-93.75
 31
0.0
100
AcDbText
  0
TEXT
  5
2AA
100
AcDbEntity
  8
3
370
    25
100
AcDbText
 10
-107.5
 20
-87.25
 30
0.0
 40
3.5
  1
ストライク取付木ネジ
 72
     5
 11
-73.2
 21
-87.25
 31
0.0
100
AcDbText
  0
TEXT
  5
2AB
100
AcDbEntity
  8
3
370
    25
100
AcDbText
 10
-16.5
 20
-100.25
 30
0.0
 40
4.0
  1
１
 72
     5
 11
-13.3
 21
-100.25
 31
0.0
100
AcDbText
  0
TEXT
  5
2AC
100
AcDbEntity
  8
3
370
    25
100
AcDbText
 10
-16.5
 20
-93.75
 30
0.0
 40
4.0
  1
１
 72
     5
 11
-13.3
 21
-93.75
 31
0.0
100
AcDbText
  0
TEXT
  5
2AD
100
AcDbEntity
  8
3
370
    25
100
AcDbText
 10
-16.5
 20
-87.25
 30
0.0
 40
4.0
  1
２
 72
     5
 11
-13.3
 21
-87.25
 31
0.0
100
AcDbText
  0
TEXT
  5
2AE
100
AcDbEntity
  8
3
370
    25
100
AcDbText
 10
-180.5
 20
-121.5
 30
0.0
 40
4.0
  1
３角法
 72
     5
 11
-169.3
 21
-121.5
 31
0.0
100
AcDbText
  0
LINE
  5
2AF
100
AcDbEntity
  8
3
370
    50
100
AcDbLine
 10
-19.5
 20
-82.0
 30
0.0
 11
-19.5
 21
-108.0
 31
0.0
  0
LINE
  5
2B0
100
AcDbEntity
  8
3
370
    50
100
AcDbLine
 10
-119.5
 20
-82.0
 30
0.0
 11
-119.5
 21
-108.0
 31
0.0
  0
LINE
  5
2B1
100
AcDbEntity
  8
3
370
    50
100
AcDbLine
 10
-187.5
 20
-125.0
 30
0.0
 11
-109.5
 21
-125.0
 31
0.0
  0
LINE
  5
2B2
100
AcDbEntity
  8
3
370
    50
100
AcDbLine
 10
-109.5
 20
-125.0
 30
0.0
 11
-9.5
 21
-125.0
 31
0.0
  0
LINE
  5
2B3
100
AcDbEntity
  8
3
370
    50
100
AcDbLine
 10
-161.5
 20
-125.0
 30
0.0
 11
-161.5
 21
-108.0
 31
0.0
  0
LINE
  5
2B4
100
AcDbEntity
  8
3
370
    50
100
AcDbLine
 10
-135.5
 20
-125.0
 30
0.0
 11
-135.5
 21
-108.0
 31
0.0
  0
TEXT
  5
2B5
100
AcDbEntity
  8
3
370
    25
100
AcDbText
 10
-40.5
 20
-106.75
 30
0.0
 40
4.0
  1
寸　法
 72
     5
 11
-29.3
 21
-106.75
 31
0.0
100
AcDbText
  0
LINE
  5
2B6
100
AcDbEntity
  8
3
370
   100
100
AcDbLine
 10
22.5
 20
138.0
 30
0.0
 11
22.5
 21
-138.0
 31
0.0
  0
LINE
  5
2B7
100
AcDbEntity
  8
3
370
   100
100
AcDbLine
 10
200.5
 20
-138.0
 30
0.0
 11
200.5
 21
138.0
 31
0.0
  0
LINE
  5
2B8
100
AcDbEntity
  8
3
370
   100
100
AcDbLine
 10
22.5
 20
-138.0
 30
0.0
 11
200.5
 21
-138.0
 31
0.0
  0
LINE
  5
2B9
100
AcDbEntity
  8
3
370
   100
100
AcDbLine
 10
200.5
 20
138.0
 30
0.0
 11
22.5
 21
138.0
 31
0.0
  0
LINE
  5
2BA
100
AcDbEntity
  8
3
370
   100
100
AcDbLine
 10
22.5
 20
138.3
 30
0.0
 11
200.8
 21
138.3
 31
0.0
  0
LINE
  5
2BB
100
AcDbEntity
  8
3
370
   100
100
AcDbLine
 10
200.8
 20
138.3
 30
0.0
 11
200.8
 21
-138.3
 31
0.0
  0
LINE
  5
2BC
100
AcDbEntity
  8
3
370
   100
100
AcDbLine
 10
200.8
 20
-138.3
 30
0.0
 11
22.2
 21
-138.3
 31
0.0
  0
LINE
  5
2BD
100
AcDbEntity
  8
3
370
   100
100
AcDbLine
 10
22.2
 20
-138.3
 30
0.0
 11
22.2
 21
138.0
 31
0.0
  0
LINE
  5
2BE
100
AcDbEntity
  8
3
370
    50
100
AcDbLine
 10
22.5
 20
-108.0
 30
0.0
 11
200.5
 21
-108.0
 31
0.0
  0
LINE
  5
2BF
100
AcDbEntity
  8
3
370
    50
100
AcDbLine
 10
90.5
 20
-101.5
 30
0.0
 11
200.5
 21
-101.5
 31
0.0
  0
LINE
  5
2C0
100
AcDbEntity
  8
3
370
    50
100
AcDbLine
 10
100.5
 20
-108.0
 30
0.0
 11
100.5
 21
-138.0
 31
0.0
  0
LINE
  5
2C1
100
AcDbEntity
  8
3
370
    50
100
AcDbLine
 10
100.5
 20
-82.0
 30
0.0
 11
100.5
 21
-108.0
 31
0.0
  0
LINE
  5
2C2
100
AcDbEntity
  8
3
370
    50
100
AcDbLine
 10
160.5
 20
-82.0
 30
0.0
 11
160.5
 21
-108.0
 31
0.0
  0
TEXT
  5
2C3
100
AcDbEntity
  8
3
370
    25
100
AcDbText
 10
91.5
 20
-106.75
 30
0.0
 40
4.0
  1
品番
 72
     5
 11
98.7
 21
-106.75
 31
0.0
100
AcDbText
  0
TEXT
  5
2C4
100
AcDbEntity
  8
3
370
    25
100
AcDbText
 10
115.5
 20
-106.75
 30
0.0
 40
4.0
  1
品     名
 72
     5
 11
142.7
 21
-106.75
 31
0.0
100
AcDbText
  0
TEXT
  5
2C5
100
AcDbEntity
  8
3
370
    25
100
AcDbText
 10
191.5
 20
-106.75
 30
0.0
 40
4.0
  1
員数
 72
     5
 11
198.7
 21
-106.75
 31
0.0
100
AcDbText
  0
TEXT
  5
2C6
100
AcDbEntity
  8
3
370
    25
100
AcDbText
 10
27.5
 20
-112.5
 30
0.0
 40
4.0
  1
図  法
 72
     5
 11
42.7
 21
-112.5
 31
0.0
100
AcDbText
  0
TEXT
  5
2C7
100
AcDbEntity
  8
3
370
    25
100
AcDbText
 10
53.5
 20
-112.5
 30
0.0
 40
4.0
  1
単  位
 72
     5
 11
68.7
 21
-112.5
 31
0.0
100
AcDbText
  0
TEXT
  5
2C8
100
AcDbEntity
  8
3
370
    25
100
AcDbText
 10
79.5
 20
-112.5
 30
0.0
 40
4.0
  1
尺  度
 72
     5
 11
94.7
 21
-112.5
 31
0.0
100
AcDbText
  0
TEXT
  5
2C9
100
AcDbEntity
  8
3
370
   100
100
AcDbText
 10
33.5
 20
-135.5
 30
0.0
 40
8.0
  1
（株）川口技研
 72
     5
 11
87.9
 21
-135.5
 31
0.0
100
AcDbText
  0
TEXT
  5
2CA
100
AcDbEntity
  8
3
370
    25
100
AcDbText
 10
102.5
 20
-112.5
 30
0.0
 40
4.0
  1
図面名称
 72
     5
 11
117.7
 21
-112.5
 31
0.0
100
AcDbText
  0
TEXT
  5
2CB
100
AcDbEntity
  8
3
370
    25
100
AcDbText
 10
102.5
 20
-129.5
 30
0.0
 40
4.0
  1
図面番号
 72
     5
 11
117.7
 21
-129.5
 31
0.0
100
AcDbText
  0
LINE
  5
2CC
100
AcDbEntity
  8
3
370
    25
100
AcDbLine
 10
22.5
 20
-113.0
 30
0.0
 11
120.5
 21
-113.0
 31
0.0
  0
LINE
  5
2CD
100
AcDbEntity
  8
3
370
    25
100
AcDbLine
 10
120.5
 20
-108.0
 30
0.0
 11
120.5
 21
-113.0
 31
0.0
  0
LINE
  5
2CE
100
AcDbEntity
  8
3
370
    25
100
AcDbLine
 10
100.5
 20
-130.0
 30
0.0
 11
120.5
 21
-130.0
 31
0.0
  0
LINE
  5
2CF
100
AcDbEntity
  8
3
370
    25
100
AcDbLine
 10
120.5
 20
-125.0
 30
0.0
 11
120.5
 21
-130.0
 31
0.0
  0
TEXT
  5
2D0
100
AcDbEntity
  8
3
370
    25
100
AcDbText
 10
56.5
 20
-121.5
 30
0.0
 40
5.0
  1
ｍｍ
 72
     5
 11
65.5
 21
-121.5
 31
0.0
100
AcDbText
  0
TEXT
  5
2D1
100
AcDbEntity
  8
3
370
    25
100
AcDbText
 10
81.5
 20
-121.5
 30
0.0
 40
4.0
  1
１／１
 72
     5
 11
92.7
 21
-121.5
 31
0.0
100
AcDbText
  0
LINE
  5
2D2
100
AcDbEntity
  8
3
370
    50
100
AcDbLine
 10
90.5
 20
-95.0
 30
0.0
 11
200.5
 21
-95.0
 31
0.0
  0
LINE
  5
2D3
100
AcDbEntity
  8
3
370
    50
100
AcDbLine
 10
90.5
 20
-88.5
 30
0.0
 11
200.5
 21
-88.5
 31
0.0
  0
LINE
  5
2D4
100
AcDbEntity
  8
3
370
    50
100
AcDbLine
 10
90.5
 20
-82.0
 30
0.0
 11
200.5
 21
-82.0
 31
0.0
  0
TEXT
  5
2D5
100
AcDbEntity
  8
3
370
    25
100
AcDbText
 10
93.5
 20
-100.25
 30
0.0
 40
4.0
  1
１
 72
     5
 11
96.7
 21
-100.25
 31
0.0
100
AcDbText
  0
TEXT
  5
2D6
100
AcDbEntity
  8
3
370
    25
100
AcDbText
 10
93.5
 20
-93.75
 30
0.0
 40
4.0
  1
２
 72
     5
 11
96.7
 21
-93.75
 31
0.0
100
AcDbText
  0
TEXT
  5
2D7
100
AcDbEntity
  8
3
370
    25
100
AcDbText
 10
93.5
 20
-87.25
 30
0.0
 40
4.0
  1
３
 72
     5
 11
96.7
 21
-87.25
 31
0.0
100
AcDbText
  0
TEXT
  5
2D8
100
AcDbEntity
  8
3
370
    25
100
AcDbText
 10
102.5
 20
-93.75
 30
0.0
 40
3.5
  1
受 箱
 72
     5
 11
112.3
 21
-93.75
 31
0.0
100
AcDbText
  0
TEXT
  5
2D9
100
AcDbEntity
  8
3
370
    25
100
AcDbText
 10
102.5
 20
-87.25
 30
0.0
 40
3.5
  1
ストライク取付木ネジ
 72
     5
 11
136.8
 21
-87.25
 31
0.0
100
AcDbText
  0
TEXT
  5
2DA
100
AcDbEntity
  8
3
370
    25
100
AcDbText
 10
193.5
 20
-100.25
 30
0.0
 40
4.0
  1
１
 72
     5
 11
196.7
 21
-100.25
 31
0.0
100
AcDbText
  0
TEXT
  5
2DB
100
AcDbEntity
  8
3
370
    25
100
AcDbText
 10
193.5
 20
-93.75
 30
0.0
 40
4.0
  1
１
 72
     5
 11
196.7
 21
-93.75
 31
0.0
100
AcDbText
  0
TEXT
  5
2DC
100
AcDbEntity
  8
3
370
    25
100
AcDbText
 10
193.5
 20
-87.25
 30
0.0
 40
4.0
  1
２
 72
     5
 11
196.7
 21
-87.25
 31
0.0
100
AcDbText
  0
TEXT
  5
2DD
100
AcDbEntity
  8
3
370
    25
100
AcDbText
 10
29.5
 20
-121.5
 30
0.0
 40
4.0
  1
３角法
 72
     5
 11
40.7
 21
-121.5
 31
0.0
100
AcDbText
  0
LINE
  5
2DE
100
AcDbEntity
  8
3
370
    50
100
AcDbLine
 10
190.5
 20
-82.0
 30
0.0
 11
190.5
 21
-108.0
 31
0.0
  0
LINE
  5
2DF
100
AcDbEntity
  8
3
370
    50
100
AcDbLine
 10
90.5
 20
-82.0
 30
0.0
 11
90.5
 21
-108.0
 31
0.0
  0
LINE
  5
2E0
100
AcDbEntity
  8
3
370
    50
100
AcDbLine
 10
22.5
 20
-125.0
 30
0.0
 11
100.5
 21
-125.0
 31
0.0
  0
LINE
  5
2E1
100
AcDbEntity
  8
3
370
    50
100
AcDbLine
 10
100.5
 20
-125.0
 30
0.0
 11
200.5
 21
-125.0
 31
0.0
  0
LINE
  5
2E2
100
AcDbEntity
  8
3
370
    50
100
AcDbLine
 10
48.5
 20
-125.0
 30
0.0
 11
48.5
 21
-108.0
 31
0.0
  0
LINE
  5
2E3
100
AcDbEntity
  8
3
370
    50
100
AcDbLine
 10
74.5
 20
-125.0
 30
0.0
 11
74.5
 21
-108.0
 31
0.0
  0
TEXT
  5
2E4
100
AcDbEntity
  8
3
370
    25
100
AcDbText
 10
169.5
 20
-106.75
 30
0.0
 40
4.0
  1
寸　法
 72
     5
 11
180.7
 21
-106.75
 31
0.0
100
AcDbText
  0
TEXT
  5
2E5
100
AcDbEntity
  8
3
370
    50
100
AcDbText
 10
-81.404442
 20
-120.800041
 30
0.0
 40
5.0
  1
調整ストライク　Ｓ-２５
 72
     5
 11
-24.904442
 21
-120.800041
 31
0.0
100
AcDbText
  0
TEXT
  5
2E6
100
AcDbEntity
  8
3
370
    25
100
AcDbText
 10
-107.5
 20
-100.25
 30
0.0
 40
3.5
  1
調整ストライク　Ｓ-２５
 72
     5
 11
-67.95
 21
-100.25
 31
0.0
100
AcDbText
  0
TEXT
  5
2E7
100
AcDbEntity
  8
3
370
    50
100
AcDbText
 10
120.595558
 20
-120.800041
 30
0.0
 40
5.0
  1
調整ストライク　Ｓ-２５（６Ｒ）
 72
     5
 11
197.095558
 21
-120.800041
 31
0.0
100
AcDbText
  0
TEXT
  5
2E8
100
AcDbEntity
  8
3
370
    25
100
AcDbText
 10
102.5
 20
-100.25
 30
0.0
 40
3.5
  1
調整ストライク　Ｓ-２５（６Ｒ）
 72
     5
 11
156.05
 21
-100.25
 31
0.0
100
AcDbText
  0
TEXT
  5
2E9
100
AcDbEntity
  8
3
370
   100
100
AcDbText
 10
-79.078545
 20
-134.545471
 30
0.0
 40
6.0
  1
ＥＺ－１４１５－００
 72
     5
 11
-20.278545
 21
-134.545471
 31
0.0
100
AcDbText
  0
TEXT
  5
2EA
100
AcDbEntity
  8
3
370
   100
100
AcDbText
 10
130.921455
 20
-134.545471
 30
0.0
 40
6.0
  1
ＥＺ－１４１６－００
 72
     5
 11
189.721455
 21
-134.545471
 31
0.0
100
AcDbText
  0
TEXT
  5
2EB
100
AcDbEntity
  8
3
370
    25
100
AcDbText
 10
-46.849052
 20
-86.98735
 30
0.0
 40
3.2
  1
サラ木ネジ３．５×２２
 41
0.7
 72
     5
 11
-22.657052
 21
-86.98735
 31
0.0
100
AcDbText
  0
TEXT
  5
2EC
100
AcDbEntity
  8
3
370
    25
100
AcDbText
 10
163.150948
 20
-86.98735
 30
0.0
 40
3.2
  1
サラ木ネジ３．５×２２
 41
0.7
 72
     5
 11
187.342948
 21
-86.98735
 31
0.0
100
AcDbText
  0
ENDSEC
  0
SECTION
  2
OBJECTS
  0
DICTIONARY
  5
401
100
AcDbDictionary
280
     0
281
     1
  3
ACAD_GROUP
350
402
  3
ACAD_MLINESTYLE
350
403
  0
DICTIONARY
  5
402
102
{ACAD_REACTORS
330
401
102
}
100
AcDbDictionary
280
     0
281
     1
  0
DICTIONARY
  5
403
102
{ACAD_REACTORS
330
401
102
}
100
AcDbDictionary
280
     0
281
     1
  3
Standard
350
404
  0
MLINESTYLE
  5
404
102
{ACAD_REACTORS
330
403
102
}
100
AcDbMlineStyle
  2
Standard
 70
     0
  3

 62
     0
 51
90.0
 52
90.0
 71
     2
 49
0.5
 62
   256
  6
ByLayer
 49
-0.5
 62
   256
  6
ByLayer
  0
ENDSEC
  0
EOF
