  0
SECTION
  2
HEADER
  9
$ACADVER
  1
AC1015
  9
$ACADMAINTVER
 70
     6
  9
$DWGCODEPAGE
  3
ANSI_932
  9
$INSBASE
 10
0.0
 20
0.0
 30
0.0
  9
$EXTMIN
 10
-420.5
 20
-297.0
 30
1.000000E+20
  9
$EXTMAX
 10
420.5
 20
297.0
 30
-1.000000E+20
  9
$LIMMIN
 10
-420.5
 20
-297.0
  9
$LIMMAX
 10
420.5
 20
297.0
  9
$ORTHOMODE
 70
     0
  9
$REGENMODE
 70
     1
  9
$FILLMODE
 70
     1
  9
$QTEXTMODE
 70
     0
  9
$MIRRTEXT
 70
     1
  9
$LTSCALE
 40
1.0
  9
$ATTMODE
 70
     1
  9
$TEXTSIZE
 40
0.2
  9
$TRACEWID
 40
0.05
  9
$TEXTSTYLE
  7
STANDARD
  9
$CLAYER
  8
0
  9
$CELTYPE
  6
CONTINUOUS
  9
$CECOLOR
 62
   256
  9
$CELTSCALE
 40
1.0
  9
$DISPSILH
 70
     0
  9
$DIMSCALE
 40
1.0
  9
$DIMASZ
 40
2.0
  9
$DIMEXO
 40
0.5
  9
$DIMDLI
 40
0.38
  9
$DIMRND
 40
0.0
  9
$DIMDLE
 40
0.0
  9
$DIMEXE
 40
2.0
  9
$DIMTP
 40
0.0
  9
$DIMTM
 40
0.0
  9
$DIMTXT
 40
3.0
  9
$DIMCEN
 40
0.09
  9
$DIMTSZ
 40
0.0
  9
$DIMTOL
 70
     0
  9
$DIMLIM
 70
     0
  9
$DIMTIH
 70
     0
  9
$DIMTOH
 70
     0
  9
$DIMSE1
 70
     0
  9
$DIMSE2
 70
     0
  9
$DIMTAD
 70
     1
  9
$DIMZIN
 70
     0
  9
$DIMBLK
  1

  9
$DIMASO
 70
     1
  9
$DIMSHO
 70
     1
  9
$DIMPOST
  1

  9
$DIMAPOST
  1

  9
$DIMALT
 70
     0
  9
$DIMALTD
 70
     2
  9
$DIMALTF
 40
25.4
  9
$DIMLFAC
 40
1.0
  9
$DIMTOFL
 70
     0
  9
$DIMTVP
 40
0.0
  9
$DIMTIX
 70
     0
  9
$DIMSOXD
 70
     0
  9
$DIMSAH
 70
     0
  9
$DIMBLK1
  1

  9
$DIMBLK2
  1

  9
$DIMSTYLE
  2
Standard
  9
$DIMCLRD
 70
     0
  9
$DIMCLRE
 70
     0
  9
$DIMCLRT
 70
     0
  9
$DIMTFAC
 40
1.0
  9
$DIMGAP
 40
0.5
  9
$DIMJUST
 70
     0
  9
$DIMSD1
 70
     0
  9
$DIMSD2
 70
     0
  9
$DIMTOLJ
 70
     1
  9
$DIMTZIN
 70
     0
  9
$DIMALTZ
 70
     0
  9
$DIMALTTZ
 70
     0
  9
$DIMUPT
 70
     0
  9
$DIMDEC
 70
     2
  9
$DIMTDEC
 70
     4
  9
$DIMALTU
 70
     2
  9
$DIMALTTD
 70
     2
  9
$DIMTXSTY
  7
STANDARD
  9
$DIMAUNIT
 70
     0
  9
$DIMADEC
 70
     2
  9
$DIMALTRND
 40
0.0
  9
$DIMAZIN
 70
     0
  9
$DIMDSEP
 70
     0
  9
$DIMATFIT
 70
     3
  9
$DIMFRAC
 70
     0
  9
$DIMLDRBLK
  1

  9
$DIMLUNIT
 70
     2
  9
$DIMLWD
 70
     0
  9
$DIMLWE
 70
     0
  9
$DIMTMOVE
 70
     0
  9
$LUNITS
 70
     2
  9
$LUPREC
 70
     4
  9
$SKETCHINC
 40
0.1
  9
$FILLETRAD
 40
0.0
  9
$AUNITS
 70
     0
  9
$AUPREC
 70
     0
  9
$MENU
  1
acad
  9
$ELEVATION
 40
0.0
  9
$PELEVATION
 40
0.0
  9
$THICKNESS
 40
0.0
  9
$LIMCHECK
 70
     0
  9
$CHAMFERA
 40
0.0
  9
$CHAMFERB
 40
0.0
  9
$CHAMFERC
 40
0.0
  9
$CHAMFERD
 40
0.0
  9
$SKPOLY
 70
     0
  9
$TDCREATE
 40
2448436.000000000
  9
$TDUCREATE
 40
0.000000000
  9
$TDUPDATE
 40
0.000000000
  9
$TDUUPDATE
 40
2447892.625000000
  9
$TDINDWG
 40
0.0000000000
  9
$TDUSRTIMER
 40
0.0000000000
  9
$USRTIMER
 70
     1
  9
$ANGBASE
 50
0.0
  9
$ANGDIR
 70
     0
  9
$PDMODE
 70
     0
  9
$PDSIZE
 40
0.0
  9
$PLINEWID
 40
0.0
  9
$SPLFRAME
 70
     0
  9
$SPLINETYPE
 70
     6
  9
$SPLINESEGS
 70
     8
  9
$HANDSEED
  5
83D
  9
$SURFTAB1
 70
     6
  9
$SURFTAB2
 70
     6
  9
$SURFTYPE
 70
     6
  9
$SURFU
 70
     6
  9
$SURFV
 70
     6
  9
$UCSBASE
  2

  9
$UCSNAME
  2

  9
$UCSORG
 10
0.0
 20
0.0
 30
0.0
  9
$UCSXDIR
 10
1.0
 20
0.0
 30
0.0
  9
$UCSYDIR
 10
0.0
 20
1.0
 30
0.0
  9
$UCSORTHOREF
  2

  9
$UCSORTHOVIEW
 70
     0
  9
$UCSORGTOP
 10
0.0
 20
0.0
 30
0.0
  9
$UCSORGBOTTOM
 10
0.0
 20
0.0
 30
0.0
  9
$UCSORGLEFT
 10
0.0
 20
0.0
 30
0.0
  9
$UCSORGRIGHT
 10
0.0
 20
0.0
 30
0.0
  9
$UCSORGFRONT
 10
0.0
 20
0.0
 30
0.0
  9
$UCSORGBACK
 10
0.0
 20
0.0
 30
0.0
  9
$PUCSBASE
  2

  9
$PUCSNAME
  2

  9
$PUCSORG
 10
0.0
 20
0.0
 30
0.0
  9
$PUCSXDIR
 10
1.0
 20
0.0
 30
0.0
  9
$PUCSYDIR
 10
0.0
 20
1.0
 30
0.0
  9
$PUCSORTHOREF
  2

  9
$PUCSORTHOVIEW
 70
     0
  9
$PUCSORGTOP
 10
0.0
 20
0.0
 30
0.0
  9
$PUCSORGBOTTOM
 10
0.0
 20
0.0
 30
0.0
  9
$PUCSORGLEFT
 10
0.0
 20
0.0
 30
0.0
  9
$PUCSORGRIGHT
 10
0.0
 20
0.0
 30
0.0
  9
$PUCSORGFRONT
 10
0.0
 20
0.0
 30
0.0
  9
$PUCSORGBACK
 10
0.0
 20
0.0
 30
0.0
  9
$USERI1
 70
     0
  9
$USERI2
 70
     0
  9
$USERI3
 70
     0
  9
$USERI4
 70
     0
  9
$USERI5
 70
     0
  9
$USERR1
 40
0.0
  9
$USERR2
 40
0.0
  9
$USERR3
 40
0.0
  9
$USERR4
 40
0.0
  9
$USERR5
 40
0.0
  9
$WORLDVIEW
 70
     1
  9
$SHADEDGE
 70
     3
  9
$SHADEDIF
 70
    70
  9
$TILEMODE
 70
     1
  9
$MAXACTVP
 70
    16
  9
$PINSBASE
 10
0.0
 20
0.0
 30
0.0
  9
$PLIMCHECK
 70
     0
  9
$PEXTMIN
 10
1.000000E+20
 20
1.000000E+20
 30
1.000000E+20
  9
$PEXTMAX
 10
-1.000000E+20
 20
-1.000000E+20
 30
-1.000000E+20
  9
$PLIMMIN
 10
0.0
 20
0.0
  9
$PLIMMAX
 10
12.0
 20
9.0
  9
$UNITMODE
 70
     0
  9
$VISRETAIN
 70
     0
  9
$PLINEGEN
 70
     1
  9
$PSLTSCALE
 70
     0
  9
$TREEDEPTH
 70
  3020
  9
$CMLSTYLE
  2
Standard
  9
$CMLJUST
 70
     0
  9
$CMLSCALE
 40
1.0
  9
$PROXYGRAPHICS
 70
     0
  9
$MEASUREMENT
 70
     0
  9
$CELWEIGHT
370
     0
  9
$ENDCAPS
280
     0
  9
$JOINSTYLE
280
     0
  9
$LWDISPLAY
290
     0
  9
$INSUNITS
 70
     0
  9
$HYPERLINKBASE
  1

  9
$STYLESHEET
  1

  9
$XEDIT
290
     1
  9
$CEPSNTYPE
380
     0
  9
$PSTYLEMODE
290
     1
  9
$FINGERPRINTGUID
  2

  9
$VERSIONGUID
  2

  9
$EXTNAMES
290
     1
  9
$PSVPSCALE
 40
0.0
  0
ENDSEC
  0
SECTION
  2
CLASSES
  0
CLASS
  1
LWPOLYLINE
  2
AcDbPolyline
  3
AutoCAD 2000
 90
        0
280
     0
281
     1
  0
CLASS
  1
IMAGE
  2
AcDbRasterImage
  3
ISM
 90
      127
280
     0
281
     1
  0
CLASS
  1
OLE2FRAME
  2
AcDbOle2Frame
  3
AutoCAD 2000
 90
        0
280
     0
281
     1
  0
CLASS
  1
HATCH
  2
AcDbHatch
  3
AutoCAD 2000
 90
        0
280
     0
281
     1
  0
CLASS
  1
DICTIONARYVAR
  2
AcDbDictionaryVar
  3
AutoCAD 2000
 90
        0
280
     0
281
     0
  0
CLASS
  1
RASTERVARIABLES
  2
AcDbRasterVariables
  3
ISM
 90
        0
280
     0
281
     0
  0
CLASS
  1
IMAGEDEF
  2
AcDbRasterImageDef
  3
ISM
 90
        0
280
     0
281
     0
  0
CLASS
  1
IMAGEDEF_REACTOR
  2
AcDbRasterImageDefReactor
  3
ISM
 90
        1
280
     0
281
     0
  0
CLASS
  1
IDBUFFER
  2
AcDbIdBuffer
  3
AutoCAD 2000
 90
        0
280
     0
281
     0
  0
CLASS
  1
SPATIAL_FILTER
  2
AcDbSpatialFilter
  3
AutoCAD 2000
 90
        0
280
     0
281
     0
  0
CLASS
  1
XRECORD
  2
AcDbXrecord
  3
AutoCAD 2000
 90
        0
280
     0
281
     0
  0
CLASS
  1
SORTENTSTABLE
  2
AcDbSortentsTable
  3
AutoCAD 2000
 90
        0
280
     0
281
     0
  0
CLASS
  1
LAYER_INDEX
  2
AcDbLayerIndex
  3
AutoCAD 2000
 90
        0
280
     0
281
     0
  0
CLASS
  1
SPATIAL_INDEX
  2
AcDbSpatialIndex
  3
AutoCAD 2000
 90
        0
280
     0
281
     0
  0
CLASS
  1
OBJECT_PTR
  2
CAseDLPNTableRecord
  3
"ASE-LPNTableRecord"
 90
        1
280
     0
281
     0
  0
CLASS
  1
LAYOUT
  2
AcDbLayout
  3
AutoCAD 2000
 90
        0
280
     0
281
     0
  0
CLASS
  1
PLOTSETTINGS
  2
AcDbPlotSettings
  3
AutoCAD 2000
 90
        0
280
     0
281
     0
  0
CLASS
  1
ACDBDICTIONARYWDFLT
  2
AcDbDictionaryWithDefault
  3
AutoCAD 2000
 90
        0
280
     0
281
     0
  0
CLASS
  1
ACDBPLACEHOLDER
  2
AcDbPlaceHolder
  3
AutoCAD 2000
 90
        0
280
     0
281
     0
  0
CLASS
  1
VBA_PROJECT
  2
AcDbVbaProject
  3
acadvba
 90
        0
280
     0
281
     0
  0
CLASS
  1
WIPEOUT
  2
AcDbWipeout
  3
WipeOut|AutoCAD Express Tool|expresstools@autodesk.com
 90
      127
280
     0
281
     1
  0
CLASS
  1
WIPEOUTVARIABLES
  2
AcDbWipeoutVariables
  3
WipeOut|AutoCAD Express Tool|expresstools@autodesk.com
 90
        0
280
     0
281
     0
  0
CLASS
  1
RTEXT
  2
RText
  3
RText|AutoCAD Express Tool|expresstools@autodesk.com
 90
        0
280
     0
281
     1
  0
CLASS
  1
ARCALIGNEDTEXT
  2
AcDbArcAlignedText
  3
ATEXT|AutoCAD Express Tool|expresstools@autodesk.com
 90
        0
280
     0
281
     1
  0
ENDSEC
  0
SECTION
  2
TABLES
  0
TABLE
  2
VPORT
  5
6
100
AcDbSymbolTable
 70
     1
  0
VPORT
  5
1A
100
AcDbSymbolTableRecord
100
AcDbViewportTableRecord
  2
*ACTIVE
 70
     0
 10
0.0
 20
0.0
 11
1.0
 21
1.0
 12
0.0
 22
0.0
 13
0.0
 23
0.0
 14
1.0
 24
1.0
 15
0.0
 25
0.0
 16
0.0
 26
0.0
 36
1.0
 17
0.0
 27
0.0
 37
0.0
 40
594.0
 41
1.415825
 42
50.0
 43
0.0
 44
0.0
 50
0.0
 51
0.0
 71
     0
 72
   500
 73
     1
 74
     1
 75
     0
 76
     0
 77
     0
 78
     0
281
     0
 65
     0
110
0.0
120
0.0
130
0.0
111
1.0
121
0.0
131
0.0
112
0.0
122
1.0
132
0.0
345
0
346
0
 79
     0
146
0.0
  0
ENDTAB
  0
TABLE
  2
LTYPE
  5
3
100
AcDbSymbolTable
 70
     9
  0
LTYPE
  5
C
100
AcDbSymbolTableRecord
100
AcDbLinetypeTableRecord
  2
ByBlock
 70
    64
  3

 72
    65
 73
     0
 40
0.0
  0
LTYPE
  5
D
100
AcDbSymbolTableRecord
100
AcDbLinetypeTableRecord
  2
ByLayer
 70
    64
  3

 72
    65
 73
     0
 40
0.0
  0
LTYPE
  5
E
100
AcDbSymbolTableRecord
100
AcDbLinetypeTableRecord
  2
CONTINUOUS
 70
     0
  3
Solid line
 72
    65
 73
     0
 40
0.0
  0
LTYPE
  5
F
100
AcDbSymbolTableRecord
100
AcDbLinetypeTableRecord
  2
DASHED
 70
     0
  3
__ __ __ __ __ __ __ __ __ __ __ __ __ __ __
 72
    65
 73
     2
 40
2.0
 49
1.2
 74
     0
 49
-0.8
 74
     0
  0
LTYPE
  5
10
100
AcDbSymbolTableRecord
100
AcDbLinetypeTableRecord
  2
CENTER
 70
     0
  3
____ _ ____ _ ____ _ ____ _ ____ _ ____ _ ____
 72
    65
 73
     4
 40
12.0
 49
9.0
 74
     0
 49
-1.0
 74
     0
 49
1.0
 74
     0
 49
-1.0
 74
     0
  0
LTYPE
  5
11
100
AcDbSymbolTableRecord
100
AcDbLinetypeTableRecord
  2
HIDDEN
 70
     0
  3
_ _ _ _ _ _ _ _ _ _ _ _ _ _ _ _ _ _ _ _ _ _ _
 72
    65
 73
     2
 40
3.2
 49
1.3
 74
     0
 49
-1.9
 74
     0
  0
LTYPE
  5
12
100
AcDbSymbolTableRecord
100
AcDbLinetypeTableRecord
  2
PHANTOM
 70
     0
  3
_____ _ _ _____ _ _ _____ _ _ _____ _ _ _____
 72
    65
 73
     6
 40
12.5
 49
9.0
 74
     0
 49
-1.0
 74
     0
 49
0.5
 74
     0
 49
-0.5
 74
     0
 49
0.5
 74
     0
 49
-1.0
 74
     0
  0
LTYPE
  5
13
100
AcDbSymbolTableRecord
100
AcDbLinetypeTableRecord
  2
DOT
 70
     0
  3
...............................................
 72
    65
 73
     2
 40
1.0
 49
0.5
 74
     0
 49
-0.5
 74
     0
  0
LTYPE
  5
14
100
AcDbSymbolTableRecord
100
AcDbLinetypeTableRecord
  2
DASHDOT
 70
     0
  3
__ . __ . __ . __ . __ . __ . __ . __ . __ . __
 72
    65
 73
     4
 40
8.0
 49
5.0
 74
     0
 49
-1.0
 74
     0
 49
1.0
 74
     0
 49
-1.0
 74
     0
  0
ENDTAB
  0
TABLE
  2
LAYER
  5
1
100
AcDbSymbolTable
 70
     5
  0
LAYER
  5
15
100
AcDbSymbolTableRecord
100
AcDbLayerTableRecord
  2
0
 70
     0
 62
     8
  6
CONTINUOUS
290
     1
370
    -3
390
0
  0
LAYER
  5
16
100
AcDbSymbolTableRecord
100
AcDbLayerTableRecord
  2
1
 70
     0
 62
     2
  6
CONTINUOUS
290
     1
370
    -3
390
0
  0
LAYER
  5
17
100
AcDbSymbolTableRecord
100
AcDbLayerTableRecord
  2
2
 70
     0
 62
     3
  6
CONTINUOUS
290
     1
370
    -3
390
0
  0
LAYER
  5
18
100
AcDbSymbolTableRecord
100
AcDbLayerTableRecord
  2
3
 70
     0
 62
     4
  6
CONTINUOUS
290
     1
370
    -3
390
0
  0
LAYER
  5
19
100
AcDbSymbolTableRecord
100
AcDbLayerTableRecord
  2
4
 70
     0
 62
     1
  6
CONTINUOUS
290
     1
370
    -3
390
0
  0
ENDTAB
  0
TABLE
  2
STYLE
  5
2
100
AcDbSymbolTable
 70
     1
  0
STYLE
  5
1C
100
AcDbSymbolTableRecord
100
AcDbTextStyleTableRecord
  2
STANDARD
 70
    64
 40
0.0
 41
1.0
 50
0.0
 71
     0
 42
1.0
  3
txt
  4
BIGFONT
  0
ENDTAB
  0
TABLE
  2
VIEW
  5
4
100
AcDbSymbolTable
 70
     0
  0
ENDTAB
  0
TABLE
  2
UCS
  5
5
100
AcDbSymbolTable
 70
     0
  0
ENDTAB
  0
TABLE
  2
APPID
  5
7
100
AcDbSymbolTable
 70
     1
  0
APPID
  5
1B
100
AcDbSymbolTableRecord
100
AcDbRegAppTableRecord
  2
ACAD
 70
     0
  0
ENDTAB
  0
TABLE
  2
DIMSTYLE
  5
8
100
AcDbSymbolTable
 70
     1
100
AcDbDimStyleTable
 71
     0
  0
DIMSTYLE
105
60
100
AcDbSymbolTableRecord
100
AcDbDimStyleTableRecord
  2
Standard
 70
     0
  3

  4

 40
1.0
 41
2.0
 42
0.5
 43
0.38
 44
2.0
 45
0.0
 46
0.0
 47
0.0
 48
0.0
 71
     0
 72
     0
 73
     0
 74
     0
 75
     0
 76
     0
 77
     1
 78
     0
 79
     0
140
3.0
141
0.09
142
0.0
143
25.4
144
1.0
145
0.0
146
1.0
147
0.5
148
0.0
170
     0
171
     2
172
     0
173
     0
174
     0
175
     0
176
     0
177
     0
178
     0
179
     0
271
     2
272
     4
273
     2
274
     2
275
     0
276
     0
277
     2
278
    46
279
     0
280
     0
281
     0
282
     0
283
     1
284
     0
285
     0
286
     0
288
     0
289
     3
340
1C
341
0
342
0
343
0
344
0
371
    -2
372
    -2
  0
ENDTAB
  0
TABLE
  2
BLOCK_RECORD
  5
5B
100
AcDbSymbolTable
 70
    60
  0
BLOCK_RECORD
  5
59
100
AcDbSymbolTableRecord
100
AcDbBlockTableRecord
  2
*Model_Space
340
0
  0
BLOCK_RECORD
  5
5A
100
AcDbSymbolTableRecord
100
AcDbBlockTableRecord
  2
*Paper_Space
340
0
  0
BLOCK_RECORD
  5
1D
100
AcDbSymbolTableRecord
100
AcDbBlockTableRecord
  2
*D0
340
0
  0
BLOCK_RECORD
  5
1E
100
AcDbSymbolTableRecord
100
AcDbBlockTableRecord
  2
*D1
340
0
  0
BLOCK_RECORD
  5
1F
100
AcDbSymbolTableRecord
100
AcDbBlockTableRecord
  2
*D2
340
0
  0
BLOCK_RECORD
  5
20
100
AcDbSymbolTableRecord
100
AcDbBlockTableRecord
  2
*D3
340
0
  0
BLOCK_RECORD
  5
21
100
AcDbSymbolTableRecord
100
AcDbBlockTableRecord
  2
*D4
340
0
  0
BLOCK_RECORD
  5
22
100
AcDbSymbolTableRecord
100
AcDbBlockTableRecord
  2
*D5
340
0
  0
BLOCK_RECORD
  5
23
100
AcDbSymbolTableRecord
100
AcDbBlockTableRecord
  2
*D6
340
0
  0
BLOCK_RECORD
  5
24
100
AcDbSymbolTableRecord
100
AcDbBlockTableRecord
  2
*D7
340
0
  0
BLOCK_RECORD
  5
25
100
AcDbSymbolTableRecord
100
AcDbBlockTableRecord
  2
*D8
340
0
  0
BLOCK_RECORD
  5
26
100
AcDbSymbolTableRecord
100
AcDbBlockTableRecord
  2
*D9
340
0
  0
BLOCK_RECORD
  5
27
100
AcDbSymbolTableRecord
100
AcDbBlockTableRecord
  2
*D10
340
0
  0
BLOCK_RECORD
  5
28
100
AcDbSymbolTableRecord
100
AcDbBlockTableRecord
  2
*D11
340
0
  0
BLOCK_RECORD
  5
29
100
AcDbSymbolTableRecord
100
AcDbBlockTableRecord
  2
*D12
340
0
  0
BLOCK_RECORD
  5
2A
100
AcDbSymbolTableRecord
100
AcDbBlockTableRecord
  2
*D13
340
0
  0
BLOCK_RECORD
  5
2B
100
AcDbSymbolTableRecord
100
AcDbBlockTableRecord
  2
*D14
340
0
  0
BLOCK_RECORD
  5
2C
100
AcDbSymbolTableRecord
100
AcDbBlockTableRecord
  2
*D15
340
0
  0
BLOCK_RECORD
  5
2D
100
AcDbSymbolTableRecord
100
AcDbBlockTableRecord
  2
*D16
340
0
  0
BLOCK_RECORD
  5
2E
100
AcDbSymbolTableRecord
100
AcDbBlockTableRecord
  2
*D17
340
0
  0
BLOCK_RECORD
  5
2F
100
AcDbSymbolTableRecord
100
AcDbBlockTableRecord
  2
*D18
340
0
  0
BLOCK_RECORD
  5
30
100
AcDbSymbolTableRecord
100
AcDbBlockTableRecord
  2
*D19
340
0
  0
BLOCK_RECORD
  5
31
100
AcDbSymbolTableRecord
100
AcDbBlockTableRecord
  2
*D20
340
0
  0
BLOCK_RECORD
  5
32
100
AcDbSymbolTableRecord
100
AcDbBlockTableRecord
  2
*D21
340
0
  0
BLOCK_RECORD
  5
33
100
AcDbSymbolTableRecord
100
AcDbBlockTableRecord
  2
*D22
340
0
  0
BLOCK_RECORD
  5
34
100
AcDbSymbolTableRecord
100
AcDbBlockTableRecord
  2
*D23
340
0
  0
BLOCK_RECORD
  5
35
100
AcDbSymbolTableRecord
100
AcDbBlockTableRecord
  2
*D24
340
0
  0
BLOCK_RECORD
  5
36
100
AcDbSymbolTableRecord
100
AcDbBlockTableRecord
  2
*D25
340
0
  0
BLOCK_RECORD
  5
37
100
AcDbSymbolTableRecord
100
AcDbBlockTableRecord
  2
*D26
340
0
  0
BLOCK_RECORD
  5
38
100
AcDbSymbolTableRecord
100
AcDbBlockTableRecord
  2
*D27
340
0
  0
BLOCK_RECORD
  5
39
100
AcDbSymbolTableRecord
100
AcDbBlockTableRecord
  2
*D28
340
0
  0
BLOCK_RECORD
  5
3A
100
AcDbSymbolTableRecord
100
AcDbBlockTableRecord
  2
*D29
340
0
  0
BLOCK_RECORD
  5
3B
100
AcDbSymbolTableRecord
100
AcDbBlockTableRecord
  2
*D30
340
0
  0
BLOCK_RECORD
  5
3C
100
AcDbSymbolTableRecord
100
AcDbBlockTableRecord
  2
*D31
340
0
  0
BLOCK_RECORD
  5
3D
100
AcDbSymbolTableRecord
100
AcDbBlockTableRecord
  2
*D32
340
0
  0
BLOCK_RECORD
  5
3E
100
AcDbSymbolTableRecord
100
AcDbBlockTableRecord
  2
*D33
340
0
  0
BLOCK_RECORD
  5
3F
100
AcDbSymbolTableRecord
100
AcDbBlockTableRecord
  2
*D34
340
0
  0
BLOCK_RECORD
  5
40
100
AcDbSymbolTableRecord
100
AcDbBlockTableRecord
  2
*D35
340
0
  0
BLOCK_RECORD
  5
41
100
AcDbSymbolTableRecord
100
AcDbBlockTableRecord
  2
*D36
340
0
  0
BLOCK_RECORD
  5
42
100
AcDbSymbolTableRecord
100
AcDbBlockTableRecord
  2
*D37
340
0
  0
BLOCK_RECORD
  5
43
100
AcDbSymbolTableRecord
100
AcDbBlockTableRecord
  2
*D38
340
0
  0
BLOCK_RECORD
  5
44
100
AcDbSymbolTableRecord
100
AcDbBlockTableRecord
  2
*D39
340
0
  0
BLOCK_RECORD
  5
45
100
AcDbSymbolTableRecord
100
AcDbBlockTableRecord
  2
*D40
340
0
  0
BLOCK_RECORD
  5
46
100
AcDbSymbolTableRecord
100
AcDbBlockTableRecord
  2
*D41
340
0
  0
BLOCK_RECORD
  5
47
100
AcDbSymbolTableRecord
100
AcDbBlockTableRecord
  2
*D42
340
0
  0
BLOCK_RECORD
  5
48
100
AcDbSymbolTableRecord
100
AcDbBlockTableRecord
  2
*D43
340
0
  0
BLOCK_RECORD
  5
49
100
AcDbSymbolTableRecord
100
AcDbBlockTableRecord
  2
*D44
340
0
  0
BLOCK_RECORD
  5
4A
100
AcDbSymbolTableRecord
100
AcDbBlockTableRecord
  2
*D45
340
0
  0
BLOCK_RECORD
  5
4B
100
AcDbSymbolTableRecord
100
AcDbBlockTableRecord
  2
*D46
340
0
  0
BLOCK_RECORD
  5
4C
100
AcDbSymbolTableRecord
100
AcDbBlockTableRecord
  2
*D47
340
0
  0
BLOCK_RECORD
  5
4D
100
AcDbSymbolTableRecord
100
AcDbBlockTableRecord
  2
*D48
340
0
  0
BLOCK_RECORD
  5
4E
100
AcDbSymbolTableRecord
100
AcDbBlockTableRecord
  2
*D49
340
0
  0
BLOCK_RECORD
  5
4F
100
AcDbSymbolTableRecord
100
AcDbBlockTableRecord
  2
*D50
340
0
  0
BLOCK_RECORD
  5
50
100
AcDbSymbolTableRecord
100
AcDbBlockTableRecord
  2
*D51
340
0
  0
BLOCK_RECORD
  5
51
100
AcDbSymbolTableRecord
100
AcDbBlockTableRecord
  2
*D52
340
0
  0
BLOCK_RECORD
  5
52
100
AcDbSymbolTableRecord
100
AcDbBlockTableRecord
  2
*D53
340
0
  0
BLOCK_RECORD
  5
53
100
AcDbSymbolTableRecord
100
AcDbBlockTableRecord
  2
*D54
340
0
  0
BLOCK_RECORD
  5
54
100
AcDbSymbolTableRecord
100
AcDbBlockTableRecord
  2
*D55
340
0
  0
BLOCK_RECORD
  5
55
100
AcDbSymbolTableRecord
100
AcDbBlockTableRecord
  2
*D56
340
0
  0
BLOCK_RECORD
  5
56
100
AcDbSymbolTableRecord
100
AcDbBlockTableRecord
  2
*D57
340
0
  0
BLOCK_RECORD
  5
57
100
AcDbSymbolTableRecord
100
AcDbBlockTableRecord
  2
*D58
340
0
  0
BLOCK_RECORD
  5
58
100
AcDbSymbolTableRecord
100
AcDbBlockTableRecord
  2
*D59
340
0
  0
ENDTAB
  0
ENDSEC
  0
SECTION
  2
BLOCKS
  0
BLOCK
  5
5C
100
AcDbEntity
  8
0
390
0
100
AcDbBlockBegin
  2
*Model_Space
 70
     0
 10
0.0
 20
0.0
 30
0.0
  3
*Model_Space
  1

  0
ENDBLK
  5
5D
100
AcDbEntity
  8
0
390
0
100
AcDbBlockEnd
  0
BLOCK
  5
5E
100
AcDbEntity
 67
     1
  8
0
390
0
100
AcDbBlockBegin
  2
*Paper_Space
 70
     0
 10
0.0
 20
0.0
 30
0.0
  3
*Paper_Space
  1

  0
ENDBLK
  5
5F
100
AcDbEntity
 67
     1
  8
0
390
0
100
AcDbBlockEnd
  0
BLOCK
  5
5F9
100
AcDbEntity
  8
2
100
AcDbBlockBegin
  2
*D0
 70
     1
 10
0.0
 20
0.0
 30
0.0
  3
*D0
  1

  0
TEXT
  5
5FA
100
AcDbEntity
  8
2
370
    25
100
AcDbText
 10
-150.557803
 20
46.943916
 30
0.0
 40
3.0
  1
70
 50
90.0
 41
2.0
 72
     5
 11
-150.557803
 21
51.743916
 31
0.0
100
AcDbText
  0
LINE
  5
5FB
100
AcDbEntity
  8
2
370
    25
100
AcDbLine
 10
-139.954107
 20
18.043916
 30
0.0
 11
-151.057803
 21
18.043916
 31
0.0
  0
LINE
  5
5FC
100
AcDbEntity
  8
2
370
    25
100
AcDbLine
 10
-150.057803
 20
18.043916
 30
0.0
 11
-149.540165
 21
19.975768
 31
0.0
  0
LINE
  5
5FD
100
AcDbEntity
  8
2
370
    25
100
AcDbLine
 10
-150.057803
 20
18.043916
 30
0.0
 11
-150.575441
 21
19.975768
 31
0.0
  0
LINE
  5
5FE
100
AcDbEntity
  8
2
370
    25
100
AcDbLine
 10
-150.057803
 20
18.043916
 30
0.0
 11
-150.057803
 21
87.843916
 31
0.0
  0
LINE
  5
5FF
100
AcDbEntity
  8
2
370
    25
100
AcDbLine
 10
-150.057803
 20
87.843916
 30
0.0
 11
-150.575441
 21
85.912064
 31
0.0
  0
LINE
  5
600
100
AcDbEntity
  8
2
370
    25
100
AcDbLine
 10
-150.057803
 20
87.843916
 30
0.0
 11
-149.540165
 21
85.912064
 31
0.0
  0
LINE
  5
601
100
AcDbEntity
  8
2
370
    25
100
AcDbLine
 10
-139.954107
 20
87.843916
 30
0.0
 11
-151.057803
 21
87.843916
 31
0.0
  0
ENDBLK
  5
602
100
AcDbEntity
  8
2
100
AcDbBlockEnd
  0
BLOCK
  5
603
100
AcDbEntity
  8
2
100
AcDbBlockBegin
  2
*D1
 70
     1
 10
0.0
 20
0.0
 30
0.0
  3
*D1
  1

  0
TEXT
  5
604
100
AcDbEntity
  8
2
370
    25
100
AcDbText
 10
-118.894107
 20
107.43914
 30
0.0
 40
3.0
  1
7
 41
2.0
 72
     5
 11
-117.094107
 21
107.43914
 31
0.0
100
AcDbText
  0
LINE
  5
605
100
AcDbEntity
  8
2
370
    25
100
AcDbLine
 10
-120.894107
 20
67.643916
 30
0.0
 11
-120.894107
 21
107.93914
 31
0.0
  0
LINE
  5
606
100
AcDbEntity
  8
2
370
    25
100
AcDbLine
 10
-120.894107
 20
106.93914
 30
0.0
 11
-118.962256
 21
106.421502
 31
0.0
  0
LINE
  5
607
100
AcDbEntity
  8
2
370
    25
100
AcDbLine
 10
-120.894107
 20
106.93914
 30
0.0
 11
-118.962256
 21
107.456778
 31
0.0
  0
LINE
  5
608
100
AcDbEntity
  8
2
370
    25
100
AcDbLine
 10
-120.894107
 20
106.93914
 30
0.0
 11
-113.894107
 21
106.93914
 31
0.0
  0
LINE
  5
609
100
AcDbEntity
  8
2
370
    25
100
AcDbLine
 10
-113.894107
 20
106.93914
 30
0.0
 11
-115.825959
 21
107.456778
 31
0.0
  0
LINE
  5
60A
100
AcDbEntity
  8
2
370
    25
100
AcDbLine
 10
-113.894107
 20
106.93914
 30
0.0
 11
-115.825959
 21
106.421502
 31
0.0
  0
LINE
  5
60B
100
AcDbEntity
  8
2
370
    25
100
AcDbLine
 10
-113.894107
 20
90.162589
 30
0.0
 11
-113.894107
 21
107.93914
 31
0.0
  0
ENDBLK
  5
60C
100
AcDbEntity
  8
2
100
AcDbBlockEnd
  0
BLOCK
  5
60D
100
AcDbEntity
  8
2
100
AcDbBlockBegin
  2
*D2
 70
     1
 10
0.0
 20
0.0
 30
0.0
  3
*D2
  1

  0
TEXT
  5
60E
100
AcDbEntity
  8
2
370
    25
100
AcDbText
 10
-93.290747
 20
49.943916
 30
0.0
 40
3.0
  1
32
 50
90.0
 41
2.0
 72
     5
 11
-93.290747
 21
54.743916
 31
0.0
100
AcDbText
  0
LINE
  5
60F
100
AcDbEntity
  8
2
370
    25
100
AcDbLine
 10
-107.694107
 20
36.943916
 30
0.0
 11
-91.790747
 21
36.943916
 31
0.0
  0
LINE
  5
610
100
AcDbEntity
  8
2
370
    25
100
AcDbLine
 10
-92.790747
 20
36.943916
 30
0.0
 11
-92.273109
 21
38.875768
 31
0.0
  0
LINE
  5
611
100
AcDbEntity
  8
2
370
    25
100
AcDbLine
 10
-92.790747
 20
36.943916
 30
0.0
 11
-93.308385
 21
38.875768
 31
0.0
  0
LINE
  5
612
100
AcDbEntity
  8
2
370
    25
100
AcDbLine
 10
-92.790747
 20
36.943916
 30
0.0
 11
-92.790747
 21
68.943916
 31
0.0
  0
LINE
  5
613
100
AcDbEntity
  8
2
370
    25
100
AcDbLine
 10
-92.790747
 20
68.943916
 30
0.0
 11
-93.308385
 21
67.012064
 31
0.0
  0
LINE
  5
614
100
AcDbEntity
  8
2
370
    25
100
AcDbLine
 10
-92.790747
 20
68.943916
 30
0.0
 11
-92.273109
 21
67.012064
 31
0.0
  0
LINE
  5
615
100
AcDbEntity
  8
2
370
    25
100
AcDbLine
 10
-107.694107
 20
68.943916
 30
0.0
 11
-91.790747
 21
68.943916
 31
0.0
  0
ENDBLK
  5
616
100
AcDbEntity
  8
2
100
AcDbBlockEnd
  0
BLOCK
  5
617
100
AcDbEntity
  8
2
100
AcDbBlockBegin
  2
*D3
 70
     1
 10
0.0
 20
0.0
 30
0.0
  3
*D3
  1

  0
TEXT
  5
618
100
AcDbEntity
  8
2
370
    25
100
AcDbText
 10
-87.904803
 20
49.943916
 30
0.0
 40
3.0
  1
57
 50
90.0
 41
2.0
 72
     5
 11
-87.904803
 21
54.743916
 31
0.0
100
AcDbText
  0
LINE
  5
619
100
AcDbEntity
  8
2
370
    25
100
AcDbLine
 10
-107.894107
 20
24.443916
 30
0.0
 11
-86.404803
 21
24.443916
 31
0.0
  0
LINE
  5
61A
100
AcDbEntity
  8
2
370
    25
100
AcDbLine
 10
-87.404803
 20
24.443916
 30
0.0
 11
-86.887165
 21
26.375768
 31
0.0
  0
LINE
  5
61B
100
AcDbEntity
  8
2
370
    25
100
AcDbLine
 10
-87.404803
 20
24.443916
 30
0.0
 11
-87.922441
 21
26.375768
 31
0.0
  0
LINE
  5
61C
100
AcDbEntity
  8
2
370
    25
100
AcDbLine
 10
-87.404803
 20
24.443916
 30
0.0
 11
-87.404803
 21
81.443916
 31
0.0
  0
LINE
  5
61D
100
AcDbEntity
  8
2
370
    25
100
AcDbLine
 10
-87.404803
 20
81.443916
 30
0.0
 11
-87.922441
 21
79.512064
 31
0.0
  0
LINE
  5
61E
100
AcDbEntity
  8
2
370
    25
100
AcDbLine
 10
-87.404803
 20
81.443916
 30
0.0
 11
-86.887165
 21
79.512064
 31
0.0
  0
LINE
  5
61F
100
AcDbEntity
  8
2
370
    25
100
AcDbLine
 10
-107.894107
 20
81.443916
 30
0.0
 11
-86.404803
 21
81.443916
 31
0.0
  0
ENDBLK
  5
620
100
AcDbEntity
  8
2
100
AcDbBlockEnd
  0
BLOCK
  5
621
100
AcDbEntity
  8
2
100
AcDbBlockBegin
  2
*D4
 70
     1
 10
0.0
 20
0.0
 30
0.0
  3
*D4
  1

  0
TEXT
  5
622
100
AcDbEntity
  8
2
370
    25
100
AcDbText
 10
-40.228273
 20
46.943916
 30
0.0
 40
3.0
  1
37.3
 50
90.0
 41
2.0
 72
     5
 11
-40.228273
 21
57.743916
 31
0.0
100
AcDbText
  0
LINE
  5
623
100
AcDbEntity
  8
2
370
    25
100
AcDbLine
 10
-51.294128
 20
34.293943
 30
0.0
 11
-38.728273
 21
34.293943
 31
0.0
  0
LINE
  5
624
100
AcDbEntity
  8
2
370
    25
100
AcDbLine
 10
-39.728273
 20
34.293943
 30
0.0
 11
-39.210634
 21
36.225794
 31
0.0
  0
LINE
  5
625
100
AcDbEntity
  8
2
370
    25
100
AcDbLine
 10
-39.728273
 20
34.293943
 30
0.0
 11
-40.245911
 21
36.225794
 31
0.0
  0
LINE
  5
626
100
AcDbEntity
  8
2
370
    25
100
AcDbLine
 10
-39.728273
 20
34.293943
 30
0.0
 11
-39.728273
 21
71.593889
 31
0.0
  0
LINE
  5
627
100
AcDbEntity
  8
2
370
    25
100
AcDbLine
 10
-39.728273
 20
71.593889
 30
0.0
 11
-40.245911
 21
69.662038
 31
0.0
  0
LINE
  5
628
100
AcDbEntity
  8
2
370
    25
100
AcDbLine
 10
-39.728273
 20
71.593889
 30
0.0
 11
-39.210634
 21
69.662038
 31
0.0
  0
LINE
  5
629
100
AcDbEntity
  8
2
370
    25
100
AcDbLine
 10
-51.294128
 20
71.593889
 30
0.0
 11
-38.728273
 21
71.593889
 31
0.0
  0
ENDBLK
  5
62A
100
AcDbEntity
  8
2
100
AcDbBlockEnd
  0
BLOCK
  5
62B
100
AcDbEntity
  8
2
100
AcDbBlockBegin
  2
*D5
 70
     1
 10
0.0
 20
0.0
 30
0.0
  3
*D5
  1

  0
TEXT
  5
62C
100
AcDbEntity
  8
2
370
    25
100
AcDbText
 10
-95.342173
 20
-19.956084
 30
0.0
 40
3.0
  1
2.9
 50
90.0
 41
2.0
 72
     5
 11
-95.342173
 21
-12.156084
 31
0.0
100
AcDbText
  0
LINE
  5
62D
100
AcDbEntity
  8
2
370
    25
100
AcDbLine
 10
-101.394107
 20
-24.856084
 30
0.0
 11
-93.842173
 21
-24.856084
 31
0.0
  0
LINE
  5
62E
100
AcDbEntity
  8
2
370
    25
100
AcDbLine
 10
-94.842173
 20
-24.856084
 30
0.0
 11
-95.359811
 21
-26.787936
 31
0.0
  0
LINE
  5
62F
100
AcDbEntity
  8
2
370
    25
100
AcDbLine
 10
-94.842173
 20
-24.856084
 30
0.0
 11
-94.324535
 21
-26.787936
 31
0.0
  0
LINE
  5
630
100
AcDbEntity
  8
2
370
    25
100
AcDbLine
 10
-94.842173
 20
-29.856084
 30
0.0
 11
-94.842173
 21
-9.956084
 31
0.0
  0
LINE
  5
631
100
AcDbEntity
  8
2
370
    25
100
AcDbLine
 10
-94.842173
 20
-21.956084
 30
0.0
 11
-94.324535
 21
-20.024232
 31
0.0
  0
LINE
  5
632
100
AcDbEntity
  8
2
370
    25
100
AcDbLine
 10
-94.842173
 20
-21.956084
 30
0.0
 11
-95.359811
 21
-20.024232
 31
0.0
  0
LINE
  5
633
100
AcDbEntity
  8
2
370
    25
100
AcDbLine
 10
-100.894107
 20
-21.956084
 30
0.0
 11
-93.842173
 21
-21.956084
 31
0.0
  0
ENDBLK
  5
634
100
AcDbEntity
  8
2
100
AcDbBlockEnd
  0
BLOCK
  5
635
100
AcDbEntity
  8
2
100
AcDbBlockBegin
  2
*D6
 70
     1
 10
0.0
 20
0.0
 30
0.0
  3
*D6
  1

  0
TEXT
  5
636
100
AcDbEntity
  8
2
370
    25
100
AcDbText
 10
-88.735785
 20
-35.256084
 30
0.0
 40
3.0
  1
14.6
 50
90.0
 41
2.0
 72
     5
 11
-88.735785
 21
-24.456084
 31
0.0
100
AcDbText
  0
LINE
  5
637
100
AcDbEntity
  8
2
370
    25
100
AcDbLine
 10
-102.394107
 20
-36.556084
 30
0.0
 11
-87.235785
 21
-36.556084
 31
0.0
  0
LINE
  5
638
100
AcDbEntity
  8
2
370
    25
100
AcDbLine
 10
-88.235785
 20
-36.556084
 30
0.0
 11
-87.718147
 21
-34.624232
 31
0.0
  0
LINE
  5
639
100
AcDbEntity
  8
2
370
    25
100
AcDbLine
 10
-88.235785
 20
-36.556084
 30
0.0
 11
-88.753423
 21
-34.624232
 31
0.0
  0
LINE
  5
63A
100
AcDbEntity
  8
2
370
    25
100
AcDbLine
 10
-88.235785
 20
-36.556084
 30
0.0
 11
-88.235785
 21
-21.956084
 31
0.0
  0
LINE
  5
63B
100
AcDbEntity
  8
2
370
    25
100
AcDbLine
 10
-88.235785
 20
-21.956084
 30
0.0
 11
-88.753423
 21
-23.887936
 31
0.0
  0
LINE
  5
63C
100
AcDbEntity
  8
2
370
    25
100
AcDbLine
 10
-88.235785
 20
-21.956084
 30
0.0
 11
-87.718147
 21
-23.887936
 31
0.0
  0
LINE
  5
63D
100
AcDbEntity
  8
2
370
    25
100
AcDbLine
 10
-100.894107
 20
-21.956084
 30
0.0
 11
-87.235785
 21
-21.956084
 31
0.0
  0
ENDBLK
  5
63E
100
AcDbEntity
  8
2
100
AcDbBlockEnd
  0
BLOCK
  5
63F
100
AcDbEntity
  8
2
100
AcDbBlockBegin
  2
*D7
 70
     1
 10
0.0
 20
0.0
 30
0.0
  3
*D7
  1

  0
TEXT
  5
640
100
AcDbEntity
  8
2
370
    25
100
AcDbText
 10
-116.894107
 20
-45.259974
 30
0.0
 40
3.0
  1
24
 41
2.0
 72
     5
 11
-112.094107
 21
-45.259974
 31
0.0
100
AcDbText
  0
LINE
  5
641
100
AcDbEntity
  8
2
370
    25
100
AcDbLine
 10
-125.894107
 20
-36.056084
 30
0.0
 11
-125.894107
 21
-46.759974
 31
0.0
  0
LINE
  5
642
100
AcDbEntity
  8
2
370
    25
100
AcDbLine
 10
-125.894107
 20
-45.759974
 30
0.0
 11
-123.962256
 21
-46.277612
 31
0.0
  0
LINE
  5
643
100
AcDbEntity
  8
2
370
    25
100
AcDbLine
 10
-125.894107
 20
-45.759974
 30
0.0
 11
-123.962256
 21
-45.242336
 31
0.0
  0
LINE
  5
644
100
AcDbEntity
  8
2
370
    25
100
AcDbLine
 10
-125.894107
 20
-45.759974
 30
0.0
 11
-101.894107
 21
-45.759974
 31
0.0
  0
LINE
  5
645
100
AcDbEntity
  8
2
370
    25
100
AcDbLine
 10
-101.894107
 20
-45.759974
 30
0.0
 11
-103.825959
 21
-45.242336
 31
0.0
  0
LINE
  5
646
100
AcDbEntity
  8
2
370
    25
100
AcDbLine
 10
-101.894107
 20
-45.759974
 30
0.0
 11
-103.825959
 21
-46.277612
 31
0.0
  0
LINE
  5
647
100
AcDbEntity
  8
2
370
    25
100
AcDbLine
 10
-101.894107
 20
-36.056084
 30
0.0
 11
-101.894107
 21
-46.759974
 31
0.0
  0
ENDBLK
  5
648
100
AcDbEntity
  8
2
100
AcDbBlockEnd
  0
BLOCK
  5
649
100
AcDbEntity
  8
2
100
AcDbBlockBegin
  2
*D8
 70
     1
 10
0.0
 20
0.0
 30
0.0
  3
*D8
  1

  0
TEXT
  5
64A
100
AcDbEntity
  8
2
370
    25
100
AcDbText
 10
-146.547579
 20
-19.956084
 30
0.0
 40
3.0
  1
3
 50
90.0
 41
2.0
 72
     5
 11
-146.547579
 21
-18.156084
 31
0.0
100
AcDbText
  0
LINE
  5
64B
100
AcDbEntity
  8
2
370
    25
100
AcDbLine
 10
-140.487834
 20
-24.956081
 30
0.0
 11
-147.047579
 21
-24.956081
 31
0.0
  0
LINE
  5
64C
100
AcDbEntity
  8
2
370
    25
100
AcDbLine
 10
-146.047579
 20
-24.956081
 30
0.0
 11
-146.565217
 21
-26.887933
 31
0.0
  0
LINE
  5
64D
100
AcDbEntity
  8
2
370
    25
100
AcDbLine
 10
-146.047579
 20
-24.956081
 30
0.0
 11
-145.529941
 21
-26.887933
 31
0.0
  0
LINE
  5
64E
100
AcDbEntity
  8
2
370
    25
100
AcDbLine
 10
-146.047579
 20
-29.956081
 30
0.0
 11
-146.047579
 21
-15.956084
 31
0.0
  0
LINE
  5
64F
100
AcDbEntity
  8
2
370
    25
100
AcDbLine
 10
-146.047579
 20
-21.956084
 30
0.0
 11
-145.529941
 21
-20.024232
 31
0.0
  0
LINE
  5
650
100
AcDbEntity
  8
2
370
    25
100
AcDbLine
 10
-146.047579
 20
-21.956084
 30
0.0
 11
-146.565217
 21
-20.024232
 31
0.0
  0
LINE
  5
651
100
AcDbEntity
  8
2
370
    25
100
AcDbLine
 10
-138.918149
 20
-21.956084
 30
0.0
 11
-147.047579
 21
-21.956084
 31
0.0
  0
ENDBLK
  5
652
100
AcDbEntity
  8
2
100
AcDbBlockEnd
  0
BLOCK
  5
653
100
AcDbEntity
  8
2
100
AcDbBlockBegin
  2
*D9
 70
     1
 10
0.0
 20
0.0
 30
0.0
  3
*D9
  1

  0
TEXT
  5
654
100
AcDbEntity
  8
2
370
    25
100
AcDbText
 10
-113.644107
 20
8.137336
 30
0.0
 40
3.0
  1
12.5
 41
2.0
 72
     5
 11
-102.844107
 21
8.137336
 31
0.0
100
AcDbText
  0
LINE
  5
655
100
AcDbEntity
  8
2
370
    25
100
AcDbLine
 10
-113.894107
 20
15.153281
 30
0.0
 11
-113.894107
 21
6.637336
 31
0.0
  0
LINE
  5
656
100
AcDbEntity
  8
2
370
    25
100
AcDbLine
 10
-113.894107
 20
7.637336
 30
0.0
 11
-111.962256
 21
7.119698
 31
0.0
  0
LINE
  5
657
100
AcDbEntity
  8
2
370
    25
100
AcDbLine
 10
-113.894107
 20
7.637336
 30
0.0
 11
-111.962256
 21
8.154974
 31
0.0
  0
LINE
  5
658
100
AcDbEntity
  8
2
370
    25
100
AcDbLine
 10
-113.894107
 20
7.637336
 30
0.0
 11
-101.394107
 21
7.637336
 31
0.0
  0
LINE
  5
659
100
AcDbEntity
  8
2
370
    25
100
AcDbLine
 10
-101.394107
 20
7.637336
 30
0.0
 11
-103.325959
 21
8.154974
 31
0.0
  0
LINE
  5
65A
100
AcDbEntity
  8
2
370
    25
100
AcDbLine
 10
-101.394107
 20
7.637336
 30
0.0
 11
-103.325959
 21
7.119698
 31
0.0
  0
LINE
  5
65B
100
AcDbEntity
  8
2
370
    25
100
AcDbLine
 10
-101.394107
 20
23.543916
 30
0.0
 11
-101.394107
 21
6.637336
 31
0.0
  0
ENDBLK
  5
65C
100
AcDbEntity
  8
2
100
AcDbBlockEnd
  0
BLOCK
  5
65D
100
AcDbEntity
  8
2
100
AcDbBlockBegin
  2
*D10
 70
     1
 10
0.0
 20
0.0
 30
0.0
  3
*D10
  1

  0
TEXT
  5
65E
100
AcDbEntity
  8
2
370
    25
100
AcDbText
 10
-102.034235
 20
87.80393
 30
0.0
 40
3.0
  1
R6
 50
44.458449
 41
2.0
 72
     5
 11
-98.608194
 21
91.165811
 31
0.0
100
AcDbText
  0
LINE
  5
65F
100
AcDbEntity
  8
2
370
    25
100
AcDbLine
 10
-107.394107
 20
81.843916
 30
0.0
 11
-96.687729
 21
92.349794
 31
0.0
  0
LINE
  5
660
100
AcDbEntity
  8
2
370
    25
100
AcDbLine
 10
-103.111556
 20
86.046267
 30
0.0
 11
-101.370131
 21
87.029852
 31
0.0
  0
LINE
  5
661
100
AcDbEntity
  8
2
370
    25
100
AcDbLine
 10
-103.111556
 20
86.046267
 30
0.0
 11
-102.09523
 21
87.768789
 31
0.0
  0
ENDBLK
  5
662
100
AcDbEntity
  8
2
100
AcDbBlockEnd
  0
BLOCK
  5
663
100
AcDbEntity
  8
2
100
AcDbBlockBegin
  2
*D11
 70
     1
 10
0.0
 20
0.0
 30
0.0
  3
*D11
  1

  0
LINE
  5
664
100
AcDbEntity
  8
2
370
    25
100
AcDbLine
 10
-123.194107
 20
69.443916
 30
0.0
 11
-123.194107
 21
101.451724
 31
0.0
  0
LINE
  5
665
100
AcDbEntity
  8
2
370
    25
100
AcDbLine
 10
-123.194107
 20
100.451724
 30
0.0
 11
-125.125959
 21
100.969362
 31
0.0
  0
LINE
  5
666
100
AcDbEntity
  8
2
370
    25
100
AcDbLine
 10
-123.194107
 20
100.451724
 30
0.0
 11
-125.125959
 21
99.934086
 31
0.0
  0
LINE
  5
667
100
AcDbEntity
  8
2
370
    25
100
AcDbLine
 10
-137.194107
 20
100.451724
 30
0.0
 11
-120.894107
 21
100.451724
 31
0.0
  0
LINE
  5
668
100
AcDbEntity
  8
2
370
    25
100
AcDbLine
 10
-120.894107
 20
67.643916
 30
0.0
 11
-120.894107
 21
101.451724
 31
0.0
  0
CIRCLE
  5
669
100
AcDbEntity
  8
2
370
    25
100
AcDbCircle
 10
-120.894107
 20
100.451724
 30
0.0
 40
0.5
  0
CIRCLE
  5
66A
100
AcDbEntity
  8
2
370
    25
100
AcDbCircle
 10
-120.894107
 20
100.451724
 30
0.0
 40
0.3
  0
ENDBLK
  5
66B
100
AcDbEntity
  8
2
100
AcDbBlockEnd
  0
BLOCK
  5
66C
100
AcDbEntity
  8
2
100
AcDbBlockBegin
  2
*D12
 70
     1
 10
0.0
 20
0.0
 30
0.0
  3
*D12
  1

  0
LINE
  5
66D
100
AcDbEntity
  8
2
370
    25
100
AcDbLine
 10
-120.894107
 20
67.643916
 30
0.0
 11
-120.894107
 21
101.451724
 31
0.0
  0
LINE
  5
66E
100
AcDbEntity
  8
2
370
    25
100
AcDbLine
 10
-120.894107
 20
100.451724
 30
0.0
 11
-104.594107
 21
100.451724
 31
0.0
  0
LINE
  5
66F
100
AcDbEntity
  8
2
370
    25
100
AcDbLine
 10
-118.594107
 20
100.451724
 30
0.0
 11
-116.662256
 21
99.934086
 31
0.0
  0
LINE
  5
670
100
AcDbEntity
  8
2
370
    25
100
AcDbLine
 10
-118.594107
 20
100.451724
 30
0.0
 11
-116.662256
 21
100.969362
 31
0.0
  0
LINE
  5
671
100
AcDbEntity
  8
2
370
    25
100
AcDbLine
 10
-118.594107
 20
69.443916
 30
0.0
 11
-118.594107
 21
101.451724
 31
0.0
  0
CIRCLE
  5
672
100
AcDbEntity
  8
2
370
    25
100
AcDbCircle
 10
-120.894107
 20
100.451724
 30
0.0
 40
0.5
  0
CIRCLE
  5
673
100
AcDbEntity
  8
2
370
    25
100
AcDbCircle
 10
-120.894107
 20
100.451724
 30
0.0
 40
0.3
  0
ENDBLK
  5
674
100
AcDbEntity
  8
2
100
AcDbBlockEnd
  0
BLOCK
  5
675
100
AcDbEntity
  8
2
100
AcDbBlockBegin
  2
*D13
 70
     1
 10
0.0
 20
0.0
 30
0.0
  3
*D13
  1

  0
TEXT
  5
676
100
AcDbEntity
  8
2
370
    25
100
AcDbText
 10
-363.557803
 20
46.943916
 30
0.0
 40
3.0
  1
70
 50
90.0
 41
2.0
 72
     5
 11
-363.557803
 21
51.743916
 31
0.0
100
AcDbText
  0
LINE
  5
677
100
AcDbEntity
  8
2
370
    25
100
AcDbLine
 10
-352.954107
 20
18.043916
 30
0.0
 11
-364.057803
 21
18.043916
 31
0.0
  0
LINE
  5
678
100
AcDbEntity
  8
2
370
    25
100
AcDbLine
 10
-363.057803
 20
18.043916
 30
0.0
 11
-362.540165
 21
19.975768
 31
0.0
  0
LINE
  5
679
100
AcDbEntity
  8
2
370
    25
100
AcDbLine
 10
-363.057803
 20
18.043916
 30
0.0
 11
-363.575441
 21
19.975768
 31
0.0
  0
LINE
  5
67A
100
AcDbEntity
  8
2
370
    25
100
AcDbLine
 10
-363.057803
 20
18.043916
 30
0.0
 11
-363.057803
 21
87.843916
 31
0.0
  0
LINE
  5
67B
100
AcDbEntity
  8
2
370
    25
100
AcDbLine
 10
-363.057803
 20
87.843916
 30
0.0
 11
-363.575441
 21
85.912064
 31
0.0
  0
LINE
  5
67C
100
AcDbEntity
  8
2
370
    25
100
AcDbLine
 10
-363.057803
 20
87.843916
 30
0.0
 11
-362.540165
 21
85.912064
 31
0.0
  0
LINE
  5
67D
100
AcDbEntity
  8
2
370
    25
100
AcDbLine
 10
-352.954107
 20
87.843916
 30
0.0
 11
-364.057803
 21
87.843916
 31
0.0
  0
ENDBLK
  5
67E
100
AcDbEntity
  8
2
100
AcDbBlockEnd
  0
BLOCK
  5
67F
100
AcDbEntity
  8
2
100
AcDbBlockBegin
  2
*D14
 70
     1
 10
0.0
 20
0.0
 30
0.0
  3
*D14
  1

  0
TEXT
  5
680
100
AcDbEntity
  8
2
370
    25
100
AcDbText
 10
-333.894107
 20
107.43914
 30
0.0
 40
3.0
  1
7
 41
2.0
 72
     5
 11
-332.094107
 21
107.43914
 31
0.0
100
AcDbText
  0
LINE
  5
681
100
AcDbEntity
  8
2
370
    25
100
AcDbLine
 10
-335.894107
 20
67.643916
 30
0.0
 11
-335.894107
 21
107.93914
 31
0.0
  0
LINE
  5
682
100
AcDbEntity
  8
2
370
    25
100
AcDbLine
 10
-335.894107
 20
106.93914
 30
0.0
 11
-333.962256
 21
106.421502
 31
0.0
  0
LINE
  5
683
100
AcDbEntity
  8
2
370
    25
100
AcDbLine
 10
-335.894107
 20
106.93914
 30
0.0
 11
-333.962256
 21
107.456778
 31
0.0
  0
LINE
  5
684
100
AcDbEntity
  8
2
370
    25
100
AcDbLine
 10
-335.894107
 20
106.93914
 30
0.0
 11
-328.894107
 21
106.93914
 31
0.0
  0
LINE
  5
685
100
AcDbEntity
  8
2
370
    25
100
AcDbLine
 10
-328.894107
 20
106.93914
 30
0.0
 11
-330.825959
 21
107.456778
 31
0.0
  0
LINE
  5
686
100
AcDbEntity
  8
2
370
    25
100
AcDbLine
 10
-328.894107
 20
106.93914
 30
0.0
 11
-330.825959
 21
106.421502
 31
0.0
  0
LINE
  5
687
100
AcDbEntity
  8
2
370
    25
100
AcDbLine
 10
-328.894107
 20
90.162589
 30
0.0
 11
-328.894107
 21
107.93914
 31
0.0
  0
ENDBLK
  5
688
100
AcDbEntity
  8
2
100
AcDbBlockEnd
  0
BLOCK
  5
689
100
AcDbEntity
  8
2
100
AcDbBlockBegin
  2
*D15
 70
     1
 10
0.0
 20
0.0
 30
0.0
  3
*D15
  1

  0
TEXT
  5
68A
100
AcDbEntity
  8
2
370
    25
100
AcDbText
 10
-308.290747
 20
49.943916
 30
0.0
 40
3.0
  1
32
 50
90.0
 41
2.0
 72
     5
 11
-308.290747
 21
54.743916
 31
0.0
100
AcDbText
  0
LINE
  5
68B
100
AcDbEntity
  8
2
370
    25
100
AcDbLine
 10
-322.694107
 20
36.943916
 30
0.0
 11
-306.790747
 21
36.943916
 31
0.0
  0
LINE
  5
68C
100
AcDbEntity
  8
2
370
    25
100
AcDbLine
 10
-307.790747
 20
36.943916
 30
0.0
 11
-307.273109
 21
38.875768
 31
0.0
  0
LINE
  5
68D
100
AcDbEntity
  8
2
370
    25
100
AcDbLine
 10
-307.790747
 20
36.943916
 30
0.0
 11
-308.308385
 21
38.875768
 31
0.0
  0
LINE
  5
68E
100
AcDbEntity
  8
2
370
    25
100
AcDbLine
 10
-307.790747
 20
36.943916
 30
0.0
 11
-307.790747
 21
68.943916
 31
0.0
  0
LINE
  5
68F
100
AcDbEntity
  8
2
370
    25
100
AcDbLine
 10
-307.790747
 20
68.943916
 30
0.0
 11
-308.308385
 21
67.012064
 31
0.0
  0
LINE
  5
690
100
AcDbEntity
  8
2
370
    25
100
AcDbLine
 10
-307.790747
 20
68.943916
 30
0.0
 11
-307.273109
 21
67.012064
 31
0.0
  0
LINE
  5
691
100
AcDbEntity
  8
2
370
    25
100
AcDbLine
 10
-322.694107
 20
68.943916
 30
0.0
 11
-306.790747
 21
68.943916
 31
0.0
  0
ENDBLK
  5
692
100
AcDbEntity
  8
2
100
AcDbBlockEnd
  0
BLOCK
  5
693
100
AcDbEntity
  8
2
100
AcDbBlockBegin
  2
*D16
 70
     1
 10
0.0
 20
0.0
 30
0.0
  3
*D16
  1

  0
TEXT
  5
694
100
AcDbEntity
  8
2
370
    25
100
AcDbText
 10
-302.904803
 20
49.943916
 30
0.0
 40
3.0
  1
57
 50
90.0
 41
2.0
 72
     5
 11
-302.904803
 21
54.743916
 31
0.0
100
AcDbText
  0
LINE
  5
695
100
AcDbEntity
  8
2
370
    25
100
AcDbLine
 10
-322.894107
 20
24.443916
 30
0.0
 11
-301.404803
 21
24.443916
 31
0.0
  0
LINE
  5
696
100
AcDbEntity
  8
2
370
    25
100
AcDbLine
 10
-302.404803
 20
24.443916
 30
0.0
 11
-301.887165
 21
26.375768
 31
0.0
  0
LINE
  5
697
100
AcDbEntity
  8
2
370
    25
100
AcDbLine
 10
-302.404803
 20
24.443916
 30
0.0
 11
-302.922441
 21
26.375768
 31
0.0
  0
LINE
  5
698
100
AcDbEntity
  8
2
370
    25
100
AcDbLine
 10
-302.404803
 20
24.443916
 30
0.0
 11
-302.404803
 21
81.443916
 31
0.0
  0
LINE
  5
699
100
AcDbEntity
  8
2
370
    25
100
AcDbLine
 10
-302.404803
 20
81.443916
 30
0.0
 11
-302.922441
 21
79.512064
 31
0.0
  0
LINE
  5
69A
100
AcDbEntity
  8
2
370
    25
100
AcDbLine
 10
-302.404803
 20
81.443916
 30
0.0
 11
-301.887165
 21
79.512064
 31
0.0
  0
LINE
  5
69B
100
AcDbEntity
  8
2
370
    25
100
AcDbLine
 10
-322.894107
 20
81.443916
 30
0.0
 11
-301.404803
 21
81.443916
 31
0.0
  0
ENDBLK
  5
69C
100
AcDbEntity
  8
2
100
AcDbBlockEnd
  0
BLOCK
  5
69D
100
AcDbEntity
  8
2
100
AcDbBlockBegin
  2
*D17
 70
     1
 10
0.0
 20
0.0
 30
0.0
  3
*D17
  1

  0
TEXT
  5
69E
100
AcDbEntity
  8
2
370
    25
100
AcDbText
 10
-255.228273
 20
46.943916
 30
0.0
 40
3.0
  1
37.3
 50
90.0
 41
2.0
 72
     5
 11
-255.228273
 21
57.743916
 31
0.0
100
AcDbText
  0
LINE
  5
69F
100
AcDbEntity
  8
2
370
    25
100
AcDbLine
 10
-266.294128
 20
34.293943
 30
0.0
 11
-253.728273
 21
34.293943
 31
0.0
  0
LINE
  5
6A0
100
AcDbEntity
  8
2
370
    25
100
AcDbLine
 10
-254.728273
 20
34.293943
 30
0.0
 11
-254.210634
 21
36.225794
 31
0.0
  0
LINE
  5
6A1
100
AcDbEntity
  8
2
370
    25
100
AcDbLine
 10
-254.728273
 20
34.293943
 30
0.0
 11
-255.245911
 21
36.225794
 31
0.0
  0
LINE
  5
6A2
100
AcDbEntity
  8
2
370
    25
100
AcDbLine
 10
-254.728273
 20
34.293943
 30
0.0
 11
-254.728273
 21
71.593889
 31
0.0
  0
LINE
  5
6A3
100
AcDbEntity
  8
2
370
    25
100
AcDbLine
 10
-254.728273
 20
71.593889
 30
0.0
 11
-255.245911
 21
69.662038
 31
0.0
  0
LINE
  5
6A4
100
AcDbEntity
  8
2
370
    25
100
AcDbLine
 10
-254.728273
 20
71.593889
 30
0.0
 11
-254.210634
 21
69.662038
 31
0.0
  0
LINE
  5
6A5
100
AcDbEntity
  8
2
370
    25
100
AcDbLine
 10
-266.294128
 20
71.593889
 30
0.0
 11
-253.728273
 21
71.593889
 31
0.0
  0
ENDBLK
  5
6A6
100
AcDbEntity
  8
2
100
AcDbBlockEnd
  0
BLOCK
  5
6A7
100
AcDbEntity
  8
2
100
AcDbBlockBegin
  2
*D18
 70
     1
 10
0.0
 20
0.0
 30
0.0
  3
*D18
  1

  0
TEXT
  5
6A8
100
AcDbEntity
  8
2
370
    25
100
AcDbText
 10
-310.342173
 20
-19.956084
 30
0.0
 40
3.0
  1
2.9
 50
90.0
 41
2.0
 72
     5
 11
-310.342173
 21
-12.156084
 31
0.0
100
AcDbText
  0
LINE
  5
6A9
100
AcDbEntity
  8
2
370
    25
100
AcDbLine
 10
-316.394107
 20
-24.856084
 30
0.0
 11
-308.842173
 21
-24.856084
 31
0.0
  0
LINE
  5
6AA
100
AcDbEntity
  8
2
370
    25
100
AcDbLine
 10
-309.842173
 20
-24.856084
 30
0.0
 11
-310.359811
 21
-26.787936
 31
0.0
  0
LINE
  5
6AB
100
AcDbEntity
  8
2
370
    25
100
AcDbLine
 10
-309.842173
 20
-24.856084
 30
0.0
 11
-309.324535
 21
-26.787936
 31
0.0
  0
LINE
  5
6AC
100
AcDbEntity
  8
2
370
    25
100
AcDbLine
 10
-309.842173
 20
-29.856084
 30
0.0
 11
-309.842173
 21
-9.956084
 31
0.0
  0
LINE
  5
6AD
100
AcDbEntity
  8
2
370
    25
100
AcDbLine
 10
-309.842173
 20
-21.956084
 30
0.0
 11
-309.324535
 21
-20.024232
 31
0.0
  0
LINE
  5
6AE
100
AcDbEntity
  8
2
370
    25
100
AcDbLine
 10
-309.842173
 20
-21.956084
 30
0.0
 11
-310.359811
 21
-20.024232
 31
0.0
  0
LINE
  5
6AF
100
AcDbEntity
  8
2
370
    25
100
AcDbLine
 10
-315.894107
 20
-21.956084
 30
0.0
 11
-308.842173
 21
-21.956084
 31
0.0
  0
ENDBLK
  5
6B0
100
AcDbEntity
  8
2
100
AcDbBlockEnd
  0
BLOCK
  5
6B1
100
AcDbEntity
  8
2
100
AcDbBlockBegin
  2
*D19
 70
     1
 10
0.0
 20
0.0
 30
0.0
  3
*D19
  1

  0
TEXT
  5
6B2
100
AcDbEntity
  8
2
370
    25
100
AcDbText
 10
-303.735785
 20
-35.256084
 30
0.0
 40
3.0
  1
14.6
 50
90.0
 41
2.0
 72
     5
 11
-303.735785
 21
-24.456084
 31
0.0
100
AcDbText
  0
LINE
  5
6B3
100
AcDbEntity
  8
2
370
    25
100
AcDbLine
 10
-317.394107
 20
-36.556084
 30
0.0
 11
-302.235785
 21
-36.556084
 31
0.0
  0
LINE
  5
6B4
100
AcDbEntity
  8
2
370
    25
100
AcDbLine
 10
-303.235785
 20
-36.556084
 30
0.0
 11
-302.718147
 21
-34.624232
 31
0.0
  0
LINE
  5
6B5
100
AcDbEntity
  8
2
370
    25
100
AcDbLine
 10
-303.235785
 20
-36.556084
 30
0.0
 11
-303.753423
 21
-34.624232
 31
0.0
  0
LINE
  5
6B6
100
AcDbEntity
  8
2
370
    25
100
AcDbLine
 10
-303.235785
 20
-36.556084
 30
0.0
 11
-303.235785
 21
-21.956084
 31
0.0
  0
LINE
  5
6B7
100
AcDbEntity
  8
2
370
    25
100
AcDbLine
 10
-303.235785
 20
-21.956084
 30
0.0
 11
-303.753423
 21
-23.887936
 31
0.0
  0
LINE
  5
6B8
100
AcDbEntity
  8
2
370
    25
100
AcDbLine
 10
-303.235785
 20
-21.956084
 30
0.0
 11
-302.718147
 21
-23.887936
 31
0.0
  0
LINE
  5
6B9
100
AcDbEntity
  8
2
370
    25
100
AcDbLine
 10
-315.894107
 20
-21.956084
 30
0.0
 11
-302.235785
 21
-21.956084
 31
0.0
  0
ENDBLK
  5
6BA
100
AcDbEntity
  8
2
100
AcDbBlockEnd
  0
BLOCK
  5
6BB
100
AcDbEntity
  8
2
100
AcDbBlockBegin
  2
*D20
 70
     1
 10
0.0
 20
0.0
 30
0.0
  3
*D20
  1

  0
TEXT
  5
6BC
100
AcDbEntity
  8
2
370
    25
100
AcDbText
 10
-331.894107
 20
-45.259974
 30
0.0
 40
3.0
  1
24
 41
2.0
 72
     5
 11
-327.094107
 21
-45.259974
 31
0.0
100
AcDbText
  0
LINE
  5
6BD
100
AcDbEntity
  8
2
370
    25
100
AcDbLine
 10
-340.894107
 20
-36.056084
 30
0.0
 11
-340.894107
 21
-46.759974
 31
0.0
  0
LINE
  5
6BE
100
AcDbEntity
  8
2
370
    25
100
AcDbLine
 10
-340.894107
 20
-45.759974
 30
0.0
 11
-338.962256
 21
-46.277612
 31
0.0
  0
LINE
  5
6BF
100
AcDbEntity
  8
2
370
    25
100
AcDbLine
 10
-340.894107
 20
-45.759974
 30
0.0
 11
-338.962256
 21
-45.242336
 31
0.0
  0
LINE
  5
6C0
100
AcDbEntity
  8
2
370
    25
100
AcDbLine
 10
-340.894107
 20
-45.759974
 30
0.0
 11
-316.894107
 21
-45.759974
 31
0.0
  0
LINE
  5
6C1
100
AcDbEntity
  8
2
370
    25
100
AcDbLine
 10
-316.894107
 20
-45.759974
 30
0.0
 11
-318.825959
 21
-45.242336
 31
0.0
  0
LINE
  5
6C2
100
AcDbEntity
  8
2
370
    25
100
AcDbLine
 10
-316.894107
 20
-45.759974
 30
0.0
 11
-318.825959
 21
-46.277612
 31
0.0
  0
LINE
  5
6C3
100
AcDbEntity
  8
2
370
    25
100
AcDbLine
 10
-316.894107
 20
-36.056084
 30
0.0
 11
-316.894107
 21
-46.759974
 31
0.0
  0
ENDBLK
  5
6C4
100
AcDbEntity
  8
2
100
AcDbBlockEnd
  0
BLOCK
  5
6C5
100
AcDbEntity
  8
2
100
AcDbBlockBegin
  2
*D21
 70
     1
 10
0.0
 20
0.0
 30
0.0
  3
*D21
  1

  0
TEXT
  5
6C6
100
AcDbEntity
  8
2
370
    25
100
AcDbText
 10
-359.547579
 20
-19.956084
 30
0.0
 40
3.0
  1
3
 50
90.0
 41
2.0
 72
     5
 11
-359.547579
 21
-18.156084
 31
0.0
100
AcDbText
  0
LINE
  5
6C7
100
AcDbEntity
  8
2
370
    25
100
AcDbLine
 10
-353.487834
 20
-24.956081
 30
0.0
 11
-360.047579
 21
-24.956081
 31
0.0
  0
LINE
  5
6C8
100
AcDbEntity
  8
2
370
    25
100
AcDbLine
 10
-359.047579
 20
-24.956081
 30
0.0
 11
-359.565217
 21
-26.887933
 31
0.0
  0
LINE
  5
6C9
100
AcDbEntity
  8
2
370
    25
100
AcDbLine
 10
-359.047579
 20
-24.956081
 30
0.0
 11
-358.529941
 21
-26.887933
 31
0.0
  0
LINE
  5
6CA
100
AcDbEntity
  8
2
370
    25
100
AcDbLine
 10
-359.047579
 20
-29.956081
 30
0.0
 11
-359.047579
 21
-15.956084
 31
0.0
  0
LINE
  5
6CB
100
AcDbEntity
  8
2
370
    25
100
AcDbLine
 10
-359.047579
 20
-21.956084
 30
0.0
 11
-358.529941
 21
-20.024232
 31
0.0
  0
LINE
  5
6CC
100
AcDbEntity
  8
2
370
    25
100
AcDbLine
 10
-359.047579
 20
-21.956084
 30
0.0
 11
-359.565217
 21
-20.024232
 31
0.0
  0
LINE
  5
6CD
100
AcDbEntity
  8
2
370
    25
100
AcDbLine
 10
-351.918149
 20
-21.956084
 30
0.0
 11
-360.047579
 21
-21.956084
 31
0.0
  0
ENDBLK
  5
6CE
100
AcDbEntity
  8
2
100
AcDbBlockEnd
  0
BLOCK
  5
6CF
100
AcDbEntity
  8
2
100
AcDbBlockBegin
  2
*D22
 70
     1
 10
0.0
 20
0.0
 30
0.0
  3
*D22
  1

  0
TEXT
  5
6D0
100
AcDbEntity
  8
2
370
    25
100
AcDbText
 10
-328.644107
 20
8.137336
 30
0.0
 40
3.0
  1
12.5
 41
2.0
 72
     5
 11
-317.844107
 21
8.137336
 31
0.0
100
AcDbText
  0
LINE
  5
6D1
100
AcDbEntity
  8
2
370
    25
100
AcDbLine
 10
-328.894107
 20
15.153281
 30
0.0
 11
-328.894107
 21
6.637336
 31
0.0
  0
LINE
  5
6D2
100
AcDbEntity
  8
2
370
    25
100
AcDbLine
 10
-328.894107
 20
7.637336
 30
0.0
 11
-326.962256
 21
7.119698
 31
0.0
  0
LINE
  5
6D3
100
AcDbEntity
  8
2
370
    25
100
AcDbLine
 10
-328.894107
 20
7.637336
 30
0.0
 11
-326.962256
 21
8.154974
 31
0.0
  0
LINE
  5
6D4
100
AcDbEntity
  8
2
370
    25
100
AcDbLine
 10
-328.894107
 20
7.637336
 30
0.0
 11
-316.394107
 21
7.637336
 31
0.0
  0
LINE
  5
6D5
100
AcDbEntity
  8
2
370
    25
100
AcDbLine
 10
-316.394107
 20
7.637336
 30
0.0
 11
-318.325959
 21
8.154974
 31
0.0
  0
LINE
  5
6D6
100
AcDbEntity
  8
2
370
    25
100
AcDbLine
 10
-316.394107
 20
7.637336
 30
0.0
 11
-318.325959
 21
7.119698
 31
0.0
  0
LINE
  5
6D7
100
AcDbEntity
  8
2
370
    25
100
AcDbLine
 10
-316.394107
 20
23.543916
 30
0.0
 11
-316.394107
 21
6.637336
 31
0.0
  0
ENDBLK
  5
6D8
100
AcDbEntity
  8
2
100
AcDbBlockEnd
  0
BLOCK
  5
6D9
100
AcDbEntity
  8
2
100
AcDbBlockBegin
  2
*D23
 70
     1
 10
0.0
 20
0.0
 30
0.0
  3
*D23
  1

  0
TEXT
  5
6DA
100
AcDbEntity
  8
2
370
    25
100
AcDbText
 10
-317.034235
 20
87.80393
 30
0.0
 40
3.0
  1
R6
 50
44.458449
 41
2.0
 72
     5
 11
-313.608194
 21
91.165811
 31
0.0
100
AcDbText
  0
LINE
  5
6DB
100
AcDbEntity
  8
2
370
    25
100
AcDbLine
 10
-322.394107
 20
81.843916
 30
0.0
 11
-311.687729
 21
92.349794
 31
0.0
  0
LINE
  5
6DC
100
AcDbEntity
  8
2
370
    25
100
AcDbLine
 10
-318.111556
 20
86.046267
 30
0.0
 11
-316.370131
 21
87.029852
 31
0.0
  0
LINE
  5
6DD
100
AcDbEntity
  8
2
370
    25
100
AcDbLine
 10
-318.111556
 20
86.046267
 30
0.0
 11
-317.09523
 21
87.768789
 31
0.0
  0
ENDBLK
  5
6DE
100
AcDbEntity
  8
2
100
AcDbBlockEnd
  0
BLOCK
  5
6DF
100
AcDbEntity
  8
2
100
AcDbBlockBegin
  2
*D24
 70
     1
 10
0.0
 20
0.0
 30
0.0
  3
*D24
  1

  0
LINE
  5
6E0
100
AcDbEntity
  8
2
370
    25
100
AcDbLine
 10
-338.194107
 20
69.443916
 30
0.0
 11
-338.194107
 21
101.451724
 31
0.0
  0
LINE
  5
6E1
100
AcDbEntity
  8
2
370
    25
100
AcDbLine
 10
-338.194107
 20
100.451724
 30
0.0
 11
-340.125959
 21
100.969362
 31
0.0
  0
LINE
  5
6E2
100
AcDbEntity
  8
2
370
    25
100
AcDbLine
 10
-338.194107
 20
100.451724
 30
0.0
 11
-340.125959
 21
99.934086
 31
0.0
  0
LINE
  5
6E3
100
AcDbEntity
  8
2
370
    25
100
AcDbLine
 10
-352.194107
 20
100.451724
 30
0.0
 11
-335.894107
 21
100.451724
 31
0.0
  0
LINE
  5
6E4
100
AcDbEntity
  8
2
370
    25
100
AcDbLine
 10
-335.894107
 20
67.643916
 30
0.0
 11
-335.894107
 21
101.451724
 31
0.0
  0
CIRCLE
  5
6E5
100
AcDbEntity
  8
2
370
    25
100
AcDbCircle
 10
-335.894107
 20
100.451724
 30
0.0
 40
0.5
  0
CIRCLE
  5
6E6
100
AcDbEntity
  8
2
370
    25
100
AcDbCircle
 10
-335.894107
 20
100.451724
 30
0.0
 40
0.3
  0
ENDBLK
  5
6E7
100
AcDbEntity
  8
2
100
AcDbBlockEnd
  0
BLOCK
  5
6E8
100
AcDbEntity
  8
2
100
AcDbBlockBegin
  2
*D25
 70
     1
 10
0.0
 20
0.0
 30
0.0
  3
*D25
  1

  0
LINE
  5
6E9
100
AcDbEntity
  8
2
370
    25
100
AcDbLine
 10
-335.894107
 20
67.643916
 30
0.0
 11
-335.894107
 21
101.451724
 31
0.0
  0
LINE
  5
6EA
100
AcDbEntity
  8
2
370
    25
100
AcDbLine
 10
-335.894107
 20
100.451724
 30
0.0
 11
-319.594107
 21
100.451724
 31
0.0
  0
LINE
  5
6EB
100
AcDbEntity
  8
2
370
    25
100
AcDbLine
 10
-333.594107
 20
100.451724
 30
0.0
 11
-331.662256
 21
99.934086
 31
0.0
  0
LINE
  5
6EC
100
AcDbEntity
  8
2
370
    25
100
AcDbLine
 10
-333.594107
 20
100.451724
 30
0.0
 11
-331.662256
 21
100.969362
 31
0.0
  0
LINE
  5
6ED
100
AcDbEntity
  8
2
370
    25
100
AcDbLine
 10
-333.594107
 20
69.443916
 30
0.0
 11
-333.594107
 21
101.451724
 31
0.0
  0
CIRCLE
  5
6EE
100
AcDbEntity
  8
2
370
    25
100
AcDbCircle
 10
-335.894107
 20
100.451724
 30
0.0
 40
0.5
  0
CIRCLE
  5
6EF
100
AcDbEntity
  8
2
370
    25
100
AcDbCircle
 10
-335.894107
 20
100.451724
 30
0.0
 40
0.3
  0
ENDBLK
  5
6F0
100
AcDbEntity
  8
2
100
AcDbBlockEnd
  0
BLOCK
  5
6F1
100
AcDbEntity
  8
2
100
AcDbBlockBegin
  2
*D26
 70
     1
 10
0.0
 20
0.0
 30
0.0
  3
*D26
  1

  0
TEXT
  5
6F2
100
AcDbEntity
  8
2
370
    25
100
AcDbText
 10
57.942197
 20
46.943916
 30
0.0
 40
3.0
  1
70
 50
90.0
 41
2.0
 72
     5
 11
57.942197
 21
51.743916
 31
0.0
100
AcDbText
  0
LINE
  5
6F3
100
AcDbEntity
  8
2
370
    25
100
AcDbLine
 10
68.545893
 20
18.043916
 30
0.0
 11
57.442197
 21
18.043916
 31
0.0
  0
LINE
  5
6F4
100
AcDbEntity
  8
2
370
    25
100
AcDbLine
 10
58.442197
 20
18.043916
 30
0.0
 11
58.959835
 21
19.975768
 31
0.0
  0
LINE
  5
6F5
100
AcDbEntity
  8
2
370
    25
100
AcDbLine
 10
58.442197
 20
18.043916
 30
0.0
 11
57.924559
 21
19.975768
 31
0.0
  0
LINE
  5
6F6
100
AcDbEntity
  8
2
370
    25
100
AcDbLine
 10
58.442197
 20
18.043916
 30
0.0
 11
58.442197
 21
87.843916
 31
0.0
  0
LINE
  5
6F7
100
AcDbEntity
  8
2
370
    25
100
AcDbLine
 10
58.442197
 20
87.843916
 30
0.0
 11
57.924559
 21
85.912064
 31
0.0
  0
LINE
  5
6F8
100
AcDbEntity
  8
2
370
    25
100
AcDbLine
 10
58.442197
 20
87.843916
 30
0.0
 11
58.959835
 21
85.912064
 31
0.0
  0
LINE
  5
6F9
100
AcDbEntity
  8
2
370
    25
100
AcDbLine
 10
68.545893
 20
87.843916
 30
0.0
 11
57.442197
 21
87.843916
 31
0.0
  0
ENDBLK
  5
6FA
100
AcDbEntity
  8
2
100
AcDbBlockEnd
  0
BLOCK
  5
6FB
100
AcDbEntity
  8
2
100
AcDbBlockBegin
  2
*D27
 70
     1
 10
0.0
 20
0.0
 30
0.0
  3
*D27
  1

  0
TEXT
  5
6FC
100
AcDbEntity
  8
2
370
    25
100
AcDbText
 10
91.105893
 20
107.43914
 30
0.0
 40
3.0
  1
7
 41
2.0
 72
     5
 11
92.905893
 21
107.43914
 31
0.0
100
AcDbText
  0
LINE
  5
6FD
100
AcDbEntity
  8
2
370
    25
100
AcDbLine
 10
89.105893
 20
67.643916
 30
0.0
 11
89.105893
 21
107.93914
 31
0.0
  0
LINE
  5
6FE
100
AcDbEntity
  8
2
370
    25
100
AcDbLine
 10
89.105893
 20
106.93914
 30
0.0
 11
91.037744
 21
106.421502
 31
0.0
  0
LINE
  5
6FF
100
AcDbEntity
  8
2
370
    25
100
AcDbLine
 10
89.105893
 20
106.93914
 30
0.0
 11
91.037744
 21
107.456778
 31
0.0
  0
LINE
  5
700
100
AcDbEntity
  8
2
370
    25
100
AcDbLine
 10
89.105893
 20
106.93914
 30
0.0
 11
96.105893
 21
106.93914
 31
0.0
  0
LINE
  5
701
100
AcDbEntity
  8
2
370
    25
100
AcDbLine
 10
96.105893
 20
106.93914
 30
0.0
 11
94.174041
 21
107.456778
 31
0.0
  0
LINE
  5
702
100
AcDbEntity
  8
2
370
    25
100
AcDbLine
 10
96.105893
 20
106.93914
 30
0.0
 11
94.174041
 21
106.421502
 31
0.0
  0
LINE
  5
703
100
AcDbEntity
  8
2
370
    25
100
AcDbLine
 10
96.105893
 20
90.162589
 30
0.0
 11
96.105893
 21
107.93914
 31
0.0
  0
ENDBLK
  5
704
100
AcDbEntity
  8
2
100
AcDbBlockEnd
  0
BLOCK
  5
705
100
AcDbEntity
  8
2
100
AcDbBlockBegin
  2
*D28
 70
     1
 10
0.0
 20
0.0
 30
0.0
  3
*D28
  1

  0
TEXT
  5
706
100
AcDbEntity
  8
2
370
    25
100
AcDbText
 10
116.709253
 20
49.943916
 30
0.0
 40
3.0
  1
32
 50
90.0
 41
2.0
 72
     5
 11
116.709253
 21
54.743916
 31
0.0
100
AcDbText
  0
LINE
  5
707
100
AcDbEntity
  8
2
370
    25
100
AcDbLine
 10
102.305893
 20
36.943916
 30
0.0
 11
118.209253
 21
36.943916
 31
0.0
  0
LINE
  5
708
100
AcDbEntity
  8
2
370
    25
100
AcDbLine
 10
117.209253
 20
36.943916
 30
0.0
 11
117.726891
 21
38.875768
 31
0.0
  0
LINE
  5
709
100
AcDbEntity
  8
2
370
    25
100
AcDbLine
 10
117.209253
 20
36.943916
 30
0.0
 11
116.691615
 21
38.875768
 31
0.0
  0
LINE
  5
70A
100
AcDbEntity
  8
2
370
    25
100
AcDbLine
 10
117.209253
 20
36.943916
 30
0.0
 11
117.209253
 21
68.943916
 31
0.0
  0
LINE
  5
70B
100
AcDbEntity
  8
2
370
    25
100
AcDbLine
 10
117.209253
 20
68.943916
 30
0.0
 11
116.691615
 21
67.012064
 31
0.0
  0
LINE
  5
70C
100
AcDbEntity
  8
2
370
    25
100
AcDbLine
 10
117.209253
 20
68.943916
 30
0.0
 11
117.726891
 21
67.012064
 31
0.0
  0
LINE
  5
70D
100
AcDbEntity
  8
2
370
    25
100
AcDbLine
 10
102.305893
 20
68.943916
 30
0.0
 11
118.209253
 21
68.943916
 31
0.0
  0
ENDBLK
  5
70E
100
AcDbEntity
  8
2
100
AcDbBlockEnd
  0
BLOCK
  5
70F
100
AcDbEntity
  8
2
100
AcDbBlockBegin
  2
*D29
 70
     1
 10
0.0
 20
0.0
 30
0.0
  3
*D29
  1

  0
TEXT
  5
710
100
AcDbEntity
  8
2
370
    25
100
AcDbText
 10
122.095197
 20
49.943916
 30
0.0
 40
3.0
  1
57
 50
90.0
 41
2.0
 72
     5
 11
122.095197
 21
54.743916
 31
0.0
100
AcDbText
  0
LINE
  5
711
100
AcDbEntity
  8
2
370
    25
100
AcDbLine
 10
102.105893
 20
24.443916
 30
0.0
 11
123.595197
 21
24.443916
 31
0.0
  0
LINE
  5
712
100
AcDbEntity
  8
2
370
    25
100
AcDbLine
 10
122.595197
 20
24.443916
 30
0.0
 11
123.112835
 21
26.375768
 31
0.0
  0
LINE
  5
713
100
AcDbEntity
  8
2
370
    25
100
AcDbLine
 10
122.595197
 20
24.443916
 30
0.0
 11
122.077559
 21
26.375768
 31
0.0
  0
LINE
  5
714
100
AcDbEntity
  8
2
370
    25
100
AcDbLine
 10
122.595197
 20
24.443916
 30
0.0
 11
122.595197
 21
81.443916
 31
0.0
  0
LINE
  5
715
100
AcDbEntity
  8
2
370
    25
100
AcDbLine
 10
122.595197
 20
81.443916
 30
0.0
 11
122.077559
 21
79.512064
 31
0.0
  0
LINE
  5
716
100
AcDbEntity
  8
2
370
    25
100
AcDbLine
 10
122.595197
 20
81.443916
 30
0.0
 11
123.112835
 21
79.512064
 31
0.0
  0
LINE
  5
717
100
AcDbEntity
  8
2
370
    25
100
AcDbLine
 10
102.105893
 20
81.443916
 30
0.0
 11
123.595197
 21
81.443916
 31
0.0
  0
ENDBLK
  5
718
100
AcDbEntity
  8
2
100
AcDbBlockEnd
  0
BLOCK
  5
719
100
AcDbEntity
  8
2
100
AcDbBlockBegin
  2
*D30
 70
     1
 10
0.0
 20
0.0
 30
0.0
  3
*D30
  1

  0
TEXT
  5
71A
100
AcDbEntity
  8
2
370
    25
100
AcDbText
 10
169.771727
 20
46.943916
 30
0.0
 40
3.0
  1
37.3
 50
90.0
 41
2.0
 72
     5
 11
169.771727
 21
57.743916
 31
0.0
100
AcDbText
  0
LINE
  5
71B
100
AcDbEntity
  8
2
370
    25
100
AcDbLine
 10
158.705872
 20
34.293943
 30
0.0
 11
171.271727
 21
34.293943
 31
0.0
  0
LINE
  5
71C
100
AcDbEntity
  8
2
370
    25
100
AcDbLine
 10
170.271727
 20
34.293943
 30
0.0
 11
170.789366
 21
36.225794
 31
0.0
  0
LINE
  5
71D
100
AcDbEntity
  8
2
370
    25
100
AcDbLine
 10
170.271727
 20
34.293943
 30
0.0
 11
169.754089
 21
36.225794
 31
0.0
  0
LINE
  5
71E
100
AcDbEntity
  8
2
370
    25
100
AcDbLine
 10
170.271727
 20
34.293943
 30
0.0
 11
170.271727
 21
71.593889
 31
0.0
  0
LINE
  5
71F
100
AcDbEntity
  8
2
370
    25
100
AcDbLine
 10
170.271727
 20
71.593889
 30
0.0
 11
169.754089
 21
69.662038
 31
0.0
  0
LINE
  5
720
100
AcDbEntity
  8
2
370
    25
100
AcDbLine
 10
170.271727
 20
71.593889
 30
0.0
 11
170.789366
 21
69.662038
 31
0.0
  0
LINE
  5
721
100
AcDbEntity
  8
2
370
    25
100
AcDbLine
 10
158.705872
 20
71.593889
 30
0.0
 11
171.271727
 21
71.593889
 31
0.0
  0
ENDBLK
  5
722
100
AcDbEntity
  8
2
100
AcDbBlockEnd
  0
BLOCK
  5
723
100
AcDbEntity
  8
2
100
AcDbBlockBegin
  2
*D31
 70
     1
 10
0.0
 20
0.0
 30
0.0
  3
*D31
  1

  0
TEXT
  5
724
100
AcDbEntity
  8
2
370
    25
100
AcDbText
 10
114.657827
 20
-19.956084
 30
0.0
 40
3.0
  1
2.9
 50
90.0
 41
2.0
 72
     5
 11
114.657827
 21
-12.156084
 31
0.0
100
AcDbText
  0
LINE
  5
725
100
AcDbEntity
  8
2
370
    25
100
AcDbLine
 10
108.605893
 20
-24.856084
 30
0.0
 11
116.157827
 21
-24.856084
 31
0.0
  0
LINE
  5
726
100
AcDbEntity
  8
2
370
    25
100
AcDbLine
 10
115.157827
 20
-24.856084
 30
0.0
 11
114.640189
 21
-26.787936
 31
0.0
  0
LINE
  5
727
100
AcDbEntity
  8
2
370
    25
100
AcDbLine
 10
115.157827
 20
-24.856084
 30
0.0
 11
115.675465
 21
-26.787936
 31
0.0
  0
LINE
  5
728
100
AcDbEntity
  8
2
370
    25
100
AcDbLine
 10
115.157827
 20
-29.856084
 30
0.0
 11
115.157827
 21
-9.956084
 31
0.0
  0
LINE
  5
729
100
AcDbEntity
  8
2
370
    25
100
AcDbLine
 10
115.157827
 20
-21.956084
 30
0.0
 11
115.675465
 21
-20.024232
 31
0.0
  0
LINE
  5
72A
100
AcDbEntity
  8
2
370
    25
100
AcDbLine
 10
115.157827
 20
-21.956084
 30
0.0
 11
114.640189
 21
-20.024232
 31
0.0
  0
LINE
  5
72B
100
AcDbEntity
  8
2
370
    25
100
AcDbLine
 10
109.105893
 20
-21.956084
 30
0.0
 11
116.157827
 21
-21.956084
 31
0.0
  0
ENDBLK
  5
72C
100
AcDbEntity
  8
2
100
AcDbBlockEnd
  0
BLOCK
  5
72D
100
AcDbEntity
  8
2
100
AcDbBlockBegin
  2
*D32
 70
     1
 10
0.0
 20
0.0
 30
0.0
  3
*D32
  1

  0
TEXT
  5
72E
100
AcDbEntity
  8
2
370
    25
100
AcDbText
 10
121.264215
 20
-35.256084
 30
0.0
 40
3.0
  1
14.6
 50
90.0
 41
2.0
 72
     5
 11
121.264215
 21
-24.456084
 31
0.0
100
AcDbText
  0
LINE
  5
72F
100
AcDbEntity
  8
2
370
    25
100
AcDbLine
 10
107.605893
 20
-36.556084
 30
0.0
 11
122.764215
 21
-36.556084
 31
0.0
  0
LINE
  5
730
100
AcDbEntity
  8
2
370
    25
100
AcDbLine
 10
121.764215
 20
-36.556084
 30
0.0
 11
122.281853
 21
-34.624232
 31
0.0
  0
LINE
  5
731
100
AcDbEntity
  8
2
370
    25
100
AcDbLine
 10
121.764215
 20
-36.556084
 30
0.0
 11
121.246577
 21
-34.624232
 31
0.0
  0
LINE
  5
732
100
AcDbEntity
  8
2
370
    25
100
AcDbLine
 10
121.764215
 20
-36.556084
 30
0.0
 11
121.764215
 21
-21.956084
 31
0.0
  0
LINE
  5
733
100
AcDbEntity
  8
2
370
    25
100
AcDbLine
 10
121.764215
 20
-21.956084
 30
0.0
 11
121.246577
 21
-23.887936
 31
0.0
  0
LINE
  5
734
100
AcDbEntity
  8
2
370
    25
100
AcDbLine
 10
121.764215
 20
-21.956084
 30
0.0
 11
122.281853
 21
-23.887936
 31
0.0
  0
LINE
  5
735
100
AcDbEntity
  8
2
370
    25
100
AcDbLine
 10
109.105893
 20
-21.956084
 30
0.0
 11
122.764215
 21
-21.956084
 31
0.0
  0
ENDBLK
  5
736
100
AcDbEntity
  8
2
100
AcDbBlockEnd
  0
BLOCK
  5
737
100
AcDbEntity
  8
2
100
AcDbBlockBegin
  2
*D33
 70
     1
 10
0.0
 20
0.0
 30
0.0
  3
*D33
  1

  0
TEXT
  5
738
100
AcDbEntity
  8
2
370
    25
100
AcDbText
 10
93.105893
 20
-45.259974
 30
0.0
 40
3.0
  1
24
 41
2.0
 72
     5
 11
97.905893
 21
-45.259974
 31
0.0
100
AcDbText
  0
LINE
  5
739
100
AcDbEntity
  8
2
370
    25
100
AcDbLine
 10
84.105893
 20
-36.056084
 30
0.0
 11
84.105893
 21
-46.759974
 31
0.0
  0
LINE
  5
73A
100
AcDbEntity
  8
2
370
    25
100
AcDbLine
 10
84.105893
 20
-45.759974
 30
0.0
 11
86.037744
 21
-46.277612
 31
0.0
  0
LINE
  5
73B
100
AcDbEntity
  8
2
370
    25
100
AcDbLine
 10
84.105893
 20
-45.759974
 30
0.0
 11
86.037744
 21
-45.242336
 31
0.0
  0
LINE
  5
73C
100
AcDbEntity
  8
2
370
    25
100
AcDbLine
 10
84.105893
 20
-45.759974
 30
0.0
 11
108.105893
 21
-45.759974
 31
0.0
  0
LINE
  5
73D
100
AcDbEntity
  8
2
370
    25
100
AcDbLine
 10
108.105893
 20
-45.759974
 30
0.0
 11
106.174041
 21
-45.242336
 31
0.0
  0
LINE
  5
73E
100
AcDbEntity
  8
2
370
    25
100
AcDbLine
 10
108.105893
 20
-45.759974
 30
0.0
 11
106.174041
 21
-46.277612
 31
0.0
  0
LINE
  5
73F
100
AcDbEntity
  8
2
370
    25
100
AcDbLine
 10
108.105893
 20
-36.056084
 30
0.0
 11
108.105893
 21
-46.759974
 31
0.0
  0
ENDBLK
  5
740
100
AcDbEntity
  8
2
100
AcDbBlockEnd
  0
BLOCK
  5
741
100
AcDbEntity
  8
2
100
AcDbBlockBegin
  2
*D34
 70
     1
 10
0.0
 20
0.0
 30
0.0
  3
*D34
  1

  0
TEXT
  5
742
100
AcDbEntity
  8
2
370
    25
100
AcDbText
 10
61.952421
 20
-19.956084
 30
0.0
 40
3.0
  1
3
 50
90.0
 41
2.0
 72
     5
 11
61.952421
 21
-18.156084
 31
0.0
100
AcDbText
  0
LINE
  5
743
100
AcDbEntity
  8
2
370
    25
100
AcDbLine
 10
68.012166
 20
-24.956081
 30
0.0
 11
61.452421
 21
-24.956081
 31
0.0
  0
LINE
  5
744
100
AcDbEntity
  8
2
370
    25
100
AcDbLine
 10
62.452421
 20
-24.956081
 30
0.0
 11
61.934783
 21
-26.887933
 31
0.0
  0
LINE
  5
745
100
AcDbEntity
  8
2
370
    25
100
AcDbLine
 10
62.452421
 20
-24.956081
 30
0.0
 11
62.970059
 21
-26.887933
 31
0.0
  0
LINE
  5
746
100
AcDbEntity
  8
2
370
    25
100
AcDbLine
 10
62.452421
 20
-29.956081
 30
0.0
 11
62.452421
 21
-15.956084
 31
0.0
  0
LINE
  5
747
100
AcDbEntity
  8
2
370
    25
100
AcDbLine
 10
62.452421
 20
-21.956084
 30
0.0
 11
62.970059
 21
-20.024232
 31
0.0
  0
LINE
  5
748
100
AcDbEntity
  8
2
370
    25
100
AcDbLine
 10
62.452421
 20
-21.956084
 30
0.0
 11
61.934783
 21
-20.024232
 31
0.0
  0
LINE
  5
749
100
AcDbEntity
  8
2
370
    25
100
AcDbLine
 10
69.581851
 20
-21.956084
 30
0.0
 11
61.452421
 21
-21.956084
 31
0.0
  0
ENDBLK
  5
74A
100
AcDbEntity
  8
2
100
AcDbBlockEnd
  0
BLOCK
  5
74B
100
AcDbEntity
  8
2
100
AcDbBlockBegin
  2
*D35
 70
     1
 10
0.0
 20
0.0
 30
0.0
  3
*D35
  1

  0
TEXT
  5
74C
100
AcDbEntity
  8
2
370
    25
100
AcDbText
 10
96.355893
 20
8.137336
 30
0.0
 40
3.0
  1
12.5
 41
2.0
 72
     5
 11
107.155893
 21
8.137336
 31
0.0
100
AcDbText
  0
LINE
  5
74D
100
AcDbEntity
  8
2
370
    25
100
AcDbLine
 10
96.105893
 20
15.153281
 30
0.0
 11
96.105893
 21
6.637336
 31
0.0
  0
LINE
  5
74E
100
AcDbEntity
  8
2
370
    25
100
AcDbLine
 10
96.105893
 20
7.637336
 30
0.0
 11
98.037744
 21
7.119698
 31
0.0
  0
LINE
  5
74F
100
AcDbEntity
  8
2
370
    25
100
AcDbLine
 10
96.105893
 20
7.637336
 30
0.0
 11
98.037744
 21
8.154974
 31
0.0
  0
LINE
  5
750
100
AcDbEntity
  8
2
370
    25
100
AcDbLine
 10
96.105893
 20
7.637336
 30
0.0
 11
108.605893
 21
7.637336
 31
0.0
  0
LINE
  5
751
100
AcDbEntity
  8
2
370
    25
100
AcDbLine
 10
108.605893
 20
7.637336
 30
0.0
 11
106.674041
 21
8.154974
 31
0.0
  0
LINE
  5
752
100
AcDbEntity
  8
2
370
    25
100
AcDbLine
 10
108.605893
 20
7.637336
 30
0.0
 11
106.674041
 21
7.119698
 31
0.0
  0
LINE
  5
753
100
AcDbEntity
  8
2
370
    25
100
AcDbLine
 10
108.605893
 20
23.543916
 30
0.0
 11
108.605893
 21
6.637336
 31
0.0
  0
ENDBLK
  5
754
100
AcDbEntity
  8
2
100
AcDbBlockEnd
  0
BLOCK
  5
755
100
AcDbEntity
  8
2
100
AcDbBlockBegin
  2
*D36
 70
     1
 10
0.0
 20
0.0
 30
0.0
  3
*D36
  1

  0
TEXT
  5
756
100
AcDbEntity
  8
2
370
    25
100
AcDbText
 10
107.965765
 20
87.80393
 30
0.0
 40
3.0
  1
R6
 50
44.458449
 41
2.0
 72
     5
 11
111.391806
 21
91.165811
 31
0.0
100
AcDbText
  0
LINE
  5
757
100
AcDbEntity
  8
2
370
    25
100
AcDbLine
 10
102.605893
 20
81.843916
 30
0.0
 11
113.312271
 21
92.349794
 31
0.0
  0
LINE
  5
758
100
AcDbEntity
  8
2
370
    25
100
AcDbLine
 10
106.888444
 20
86.046267
 30
0.0
 11
108.629869
 21
87.029852
 31
0.0
  0
LINE
  5
759
100
AcDbEntity
  8
2
370
    25
100
AcDbLine
 10
106.888444
 20
86.046267
 30
0.0
 11
107.90477
 21
87.768789
 31
0.0
  0
ENDBLK
  5
75A
100
AcDbEntity
  8
2
100
AcDbBlockEnd
  0
BLOCK
  5
75B
100
AcDbEntity
  8
2
100
AcDbBlockBegin
  2
*D37
 70
     1
 10
0.0
 20
0.0
 30
0.0
  3
*D37
  1

  0
LINE
  5
75C
100
AcDbEntity
  8
2
370
    25
100
AcDbLine
 10
86.805893
 20
69.443916
 30
0.0
 11
86.805893
 21
101.451724
 31
0.0
  0
LINE
  5
75D
100
AcDbEntity
  8
2
370
    25
100
AcDbLine
 10
86.805893
 20
100.451724
 30
0.0
 11
84.874041
 21
100.969362
 31
0.0
  0
LINE
  5
75E
100
AcDbEntity
  8
2
370
    25
100
AcDbLine
 10
86.805893
 20
100.451724
 30
0.0
 11
84.874041
 21
99.934086
 31
0.0
  0
LINE
  5
75F
100
AcDbEntity
  8
2
370
    25
100
AcDbLine
 10
72.805893
 20
100.451724
 30
0.0
 11
89.105893
 21
100.451724
 31
0.0
  0
LINE
  5
760
100
AcDbEntity
  8
2
370
    25
100
AcDbLine
 10
89.105893
 20
67.643916
 30
0.0
 11
89.105893
 21
101.451724
 31
0.0
  0
CIRCLE
  5
761
100
AcDbEntity
  8
2
370
    25
100
AcDbCircle
 10
89.105893
 20
100.451724
 30
0.0
 40
0.5
  0
CIRCLE
  5
762
100
AcDbEntity
  8
2
370
    25
100
AcDbCircle
 10
89.105893
 20
100.451724
 30
0.0
 40
0.3
  0
ENDBLK
  5
763
100
AcDbEntity
  8
2
100
AcDbBlockEnd
  0
BLOCK
  5
764
100
AcDbEntity
  8
2
100
AcDbBlockBegin
  2
*D38
 70
     1
 10
0.0
 20
0.0
 30
0.0
  3
*D38
  1

  0
LINE
  5
765
100
AcDbEntity
  8
2
370
    25
100
AcDbLine
 10
89.105893
 20
67.643916
 30
0.0
 11
89.105893
 21
101.451724
 31
0.0
  0
LINE
  5
766
100
AcDbEntity
  8
2
370
    25
100
AcDbLine
 10
89.105893
 20
100.451724
 30
0.0
 11
105.405893
 21
100.451724
 31
0.0
  0
LINE
  5
767
100
AcDbEntity
  8
2
370
    25
100
AcDbLine
 10
91.405893
 20
100.451724
 30
0.0
 11
93.337744
 21
99.934086
 31
0.0
  0
LINE
  5
768
100
AcDbEntity
  8
2
370
    25
100
AcDbLine
 10
91.405893
 20
100.451724
 30
0.0
 11
93.337744
 21
100.969362
 31
0.0
  0
LINE
  5
769
100
AcDbEntity
  8
2
370
    25
100
AcDbLine
 10
91.405893
 20
69.443916
 30
0.0
 11
91.405893
 21
101.451724
 31
0.0
  0
CIRCLE
  5
76A
100
AcDbEntity
  8
2
370
    25
100
AcDbCircle
 10
89.105893
 20
100.451724
 30
0.0
 40
0.5
  0
CIRCLE
  5
76B
100
AcDbEntity
  8
2
370
    25
100
AcDbCircle
 10
89.105893
 20
100.451724
 30
0.0
 40
0.3
  0
ENDBLK
  5
76C
100
AcDbEntity
  8
2
100
AcDbBlockEnd
  0
BLOCK
  5
76D
100
AcDbEntity
  8
2
100
AcDbBlockBegin
  2
*D39
 70
     1
 10
0.0
 20
0.0
 30
0.0
  3
*D39
  1

  0
TEXT
  5
76E
100
AcDbEntity
  8
2
370
    25
100
AcDbText
 10
266.442197
 20
46.943916
 30
0.0
 40
3.0
  1
70
 50
90.0
 41
2.0
 72
     5
 11
266.442197
 21
51.743916
 31
0.0
100
AcDbText
  0
LINE
  5
76F
100
AcDbEntity
  8
2
370
    25
100
AcDbLine
 10
277.045893
 20
18.043916
 30
0.0
 11
265.942197
 21
18.043916
 31
0.0
  0
LINE
  5
770
100
AcDbEntity
  8
2
370
    25
100
AcDbLine
 10
266.942197
 20
18.043916
 30
0.0
 11
267.459835
 21
19.975768
 31
0.0
  0
LINE
  5
771
100
AcDbEntity
  8
2
370
    25
100
AcDbLine
 10
266.942197
 20
18.043916
 30
0.0
 11
266.424559
 21
19.975768
 31
0.0
  0
LINE
  5
772
100
AcDbEntity
  8
2
370
    25
100
AcDbLine
 10
266.942197
 20
18.043916
 30
0.0
 11
266.942197
 21
87.843916
 31
0.0
  0
LINE
  5
773
100
AcDbEntity
  8
2
370
    25
100
AcDbLine
 10
266.942197
 20
87.843916
 30
0.0
 11
266.424559
 21
85.912064
 31
0.0
  0
LINE
  5
774
100
AcDbEntity
  8
2
370
    25
100
AcDbLine
 10
266.942197
 20
87.843916
 30
0.0
 11
267.459835
 21
85.912064
 31
0.0
  0
LINE
  5
775
100
AcDbEntity
  8
2
370
    25
100
AcDbLine
 10
277.045893
 20
87.843916
 30
0.0
 11
265.942197
 21
87.843916
 31
0.0
  0
ENDBLK
  5
776
100
AcDbEntity
  8
2
100
AcDbBlockEnd
  0
BLOCK
  5
777
100
AcDbEntity
  8
2
100
AcDbBlockBegin
  2
*D40
 70
     1
 10
0.0
 20
0.0
 30
0.0
  3
*D40
  1

  0
TEXT
  5
778
100
AcDbEntity
  8
2
370
    25
100
AcDbText
 10
301.105893
 20
107.43914
 30
0.0
 40
3.0
  1
7
 41
2.0
 72
     5
 11
302.905893
 21
107.43914
 31
0.0
100
AcDbText
  0
LINE
  5
779
100
AcDbEntity
  8
2
370
    25
100
AcDbLine
 10
299.105893
 20
67.643916
 30
0.0
 11
299.105893
 21
107.93914
 31
0.0
  0
LINE
  5
77A
100
AcDbEntity
  8
2
370
    25
100
AcDbLine
 10
299.105893
 20
106.93914
 30
0.0
 11
301.037744
 21
106.421502
 31
0.0
  0
LINE
  5
77B
100
AcDbEntity
  8
2
370
    25
100
AcDbLine
 10
299.105893
 20
106.93914
 30
0.0
 11
301.037744
 21
107.456778
 31
0.0
  0
LINE
  5
77C
100
AcDbEntity
  8
2
370
    25
100
AcDbLine
 10
299.105893
 20
106.93914
 30
0.0
 11
306.105893
 21
106.93914
 31
0.0
  0
LINE
  5
77D
100
AcDbEntity
  8
2
370
    25
100
AcDbLine
 10
306.105893
 20
106.93914
 30
0.0
 11
304.174041
 21
107.456778
 31
0.0
  0
LINE
  5
77E
100
AcDbEntity
  8
2
370
    25
100
AcDbLine
 10
306.105893
 20
106.93914
 30
0.0
 11
304.174041
 21
106.421502
 31
0.0
  0
LINE
  5
77F
100
AcDbEntity
  8
2
370
    25
100
AcDbLine
 10
306.105893
 20
90.162589
 30
0.0
 11
306.105893
 21
107.93914
 31
0.0
  0
ENDBLK
  5
780
100
AcDbEntity
  8
2
100
AcDbBlockEnd
  0
BLOCK
  5
781
100
AcDbEntity
  8
2
100
AcDbBlockBegin
  2
*D41
 70
     1
 10
0.0
 20
0.0
 30
0.0
  3
*D41
  1

  0
TEXT
  5
782
100
AcDbEntity
  8
2
370
    25
100
AcDbText
 10
326.709253
 20
49.943916
 30
0.0
 40
3.0
  1
32
 50
90.0
 41
2.0
 72
     5
 11
326.709253
 21
54.743916
 31
0.0
100
AcDbText
  0
LINE
  5
783
100
AcDbEntity
  8
2
370
    25
100
AcDbLine
 10
312.305893
 20
36.943916
 30
0.0
 11
328.209253
 21
36.943916
 31
0.0
  0
LINE
  5
784
100
AcDbEntity
  8
2
370
    25
100
AcDbLine
 10
327.209253
 20
36.943916
 30
0.0
 11
327.726891
 21
38.875768
 31
0.0
  0
LINE
  5
785
100
AcDbEntity
  8
2
370
    25
100
AcDbLine
 10
327.209253
 20
36.943916
 30
0.0
 11
326.691615
 21
38.875768
 31
0.0
  0
LINE
  5
786
100
AcDbEntity
  8
2
370
    25
100
AcDbLine
 10
327.209253
 20
36.943916
 30
0.0
 11
327.209253
 21
68.943916
 31
0.0
  0
LINE
  5
787
100
AcDbEntity
  8
2
370
    25
100
AcDbLine
 10
327.209253
 20
68.943916
 30
0.0
 11
326.691615
 21
67.012064
 31
0.0
  0
LINE
  5
788
100
AcDbEntity
  8
2
370
    25
100
AcDbLine
 10
327.209253
 20
68.943916
 30
0.0
 11
327.726891
 21
67.012064
 31
0.0
  0
LINE
  5
789
100
AcDbEntity
  8
2
370
    25
100
AcDbLine
 10
312.305893
 20
68.943916
 30
0.0
 11
328.209253
 21
68.943916
 31
0.0
  0
ENDBLK
  5
78A
100
AcDbEntity
  8
2
100
AcDbBlockEnd
  0
BLOCK
  5
78B
100
AcDbEntity
  8
2
100
AcDbBlockBegin
  2
*D42
 70
     1
 10
0.0
 20
0.0
 30
0.0
  3
*D42
  1

  0
TEXT
  5
78C
100
AcDbEntity
  8
2
370
    25
100
AcDbText
 10
332.095197
 20
49.943916
 30
0.0
 40
3.0
  1
57
 50
90.0
 41
2.0
 72
     5
 11
332.095197
 21
54.743916
 31
0.0
100
AcDbText
  0
LINE
  5
78D
100
AcDbEntity
  8
2
370
    25
100
AcDbLine
 10
312.105893
 20
24.443916
 30
0.0
 11
333.595197
 21
24.443916
 31
0.0
  0
LINE
  5
78E
100
AcDbEntity
  8
2
370
    25
100
AcDbLine
 10
332.595197
 20
24.443916
 30
0.0
 11
333.112835
 21
26.375768
 31
0.0
  0
LINE
  5
78F
100
AcDbEntity
  8
2
370
    25
100
AcDbLine
 10
332.595197
 20
24.443916
 30
0.0
 11
332.077559
 21
26.375768
 31
0.0
  0
LINE
  5
790
100
AcDbEntity
  8
2
370
    25
100
AcDbLine
 10
332.595197
 20
24.443916
 30
0.0
 11
332.595197
 21
81.443916
 31
0.0
  0
LINE
  5
791
100
AcDbEntity
  8
2
370
    25
100
AcDbLine
 10
332.595197
 20
81.443916
 30
0.0
 11
332.077559
 21
79.512064
 31
0.0
  0
LINE
  5
792
100
AcDbEntity
  8
2
370
    25
100
AcDbLine
 10
332.595197
 20
81.443916
 30
0.0
 11
333.112835
 21
79.512064
 31
0.0
  0
LINE
  5
793
100
AcDbEntity
  8
2
370
    25
100
AcDbLine
 10
312.105893
 20
81.443916
 30
0.0
 11
333.595197
 21
81.443916
 31
0.0
  0
ENDBLK
  5
794
100
AcDbEntity
  8
2
100
AcDbBlockEnd
  0
BLOCK
  5
795
100
AcDbEntity
  8
2
100
AcDbBlockBegin
  2
*D43
 70
     1
 10
0.0
 20
0.0
 30
0.0
  3
*D43
  1

  0
TEXT
  5
796
100
AcDbEntity
  8
2
370
    25
100
AcDbText
 10
379.771727
 20
46.943916
 30
0.0
 40
3.0
  1
37.3
 50
90.0
 41
2.0
 72
     5
 11
379.771727
 21
57.743916
 31
0.0
100
AcDbText
  0
LINE
  5
797
100
AcDbEntity
  8
2
370
    25
100
AcDbLine
 10
368.705872
 20
34.293943
 30
0.0
 11
381.271727
 21
34.293943
 31
0.0
  0
LINE
  5
798
100
AcDbEntity
  8
2
370
    25
100
AcDbLine
 10
380.271727
 20
34.293943
 30
0.0
 11
380.789366
 21
36.225794
 31
0.0
  0
LINE
  5
799
100
AcDbEntity
  8
2
370
    25
100
AcDbLine
 10
380.271727
 20
34.293943
 30
0.0
 11
379.754089
 21
36.225794
 31
0.0
  0
LINE
  5
79A
100
AcDbEntity
  8
2
370
    25
100
AcDbLine
 10
380.271727
 20
34.293943
 30
0.0
 11
380.271727
 21
71.593889
 31
0.0
  0
LINE
  5
79B
100
AcDbEntity
  8
2
370
    25
100
AcDbLine
 10
380.271727
 20
71.593889
 30
0.0
 11
379.754089
 21
69.662038
 31
0.0
  0
LINE
  5
79C
100
AcDbEntity
  8
2
370
    25
100
AcDbLine
 10
380.271727
 20
71.593889
 30
0.0
 11
380.789366
 21
69.662038
 31
0.0
  0
LINE
  5
79D
100
AcDbEntity
  8
2
370
    25
100
AcDbLine
 10
368.705872
 20
71.593889
 30
0.0
 11
381.271727
 21
71.593889
 31
0.0
  0
ENDBLK
  5
79E
100
AcDbEntity
  8
2
100
AcDbBlockEnd
  0
BLOCK
  5
79F
100
AcDbEntity
  8
2
100
AcDbBlockBegin
  2
*D44
 70
     1
 10
0.0
 20
0.0
 30
0.0
  3
*D44
  1

  0
TEXT
  5
7A0
100
AcDbEntity
  8
2
370
    25
100
AcDbText
 10
324.657827
 20
-19.956084
 30
0.0
 40
3.0
  1
2.9
 50
90.0
 41
2.0
 72
     5
 11
324.657827
 21
-12.156084
 31
0.0
100
AcDbText
  0
LINE
  5
7A1
100
AcDbEntity
  8
2
370
    25
100
AcDbLine
 10
318.605893
 20
-24.856084
 30
0.0
 11
326.157827
 21
-24.856084
 31
0.0
  0
LINE
  5
7A2
100
AcDbEntity
  8
2
370
    25
100
AcDbLine
 10
325.157827
 20
-24.856084
 30
0.0
 11
324.640189
 21
-26.787936
 31
0.0
  0
LINE
  5
7A3
100
AcDbEntity
  8
2
370
    25
100
AcDbLine
 10
325.157827
 20
-24.856084
 30
0.0
 11
325.675465
 21
-26.787936
 31
0.0
  0
LINE
  5
7A4
100
AcDbEntity
  8
2
370
    25
100
AcDbLine
 10
325.157827
 20
-29.856084
 30
0.0
 11
325.157827
 21
-9.956084
 31
0.0
  0
LINE
  5
7A5
100
AcDbEntity
  8
2
370
    25
100
AcDbLine
 10
325.157827
 20
-21.956084
 30
0.0
 11
325.675465
 21
-20.024232
 31
0.0
  0
LINE
  5
7A6
100
AcDbEntity
  8
2
370
    25
100
AcDbLine
 10
325.157827
 20
-21.956084
 30
0.0
 11
324.640189
 21
-20.024232
 31
0.0
  0
LINE
  5
7A7
100
AcDbEntity
  8
2
370
    25
100
AcDbLine
 10
319.105893
 20
-21.956084
 30
0.0
 11
326.157827
 21
-21.956084
 31
0.0
  0
ENDBLK
  5
7A8
100
AcDbEntity
  8
2
100
AcDbBlockEnd
  0
BLOCK
  5
7A9
100
AcDbEntity
  8
2
100
AcDbBlockBegin
  2
*D45
 70
     1
 10
0.0
 20
0.0
 30
0.0
  3
*D45
  1

  0
TEXT
  5
7AA
100
AcDbEntity
  8
2
370
    25
100
AcDbText
 10
331.264215
 20
-35.256084
 30
0.0
 40
3.0
  1
14.6
 50
90.0
 41
2.0
 72
     5
 11
331.264215
 21
-24.456084
 31
0.0
100
AcDbText
  0
LINE
  5
7AB
100
AcDbEntity
  8
2
370
    25
100
AcDbLine
 10
317.605893
 20
-36.556084
 30
0.0
 11
332.764215
 21
-36.556084
 31
0.0
  0
LINE
  5
7AC
100
AcDbEntity
  8
2
370
    25
100
AcDbLine
 10
331.764215
 20
-36.556084
 30
0.0
 11
332.281853
 21
-34.624232
 31
0.0
  0
LINE
  5
7AD
100
AcDbEntity
  8
2
370
    25
100
AcDbLine
 10
331.764215
 20
-36.556084
 30
0.0
 11
331.246577
 21
-34.624232
 31
0.0
  0
LINE
  5
7AE
100
AcDbEntity
  8
2
370
    25
100
AcDbLine
 10
331.764215
 20
-36.556084
 30
0.0
 11
331.764215
 21
-21.956084
 31
0.0
  0
LINE
  5
7AF
100
AcDbEntity
  8
2
370
    25
100
AcDbLine
 10
331.764215
 20
-21.956084
 30
0.0
 11
331.246577
 21
-23.887936
 31
0.0
  0
LINE
  5
7B0
100
AcDbEntity
  8
2
370
    25
100
AcDbLine
 10
331.764215
 20
-21.956084
 30
0.0
 11
332.281853
 21
-23.887936
 31
0.0
  0
LINE
  5
7B1
100
AcDbEntity
  8
2
370
    25
100
AcDbLine
 10
319.105893
 20
-21.956084
 30
0.0
 11
332.764215
 21
-21.956084
 31
0.0
  0
ENDBLK
  5
7B2
100
AcDbEntity
  8
2
100
AcDbBlockEnd
  0
BLOCK
  5
7B3
100
AcDbEntity
  8
2
100
AcDbBlockBegin
  2
*D46
 70
     1
 10
0.0
 20
0.0
 30
0.0
  3
*D46
  1

  0
TEXT
  5
7B4
100
AcDbEntity
  8
2
370
    25
100
AcDbText
 10
303.105893
 20
-45.259974
 30
0.0
 40
3.0
  1
24
 41
2.0
 72
     5
 11
307.905893
 21
-45.259974
 31
0.0
100
AcDbText
  0
LINE
  5
7B5
100
AcDbEntity
  8
2
370
    25
100
AcDbLine
 10
294.105893
 20
-36.056084
 30
0.0
 11
294.105893
 21
-46.759974
 31
0.0
  0
LINE
  5
7B6
100
AcDbEntity
  8
2
370
    25
100
AcDbLine
 10
294.105893
 20
-45.759974
 30
0.0
 11
296.037744
 21
-46.277612
 31
0.0
  0
LINE
  5
7B7
100
AcDbEntity
  8
2
370
    25
100
AcDbLine
 10
294.105893
 20
-45.759974
 30
0.0
 11
296.037744
 21
-45.242336
 31
0.0
  0
LINE
  5
7B8
100
AcDbEntity
  8
2
370
    25
100
AcDbLine
 10
294.105893
 20
-45.759974
 30
0.0
 11
318.105893
 21
-45.759974
 31
0.0
  0
LINE
  5
7B9
100
AcDbEntity
  8
2
370
    25
100
AcDbLine
 10
318.105893
 20
-45.759974
 30
0.0
 11
316.174041
 21
-45.242336
 31
0.0
  0
LINE
  5
7BA
100
AcDbEntity
  8
2
370
    25
100
AcDbLine
 10
318.105893
 20
-45.759974
 30
0.0
 11
316.174041
 21
-46.277612
 31
0.0
  0
LINE
  5
7BB
100
AcDbEntity
  8
2
370
    25
100
AcDbLine
 10
318.105893
 20
-36.056084
 30
0.0
 11
318.105893
 21
-46.759974
 31
0.0
  0
ENDBLK
  5
7BC
100
AcDbEntity
  8
2
100
AcDbBlockEnd
  0
BLOCK
  5
7BD
100
AcDbEntity
  8
2
100
AcDbBlockBegin
  2
*D47
 70
     1
 10
0.0
 20
0.0
 30
0.0
  3
*D47
  1

  0
TEXT
  5
7BE
100
AcDbEntity
  8
2
370
    25
100
AcDbText
 10
270.452421
 20
-19.956084
 30
0.0
 40
3.0
  1
3
 50
90.0
 41
2.0
 72
     5
 11
270.452421
 21
-18.156084
 31
0.0
100
AcDbText
  0
LINE
  5
7BF
100
AcDbEntity
  8
2
370
    25
100
AcDbLine
 10
276.512166
 20
-24.956081
 30
0.0
 11
269.952421
 21
-24.956081
 31
0.0
  0
LINE
  5
7C0
100
AcDbEntity
  8
2
370
    25
100
AcDbLine
 10
270.952421
 20
-24.956081
 30
0.0
 11
270.434783
 21
-26.887933
 31
0.0
  0
LINE
  5
7C1
100
AcDbEntity
  8
2
370
    25
100
AcDbLine
 10
270.952421
 20
-24.956081
 30
0.0
 11
271.470059
 21
-26.887933
 31
0.0
  0
LINE
  5
7C2
100
AcDbEntity
  8
2
370
    25
100
AcDbLine
 10
270.952421
 20
-29.956081
 30
0.0
 11
270.952421
 21
-15.956084
 31
0.0
  0
LINE
  5
7C3
100
AcDbEntity
  8
2
370
    25
100
AcDbLine
 10
270.952421
 20
-21.956084
 30
0.0
 11
271.470059
 21
-20.024232
 31
0.0
  0
LINE
  5
7C4
100
AcDbEntity
  8
2
370
    25
100
AcDbLine
 10
270.952421
 20
-21.956084
 30
0.0
 11
270.434783
 21
-20.024232
 31
0.0
  0
LINE
  5
7C5
100
AcDbEntity
  8
2
370
    25
100
AcDbLine
 10
278.081851
 20
-21.956084
 30
0.0
 11
269.952421
 21
-21.956084
 31
0.0
  0
ENDBLK
  5
7C6
100
AcDbEntity
  8
2
100
AcDbBlockEnd
  0
BLOCK
  5
7C7
100
AcDbEntity
  8
2
100
AcDbBlockBegin
  2
*D48
 70
     1
 10
0.0
 20
0.0
 30
0.0
  3
*D48
  1

  0
TEXT
  5
7C8
100
AcDbEntity
  8
2
370
    25
100
AcDbText
 10
306.355893
 20
8.137336
 30
0.0
 40
3.0
  1
12.5
 41
2.0
 72
     5
 11
317.155893
 21
8.137336
 31
0.0
100
AcDbText
  0
LINE
  5
7C9
100
AcDbEntity
  8
2
370
    25
100
AcDbLine
 10
306.105893
 20
15.153281
 30
0.0
 11
306.105893
 21
6.637336
 31
0.0
  0
LINE
  5
7CA
100
AcDbEntity
  8
2
370
    25
100
AcDbLine
 10
306.105893
 20
7.637336
 30
0.0
 11
308.037744
 21
7.119698
 31
0.0
  0
LINE
  5
7CB
100
AcDbEntity
  8
2
370
    25
100
AcDbLine
 10
306.105893
 20
7.637336
 30
0.0
 11
308.037744
 21
8.154974
 31
0.0
  0
LINE
  5
7CC
100
AcDbEntity
  8
2
370
    25
100
AcDbLine
 10
306.105893
 20
7.637336
 30
0.0
 11
318.605893
 21
7.637336
 31
0.0
  0
LINE
  5
7CD
100
AcDbEntity
  8
2
370
    25
100
AcDbLine
 10
318.605893
 20
7.637336
 30
0.0
 11
316.674041
 21
8.154974
 31
0.0
  0
LINE
  5
7CE
100
AcDbEntity
  8
2
370
    25
100
AcDbLine
 10
318.605893
 20
7.637336
 30
0.0
 11
316.674041
 21
7.119698
 31
0.0
  0
LINE
  5
7CF
100
AcDbEntity
  8
2
370
    25
100
AcDbLine
 10
318.605893
 20
23.543916
 30
0.0
 11
318.605893
 21
6.637336
 31
0.0
  0
ENDBLK
  5
7D0
100
AcDbEntity
  8
2
100
AcDbBlockEnd
  0
BLOCK
  5
7D1
100
AcDbEntity
  8
2
100
AcDbBlockBegin
  2
*D49
 70
     1
 10
0.0
 20
0.0
 30
0.0
  3
*D49
  1

  0
TEXT
  5
7D2
100
AcDbEntity
  8
2
370
    25
100
AcDbText
 10
288.105893
 20
8.137336
 30
0.0
 40
3.0
  1
30
 41
2.0
 72
     5
 11
292.905893
 21
8.137336
 31
0.0
100
AcDbText
  0
LINE
  5
7D3
100
AcDbEntity
  8
2
370
    25
100
AcDbLine
 10
276.105893
 20
18.155968
 30
0.0
 11
276.105893
 21
6.637336
 31
0.0
  0
LINE
  5
7D4
100
AcDbEntity
  8
2
370
    25
100
AcDbLine
 10
276.105893
 20
7.637336
 30
0.0
 11
278.037744
 21
7.119698
 31
0.0
  0
LINE
  5
7D5
100
AcDbEntity
  8
2
370
    25
100
AcDbLine
 10
276.105893
 20
7.637336
 30
0.0
 11
278.037744
 21
8.154974
 31
0.0
  0
LINE
  5
7D6
100
AcDbEntity
  8
2
370
    25
100
AcDbLine
 10
276.105893
 20
7.637336
 30
0.0
 11
306.105893
 21
7.637336
 31
0.0
  0
LINE
  5
7D7
100
AcDbEntity
  8
2
370
    25
100
AcDbLine
 10
306.105893
 20
7.637336
 30
0.0
 11
304.174041
 21
8.154974
 31
0.0
  0
LINE
  5
7D8
100
AcDbEntity
  8
2
370
    25
100
AcDbLine
 10
306.105893
 20
7.637336
 30
0.0
 11
304.174041
 21
7.119698
 31
0.0
  0
ENDBLK
  5
7D9
100
AcDbEntity
  8
2
100
AcDbBlockEnd
  0
BLOCK
  5
7DA
100
AcDbEntity
  8
2
100
AcDbBlockBegin
  2
*D50
 70
     1
 10
0.0
 20
0.0
 30
0.0
  3
*D50
  1

  0
TEXT
  5
7DB
100
AcDbEntity
  8
2
370
    25
100
AcDbText
 10
291.355893
 20
0.970115
 30
0.0
 40
3.0
  1
42.5
 41
2.0
 72
     5
 11
302.155893
 21
0.970115
 31
0.0
100
AcDbText
  0
LINE
  5
7DC
100
AcDbEntity
  8
2
370
    25
100
AcDbLine
 10
276.105893
 20
18.155968
 30
0.0
 11
276.105893
 21
-0.529885
 31
0.0
  0
LINE
  5
7DD
100
AcDbEntity
  8
2
370
    25
100
AcDbLine
 10
276.105893
 20
0.470115
 30
0.0
 11
278.037744
 21
-0.047523
 31
0.0
  0
LINE
  5
7DE
100
AcDbEntity
  8
2
370
    25
100
AcDbLine
 10
276.105893
 20
0.470115
 30
0.0
 11
278.037744
 21
0.987753
 31
0.0
  0
LINE
  5
7DF
100
AcDbEntity
  8
2
370
    25
100
AcDbLine
 10
276.105893
 20
0.470115
 30
0.0
 11
318.605893
 21
0.470115
 31
0.0
  0
LINE
  5
7E0
100
AcDbEntity
  8
2
370
    25
100
AcDbLine
 10
318.605893
 20
0.470115
 30
0.0
 11
316.674041
 21
0.987753
 31
0.0
  0
LINE
  5
7E1
100
AcDbEntity
  8
2
370
    25
100
AcDbLine
 10
318.605893
 20
0.470115
 30
0.0
 11
316.674041
 21
-0.047523
 31
0.0
  0
LINE
  5
7E2
100
AcDbEntity
  8
2
370
    25
100
AcDbLine
 10
318.605893
 20
23.543916
 30
0.0
 11
318.605893
 21
-0.529885
 31
0.0
  0
ENDBLK
  5
7E3
100
AcDbEntity
  8
2
100
AcDbBlockEnd
  0
BLOCK
  5
7E4
100
AcDbEntity
  8
2
100
AcDbBlockBegin
  2
*D51
 70
     1
 10
0.0
 20
0.0
 30
0.0
  3
*D51
  1

  0
TEXT
  5
7E5
100
AcDbEntity
  8
2
370
    25
100
AcDbText
 10
317.965765
 20
87.80393
 30
0.0
 40
3.0
  1
R6
 50
44.458449
 41
2.0
 72
     5
 11
321.391806
 21
91.165811
 31
0.0
100
AcDbText
  0
LINE
  5
7E6
100
AcDbEntity
  8
2
370
    25
100
AcDbLine
 10
312.605893
 20
81.843916
 30
0.0
 11
323.312271
 21
92.349794
 31
0.0
  0
LINE
  5
7E7
100
AcDbEntity
  8
2
370
    25
100
AcDbLine
 10
316.888444
 20
86.046267
 30
0.0
 11
318.629869
 21
87.029852
 31
0.0
  0
LINE
  5
7E8
100
AcDbEntity
  8
2
370
    25
100
AcDbLine
 10
316.888444
 20
86.046267
 30
0.0
 11
317.90477
 21
87.768789
 31
0.0
  0
ENDBLK
  5
7E9
100
AcDbEntity
  8
2
100
AcDbBlockEnd
  0
BLOCK
  5
7EA
100
AcDbEntity
  8
2
100
AcDbBlockBegin
  2
*D52
 70
     1
 10
0.0
 20
0.0
 30
0.0
  3
*D52
  1

  0
LINE
  5
7EB
100
AcDbEntity
  8
2
370
    25
100
AcDbLine
 10
296.805893
 20
69.443916
 30
0.0
 11
296.805893
 21
101.451724
 31
0.0
  0
LINE
  5
7EC
100
AcDbEntity
  8
2
370
    25
100
AcDbLine
 10
296.805893
 20
100.451724
 30
0.0
 11
294.874041
 21
100.969362
 31
0.0
  0
LINE
  5
7ED
100
AcDbEntity
  8
2
370
    25
100
AcDbLine
 10
296.805893
 20
100.451724
 30
0.0
 11
294.874041
 21
99.934086
 31
0.0
  0
LINE
  5
7EE
100
AcDbEntity
  8
2
370
    25
100
AcDbLine
 10
282.805893
 20
100.451724
 30
0.0
 11
299.105893
 21
100.451724
 31
0.0
  0
LINE
  5
7EF
100
AcDbEntity
  8
2
370
    25
100
AcDbLine
 10
299.105893
 20
67.643916
 30
0.0
 11
299.105893
 21
101.451724
 31
0.0
  0
CIRCLE
  5
7F0
100
AcDbEntity
  8
2
370
    25
100
AcDbCircle
 10
299.105893
 20
100.451724
 30
0.0
 40
0.5
  0
CIRCLE
  5
7F1
100
AcDbEntity
  8
2
370
    25
100
AcDbCircle
 10
299.105893
 20
100.451724
 30
0.0
 40
0.3
  0
ENDBLK
  5
7F2
100
AcDbEntity
  8
2
100
AcDbBlockEnd
  0
BLOCK
  5
7F3
100
AcDbEntity
  8
2
100
AcDbBlockBegin
  2
*D53
 70
     1
 10
0.0
 20
0.0
 30
0.0
  3
*D53
  1

  0
LINE
  5
7F4
100
AcDbEntity
  8
2
370
    25
100
AcDbLine
 10
299.105893
 20
67.643916
 30
0.0
 11
299.105893
 21
101.451724
 31
0.0
  0
LINE
  5
7F5
100
AcDbEntity
  8
2
370
    25
100
AcDbLine
 10
299.105893
 20
100.451724
 30
0.0
 11
315.405893
 21
100.451724
 31
0.0
  0
LINE
  5
7F6
100
AcDbEntity
  8
2
370
    25
100
AcDbLine
 10
301.405893
 20
100.451724
 30
0.0
 11
303.337744
 21
99.934086
 31
0.0
  0
LINE
  5
7F7
100
AcDbEntity
  8
2
370
    25
100
AcDbLine
 10
301.405893
 20
100.451724
 30
0.0
 11
303.337744
 21
100.969362
 31
0.0
  0
LINE
  5
7F8
100
AcDbEntity
  8
2
370
    25
100
AcDbLine
 10
301.405893
 20
69.443916
 30
0.0
 11
301.405893
 21
101.451724
 31
0.0
  0
CIRCLE
  5
7F9
100
AcDbEntity
  8
2
370
    25
100
AcDbCircle
 10
299.105893
 20
100.451724
 30
0.0
 40
0.5
  0
CIRCLE
  5
7FA
100
AcDbEntity
  8
2
370
    25
100
AcDbCircle
 10
299.105893
 20
100.451724
 30
0.0
 40
0.3
  0
ENDBLK
  5
7FB
100
AcDbEntity
  8
2
100
AcDbBlockEnd
  0
BLOCK
  5
7FC
100
AcDbEntity
  8
2
100
AcDbBlockBegin
  2
*D54
 70
     1
 10
0.0
 20
0.0
 30
0.0
  3
*D54
  1

  0
TEXT
  5
7FD
100
AcDbEntity
  8
2
370
    25
100
AcDbText
 10
-344.394107
 20
8.137336
 30
0.0
 40
3.0
  1
25
 41
2.0
 72
     5
 11
-339.594107
 21
8.137336
 31
0.0
100
AcDbText
  0
LINE
  5
7FE
100
AcDbEntity
  8
2
370
    25
100
AcDbLine
 10
-353.894107
 20
18.155968
 30
0.0
 11
-353.894107
 21
6.637336
 31
0.0
  0
LINE
  5
7FF
100
AcDbEntity
  8
2
370
    25
100
AcDbLine
 10
-353.894107
 20
7.637336
 30
0.0
 11
-351.962256
 21
7.119698
 31
0.0
  0
LINE
  5
800
100
AcDbEntity
  8
2
370
    25
100
AcDbLine
 10
-353.894107
 20
7.637336
 30
0.0
 11
-351.962256
 21
8.154974
 31
0.0
  0
LINE
  5
801
100
AcDbEntity
  8
2
370
    25
100
AcDbLine
 10
-353.894107
 20
7.637336
 30
0.0
 11
-328.894107
 21
7.637336
 31
0.0
  0
LINE
  5
802
100
AcDbEntity
  8
2
370
    25
100
AcDbLine
 10
-328.894107
 20
7.637336
 30
0.0
 11
-330.825959
 21
8.154974
 31
0.0
  0
LINE
  5
803
100
AcDbEntity
  8
2
370
    25
100
AcDbLine
 10
-328.894107
 20
7.637336
 30
0.0
 11
-330.825959
 21
7.119698
 31
0.0
  0
LINE
  5
804
100
AcDbEntity
  8
2
370
    25
100
AcDbLine
 10
-328.894107
 20
15.153281
 30
0.0
 11
-328.894107
 21
6.637336
 31
0.0
  0
ENDBLK
  5
805
100
AcDbEntity
  8
2
100
AcDbBlockEnd
  0
BLOCK
  5
806
100
AcDbEntity
  8
2
100
AcDbBlockBegin
  2
*D55
 70
     1
 10
0.0
 20
0.0
 30
0.0
  3
*D55
  1

  0
TEXT
  5
807
100
AcDbEntity
  8
2
370
    25
100
AcDbText
 10
-341.144107
 20
0.970115
 30
0.0
 40
3.0
  1
37.5
 41
2.0
 72
     5
 11
-330.344107
 21
0.970115
 31
0.0
100
AcDbText
  0
LINE
  5
808
100
AcDbEntity
  8
2
370
    25
100
AcDbLine
 10
-353.894107
 20
18.155968
 30
0.0
 11
-353.894107
 21
-0.529885
 31
0.0
  0
LINE
  5
809
100
AcDbEntity
  8
2
370
    25
100
AcDbLine
 10
-353.894107
 20
0.470115
 30
0.0
 11
-351.962256
 21
-0.047523
 31
0.0
  0
LINE
  5
80A
100
AcDbEntity
  8
2
370
    25
100
AcDbLine
 10
-353.894107
 20
0.470115
 30
0.0
 11
-351.962256
 21
0.987753
 31
0.0
  0
LINE
  5
80B
100
AcDbEntity
  8
2
370
    25
100
AcDbLine
 10
-353.894107
 20
0.470115
 30
0.0
 11
-316.394107
 21
0.470115
 31
0.0
  0
LINE
  5
80C
100
AcDbEntity
  8
2
370
    25
100
AcDbLine
 10
-316.394107
 20
0.470115
 30
0.0
 11
-318.325959
 21
0.987753
 31
0.0
  0
LINE
  5
80D
100
AcDbEntity
  8
2
370
    25
100
AcDbLine
 10
-316.394107
 20
0.470115
 30
0.0
 11
-318.325959
 21
-0.047523
 31
0.0
  0
LINE
  5
80E
100
AcDbEntity
  8
2
370
    25
100
AcDbLine
 10
-316.394107
 20
23.543916
 30
0.0
 11
-316.394107
 21
-0.529885
 31
0.0
  0
ENDBLK
  5
80F
100
AcDbEntity
  8
2
100
AcDbBlockEnd
  0
BLOCK
  5
810
100
AcDbEntity
  8
2
100
AcDbBlockBegin
  2
*D56
 70
     1
 10
0.0
 20
0.0
 30
0.0
  3
*D56
  1

  0
TEXT
  5
811
100
AcDbEntity
  8
2
370
    25
100
AcDbText
 10
-130.394107
 20
8.137336
 30
0.0
 40
3.0
  1
27
 41
2.0
 72
     5
 11
-125.594107
 21
8.137336
 31
0.0
100
AcDbText
  0
LINE
  5
812
100
AcDbEntity
  8
2
370
    25
100
AcDbLine
 10
-140.894107
 20
18.155968
 30
0.0
 11
-140.894107
 21
6.637336
 31
0.0
  0
LINE
  5
813
100
AcDbEntity
  8
2
370
    25
100
AcDbLine
 10
-140.894107
 20
7.637336
 30
0.0
 11
-138.962256
 21
7.119698
 31
0.0
  0
LINE
  5
814
100
AcDbEntity
  8
2
370
    25
100
AcDbLine
 10
-140.894107
 20
7.637336
 30
0.0
 11
-138.962256
 21
8.154974
 31
0.0
  0
LINE
  5
815
100
AcDbEntity
  8
2
370
    25
100
AcDbLine
 10
-140.894107
 20
7.637336
 30
0.0
 11
-113.894107
 21
7.637336
 31
0.0
  0
LINE
  5
816
100
AcDbEntity
  8
2
370
    25
100
AcDbLine
 10
-113.894107
 20
7.637336
 30
0.0
 11
-115.825959
 21
8.154974
 31
0.0
  0
LINE
  5
817
100
AcDbEntity
  8
2
370
    25
100
AcDbLine
 10
-113.894107
 20
7.637336
 30
0.0
 11
-115.825959
 21
7.119698
 31
0.0
  0
LINE
  5
818
100
AcDbEntity
  8
2
370
    25
100
AcDbLine
 10
-113.894107
 20
15.153281
 30
0.0
 11
-113.894107
 21
6.637336
 31
0.0
  0
ENDBLK
  5
819
100
AcDbEntity
  8
2
100
AcDbBlockEnd
  0
BLOCK
  5
81A
100
AcDbEntity
  8
2
100
AcDbBlockBegin
  2
*D57
 70
     1
 10
0.0
 20
0.0
 30
0.0
  3
*D57
  1

  0
TEXT
  5
81B
100
AcDbEntity
  8
2
370
    25
100
AcDbText
 10
-127.144107
 20
0.970115
 30
0.0
 40
3.0
  1
39.5
 41
2.0
 72
     5
 11
-116.344107
 21
0.970115
 31
0.0
100
AcDbText
  0
LINE
  5
81C
100
AcDbEntity
  8
2
370
    25
100
AcDbLine
 10
-140.894107
 20
18.155968
 30
0.0
 11
-140.894107
 21
-0.529885
 31
0.0
  0
LINE
  5
81D
100
AcDbEntity
  8
2
370
    25
100
AcDbLine
 10
-140.894107
 20
0.470115
 30
0.0
 11
-138.962256
 21
-0.047523
 31
0.0
  0
LINE
  5
81E
100
AcDbEntity
  8
2
370
    25
100
AcDbLine
 10
-140.894107
 20
0.470115
 30
0.0
 11
-138.962256
 21
0.987753
 31
0.0
  0
LINE
  5
81F
100
AcDbEntity
  8
2
370
    25
100
AcDbLine
 10
-140.894107
 20
0.470115
 30
0.0
 11
-101.394107
 21
0.470115
 31
0.0
  0
LINE
  5
820
100
AcDbEntity
  8
2
370
    25
100
AcDbLine
 10
-101.394107
 20
0.470115
 30
0.0
 11
-103.325959
 21
0.987753
 31
0.0
  0
LINE
  5
821
100
AcDbEntity
  8
2
370
    25
100
AcDbLine
 10
-101.394107
 20
0.470115
 30
0.0
 11
-103.325959
 21
-0.047523
 31
0.0
  0
LINE
  5
822
100
AcDbEntity
  8
2
370
    25
100
AcDbLine
 10
-101.394107
 20
23.543916
 30
0.0
 11
-101.394107
 21
-0.529885
 31
0.0
  0
ENDBLK
  5
823
100
AcDbEntity
  8
2
100
AcDbBlockEnd
  0
BLOCK
  5
824
100
AcDbEntity
  8
2
100
AcDbBlockBegin
  2
*D58
 70
     1
 10
0.0
 20
0.0
 30
0.0
  3
*D58
  1

  0
TEXT
  5
825
100
AcDbEntity
  8
2
370
    25
100
AcDbText
 10
75.855893
 20
8.137336
 30
0.0
 40
3.0
  1
28.5
 41
2.0
 72
     5
 11
86.655893
 21
8.137336
 31
0.0
100
AcDbText
  0
LINE
  5
826
100
AcDbEntity
  8
2
370
    25
100
AcDbLine
 10
67.605893
 20
18.155968
 30
0.0
 11
67.605893
 21
6.637336
 31
0.0
  0
LINE
  5
827
100
AcDbEntity
  8
2
370
    25
100
AcDbLine
 10
67.605893
 20
7.637336
 30
0.0
 11
69.537744
 21
7.119698
 31
0.0
  0
LINE
  5
828
100
AcDbEntity
  8
2
370
    25
100
AcDbLine
 10
67.605893
 20
7.637336
 30
0.0
 11
69.537744
 21
8.154974
 31
0.0
  0
LINE
  5
829
100
AcDbEntity
  8
2
370
    25
100
AcDbLine
 10
67.605893
 20
7.637336
 30
0.0
 11
96.105893
 21
7.637336
 31
0.0
  0
LINE
  5
82A
100
AcDbEntity
  8
2
370
    25
100
AcDbLine
 10
96.105893
 20
7.637336
 30
0.0
 11
94.174041
 21
8.154974
 31
0.0
  0
LINE
  5
82B
100
AcDbEntity
  8
2
370
    25
100
AcDbLine
 10
96.105893
 20
7.637336
 30
0.0
 11
94.174041
 21
7.119698
 31
0.0
  0
LINE
  5
82C
100
AcDbEntity
  8
2
370
    25
100
AcDbLine
 10
96.105893
 20
15.153281
 30
0.0
 11
96.105893
 21
6.637336
 31
0.0
  0
ENDBLK
  5
82D
100
AcDbEntity
  8
2
100
AcDbBlockEnd
  0
BLOCK
  5
82E
100
AcDbEntity
  8
2
100
AcDbBlockBegin
  2
*D59
 70
     1
 10
0.0
 20
0.0
 30
0.0
  3
*D59
  1

  0
TEXT
  5
82F
100
AcDbEntity
  8
2
370
    25
100
AcDbText
 10
85.105893
 20
0.970115
 30
0.0
 40
3.0
  1
41
 41
2.0
 72
     5
 11
89.905893
 21
0.970115
 31
0.0
100
AcDbText
  0
LINE
  5
830
100
AcDbEntity
  8
2
370
    25
100
AcDbLine
 10
67.605893
 20
18.155968
 30
0.0
 11
67.605893
 21
-0.529885
 31
0.0
  0
LINE
  5
831
100
AcDbEntity
  8
2
370
    25
100
AcDbLine
 10
67.605893
 20
0.470115
 30
0.0
 11
69.537744
 21
-0.047523
 31
0.0
  0
LINE
  5
832
100
AcDbEntity
  8
2
370
    25
100
AcDbLine
 10
67.605893
 20
0.470115
 30
0.0
 11
69.537744
 21
0.987753
 31
0.0
  0
LINE
  5
833
100
AcDbEntity
  8
2
370
    25
100
AcDbLine
 10
67.605893
 20
0.470115
 30
0.0
 11
108.605893
 21
0.470115
 31
0.0
  0
LINE
  5
834
100
AcDbEntity
  8
2
370
    25
100
AcDbLine
 10
108.605893
 20
0.470115
 30
0.0
 11
106.674041
 21
0.987753
 31
0.0
  0
LINE
  5
835
100
AcDbEntity
  8
2
370
    25
100
AcDbLine
 10
108.605893
 20
0.470115
 30
0.0
 11
106.674041
 21
-0.047523
 31
0.0
  0
LINE
  5
836
100
AcDbEntity
  8
2
370
    25
100
AcDbLine
 10
108.605893
 20
23.543916
 30
0.0
 11
108.605893
 21
-0.529885
 31
0.0
  0
ENDBLK
  5
837
100
AcDbEntity
  8
2
100
AcDbBlockEnd
  0
ENDSEC
  0
SECTION
  2
ENTITIES
  0
LINE
  5
61
100
AcDbEntity
  8
1
370
    25
  6
CENTER
100
AcDbLine
 10
-113.894107
 20
-20.06469
 30
0.0
 11
-113.894107
 21
-38.843197
 31
0.0
  0
LINE
  5
62
100
AcDbEntity
  8
1
370
    50
100
AcDbLine
 10
-113.894107
 20
-22.956084
 30
0.0
 11
-125.894107
 21
-22.956084
 31
0.0
  0
LINE
  5
63
100
AcDbEntity
  8
1
370
    50
100
AcDbLine
 10
-124.894107
 20
-24.856084
 30
0.0
 11
-124.894107
 21
-35.556084
 31
0.0
  0
LINE
  5
64
100
AcDbEntity
  8
1
370
    50
100
AcDbLine
 10
-125.894107
 20
-24.856084
 30
0.0
 11
-125.894107
 21
-35.556084
 31
0.0
  0
LINE
  5
65
100
AcDbEntity
  8
1
370
    50
100
AcDbLine
 10
-101.894107
 20
-32.056084
 30
0.0
 11
-101.894107
 21
-35.556084
 31
0.0
  0
ARC
  5
66
100
AcDbEntity
  8
1
370
    50
100
AcDbCircle
 10
-124.894107
 20
-35.556084
 30
0.0
 40
1.0
100
AcDbArc
 50
180.0
 51
270.0
  0
ARC
  5
67
100
AcDbEntity
  8
1
370
    50
100
AcDbCircle
 10
-102.894107
 20
-35.556084
 30
0.0
 40
1.0
100
AcDbArc
 50
270.0
 51
360.0
  0
LINE
  5
68
100
AcDbEntity
  8
1
370
    50
100
AcDbLine
 10
-124.694107
 20
-24.856084
 30
0.0
 11
-124.694107
 21
-36.556084
 31
0.0
  0
LINE
  5
69
100
AcDbEntity
  8
1
370
    50
100
AcDbLine
 10
-101.894107
 20
-32.056084
 30
0.0
 11
-102.894107
 21
-32.056084
 31
0.0
  0
LINE
  5
6A
100
AcDbEntity
  8
1
370
    50
100
AcDbLine
 10
-113.894107
 20
-22.956084
 30
0.0
 11
-101.894107
 21
-22.956084
 31
0.0
  0
LINE
  5
6B
100
AcDbEntity
  8
1
370
    50
100
AcDbLine
 10
-103.094107
 20
-24.856084
 30
0.0
 11
-103.094107
 21
-36.556084
 31
0.0
  0
LINE
  5
6C
100
AcDbEntity
  8
1
370
    50
100
AcDbLine
 10
-124.894107
 20
-24.856084
 30
0.0
 11
-125.894107
 21
-24.856084
 31
0.0
  0
LINE
  5
6D
100
AcDbEntity
  8
1
370
    50
100
AcDbLine
 10
-113.544102
 20
50.443909
 30
0.0
 11
-114.244102
 21
50.443909
 31
0.0
  0
LINE
  5
6E
100
AcDbEntity
  8
1
370
    50
100
AcDbLine
 10
-113.544102
 20
55.443909
 30
0.0
 11
-114.244102
 21
55.443909
 31
0.0
  0
LINE
  5
6F
100
AcDbEntity
  8
1
370
    50
100
AcDbLine
 10
-116.394102
 20
52.593909
 30
0.0
 11
-116.394102
 21
53.293909
 31
0.0
  0
LINE
  5
70
100
AcDbEntity
  8
1
370
    50
100
AcDbLine
 10
-111.394102
 20
52.593909
 30
0.0
 11
-111.394102
 21
53.293909
 31
0.0
  0
LINE
  5
71
100
AcDbEntity
  8
1
370
    50
100
AcDbLine
 10
-114.544102
 20
50.743909
 30
0.0
 11
-114.544102
 21
51.993909
 31
0.0
  0
LINE
  5
72
100
AcDbEntity
  8
1
370
    50
100
AcDbLine
 10
-114.544102
 20
53.893909
 30
0.0
 11
-114.544102
 21
55.143909
 31
0.0
  0
LINE
  5
73
100
AcDbEntity
  8
1
370
    50
100
AcDbLine
 10
-111.694102
 20
53.593909
 30
0.0
 11
-112.944102
 21
53.593909
 31
0.0
  0
LINE
  5
74
100
AcDbEntity
  8
1
370
    50
100
AcDbLine
 10
-114.844102
 20
53.593909
 30
0.0
 11
-116.094102
 21
53.593909
 31
0.0
  0
LINE
  5
75
100
AcDbEntity
  8
1
370
    50
100
AcDbLine
 10
-111.694102
 20
52.293909
 30
0.0
 11
-112.944102
 21
52.293909
 31
0.0
  0
LINE
  5
76
100
AcDbEntity
  8
1
370
    50
100
AcDbLine
 10
-114.844102
 20
52.293909
 30
0.0
 11
-116.094102
 21
52.293909
 31
0.0
  0
LINE
  5
77
100
AcDbEntity
  8
1
370
    50
100
AcDbLine
 10
-113.244102
 20
50.743909
 30
0.0
 11
-113.244102
 21
51.993909
 31
0.0
  0
LINE
  5
78
100
AcDbEntity
  8
1
370
    50
100
AcDbLine
 10
-113.244102
 20
53.893909
 30
0.0
 11
-113.244102
 21
55.143909
 31
0.0
  0
ARC
  5
79
100
AcDbEntity
  8
1
370
    50
100
AcDbCircle
 10
-114.844102
 20
51.993909
 30
0.0
 40
0.3
100
AcDbArc
 50
0.0
 51
90.0
  0
ARC
  5
7A
100
AcDbEntity
  8
1
370
    50
100
AcDbCircle
 10
-114.844102
 20
53.893909
 30
0.0
 40
0.3
100
AcDbArc
 50
270.0
 51
360.0
  0
ARC
  5
7B
100
AcDbEntity
  8
1
370
    50
100
AcDbCircle
 10
-112.944102
 20
51.993909
 30
0.0
 40
0.3
100
AcDbArc
 50
90.0
 51
180.0
  0
ARC
  5
7C
100
AcDbEntity
  8
1
370
    50
100
AcDbCircle
 10
-112.944102
 20
53.893909
 30
0.0
 40
0.3
100
AcDbArc
 50
180.0
 51
270.0
  0
ARC
  5
7D
100
AcDbEntity
  8
1
370
    50
100
AcDbCircle
 10
-114.244102
 20
50.743909
 30
0.0
 40
0.3
100
AcDbArc
 50
180.0
 51
270.0
  0
ARC
  5
7E
100
AcDbEntity
  8
1
370
    50
100
AcDbCircle
 10
-116.094102
 20
52.593909
 30
0.0
 40
0.3
100
AcDbArc
 50
180.0
 51
270.0
  0
ARC
  5
7F
100
AcDbEntity
  8
1
370
    50
100
AcDbCircle
 10
-116.094102
 20
53.293909
 30
0.0
 40
0.3
100
AcDbArc
 50
90.0
 51
180.0
  0
ARC
  5
80
100
AcDbEntity
  8
1
370
    50
100
AcDbCircle
 10
-114.244102
 20
55.143909
 30
0.0
 40
0.3
100
AcDbArc
 50
90.0
 51
180.0
  0
ARC
  5
81
100
AcDbEntity
  8
1
370
    50
100
AcDbCircle
 10
-113.544102
 20
55.143909
 30
0.0
 40
0.3
100
AcDbArc
 50
0.0
 51
90.0
  0
ARC
  5
82
100
AcDbEntity
  8
1
370
    50
100
AcDbCircle
 10
-111.694102
 20
53.293909
 30
0.0
 40
0.3
100
AcDbArc
 50
0.0
 51
90.0
  0
ARC
  5
83
100
AcDbEntity
  8
1
370
    50
100
AcDbCircle
 10
-111.694102
 20
52.593909
 30
0.0
 40
0.3
100
AcDbArc
 50
270.0
 51
0.0
  0
ARC
  5
84
100
AcDbEntity
  8
1
370
    50
100
AcDbCircle
 10
-113.544102
 20
50.743909
 30
0.0
 40
0.3
100
AcDbArc
 50
270.0
 51
360.0
  0
LINE
  5
85
100
AcDbEntity
  8
1
370
    50
100
AcDbLine
 10
-124.894115
 20
-33.756084
 30
0.0
 11
-124.694107
 21
-33.756084
 31
0.0
  0
LINE
  5
86
100
AcDbEntity
  8
1
370
    50
100
AcDbLine
 10
-124.894115
 20
-33.756084
 30
0.0
 11
-124.894115
 21
-35.356084
 31
0.0
  0
LINE
  5
87
100
AcDbEntity
  8
1
370
    50
100
AcDbLine
 10
-102.894115
 20
-32.056084
 30
0.0
 11
-102.894115
 21
-35.556084
 31
0.0
  0
LINE
  5
88
100
AcDbEntity
  8
1
370
    50
100
AcDbLine
 10
-126.994107
 20
56.443916
 30
0.0
 11
-120.894107
 21
56.443916
 31
0.0
  0
LINE
  5
89
100
AcDbEntity
  8
1
370
    50
100
AcDbLine
 10
-127.994107
 20
52.943916
 30
0.0
 11
-127.994107
 21
55.443916
 31
0.0
  0
ARC
  5
8A
100
AcDbEntity
  8
1
370
    50
100
AcDbCircle
 10
-126.994107
 20
55.443916
 30
0.0
 40
1.0
100
AcDbArc
 50
90.0
 51
180.0
  0
LINE
  5
8B
100
AcDbEntity
  8
1
370
    50
100
AcDbLine
 10
-120.894107
 20
67.143916
 30
0.0
 11
-120.894107
 21
38.743916
 31
0.0
  0
ARC
  5
8C
100
AcDbEntity
  8
1
370
    50
100
AcDbCircle
 10
-118.894107
 20
67.143916
 30
0.0
 40
2.0
100
AcDbArc
 50
115.841933
 51
180.0
  0
LINE
  5
8D
100
AcDbEntity
  8
1
370
    50
100
AcDbLine
 10
-107.094107
 20
52.943916
 30
0.0
 11
-107.094107
 21
67.143916
 31
0.0
  0
ARC
  5
8E
100
AcDbEntity
  8
1
370
    50
100
AcDbCircle
 10
-109.094107
 20
67.143916
 30
0.0
 40
2.0
100
AcDbArc
 50
0.0
 51
64.145352
  0
LINE
  5
8F
100
AcDbEntity
  8
1
370
    50
100
AcDbLine
 10
-127.994107
 20
-22.956084
 30
0.0
 11
-127.994107
 21
-23.056084
 31
0.0
  0
LINE
  5
90
100
AcDbEntity
  8
1
370
    50
100
AcDbLine
 10
-127.494107
 20
-21.956084
 30
0.0
 11
-121.203931
 21
-21.956084
 31
0.0
  0
LINE
  5
91
100
AcDbEntity
  8
1
370
    50
100
AcDbLine
 10
-133.394107
 20
-23.056084
 30
0.0
 11
-127.994107
 21
-23.056084
 31
0.0
  0
LINE
  5
92
100
AcDbEntity
  8
1
370
    50
100
AcDbLine
 10
-132.876576
 20
-24.556084
 30
0.0
 11
-125.894107
 21
-24.556084
 31
0.0
  0
LINE
  5
93
100
AcDbEntity
  8
1
370
    50
100
AcDbLine
 10
-133.394107
 20
-23.056084
 30
0.0
 11
-133.3765
 21
-24.06481
 31
0.0
  0
ARC
  5
94
100
AcDbEntity
  8
1
370
    50
100
AcDbCircle
 10
-132.876576
 20
-24.056084
 30
0.0
 40
0.5
100
AcDbArc
 50
181.0
 51
270.0
  0
LINE
  5
95
100
AcDbEntity
  8
1
370
    50
100
AcDbLine
 10
-139.454107
 20
87.843916
 30
0.0
 11
-107.394107
 21
87.843916
 31
0.0
  0
ARC
  5
96
100
AcDbEntity
  8
1
370
    50
100
AcDbCircle
 10
-107.394107
 20
81.843916
 30
0.0
 40
6.0
100
AcDbArc
 50
0.0
 51
90.0
  0
LINE
  5
97
100
AcDbEntity
  8
1
370
    50
100
AcDbLine
 10
-130.694107
 20
52.943916
 30
0.0
 11
-130.694107
 21
56.093916
 31
0.0
  0
LINE
  5
98
100
AcDbEntity
  8
1
370
    50
100
AcDbLine
 10
-122.494107
 20
68.943916
 30
0.0
 11
-108.194107
 21
68.943916
 31
0.0
  0
LINE
  5
99
100
AcDbEntity
  8
1
370
    50
100
AcDbLine
 10
-124.494107
 20
57.093916
 30
0.0
 11
-124.494107
 21
66.943916
 31
0.0
  0
LINE
  5
9A
100
AcDbEntity
  8
1
370
    50
100
AcDbLine
 10
-130.194107
 20
56.593916
 30
0.0
 11
-124.994107
 21
56.593916
 31
0.0
  0
ARC
  5
9B
100
AcDbEntity
  8
1
370
    50
100
AcDbCircle
 10
-124.994107
 20
57.093916
 30
0.0
 40
0.5
100
AcDbArc
 50
270.0
 51
360.0
  0
ARC
  5
9C
100
AcDbEntity
  8
1
370
    50
100
AcDbCircle
 10
-130.194107
 20
56.093916
 30
0.0
 40
0.5
100
AcDbArc
 50
90.0
 51
180.0
  0
LINE
  5
9D
100
AcDbEntity
  8
1
370
    25
  6
CENTER
100
AcDbLine
 10
-143.071548
 20
52.943916
 30
0.0
 11
-97.896348
 21
52.943916
 31
0.0
  0
ARC
  5
9E
100
AcDbEntity
  8
1
370
    50
100
AcDbCircle
 10
-122.494107
 20
66.943916
 30
0.0
 40
2.0
100
AcDbArc
 50
90.0
 51
180.0
  0
ARC
  5
9F
100
AcDbEntity
  8
1
370
    50
100
AcDbCircle
 10
-108.194107
 20
66.943916
 30
0.0
 40
2.0
100
AcDbArc
 50
0.0
 51
90.0
  0
LINE
  5
A0
100
AcDbEntity
  8
1
370
    50
100
AcDbLine
 10
-140.894107
 20
52.943916
 30
0.0
 11
-140.894107
 21
87.231864
 31
0.0
  0
LINE
  5
A1
100
AcDbEntity
  8
1
370
    50
100
AcDbLine
 10
-101.394107
 20
52.943916
 30
0.0
 11
-101.394107
 21
81.843916
 31
0.0
  0
LINE
  5
A2
100
AcDbEntity
  8
1
370
    50
100
AcDbLine
 10
-106.194107
 20
52.943916
 30
0.0
 11
-106.194107
 21
66.943916
 31
0.0
  0
LINE
  5
A3
100
AcDbEntity
  8
1
370
    25
  6
CENTER
100
AcDbLine
 10
-119.394107
 20
81.443916
 30
0.0
 11
-108.394107
 21
81.443916
 31
0.0
  0
LINE
  5
A4
100
AcDbEntity
  8
1
370
    25
  6
CENTER
100
AcDbLine
 10
-113.894107
 20
89.662589
 30
0.0
 11
-113.894107
 21
15.653281
 31
0.0
  0
LINE
  5
A5
100
AcDbEntity
  8
1
370
    50
100
AcDbLine
 10
-101.394107
 20
-21.956084
 30
0.0
 11
-138.418149
 21
-21.956084
 31
0.0
  0
LINE
  5
A6
100
AcDbEntity
  8
1
370
    50
100
AcDbLine
 10
-101.394107
 20
-22.956084
 30
0.0
 11
-101.394107
 21
-21.956084
 31
0.0
  0
LINE
  5
A7
100
AcDbEntity
  8
1
370
    50
100
AcDbLine
 10
-139.987834
 20
-24.956081
 30
0.0
 11
-140.894141
 21
-24.533463
 31
0.0
  0
LINE
  5
A8
100
AcDbEntity
  8
1
370
    50
100
AcDbLine
 10
-140.230765
 20
-23.110847
 30
0.0
 11
-140.894141
 21
-24.533463
 31
0.0
  0
LINE
  5
A9
100
AcDbEntity
  8
1
370
    50
100
AcDbLine
 10
-101.394107
 20
-22.956084
 30
0.0
 11
-138.418149
 21
-22.956084
 31
0.0
  0
LINE
  5
AA
100
AcDbEntity
  8
1
370
    50
100
AcDbLine
 10
-139.324457
 20
-23.533466
 30
0.0
 11
-139.987834
 21
-24.956081
 31
0.0
  0
ARC
  5
AB
100
AcDbEntity
  8
1
370
    50
100
AcDbCircle
 10
-138.418149
 20
-23.956084
 30
0.0
 40
2.0
100
AcDbArc
 50
90.0
 51
155.0
  0
ARC
  5
AC
100
AcDbEntity
  8
1
370
    50
100
AcDbCircle
 10
-138.418149
 20
-23.956084
 30
0.0
 40
1.0
100
AcDbArc
 50
90.0
 51
155.0
  0
ARC
  5
AD
100
AcDbEntity
  8
1
370
    50
100
AcDbCircle
 10
-139.454107
 20
85.843916
 30
0.0
 40
2.0
100
AcDbArc
 50
90.0
 51
136.05448
  0
LINE
  5
AE
100
AcDbEntity
  8
1
370
    25
100
AcDbLine
 10
-114.394107
 20
83.643916
 30
0.0
 11
-113.394107
 21
83.643916
 31
0.0
  0
ARC
  5
AF
100
AcDbEntity
  8
1
370
    25
100
AcDbCircle
 10
-111.694107
 20
83.643916
 30
0.0
 40
1.7
100
AcDbArc
 50
180.0
 51
270.0
  0
ARC
  5
B0
100
AcDbEntity
  8
1
370
    25
100
AcDbCircle
 10
-111.694107
 20
79.243916
 30
0.0
 40
1.7
100
AcDbArc
 50
90.0
 51
180.0
  0
LINE
  5
B1
100
AcDbEntity
  8
1
370
    25
100
AcDbLine
 10
-111.694107
 20
80.943916
 30
0.0
 11
-111.694107
 21
81.943916
 31
0.0
  0
ARC
  5
B2
100
AcDbEntity
  8
1
370
    25
100
AcDbCircle
 10
-116.094107
 20
83.643916
 30
0.0
 40
1.7
100
AcDbArc
 50
270.0
 51
360.0
  0
LINE
  5
B3
100
AcDbEntity
  8
1
370
    25
100
AcDbLine
 10
-116.094107
 20
81.943916
 30
0.0
 11
-116.094107
 21
80.943916
 31
0.0
  0
LINE
  5
B4
100
AcDbEntity
  8
1
370
    25
100
AcDbLine
 10
-113.394107
 20
79.243916
 30
0.0
 11
-114.394107
 21
79.243916
 31
0.0
  0
ARC
  5
B5
100
AcDbEntity
  8
1
370
    25
100
AcDbCircle
 10
-116.094107
 20
79.243916
 30
0.0
 40
1.7
100
AcDbArc
 50
0.0
 51
90.0
  0
CIRCLE
  5
B6
100
AcDbEntity
  8
1
370
    50
100
AcDbCircle
 10
-113.894107
 20
81.443916
 30
0.0
 40
3.5
  0
ARC
  5
B7
100
AcDbEntity
  8
1
370
    50
100
AcDbCircle
 10
-113.894109
 20
52.943916
 30
0.0
 40
4.1
100
AcDbArc
 50
0.0
 51
180.0
  0
LINE
  5
B8
100
AcDbEntity
  8
1
370
    50
100
AcDbLine
 10
-126.994107
 20
49.443916
 30
0.0
 11
-120.894107
 21
49.443916
 31
0.0
  0
LINE
  5
B9
100
AcDbEntity
  8
1
370
    50
100
AcDbLine
 10
-127.994107
 20
52.943916
 30
0.0
 11
-127.994107
 21
50.443916
 31
0.0
  0
ARC
  5
BA
100
AcDbEntity
  8
1
370
    50
100
AcDbCircle
 10
-126.994107
 20
50.443916
 30
0.0
 40
1.0
100
AcDbArc
 50
180.0
 51
270.0
  0
ARC
  5
BB
100
AcDbEntity
  8
1
370
    50
100
AcDbCircle
 10
-118.894107
 20
38.743916
 30
0.0
 40
2.0
100
AcDbArc
 50
180.0
 51
244.158067
  0
LINE
  5
BC
100
AcDbEntity
  8
1
370
    50
100
AcDbLine
 10
-107.094107
 20
52.943916
 30
0.0
 11
-107.094107
 21
38.743916
 31
0.0
  0
ARC
  5
BD
100
AcDbEntity
  8
1
370
    50
100
AcDbCircle
 10
-109.094107
 20
38.743916
 30
0.0
 40
2.0
100
AcDbArc
 50
295.854648
 51
360.0
  0
LINE
  5
BE
100
AcDbEntity
  8
1
370
    50
100
AcDbLine
 10
-139.454107
 20
18.043916
 30
0.0
 11
-107.394107
 21
18.043916
 31
0.0
  0
ARC
  5
BF
100
AcDbEntity
  8
1
370
    50
100
AcDbCircle
 10
-107.394107
 20
24.043916
 30
0.0
 40
6.0
100
AcDbArc
 50
270.0
 51
360.0
  0
LINE
  5
C0
100
AcDbEntity
  8
1
370
    50
100
AcDbLine
 10
-130.694107
 20
52.943916
 30
0.0
 11
-130.694107
 21
49.793916
 31
0.0
  0
LINE
  5
C1
100
AcDbEntity
  8
1
370
    50
100
AcDbLine
 10
-122.494107
 20
36.943916
 30
0.0
 11
-108.194107
 21
36.943916
 31
0.0
  0
LINE
  5
C2
100
AcDbEntity
  8
1
370
    50
100
AcDbLine
 10
-124.494107
 20
48.793916
 30
0.0
 11
-124.494107
 21
38.943916
 31
0.0
  0
LINE
  5
C3
100
AcDbEntity
  8
1
370
    50
100
AcDbLine
 10
-130.194107
 20
49.293916
 30
0.0
 11
-124.994107
 21
49.293916
 31
0.0
  0
ARC
  5
C4
100
AcDbEntity
  8
1
370
    50
100
AcDbCircle
 10
-124.994107
 20
48.793916
 30
0.0
 40
0.5
100
AcDbArc
 50
0.0
 51
90.0
  0
ARC
  5
C5
100
AcDbEntity
  8
1
370
    50
100
AcDbCircle
 10
-130.194107
 20
49.793916
 30
0.0
 40
0.5
100
AcDbArc
 50
180.0
 51
270.0
  0
ARC
  5
C6
100
AcDbEntity
  8
1
370
    50
100
AcDbCircle
 10
-122.494107
 20
38.943916
 30
0.0
 40
2.0
100
AcDbArc
 50
180.0
 51
270.0
  0
ARC
  5
C7
100
AcDbEntity
  8
1
370
    50
100
AcDbCircle
 10
-108.194107
 20
38.943916
 30
0.0
 40
2.0
100
AcDbArc
 50
270.0
 51
360.0
  0
LINE
  5
C8
100
AcDbEntity
  8
1
370
    50
100
AcDbLine
 10
-140.894107
 20
52.943916
 30
0.0
 11
-140.894107
 21
18.655968
 31
0.0
  0
LINE
  5
C9
100
AcDbEntity
  8
1
370
    50
100
AcDbLine
 10
-101.394107
 20
52.943916
 30
0.0
 11
-101.394107
 21
24.043916
 31
0.0
  0
LINE
  5
CA
100
AcDbEntity
  8
1
370
    50
100
AcDbLine
 10
-106.194107
 20
52.943916
 30
0.0
 11
-106.194107
 21
38.943916
 31
0.0
  0
LINE
  5
CB
100
AcDbEntity
  8
1
370
    25
  6
CENTER
100
AcDbLine
 10
-119.394107
 20
24.443916
 30
0.0
 11
-108.394107
 21
24.443916
 31
0.0
  0
ARC
  5
CC
100
AcDbEntity
  8
1
370
    50
100
AcDbCircle
 10
-139.454107
 20
20.043916
 30
0.0
 40
2.0
100
AcDbArc
 50
223.94552
 51
270.0
  0
LINE
  5
CD
100
AcDbEntity
  8
1
370
    25
100
AcDbLine
 10
-114.394107
 20
22.243916
 30
0.0
 11
-113.394107
 21
22.243916
 31
0.0
  0
ARC
  5
CE
100
AcDbEntity
  8
1
370
    25
100
AcDbCircle
 10
-111.694107
 20
22.243916
 30
0.0
 40
1.7
100
AcDbArc
 50
90.0
 51
180.0
  0
ARC
  5
CF
100
AcDbEntity
  8
1
370
    25
100
AcDbCircle
 10
-111.694107
 20
26.643916
 30
0.0
 40
1.7
100
AcDbArc
 50
180.0
 51
270.0
  0
LINE
  5
D0
100
AcDbEntity
  8
1
370
    25
100
AcDbLine
 10
-111.694107
 20
24.943916
 30
0.0
 11
-111.694107
 21
23.943916
 31
0.0
  0
ARC
  5
D1
100
AcDbEntity
  8
1
370
    25
100
AcDbCircle
 10
-116.094107
 20
22.243916
 30
0.0
 40
1.7
100
AcDbArc
 50
0.0
 51
90.0
  0
LINE
  5
D2
100
AcDbEntity
  8
1
370
    25
100
AcDbLine
 10
-116.094107
 20
23.943916
 30
0.0
 11
-116.094107
 21
24.943916
 31
0.0
  0
LINE
  5
D3
100
AcDbEntity
  8
1
370
    25
100
AcDbLine
 10
-113.394107
 20
26.643916
 30
0.0
 11
-114.394107
 21
26.643916
 31
0.0
  0
ARC
  5
D4
100
AcDbEntity
  8
1
370
    25
100
AcDbCircle
 10
-116.094107
 20
26.643916
 30
0.0
 40
1.7
100
AcDbArc
 50
270.0
 51
360.0
  0
CIRCLE
  5
D5
100
AcDbEntity
  8
1
370
    50
100
AcDbCircle
 10
-113.894107
 20
24.443916
 30
0.0
 40
3.5
  0
ARC
  5
D6
100
AcDbEntity
  8
1
370
    50
100
AcDbCircle
 10
-113.894109
 20
52.943916
 30
0.0
 40
4.1
100
AcDbArc
 50
180.0
 51
360.0
  0
LINE
  5
D7
100
AcDbEntity
  8
1
370
    50
100
AcDbLine
 10
-124.894107
 20
-35.556084
 30
0.0
 11
-124.694107
 21
-35.556084
 31
0.0
  0
LINE
  5
D8
100
AcDbEntity
  8
1
370
    50
100
AcDbLine
 10
-103.094107
 20
-35.556084
 30
0.0
 11
-102.894107
 21
-35.556084
 31
0.0
  0
LINE
  5
D9
100
AcDbEntity
  8
1
370
    50
100
AcDbLine
 10
-101.894107
 20
-22.956084
 30
0.0
 11
-101.894107
 21
-24.856084
 31
0.0
  0
LINE
  5
DA
100
AcDbEntity
  8
1
370
    50
100
AcDbLine
 10
-113.894107
 20
-22.956084
 30
0.0
 11
-125.894107
 21
-22.956084
 31
0.0
  0
LINE
  5
DB
100
AcDbEntity
  8
1
370
    50
100
AcDbLine
 10
-101.894107
 20
-23.856084
 30
0.0
 11
-109.632212
 21
-23.856084
 31
0.0
  0
LINE
  5
DC
100
AcDbEntity
  8
1
370
    50
100
AcDbLine
 10
-125.894107
 20
-22.956084
 30
0.0
 11
-125.894107
 21
-24.856084
 31
0.0
  0
LINE
  5
DD
100
AcDbEntity
  8
1
370
    50
100
AcDbLine
 10
-113.894107
 20
-23.956084
 30
0.0
 11
-116.652176
 21
-23.956084
 31
0.0
  0
LINE
  5
DE
100
AcDbEntity
  8
1
370
    50
100
AcDbLine
 10
-125.894107
 20
-23.856084
 30
0.0
 11
-118.156002
 21
-23.856084
 31
0.0
  0
ARC
  5
DF
100
AcDbEntity
  8
1
370
    50
100
AcDbCircle
 10
-117.889107
 20
-23.856084
 30
0.0
 40
1.0
100
AcDbArc
 50
270.0
 51
342.079787
  0
ARC
  5
E0
100
AcDbEntity
  8
1
370
    50
100
AcDbCircle
 10
-116.994107
 20
-23.856084
 30
0.0
 40
0.9
100
AcDbArc
 50
90.0
 51
165.522488
  0
ARC
  5
E1
100
AcDbEntity
  8
1
370
    50
100
AcDbCircle
 10
-110.794107
 20
-23.856084
 30
0.0
 40
0.9
100
AcDbArc
 50
14.477512
 51
90.0
  0
LINE
  5
E2
100
AcDbEntity
  8
1
370
    50
100
AcDbLine
 10
-113.894107
 20
-23.956084
 30
0.0
 11
-111.136039
 21
-23.956084
 31
0.0
  0
ARC
  5
E3
100
AcDbEntity
  8
1
370
    50
100
AcDbCircle
 10
-109.899107
 20
-23.856084
 30
0.0
 40
1.0
100
AcDbArc
 50
197.920213
 51
270.0
  0
ARC
  5
E4
100
AcDbEntity
  8
1
370
    50
100
AcDbCircle
 10
-118.156002
 20
-23.556084
 30
0.0
 40
0.3
100
AcDbArc
 50
270.0
 51
345.522488
  0
ARC
  5
E5
100
AcDbEntity
  8
1
370
    50
100
AcDbCircle
 10
-116.652176
 20
-24.256084
 30
0.0
 40
0.3
100
AcDbArc
 50
90.0
 51
162.079787
  0
ARC
  5
E6
100
AcDbEntity
  8
1
370
    50
100
AcDbCircle
 10
-111.136039
 20
-24.256084
 30
0.0
 40
0.3
100
AcDbArc
 50
17.920213
 51
90.0
  0
ARC
  5
E7
100
AcDbEntity
  8
1
370
    50
100
AcDbCircle
 10
-109.632212
 20
-23.556084
 30
0.0
 40
0.3
100
AcDbArc
 50
194.477512
 51
270.0
  0
ARC
  5
E8
100
AcDbEntity
  8
1
370
    50
100
AcDbCircle
 10
-122.994107
 20
-23.856084
 30
0.0
 40
0.9
100
AcDbArc
 50
90.0
 51
165.522488
  0
ARC
  5
E9
100
AcDbEntity
  8
1
370
    50
100
AcDbCircle
 10
-124.156002
 20
-23.556084
 30
0.0
 40
0.3
100
AcDbArc
 50
270.0
 51
345.522488
  0
LINE
  5
EA
100
AcDbEntity
  8
1
370
    50
100
AcDbLine
 10
-113.894107
 20
-22.956084
 30
0.0
 11
-101.894107
 21
-22.956084
 31
0.0
  0
ARC
  5
EB
100
AcDbEntity
  8
1
370
    50
100
AcDbCircle
 10
-104.794107
 20
-23.856084
 30
0.0
 40
0.9
100
AcDbArc
 50
14.477512
 51
90.0
  0
ARC
  5
EC
100
AcDbEntity
  8
1
370
    50
100
AcDbCircle
 10
-103.632212
 20
-23.556084
 30
0.0
 40
0.3
100
AcDbArc
 50
194.477512
 51
270.0
  0
LINE
  5
ED
100
AcDbEntity
  8
1
370
    50
100
AcDbLine
 10
-124.894107
 20
-36.556084
 30
0.0
 11
-114.57756
 21
-36.556084
 31
0.0
  0
LINE
  5
EE
100
AcDbEntity
  8
1
370
    50
100
AcDbLine
 10
-113.210655
 20
-36.556084
 30
0.0
 11
-102.894107
 21
-36.556084
 31
0.0
  0
LINE
  5
EF
100
AcDbEntity
  8
1
370
    50
100
AcDbLine
 10
-125.894107
 20
-24.856084
 30
0.0
 11
-115.144107
 21
-24.856084
 31
0.0
  0
LINE
  5
F0
100
AcDbEntity
  8
1
370
    50
100
AcDbLine
 10
-112.644107
 20
-24.856084
 30
0.0
 11
-101.894107
 21
-24.856084
 31
0.0
  0
LINE
  5
F1
100
AcDbEntity
  8
1
370
    50
100
AcDbLine
 10
-112.644107
 20
-24.706084
 30
0.0
 11
-112.644107
 21
-35.188317
 31
0.0
  0
LINE
  5
F2
100
AcDbEntity
  8
1
370
    50
100
AcDbLine
 10
-115.144107
 20
-24.706084
 30
0.0
 11
-115.144107
 21
-35.188317
 31
0.0
  0
LINE
  5
F3
100
AcDbEntity
  8
1
370
    50
100
AcDbLine
 10
-112.644107
 20
-35.188317
 30
0.0
 11
-113.894107
 21
-38.206084
 31
0.0
  0
LINE
  5
F4
100
AcDbEntity
  8
1
370
    50
100
AcDbLine
 10
-115.144107
 20
-35.188317
 30
0.0
 11
-113.894107
 21
-38.206084
 31
0.0
  0
LINE
  5
F5
100
AcDbEntity
  8
1
370
    25
100
AcDbLine
 10
-112.144107
 20
-25.506084
 30
0.0
 11
-115.644107
 21
-26.917195
 31
0.0
  0
LINE
  5
F6
100
AcDbEntity
  8
1
370
    25
100
AcDbLine
 10
-112.144107
 20
-26.917195
 30
0.0
 11
-115.644107
 21
-28.328306
 31
0.0
  0
LINE
  5
F7
100
AcDbEntity
  8
1
370
    25
100
AcDbLine
 10
-112.144107
 20
-28.328306
 30
0.0
 11
-115.644107
 21
-29.739417
 31
0.0
  0
LINE
  5
F8
100
AcDbEntity
  8
1
370
    25
100
AcDbLine
 10
-112.144107
 20
-29.739417
 30
0.0
 11
-115.644107
 21
-31.150528
 31
0.0
  0
LINE
  5
F9
100
AcDbEntity
  8
1
370
    25
100
AcDbLine
 10
-112.144107
 20
-31.150528
 30
0.0
 11
-115.644107
 21
-32.561639
 31
0.0
  0
LINE
  5
FA
100
AcDbEntity
  8
1
370
    25
100
AcDbLine
 10
-112.144107
 20
-32.561639
 30
0.0
 11
-115.644107
 21
-33.972751
 31
0.0
  0
LINE
  5
FB
100
AcDbEntity
  8
1
370
    25
100
AcDbLine
 10
-112.144107
 20
-33.972751
 30
0.0
 11
-115.610002
 21
-35.370111
 31
0.0
  0
LINE
  5
FC
100
AcDbEntity
  8
1
370
    25
100
AcDbLine
 10
-112.191888
 20
-35.403126
 30
0.0
 11
-115.109144
 21
-36.579289
 31
0.0
  0
LINE
  5
FD
100
AcDbEntity
  8
1
370
    25
100
AcDbLine
 10
-112.893571
 20
-37.097137
 30
0.0
 11
-114.608286
 21
-37.788467
 31
0.0
  0
LINE
  5
FE
100
AcDbEntity
  8
1
370
    25
100
AcDbLine
 10
-113.659855
 20
-24.706084
 30
0.0
 11
-115.644107
 21
-25.506084
 31
0.0
  0
LINE
  5
FF
100
AcDbEntity
  8
1
370
    50
100
AcDbLine
 10
-111.894107
 20
-23.956084
 30
0.0
 11
-112.644107
 21
-24.706084
 31
0.0
  0
LINE
  5
100
100
AcDbEntity
  8
1
370
    50
100
AcDbLine
 10
-115.894107
 20
-23.956084
 30
0.0
 11
-115.144107
 21
-24.706084
 31
0.0
  0
LINE
  5
101
100
AcDbEntity
  8
1
370
    50
100
AcDbLine
 10
-112.644107
 20
-24.706084
 30
0.0
 11
-115.144107
 21
-24.706084
 31
0.0
  0
LINE
  5
102
100
AcDbEntity
  8
1
370
    25
  6
CENTER
100
AcDbLine
 10
-67.326413
 20
52.943916
 30
0.0
 11
-48.631135
 21
52.943916
 31
0.0
  0
LINE
  5
103
100
AcDbEntity
  8
1
370
    50
100
AcDbLine
 10
-66.394107
 20
52.943916
 30
0.0
 11
-66.394107
 21
87.843866
 31
0.0
  0
LINE
  5
104
100
AcDbEntity
  8
1
370
    50
100
AcDbLine
 10
-66.394107
 20
87.843866
 30
0.0
 11
-65.394109
 21
87.843866
 31
0.0
  0
LINE
  5
105
100
AcDbEntity
  8
1
370
    50
100
AcDbLine
 10
-65.394109
 20
52.943916
 30
0.0
 11
-65.394109
 21
87.843866
 31
0.0
  0
LINE
  5
106
100
AcDbEntity
  8
1
370
    50
100
AcDbLine
 10
-63.394112
 20
69.543892
 30
0.0
 11
-63.394112
 21
70.593891
 31
0.0
  0
LINE
  5
107
100
AcDbEntity
  8
1
370
    50
100
AcDbLine
 10
-66.394107
 20
52.943916
 30
0.0
 11
-66.394107
 21
18.043966
 31
0.0
  0
LINE
  5
108
100
AcDbEntity
  8
1
370
    50
100
AcDbLine
 10
-66.394107
 20
18.043966
 30
0.0
 11
-65.394109
 21
18.043966
 31
0.0
  0
LINE
  5
109
100
AcDbEntity
  8
1
370
    50
100
AcDbLine
 10
-65.394109
 20
52.943916
 30
0.0
 11
-65.394109
 21
18.043966
 31
0.0
  0
LINE
  5
10A
100
AcDbEntity
  8
1
370
    50
100
AcDbLine
 10
-63.394112
 20
36.34394
 30
0.0
 11
-63.394112
 21
35.293941
 31
0.0
  0
LINE
  5
10B
100
AcDbEntity
  8
1
370
    25
  6
CENTER
100
AcDbLine
 10
-67.326413
 20
52.943916
 30
0.0
 11
-48.631135
 21
52.943916
 31
0.0
  0
LINE
  5
10C
100
AcDbEntity
  8
1
370
    50
100
AcDbLine
 10
-65.394109
 20
87.443867
 30
0.0
 11
-63.494111
 21
87.443867
 31
0.0
  0
LINE
  5
10D
100
AcDbEntity
  8
1
370
    50
100
AcDbLine
 10
-51.794128
 20
70.593891
 30
0.0
 11
-51.794128
 21
52.943916
 31
0.0
  0
LINE
  5
10E
100
AcDbEntity
  8
1
370
    50
100
AcDbLine
 10
-65.394109
 20
71.593889
 30
0.0
 11
-65.394109
 21
87.443867
 31
0.0
  0
LINE
  5
10F
100
AcDbEntity
  8
1
370
    50
100
AcDbLine
 10
-63.494111
 20
73.343887
 30
0.0
 11
-63.494111
 21
74.443885
 31
0.0
  0
LINE
  5
110
100
AcDbEntity
  8
1
370
    50
100
AcDbLine
 10
-64.49411
 20
73.705781
 30
0.0
 11
-64.49411
 21
74.443885
 31
0.0
  0
ARC
  5
111
100
AcDbEntity
  8
1
370
    50
100
AcDbCircle
 10
-64.39411
 20
71.593889
 30
0.0
 40
0.999999
100
AcDbArc
 50
180.0
 51
270.0
  0
LINE
  5
112
100
AcDbEntity
  8
1
370
    50
100
AcDbLine
 10
-52.794127
 20
71.593889
 30
0.0
 11
-64.094111
 21
71.593889
 31
0.0
  0
ARC
  5
113
100
AcDbEntity
  8
1
370
    50
100
AcDbCircle
 10
-52.794127
 20
70.593891
 30
0.0
 40
0.999999
100
AcDbArc
 50
0.0
 51
90.0
  0
LINE
  5
114
100
AcDbEntity
  8
1
370
    50
100
AcDbLine
 10
-53.294126
 20
70.593891
 30
0.0
 11
-64.39411
 21
70.593891
 31
0.0
  0
LINE
  5
115
100
AcDbEntity
  8
1
370
    50
100
AcDbLine
 10
-63.594111
 20
68.943893
 30
0.0
 11
-63.594111
 21
52.943916
 31
0.0
  0
LINE
  5
116
100
AcDbEntity
  8
1
370
    50
100
AcDbLine
 10
-64.39411
 20
72.181994
 30
0.0
 11
-64.39411
 21
71.893889
 31
0.0
  0
ARC
  5
117
100
AcDbEntity
  8
1
370
    50
100
AcDbCircle
 10
-64.094111
 20
71.893889
 30
0.0
 40
0.3
100
AcDbArc
 50
180.0
 51
270.0
  0
LINE
  5
118
100
AcDbEntity
  8
1
370
    50
100
AcDbLine
 10
-52.794127
 20
70.093892
 30
0.0
 11
-52.794127
 21
69.943892
 31
0.0
  0
ARC
  5
119
100
AcDbEntity
  8
1
370
    50
100
AcDbCircle
 10
-64.49411
 20
72.543888
 30
0.0
 40
0.899999
100
AcDbArc
 50
104.477512
 51
180.0
  0
ARC
  5
11A
100
AcDbEntity
  8
1
370
    50
100
AcDbCircle
 10
-64.39411
 20
73.343887
 30
0.0
 40
0.899999
100
AcDbArc
 50
284.477512
 51
0.0
  0
ARC
  5
11B
100
AcDbEntity
  8
1
370
    50
100
AcDbCircle
 10
-64.79411
 20
73.705781
 30
0.0
 40
0.3
100
AcDbArc
 50
284.477512
 51
0.0
  0
ARC
  5
11C
100
AcDbEntity
  8
1
370
    50
100
AcDbCircle
 10
-64.094111
 20
72.181994
 30
0.0
 40
0.3
100
AcDbArc
 50
104.477512
 51
180.0
  0
LINE
  5
11D
100
AcDbEntity
  8
1
370
    50
100
AcDbLine
 10
-63.494111
 20
87.443867
 30
0.0
 11
-63.494111
 21
74.443885
 31
0.0
  0
LINE
  5
11E
100
AcDbEntity
  8
1
370
    50
100
AcDbLine
 10
-64.49411
 20
87.443867
 30
0.0
 11
-64.49411
 21
74.443885
 31
0.0
  0
LINE
  5
11F
100
AcDbEntity
  8
1
370
    50
100
AcDbLine
 10
-53.094126
 20
62.443903
 30
0.0
 11
-53.094126
 21
52.943916
 31
0.0
  0
LINE
  5
120
100
AcDbEntity
  8
1
370
    50
100
AcDbLine
 10
-52.594127
 20
62.943902
 30
0.0
 11
-51.794128
 21
62.943902
 31
0.0
  0
ARC
  5
121
100
AcDbEntity
  8
1
370
    50
100
AcDbCircle
 10
-52.594127
 20
62.443903
 30
0.0
 40
0.499999
100
AcDbArc
 50
90.0
 51
180.0
  0
LINE
  5
122
100
AcDbEntity
  8
1
370
    50
100
AcDbLine
 10
-56.594121
 20
68.943893
 30
0.0
 11
-56.594121
 21
52.943916
 31
0.0
  0
LINE
  5
123
100
AcDbEntity
  8
1
370
    50
100
AcDbLine
 10
-62.594113
 20
69.943892
 30
0.0
 11
-51.794128
 21
69.943892
 31
0.0
  0
ARC
  5
124
100
AcDbEntity
  8
1
370
    50
100
AcDbCircle
 10
-62.594113
 20
68.943893
 30
0.0
 40
0.999999
100
AcDbArc
 50
90.0
 51
180.0
  0
ARC
  5
125
100
AcDbEntity
  8
1
370
    50
100
AcDbCircle
 10
-55.594123
 20
68.943893
 30
0.0
 40
0.999999
100
AcDbArc
 50
90.0
 51
180.0
  0
ARC
  5
126
100
AcDbEntity
  8
1
370
    50
100
AcDbCircle
 10
-53.294126
 20
70.093892
 30
0.0
 40
0.499999
100
AcDbArc
 50
0.0
 51
90.0
  0
LINE
  5
127
100
AcDbEntity
  8
1
370
    25
  6
CENTER
100
AcDbLine
 10
-67.326413
 20
52.943916
 30
0.0
 11
-48.631135
 21
52.943916
 31
0.0
  0
LINE
  5
128
100
AcDbEntity
  8
1
370
    50
100
AcDbLine
 10
-65.394109
 20
18.443965
 30
0.0
 11
-63.494111
 21
18.443965
 31
0.0
  0
LINE
  5
129
100
AcDbEntity
  8
1
370
    50
100
AcDbLine
 10
-51.794128
 20
35.293941
 30
0.0
 11
-51.794128
 21
52.943916
 31
0.0
  0
LINE
  5
12A
100
AcDbEntity
  8
1
370
    50
100
AcDbLine
 10
-65.394109
 20
34.293943
 30
0.0
 11
-65.394109
 21
18.443965
 31
0.0
  0
LINE
  5
12B
100
AcDbEntity
  8
1
370
    50
100
AcDbLine
 10
-63.494111
 20
32.543945
 30
0.0
 11
-63.494111
 21
31.443947
 31
0.0
  0
LINE
  5
12C
100
AcDbEntity
  8
1
370
    50
100
AcDbLine
 10
-64.49411
 20
32.182051
 30
0.0
 11
-64.49411
 21
31.443947
 31
0.0
  0
ARC
  5
12D
100
AcDbEntity
  8
1
370
    50
100
AcDbCircle
 10
-64.39411
 20
34.293943
 30
0.0
 40
0.999999
100
AcDbArc
 50
90.0
 51
180.0
  0
LINE
  5
12E
100
AcDbEntity
  8
1
370
    50
100
AcDbLine
 10
-52.794127
 20
34.293943
 30
0.0
 11
-64.094111
 21
34.293943
 31
0.0
  0
ARC
  5
12F
100
AcDbEntity
  8
1
370
    50
100
AcDbCircle
 10
-52.794127
 20
35.293941
 30
0.0
 40
0.999999
100
AcDbArc
 50
270.0
 51
360.0
  0
LINE
  5
130
100
AcDbEntity
  8
1
370
    50
100
AcDbLine
 10
-53.294126
 20
35.293941
 30
0.0
 11
-64.39411
 21
35.293941
 31
0.0
  0
LINE
  5
131
100
AcDbEntity
  8
1
370
    50
100
AcDbLine
 10
-63.594111
 20
36.943939
 30
0.0
 11
-63.594111
 21
52.943916
 31
0.0
  0
LINE
  5
132
100
AcDbEntity
  8
1
370
    50
100
AcDbLine
 10
-64.39411
 20
33.705839
 30
0.0
 11
-64.39411
 21
33.993943
 31
0.0
  0
ARC
  5
133
100
AcDbEntity
  8
1
370
    50
100
AcDbCircle
 10
-64.094111
 20
33.993943
 30
0.0
 40
0.3
100
AcDbArc
 50
90.0
 51
180.0
  0
LINE
  5
134
100
AcDbEntity
  8
1
370
    50
100
AcDbLine
 10
-52.794127
 20
35.793941
 30
0.0
 11
-52.794127
 21
35.94394
 31
0.0
  0
ARC
  5
135
100
AcDbEntity
  8
1
370
    50
100
AcDbCircle
 10
-64.49411
 20
33.343944
 30
0.0
 40
0.899999
100
AcDbArc
 50
180.0
 51
255.522488
  0
ARC
  5
136
100
AcDbEntity
  8
1
370
    50
100
AcDbCircle
 10
-64.39411
 20
32.543945
 30
0.0
 40
0.899999
100
AcDbArc
 50
360.0
 51
75.522488
  0
ARC
  5
137
100
AcDbEntity
  8
1
370
    50
100
AcDbCircle
 10
-64.79411
 20
32.182051
 30
0.0
 40
0.3
100
AcDbArc
 50
360.0
 51
75.522488
  0
ARC
  5
138
100
AcDbEntity
  8
1
370
    50
100
AcDbCircle
 10
-64.094111
 20
33.705839
 30
0.0
 40
0.3
100
AcDbArc
 50
180.0
 51
255.522488
  0
LINE
  5
139
100
AcDbEntity
  8
1
370
    50
100
AcDbLine
 10
-63.494111
 20
18.443965
 30
0.0
 11
-63.494111
 21
31.443947
 31
0.0
  0
LINE
  5
13A
100
AcDbEntity
  8
1
370
    50
100
AcDbLine
 10
-64.49411
 20
18.443965
 30
0.0
 11
-64.49411
 21
31.443947
 31
0.0
  0
LINE
  5
13B
100
AcDbEntity
  8
1
370
    50
100
AcDbLine
 10
-53.094126
 20
43.44393
 30
0.0
 11
-53.094126
 21
52.943916
 31
0.0
  0
LINE
  5
13C
100
AcDbEntity
  8
1
370
    50
100
AcDbLine
 10
-52.594127
 20
42.94393
 30
0.0
 11
-51.794128
 21
42.94393
 31
0.0
  0
ARC
  5
13D
100
AcDbEntity
  8
1
370
    50
100
AcDbCircle
 10
-52.594127
 20
43.44393
 30
0.0
 40
0.499999
100
AcDbArc
 50
180.0
 51
270.0
  0
LINE
  5
13E
100
AcDbEntity
  8
1
370
    50
100
AcDbLine
 10
-56.594121
 20
36.943939
 30
0.0
 11
-56.594121
 21
52.943916
 31
0.0
  0
LINE
  5
13F
100
AcDbEntity
  8
1
370
    50
100
AcDbLine
 10
-62.594113
 20
35.94394
 30
0.0
 11
-51.794128
 21
35.94394
 31
0.0
  0
ARC
  5
140
100
AcDbEntity
  8
1
370
    50
100
AcDbCircle
 10
-62.594113
 20
36.943939
 30
0.0
 40
0.999999
100
AcDbArc
 50
180.0
 51
270.0
  0
ARC
  5
141
100
AcDbEntity
  8
1
370
    50
100
AcDbCircle
 10
-55.594123
 20
36.943939
 30
0.0
 40
0.999999
100
AcDbArc
 50
180.0
 51
270.0
  0
ARC
  5
142
100
AcDbEntity
  8
1
370
    50
100
AcDbCircle
 10
-53.294126
 20
35.793941
 30
0.0
 40
0.499999
100
AcDbArc
 50
270.0
 51
360.0
  0
LINE
  5
143
100
AcDbEntity
  8
1
370
    25
  6
CENTER
100
AcDbLine
 10
-68.285502
 20
81.443916
 30
0.0
 11
-49.506995
 21
81.443916
 31
0.0
  0
LINE
  5
144
100
AcDbEntity
  8
1
370
    50
100
AcDbLine
 10
-63.494111
 20
82.693916
 30
0.0
 11
-53.161874
 21
82.693916
 31
0.0
  0
LINE
  5
145
100
AcDbEntity
  8
1
370
    50
100
AcDbLine
 10
-63.494111
 20
80.193916
 30
0.0
 11
-53.161874
 21
80.193916
 31
0.0
  0
LINE
  5
146
100
AcDbEntity
  8
1
370
    50
100
AcDbLine
 10
-53.161874
 20
82.693916
 30
0.0
 11
-50.144107
 21
81.443916
 31
0.0
  0
LINE
  5
147
100
AcDbEntity
  8
1
370
    50
100
AcDbLine
 10
-53.161874
 20
80.193916
 30
0.0
 11
-50.144107
 21
81.443916
 31
0.0
  0
LINE
  5
148
100
AcDbEntity
  8
1
370
    25
100
AcDbLine
 10
-62.844107
 20
83.193916
 30
0.0
 11
-61.432996
 21
79.693916
 31
0.0
  0
LINE
  5
149
100
AcDbEntity
  8
1
370
    25
100
AcDbLine
 10
-61.432996
 20
83.193916
 30
0.0
 11
-60.021885
 21
79.693916
 31
0.0
  0
LINE
  5
14A
100
AcDbEntity
  8
1
370
    25
100
AcDbLine
 10
-60.021885
 20
83.193916
 30
0.0
 11
-58.610774
 21
79.693916
 31
0.0
  0
LINE
  5
14B
100
AcDbEntity
  8
1
370
    25
100
AcDbLine
 10
-58.610774
 20
83.193916
 30
0.0
 11
-57.199663
 21
79.693916
 31
0.0
  0
LINE
  5
14C
100
AcDbEntity
  8
1
370
    25
100
AcDbLine
 10
-57.199663
 20
83.193916
 30
0.0
 11
-55.788552
 21
79.693916
 31
0.0
  0
LINE
  5
14D
100
AcDbEntity
  8
1
370
    25
100
AcDbLine
 10
-55.788552
 20
83.193916
 30
0.0
 11
-54.377441
 21
79.693916
 31
0.0
  0
LINE
  5
14E
100
AcDbEntity
  8
1
370
    25
100
AcDbLine
 10
-54.377441
 20
83.193916
 30
0.0
 11
-52.98008
 21
79.728022
 31
0.0
  0
LINE
  5
14F
100
AcDbEntity
  8
1
370
    25
100
AcDbLine
 10
-52.947066
 20
83.146136
 30
0.0
 11
-51.770902
 21
80.22888
 31
0.0
  0
LINE
  5
150
100
AcDbEntity
  8
1
370
    25
100
AcDbLine
 10
-51.253054
 20
82.444453
 30
0.0
 11
-50.561724
 21
80.729737
 31
0.0
  0
LINE
  5
151
100
AcDbEntity
  8
1
370
    25
100
AcDbLine
 10
-63.494111
 20
81.306131
 30
0.0
 11
-62.844107
 21
79.693916
 31
0.0
  0
LINE
  5
152
100
AcDbEntity
  8
1
370
    25
  6
CENTER
100
AcDbLine
 10
-68.285502
 20
24.443916
 30
0.0
 11
-49.506995
 21
24.443916
 31
0.0
  0
LINE
  5
153
100
AcDbEntity
  8
1
370
    50
100
AcDbLine
 10
-63.494111
 20
25.693916
 30
0.0
 11
-53.161874
 21
25.693916
 31
0.0
  0
LINE
  5
154
100
AcDbEntity
  8
1
370
    50
100
AcDbLine
 10
-63.494111
 20
23.193916
 30
0.0
 11
-53.161874
 21
23.193916
 31
0.0
  0
LINE
  5
155
100
AcDbEntity
  8
1
370
    50
100
AcDbLine
 10
-53.161874
 20
25.693916
 30
0.0
 11
-50.144107
 21
24.443916
 31
0.0
  0
LINE
  5
156
100
AcDbEntity
  8
1
370
    50
100
AcDbLine
 10
-53.161874
 20
23.193916
 30
0.0
 11
-50.144107
 21
24.443916
 31
0.0
  0
LINE
  5
157
100
AcDbEntity
  8
1
370
    25
100
AcDbLine
 10
-62.844107
 20
26.193916
 30
0.0
 11
-61.432996
 21
22.693916
 31
0.0
  0
LINE
  5
158
100
AcDbEntity
  8
1
370
    25
100
AcDbLine
 10
-61.432996
 20
26.193916
 30
0.0
 11
-60.021885
 21
22.693916
 31
0.0
  0
LINE
  5
159
100
AcDbEntity
  8
1
370
    25
100
AcDbLine
 10
-60.021885
 20
26.193916
 30
0.0
 11
-58.610774
 21
22.693916
 31
0.0
  0
LINE
  5
15A
100
AcDbEntity
  8
1
370
    25
100
AcDbLine
 10
-58.610774
 20
26.193916
 30
0.0
 11
-57.199663
 21
22.693916
 31
0.0
  0
LINE
  5
15B
100
AcDbEntity
  8
1
370
    25
100
AcDbLine
 10
-57.199663
 20
26.193916
 30
0.0
 11
-55.788552
 21
22.693916
 31
0.0
  0
LINE
  5
15C
100
AcDbEntity
  8
1
370
    25
100
AcDbLine
 10
-55.788552
 20
26.193916
 30
0.0
 11
-54.377441
 21
22.693916
 31
0.0
  0
LINE
  5
15D
100
AcDbEntity
  8
1
370
    25
100
AcDbLine
 10
-54.377441
 20
26.193916
 30
0.0
 11
-52.98008
 21
22.728022
 31
0.0
  0
LINE
  5
15E
100
AcDbEntity
  8
1
370
    25
100
AcDbLine
 10
-52.947066
 20
26.146136
 30
0.0
 11
-51.770902
 21
23.22888
 31
0.0
  0
LINE
  5
15F
100
AcDbEntity
  8
1
370
    25
100
AcDbLine
 10
-51.253054
 20
25.444453
 30
0.0
 11
-50.561724
 21
23.729737
 31
0.0
  0
LINE
  5
160
100
AcDbEntity
  8
1
370
    25
100
AcDbLine
 10
-63.494111
 20
24.306131
 30
0.0
 11
-62.844107
 21
22.693916
 31
0.0
  0
ARC
  5
161
100
AcDbEntity
  8
1
370
    50
100
AcDbCircle
 10
-65.394109
 20
85.843869
 30
0.0
 40
1.999997
100
AcDbArc
 50
0.0
 51
18.194872
  0
ARC
  5
162
100
AcDbEntity
  8
1
370
    50
100
AcDbCircle
 10
-65.394109
 20
85.843869
 30
0.0
 40
1.999997
100
AcDbArc
 50
53.130102
 51
90.0
  0
ARC
  5
163
100
AcDbEntity
  8
1
370
    50
100
AcDbCircle
 10
-65.394109
 20
20.043963
 30
0.0
 40
1.999997
100
AcDbArc
 50
270.0
 51
306.869898
  0
ARC
  5
164
100
AcDbEntity
  8
1
370
    50
100
AcDbCircle
 10
-65.394109
 20
20.043963
 30
0.0
 40
1.999997
100
AcDbArc
 50
341.805128
 51
360.0
  0
LINE
  5
165
100
AcDbEntity
  8
1
370
    50
100
AcDbLine
 10
-63.394112
 20
71.593889
 30
0.0
 11
-63.394112
 21
80.193916
 31
0.0
  0
LINE
  5
166
100
AcDbEntity
  8
1
370
    50
100
AcDbLine
 10
-63.394112
 20
82.693916
 30
0.0
 11
-63.394112
 21
85.843869
 31
0.0
  0
LINE
  5
167
100
AcDbEntity
  8
1
370
    50
100
AcDbLine
 10
-63.394112
 20
20.043963
 30
0.0
 11
-63.394112
 21
23.193916
 31
0.0
  0
LINE
  5
168
100
AcDbEntity
  8
1
370
    50
100
AcDbLine
 10
-63.394112
 20
25.693916
 30
0.0
 11
-63.394112
 21
34.293943
 31
0.0
  0
LINE
  5
169
100
AcDbEntity
  8
1
370
    25
  6
CENTER
100
AcDbLine
 10
-328.894107
 20
-20.06469
 30
0.0
 11
-328.894107
 21
-38.843197
 31
0.0
  0
LINE
  5
16A
100
AcDbEntity
  8
1
370
    50
100
AcDbLine
 10
-328.894107
 20
-22.956084
 30
0.0
 11
-340.894107
 21
-22.956084
 31
0.0
  0
LINE
  5
16B
100
AcDbEntity
  8
1
370
    50
100
AcDbLine
 10
-339.894107
 20
-24.856084
 30
0.0
 11
-339.894107
 21
-35.556084
 31
0.0
  0
LINE
  5
16C
100
AcDbEntity
  8
1
370
    50
100
AcDbLine
 10
-340.894107
 20
-24.856084
 30
0.0
 11
-340.894107
 21
-35.556084
 31
0.0
  0
LINE
  5
16D
100
AcDbEntity
  8
1
370
    50
100
AcDbLine
 10
-316.894107
 20
-32.056084
 30
0.0
 11
-316.894107
 21
-35.556084
 31
0.0
  0
ARC
  5
16E
100
AcDbEntity
  8
1
370
    50
100
AcDbCircle
 10
-339.894107
 20
-35.556084
 30
0.0
 40
1.0
100
AcDbArc
 50
180.0
 51
270.0
  0
ARC
  5
16F
100
AcDbEntity
  8
1
370
    50
100
AcDbCircle
 10
-317.894107
 20
-35.556084
 30
0.0
 40
1.0
100
AcDbArc
 50
270.0
 51
360.0
  0
LINE
  5
170
100
AcDbEntity
  8
1
370
    50
100
AcDbLine
 10
-339.694107
 20
-24.856084
 30
0.0
 11
-339.694107
 21
-36.556084
 31
0.0
  0
LINE
  5
171
100
AcDbEntity
  8
1
370
    50
100
AcDbLine
 10
-316.894107
 20
-32.056084
 30
0.0
 11
-317.894107
 21
-32.056084
 31
0.0
  0
LINE
  5
172
100
AcDbEntity
  8
1
370
    50
100
AcDbLine
 10
-328.894107
 20
-22.956084
 30
0.0
 11
-316.894107
 21
-22.956084
 31
0.0
  0
LINE
  5
173
100
AcDbEntity
  8
1
370
    50
100
AcDbLine
 10
-318.094107
 20
-24.856084
 30
0.0
 11
-318.094107
 21
-36.556084
 31
0.0
  0
LINE
  5
174
100
AcDbEntity
  8
1
370
    50
100
AcDbLine
 10
-339.894107
 20
-24.856084
 30
0.0
 11
-340.894107
 21
-24.856084
 31
0.0
  0
LINE
  5
175
100
AcDbEntity
  8
1
370
    50
100
AcDbLine
 10
-328.544102
 20
50.443909
 30
0.0
 11
-329.244102
 21
50.443909
 31
0.0
  0
LINE
  5
176
100
AcDbEntity
  8
1
370
    50
100
AcDbLine
 10
-328.544102
 20
55.443909
 30
0.0
 11
-329.244102
 21
55.443909
 31
0.0
  0
LINE
  5
177
100
AcDbEntity
  8
1
370
    50
100
AcDbLine
 10
-331.394102
 20
52.593909
 30
0.0
 11
-331.394102
 21
53.293909
 31
0.0
  0
LINE
  5
178
100
AcDbEntity
  8
1
370
    50
100
AcDbLine
 10
-326.394102
 20
52.593909
 30
0.0
 11
-326.394102
 21
53.293909
 31
0.0
  0
LINE
  5
179
100
AcDbEntity
  8
1
370
    50
100
AcDbLine
 10
-329.544102
 20
50.743909
 30
0.0
 11
-329.544102
 21
51.993909
 31
0.0
  0
LINE
  5
17A
100
AcDbEntity
  8
1
370
    50
100
AcDbLine
 10
-329.544102
 20
53.893909
 30
0.0
 11
-329.544102
 21
55.143909
 31
0.0
  0
LINE
  5
17B
100
AcDbEntity
  8
1
370
    50
100
AcDbLine
 10
-326.694102
 20
53.593909
 30
0.0
 11
-327.944102
 21
53.593909
 31
0.0
  0
LINE
  5
17C
100
AcDbEntity
  8
1
370
    50
100
AcDbLine
 10
-329.844102
 20
53.593909
 30
0.0
 11
-331.094102
 21
53.593909
 31
0.0
  0
LINE
  5
17D
100
AcDbEntity
  8
1
370
    50
100
AcDbLine
 10
-326.694102
 20
52.293909
 30
0.0
 11
-327.944102
 21
52.293909
 31
0.0
  0
LINE
  5
17E
100
AcDbEntity
  8
1
370
    50
100
AcDbLine
 10
-329.844102
 20
52.293909
 30
0.0
 11
-331.094102
 21
52.293909
 31
0.0
  0
LINE
  5
17F
100
AcDbEntity
  8
1
370
    50
100
AcDbLine
 10
-328.244102
 20
50.743909
 30
0.0
 11
-328.244102
 21
51.993909
 31
0.0
  0
LINE
  5
180
100
AcDbEntity
  8
1
370
    50
100
AcDbLine
 10
-328.244102
 20
53.893909
 30
0.0
 11
-328.244102
 21
55.143909
 31
0.0
  0
ARC
  5
181
100
AcDbEntity
  8
1
370
    50
100
AcDbCircle
 10
-329.844102
 20
51.993909
 30
0.0
 40
0.3
100
AcDbArc
 50
0.0
 51
90.0
  0
ARC
  5
182
100
AcDbEntity
  8
1
370
    50
100
AcDbCircle
 10
-329.844102
 20
53.893909
 30
0.0
 40
0.3
100
AcDbArc
 50
270.0
 51
360.0
  0
ARC
  5
183
100
AcDbEntity
  8
1
370
    50
100
AcDbCircle
 10
-327.944102
 20
51.993909
 30
0.0
 40
0.3
100
AcDbArc
 50
90.0
 51
180.0
  0
ARC
  5
184
100
AcDbEntity
  8
1
370
    50
100
AcDbCircle
 10
-327.944102
 20
53.893909
 30
0.0
 40
0.3
100
AcDbArc
 50
180.0
 51
270.0
  0
ARC
  5
185
100
AcDbEntity
  8
1
370
    50
100
AcDbCircle
 10
-329.244102
 20
50.743909
 30
0.0
 40
0.3
100
AcDbArc
 50
180.0
 51
270.0
  0
ARC
  5
186
100
AcDbEntity
  8
1
370
    50
100
AcDbCircle
 10
-331.094102
 20
52.593909
 30
0.0
 40
0.3
100
AcDbArc
 50
180.0
 51
270.0
  0
ARC
  5
187
100
AcDbEntity
  8
1
370
    50
100
AcDbCircle
 10
-331.094102
 20
53.293909
 30
0.0
 40
0.3
100
AcDbArc
 50
90.0
 51
180.0
  0
ARC
  5
188
100
AcDbEntity
  8
1
370
    50
100
AcDbCircle
 10
-329.244102
 20
55.143909
 30
0.0
 40
0.3
100
AcDbArc
 50
90.0
 51
180.0
  0
ARC
  5
189
100
AcDbEntity
  8
1
370
    50
100
AcDbCircle
 10
-328.544102
 20
55.143909
 30
0.0
 40
0.3
100
AcDbArc
 50
0.0
 51
90.0
  0
ARC
  5
18A
100
AcDbEntity
  8
1
370
    50
100
AcDbCircle
 10
-326.694102
 20
53.293909
 30
0.0
 40
0.3
100
AcDbArc
 50
0.0
 51
90.0
  0
ARC
  5
18B
100
AcDbEntity
  8
1
370
    50
100
AcDbCircle
 10
-326.694102
 20
52.593909
 30
0.0
 40
0.3
100
AcDbArc
 50
270.0
 51
0.0
  0
ARC
  5
18C
100
AcDbEntity
  8
1
370
    50
100
AcDbCircle
 10
-328.544102
 20
50.743909
 30
0.0
 40
0.3
100
AcDbArc
 50
270.0
 51
360.0
  0
LINE
  5
18D
100
AcDbEntity
  8
1
370
    50
100
AcDbLine
 10
-339.894115
 20
-33.756084
 30
0.0
 11
-339.694107
 21
-33.756084
 31
0.0
  0
LINE
  5
18E
100
AcDbEntity
  8
1
370
    50
100
AcDbLine
 10
-339.894115
 20
-33.756084
 30
0.0
 11
-339.894115
 21
-35.356084
 31
0.0
  0
LINE
  5
18F
100
AcDbEntity
  8
1
370
    50
100
AcDbLine
 10
-317.894115
 20
-32.056084
 30
0.0
 11
-317.894115
 21
-35.556084
 31
0.0
  0
LINE
  5
190
100
AcDbEntity
  8
1
370
    50
100
AcDbLine
 10
-341.994107
 20
56.443916
 30
0.0
 11
-335.894107
 21
56.443916
 31
0.0
  0
LINE
  5
191
100
AcDbEntity
  8
1
370
    50
100
AcDbLine
 10
-342.994107
 20
52.943916
 30
0.0
 11
-342.994107
 21
55.443916
 31
0.0
  0
ARC
  5
192
100
AcDbEntity
  8
1
370
    50
100
AcDbCircle
 10
-341.994107
 20
55.443916
 30
0.0
 40
1.0
100
AcDbArc
 50
90.0
 51
180.0
  0
LINE
  5
193
100
AcDbEntity
  8
1
370
    50
100
AcDbLine
 10
-335.894107
 20
67.143916
 30
0.0
 11
-335.894107
 21
38.743916
 31
0.0
  0
ARC
  5
194
100
AcDbEntity
  8
1
370
    50
100
AcDbCircle
 10
-333.894107
 20
67.143916
 30
0.0
 40
2.0
100
AcDbArc
 50
115.841933
 51
180.0
  0
LINE
  5
195
100
AcDbEntity
  8
1
370
    50
100
AcDbLine
 10
-322.094107
 20
52.943916
 30
0.0
 11
-322.094107
 21
67.143916
 31
0.0
  0
ARC
  5
196
100
AcDbEntity
  8
1
370
    50
100
AcDbCircle
 10
-324.094107
 20
67.143916
 30
0.0
 40
2.0
100
AcDbArc
 50
0.0
 51
64.145352
  0
LINE
  5
197
100
AcDbEntity
  8
1
370
    50
100
AcDbLine
 10
-342.994107
 20
-22.956084
 30
0.0
 11
-342.994107
 21
-23.056084
 31
0.0
  0
LINE
  5
198
100
AcDbEntity
  8
1
370
    50
100
AcDbLine
 10
-342.494107
 20
-21.956084
 30
0.0
 11
-336.203931
 21
-21.956084
 31
0.0
  0
LINE
  5
199
100
AcDbEntity
  8
1
370
    50
100
AcDbLine
 10
-348.394107
 20
-23.056084
 30
0.0
 11
-342.994107
 21
-23.056084
 31
0.0
  0
LINE
  5
19A
100
AcDbEntity
  8
1
370
    50
100
AcDbLine
 10
-347.876576
 20
-24.556084
 30
0.0
 11
-340.894107
 21
-24.556084
 31
0.0
  0
LINE
  5
19B
100
AcDbEntity
  8
1
370
    50
100
AcDbLine
 10
-348.394107
 20
-23.056084
 30
0.0
 11
-348.3765
 21
-24.06481
 31
0.0
  0
ARC
  5
19C
100
AcDbEntity
  8
1
370
    50
100
AcDbCircle
 10
-347.876576
 20
-24.056084
 30
0.0
 40
0.5
100
AcDbArc
 50
181.0
 51
270.0
  0
LINE
  5
19D
100
AcDbEntity
  8
1
370
    50
100
AcDbLine
 10
-352.454107
 20
87.843916
 30
0.0
 11
-322.394107
 21
87.843916
 31
0.0
  0
ARC
  5
19E
100
AcDbEntity
  8
1
370
    50
100
AcDbCircle
 10
-322.394107
 20
81.843916
 30
0.0
 40
6.0
100
AcDbArc
 50
0.0
 51
90.0
  0
LINE
  5
19F
100
AcDbEntity
  8
1
370
    50
100
AcDbLine
 10
-345.694107
 20
52.943916
 30
0.0
 11
-345.694107
 21
56.093916
 31
0.0
  0
LINE
  5
1A0
100
AcDbEntity
  8
1
370
    50
100
AcDbLine
 10
-337.494107
 20
68.943916
 30
0.0
 11
-323.194107
 21
68.943916
 31
0.0
  0
LINE
  5
1A1
100
AcDbEntity
  8
1
370
    50
100
AcDbLine
 10
-339.494107
 20
57.093916
 30
0.0
 11
-339.494107
 21
66.943916
 31
0.0
  0
LINE
  5
1A2
100
AcDbEntity
  8
1
370
    50
100
AcDbLine
 10
-345.194107
 20
56.593916
 30
0.0
 11
-339.994107
 21
56.593916
 31
0.0
  0
ARC
  5
1A3
100
AcDbEntity
  8
1
370
    50
100
AcDbCircle
 10
-339.994107
 20
57.093916
 30
0.0
 40
0.5
100
AcDbArc
 50
270.0
 51
360.0
  0
ARC
  5
1A4
100
AcDbEntity
  8
1
370
    50
100
AcDbCircle
 10
-345.194107
 20
56.093916
 30
0.0
 40
0.5
100
AcDbArc
 50
90.0
 51
180.0
  0
LINE
  5
1A5
100
AcDbEntity
  8
1
370
    25
  6
CENTER
100
AcDbLine
 10
-356.071548
 20
52.943916
 30
0.0
 11
-312.896348
 21
52.943916
 31
0.0
  0
ARC
  5
1A6
100
AcDbEntity
  8
1
370
    50
100
AcDbCircle
 10
-337.494107
 20
66.943916
 30
0.0
 40
2.0
100
AcDbArc
 50
90.0
 51
180.0
  0
ARC
  5
1A7
100
AcDbEntity
  8
1
370
    50
100
AcDbCircle
 10
-323.194107
 20
66.943916
 30
0.0
 40
2.0
100
AcDbArc
 50
0.0
 51
90.0
  0
LINE
  5
1A8
100
AcDbEntity
  8
1
370
    50
100
AcDbLine
 10
-353.894107
 20
52.943916
 30
0.0
 11
-353.894107
 21
87.231864
 31
0.0
  0
LINE
  5
1A9
100
AcDbEntity
  8
1
370
    50
100
AcDbLine
 10
-316.394107
 20
52.943916
 30
0.0
 11
-316.394107
 21
81.843916
 31
0.0
  0
LINE
  5
1AA
100
AcDbEntity
  8
1
370
    50
100
AcDbLine
 10
-321.194107
 20
52.943916
 30
0.0
 11
-321.194107
 21
66.943916
 31
0.0
  0
LINE
  5
1AB
100
AcDbEntity
  8
1
370
    25
  6
CENTER
100
AcDbLine
 10
-334.394107
 20
81.443916
 30
0.0
 11
-323.394107
 21
81.443916
 31
0.0
  0
LINE
  5
1AC
100
AcDbEntity
  8
1
370
    25
  6
CENTER
100
AcDbLine
 10
-328.894107
 20
89.662589
 30
0.0
 11
-328.894107
 21
15.653281
 31
0.0
  0
LINE
  5
1AD
100
AcDbEntity
  8
1
370
    50
100
AcDbLine
 10
-316.394107
 20
-21.956084
 30
0.0
 11
-351.418149
 21
-21.956084
 31
0.0
  0
LINE
  5
1AE
100
AcDbEntity
  8
1
370
    50
100
AcDbLine
 10
-316.394107
 20
-22.956084
 30
0.0
 11
-316.394107
 21
-21.956084
 31
0.0
  0
LINE
  5
1AF
100
AcDbEntity
  8
1
370
    50
100
AcDbLine
 10
-352.987834
 20
-24.956081
 30
0.0
 11
-353.894141
 21
-24.533463
 31
0.0
  0
LINE
  5
1B0
100
AcDbEntity
  8
1
370
    50
100
AcDbLine
 10
-353.230765
 20
-23.110847
 30
0.0
 11
-353.894141
 21
-24.533463
 31
0.0
  0
LINE
  5
1B1
100
AcDbEntity
  8
1
370
    50
100
AcDbLine
 10
-316.394107
 20
-22.956084
 30
0.0
 11
-351.418149
 21
-22.956084
 31
0.0
  0
LINE
  5
1B2
100
AcDbEntity
  8
1
370
    50
100
AcDbLine
 10
-352.324457
 20
-23.533466
 30
0.0
 11
-352.987834
 21
-24.956081
 31
0.0
  0
ARC
  5
1B3
100
AcDbEntity
  8
1
370
    50
100
AcDbCircle
 10
-351.418149
 20
-23.956084
 30
0.0
 40
2.0
100
AcDbArc
 50
90.0
 51
155.0
  0
ARC
  5
1B4
100
AcDbEntity
  8
1
370
    50
100
AcDbCircle
 10
-351.418149
 20
-23.956084
 30
0.0
 40
1.0
100
AcDbArc
 50
90.0
 51
155.0
  0
ARC
  5
1B5
100
AcDbEntity
  8
1
370
    50
100
AcDbCircle
 10
-352.454107
 20
85.843916
 30
0.0
 40
2.0
100
AcDbArc
 50
90.0
 51
136.05448
  0
LINE
  5
1B6
100
AcDbEntity
  8
1
370
    25
100
AcDbLine
 10
-329.394107
 20
83.643916
 30
0.0
 11
-328.394107
 21
83.643916
 31
0.0
  0
ARC
  5
1B7
100
AcDbEntity
  8
1
370
    25
100
AcDbCircle
 10
-326.694107
 20
83.643916
 30
0.0
 40
1.7
100
AcDbArc
 50
180.0
 51
270.0
  0
ARC
  5
1B8
100
AcDbEntity
  8
1
370
    25
100
AcDbCircle
 10
-326.694107
 20
79.243916
 30
0.0
 40
1.7
100
AcDbArc
 50
90.0
 51
180.0
  0
LINE
  5
1B9
100
AcDbEntity
  8
1
370
    25
100
AcDbLine
 10
-326.694107
 20
80.943916
 30
0.0
 11
-326.694107
 21
81.943916
 31
0.0
  0
ARC
  5
1BA
100
AcDbEntity
  8
1
370
    25
100
AcDbCircle
 10
-331.094107
 20
83.643916
 30
0.0
 40
1.7
100
AcDbArc
 50
270.0
 51
360.0
  0
LINE
  5
1BB
100
AcDbEntity
  8
1
370
    25
100
AcDbLine
 10
-331.094107
 20
81.943916
 30
0.0
 11
-331.094107
 21
80.943916
 31
0.0
  0
LINE
  5
1BC
100
AcDbEntity
  8
1
370
    25
100
AcDbLine
 10
-328.394107
 20
79.243916
 30
0.0
 11
-329.394107
 21
79.243916
 31
0.0
  0
ARC
  5
1BD
100
AcDbEntity
  8
1
370
    25
100
AcDbCircle
 10
-331.094107
 20
79.243916
 30
0.0
 40
1.7
100
AcDbArc
 50
0.0
 51
90.0
  0
CIRCLE
  5
1BE
100
AcDbEntity
  8
1
370
    50
100
AcDbCircle
 10
-328.894107
 20
81.443916
 30
0.0
 40
3.5
  0
ARC
  5
1BF
100
AcDbEntity
  8
1
370
    50
100
AcDbCircle
 10
-328.894109
 20
52.943916
 30
0.0
 40
4.1
100
AcDbArc
 50
0.0
 51
180.0
  0
LINE
  5
1C0
100
AcDbEntity
  8
1
370
    50
100
AcDbLine
 10
-341.994107
 20
49.443916
 30
0.0
 11
-335.894107
 21
49.443916
 31
0.0
  0
LINE
  5
1C1
100
AcDbEntity
  8
1
370
    50
100
AcDbLine
 10
-342.994107
 20
52.943916
 30
0.0
 11
-342.994107
 21
50.443916
 31
0.0
  0
ARC
  5
1C2
100
AcDbEntity
  8
1
370
    50
100
AcDbCircle
 10
-341.994107
 20
50.443916
 30
0.0
 40
1.0
100
AcDbArc
 50
180.0
 51
270.0
  0
ARC
  5
1C3
100
AcDbEntity
  8
1
370
    50
100
AcDbCircle
 10
-333.894107
 20
38.743916
 30
0.0
 40
2.0
100
AcDbArc
 50
180.0
 51
244.158067
  0
LINE
  5
1C4
100
AcDbEntity
  8
1
370
    50
100
AcDbLine
 10
-322.094107
 20
52.943916
 30
0.0
 11
-322.094107
 21
38.743916
 31
0.0
  0
ARC
  5
1C5
100
AcDbEntity
  8
1
370
    50
100
AcDbCircle
 10
-324.094107
 20
38.743916
 30
0.0
 40
2.0
100
AcDbArc
 50
295.854648
 51
360.0
  0
LINE
  5
1C6
100
AcDbEntity
  8
1
370
    50
100
AcDbLine
 10
-352.454107
 20
18.043916
 30
0.0
 11
-322.394107
 21
18.043916
 31
0.0
  0
ARC
  5
1C7
100
AcDbEntity
  8
1
370
    50
100
AcDbCircle
 10
-322.394107
 20
24.043916
 30
0.0
 40
6.0
100
AcDbArc
 50
270.0
 51
360.0
  0
LINE
  5
1C8
100
AcDbEntity
  8
1
370
    50
100
AcDbLine
 10
-345.694107
 20
52.943916
 30
0.0
 11
-345.694107
 21
49.793916
 31
0.0
  0
LINE
  5
1C9
100
AcDbEntity
  8
1
370
    50
100
AcDbLine
 10
-337.494107
 20
36.943916
 30
0.0
 11
-323.194107
 21
36.943916
 31
0.0
  0
LINE
  5
1CA
100
AcDbEntity
  8
1
370
    50
100
AcDbLine
 10
-339.494107
 20
48.793916
 30
0.0
 11
-339.494107
 21
38.943916
 31
0.0
  0
LINE
  5
1CB
100
AcDbEntity
  8
1
370
    50
100
AcDbLine
 10
-345.194107
 20
49.293916
 30
0.0
 11
-339.994107
 21
49.293916
 31
0.0
  0
ARC
  5
1CC
100
AcDbEntity
  8
1
370
    50
100
AcDbCircle
 10
-339.994107
 20
48.793916
 30
0.0
 40
0.5
100
AcDbArc
 50
0.0
 51
90.0
  0
ARC
  5
1CD
100
AcDbEntity
  8
1
370
    50
100
AcDbCircle
 10
-345.194107
 20
49.793916
 30
0.0
 40
0.5
100
AcDbArc
 50
180.0
 51
270.0
  0
ARC
  5
1CE
100
AcDbEntity
  8
1
370
    50
100
AcDbCircle
 10
-337.494107
 20
38.943916
 30
0.0
 40
2.0
100
AcDbArc
 50
180.0
 51
270.0
  0
ARC
  5
1CF
100
AcDbEntity
  8
1
370
    50
100
AcDbCircle
 10
-323.194107
 20
38.943916
 30
0.0
 40
2.0
100
AcDbArc
 50
270.0
 51
360.0
  0
LINE
  5
1D0
100
AcDbEntity
  8
1
370
    50
100
AcDbLine
 10
-353.894107
 20
52.943916
 30
0.0
 11
-353.894107
 21
18.655968
 31
0.0
  0
LINE
  5
1D1
100
AcDbEntity
  8
1
370
    50
100
AcDbLine
 10
-316.394107
 20
52.943916
 30
0.0
 11
-316.394107
 21
24.043916
 31
0.0
  0
LINE
  5
1D2
100
AcDbEntity
  8
1
370
    50
100
AcDbLine
 10
-321.194107
 20
52.943916
 30
0.0
 11
-321.194107
 21
38.943916
 31
0.0
  0
LINE
  5
1D3
100
AcDbEntity
  8
1
370
    25
  6
CENTER
100
AcDbLine
 10
-334.394107
 20
24.443916
 30
0.0
 11
-323.394107
 21
24.443916
 31
0.0
  0
ARC
  5
1D4
100
AcDbEntity
  8
1
370
    50
100
AcDbCircle
 10
-352.454107
 20
20.043916
 30
0.0
 40
2.0
100
AcDbArc
 50
223.94552
 51
270.0
  0
LINE
  5
1D5
100
AcDbEntity
  8
1
370
    25
100
AcDbLine
 10
-329.394107
 20
22.243916
 30
0.0
 11
-328.394107
 21
22.243916
 31
0.0
  0
ARC
  5
1D6
100
AcDbEntity
  8
1
370
    25
100
AcDbCircle
 10
-326.694107
 20
22.243916
 30
0.0
 40
1.7
100
AcDbArc
 50
90.0
 51
180.0
  0
ARC
  5
1D7
100
AcDbEntity
  8
1
370
    25
100
AcDbCircle
 10
-326.694107
 20
26.643916
 30
0.0
 40
1.7
100
AcDbArc
 50
180.0
 51
270.0
  0
LINE
  5
1D8
100
AcDbEntity
  8
1
370
    25
100
AcDbLine
 10
-326.694107
 20
24.943916
 30
0.0
 11
-326.694107
 21
23.943916
 31
0.0
  0
ARC
  5
1D9
100
AcDbEntity
  8
1
370
    25
100
AcDbCircle
 10
-331.094107
 20
22.243916
 30
0.0
 40
1.7
100
AcDbArc
 50
0.0
 51
90.0
  0
LINE
  5
1DA
100
AcDbEntity
  8
1
370
    25
100
AcDbLine
 10
-331.094107
 20
23.943916
 30
0.0
 11
-331.094107
 21
24.943916
 31
0.0
  0
LINE
  5
1DB
100
AcDbEntity
  8
1
370
    25
100
AcDbLine
 10
-328.394107
 20
26.643916
 30
0.0
 11
-329.394107
 21
26.643916
 31
0.0
  0
ARC
  5
1DC
100
AcDbEntity
  8
1
370
    25
100
AcDbCircle
 10
-331.094107
 20
26.643916
 30
0.0
 40
1.7
100
AcDbArc
 50
270.0
 51
360.0
  0
CIRCLE
  5
1DD
100
AcDbEntity
  8
1
370
    50
100
AcDbCircle
 10
-328.894107
 20
24.443916
 30
0.0
 40
3.5
  0
ARC
  5
1DE
100
AcDbEntity
  8
1
370
    50
100
AcDbCircle
 10
-328.894109
 20
52.943916
 30
0.0
 40
4.1
100
AcDbArc
 50
180.0
 51
360.0
  0
LINE
  5
1DF
100
AcDbEntity
  8
1
370
    50
100
AcDbLine
 10
-339.894107
 20
-35.556084
 30
0.0
 11
-339.694107
 21
-35.556084
 31
0.0
  0
LINE
  5
1E0
100
AcDbEntity
  8
1
370
    50
100
AcDbLine
 10
-318.094107
 20
-35.556084
 30
0.0
 11
-317.894107
 21
-35.556084
 31
0.0
  0
LINE
  5
1E1
100
AcDbEntity
  8
1
370
    50
100
AcDbLine
 10
-316.894107
 20
-22.956084
 30
0.0
 11
-316.894107
 21
-24.856084
 31
0.0
  0
LINE
  5
1E2
100
AcDbEntity
  8
1
370
    50
100
AcDbLine
 10
-328.894107
 20
-22.956084
 30
0.0
 11
-340.894107
 21
-22.956084
 31
0.0
  0
LINE
  5
1E3
100
AcDbEntity
  8
1
370
    50
100
AcDbLine
 10
-316.894107
 20
-23.856084
 30
0.0
 11
-324.632212
 21
-23.856084
 31
0.0
  0
LINE
  5
1E4
100
AcDbEntity
  8
1
370
    50
100
AcDbLine
 10
-340.894107
 20
-22.956084
 30
0.0
 11
-340.894107
 21
-24.856084
 31
0.0
  0
LINE
  5
1E5
100
AcDbEntity
  8
1
370
    50
100
AcDbLine
 10
-328.894107
 20
-23.956084
 30
0.0
 11
-331.652176
 21
-23.956084
 31
0.0
  0
LINE
  5
1E6
100
AcDbEntity
  8
1
370
    50
100
AcDbLine
 10
-340.894107
 20
-23.856084
 30
0.0
 11
-333.156002
 21
-23.856084
 31
0.0
  0
ARC
  5
1E7
100
AcDbEntity
  8
1
370
    50
100
AcDbCircle
 10
-332.889107
 20
-23.856084
 30
0.0
 40
1.0
100
AcDbArc
 50
270.0
 51
342.079787
  0
ARC
  5
1E8
100
AcDbEntity
  8
1
370
    50
100
AcDbCircle
 10
-331.994107
 20
-23.856084
 30
0.0
 40
0.9
100
AcDbArc
 50
90.0
 51
165.522488
  0
ARC
  5
1E9
100
AcDbEntity
  8
1
370
    50
100
AcDbCircle
 10
-325.794107
 20
-23.856084
 30
0.0
 40
0.9
100
AcDbArc
 50
14.477512
 51
90.0
  0
LINE
  5
1EA
100
AcDbEntity
  8
1
370
    50
100
AcDbLine
 10
-328.894107
 20
-23.956084
 30
0.0
 11
-326.136039
 21
-23.956084
 31
0.0
  0
ARC
  5
1EB
100
AcDbEntity
  8
1
370
    50
100
AcDbCircle
 10
-324.899107
 20
-23.856084
 30
0.0
 40
1.0
100
AcDbArc
 50
197.920213
 51
270.0
  0
ARC
  5
1EC
100
AcDbEntity
  8
1
370
    50
100
AcDbCircle
 10
-333.156002
 20
-23.556084
 30
0.0
 40
0.3
100
AcDbArc
 50
270.0
 51
345.522488
  0
ARC
  5
1ED
100
AcDbEntity
  8
1
370
    50
100
AcDbCircle
 10
-331.652176
 20
-24.256084
 30
0.0
 40
0.3
100
AcDbArc
 50
90.0
 51
162.079787
  0
ARC
  5
1EE
100
AcDbEntity
  8
1
370
    50
100
AcDbCircle
 10
-326.136039
 20
-24.256084
 30
0.0
 40
0.3
100
AcDbArc
 50
17.920213
 51
90.0
  0
ARC
  5
1EF
100
AcDbEntity
  8
1
370
    50
100
AcDbCircle
 10
-324.632212
 20
-23.556084
 30
0.0
 40
0.3
100
AcDbArc
 50
194.477512
 51
270.0
  0
ARC
  5
1F0
100
AcDbEntity
  8
1
370
    50
100
AcDbCircle
 10
-337.994107
 20
-23.856084
 30
0.0
 40
0.9
100
AcDbArc
 50
90.0
 51
165.522488
  0
ARC
  5
1F1
100
AcDbEntity
  8
1
370
    50
100
AcDbCircle
 10
-339.156002
 20
-23.556084
 30
0.0
 40
0.3
100
AcDbArc
 50
270.0
 51
345.522488
  0
LINE
  5
1F2
100
AcDbEntity
  8
1
370
    50
100
AcDbLine
 10
-328.894107
 20
-22.956084
 30
0.0
 11
-316.894107
 21
-22.956084
 31
0.0
  0
ARC
  5
1F3
100
AcDbEntity
  8
1
370
    50
100
AcDbCircle
 10
-319.794107
 20
-23.856084
 30
0.0
 40
0.9
100
AcDbArc
 50
14.477512
 51
90.0
  0
ARC
  5
1F4
100
AcDbEntity
  8
1
370
    50
100
AcDbCircle
 10
-318.632212
 20
-23.556084
 30
0.0
 40
0.3
100
AcDbArc
 50
194.477512
 51
270.0
  0
LINE
  5
1F5
100
AcDbEntity
  8
1
370
    50
100
AcDbLine
 10
-339.894107
 20
-36.556084
 30
0.0
 11
-329.57756
 21
-36.556084
 31
0.0
  0
LINE
  5
1F6
100
AcDbEntity
  8
1
370
    50
100
AcDbLine
 10
-328.210655
 20
-36.556084
 30
0.0
 11
-317.894107
 21
-36.556084
 31
0.0
  0
LINE
  5
1F7
100
AcDbEntity
  8
1
370
    50
100
AcDbLine
 10
-340.894107
 20
-24.856084
 30
0.0
 11
-330.144107
 21
-24.856084
 31
0.0
  0
LINE
  5
1F8
100
AcDbEntity
  8
1
370
    50
100
AcDbLine
 10
-327.644107
 20
-24.856084
 30
0.0
 11
-316.894107
 21
-24.856084
 31
0.0
  0
LINE
  5
1F9
100
AcDbEntity
  8
1
370
    50
100
AcDbLine
 10
-327.644107
 20
-24.706084
 30
0.0
 11
-327.644107
 21
-35.188317
 31
0.0
  0
LINE
  5
1FA
100
AcDbEntity
  8
1
370
    50
100
AcDbLine
 10
-330.144107
 20
-24.706084
 30
0.0
 11
-330.144107
 21
-35.188317
 31
0.0
  0
LINE
  5
1FB
100
AcDbEntity
  8
1
370
    50
100
AcDbLine
 10
-327.644107
 20
-35.188317
 30
0.0
 11
-328.894107
 21
-38.206084
 31
0.0
  0
LINE
  5
1FC
100
AcDbEntity
  8
1
370
    50
100
AcDbLine
 10
-330.144107
 20
-35.188317
 30
0.0
 11
-328.894107
 21
-38.206084
 31
0.0
  0
LINE
  5
1FD
100
AcDbEntity
  8
1
370
    25
100
AcDbLine
 10
-327.144107
 20
-25.506084
 30
0.0
 11
-330.644107
 21
-26.917195
 31
0.0
  0
LINE
  5
1FE
100
AcDbEntity
  8
1
370
    25
100
AcDbLine
 10
-327.144107
 20
-26.917195
 30
0.0
 11
-330.644107
 21
-28.328306
 31
0.0
  0
LINE
  5
1FF
100
AcDbEntity
  8
1
370
    25
100
AcDbLine
 10
-327.144107
 20
-28.328306
 30
0.0
 11
-330.644107
 21
-29.739417
 31
0.0
  0
LINE
  5
200
100
AcDbEntity
  8
1
370
    25
100
AcDbLine
 10
-327.144107
 20
-29.739417
 30
0.0
 11
-330.644107
 21
-31.150528
 31
0.0
  0
LINE
  5
201
100
AcDbEntity
  8
1
370
    25
100
AcDbLine
 10
-327.144107
 20
-31.150528
 30
0.0
 11
-330.644107
 21
-32.561639
 31
0.0
  0
LINE
  5
202
100
AcDbEntity
  8
1
370
    25
100
AcDbLine
 10
-327.144107
 20
-32.561639
 30
0.0
 11
-330.644107
 21
-33.972751
 31
0.0
  0
LINE
  5
203
100
AcDbEntity
  8
1
370
    25
100
AcDbLine
 10
-327.144107
 20
-33.972751
 30
0.0
 11
-330.610002
 21
-35.370111
 31
0.0
  0
LINE
  5
204
100
AcDbEntity
  8
1
370
    25
100
AcDbLine
 10
-327.191888
 20
-35.403126
 30
0.0
 11
-330.109144
 21
-36.579289
 31
0.0
  0
LINE
  5
205
100
AcDbEntity
  8
1
370
    25
100
AcDbLine
 10
-327.893571
 20
-37.097137
 30
0.0
 11
-329.608286
 21
-37.788467
 31
0.0
  0
LINE
  5
206
100
AcDbEntity
  8
1
370
    25
100
AcDbLine
 10
-328.659855
 20
-24.706084
 30
0.0
 11
-330.644107
 21
-25.506084
 31
0.0
  0
LINE
  5
207
100
AcDbEntity
  8
1
370
    50
100
AcDbLine
 10
-326.894107
 20
-23.956084
 30
0.0
 11
-327.644107
 21
-24.706084
 31
0.0
  0
LINE
  5
208
100
AcDbEntity
  8
1
370
    50
100
AcDbLine
 10
-330.894107
 20
-23.956084
 30
0.0
 11
-330.144107
 21
-24.706084
 31
0.0
  0
LINE
  5
209
100
AcDbEntity
  8
1
370
    50
100
AcDbLine
 10
-327.644107
 20
-24.706084
 30
0.0
 11
-330.144107
 21
-24.706084
 31
0.0
  0
LINE
  5
20A
100
AcDbEntity
  8
1
370
    25
  6
CENTER
100
AcDbLine
 10
-282.326413
 20
52.943916
 30
0.0
 11
-263.631135
 21
52.943916
 31
0.0
  0
LINE
  5
20B
100
AcDbEntity
  8
1
370
    50
100
AcDbLine
 10
-281.394107
 20
52.943916
 30
0.0
 11
-281.394107
 21
87.843866
 31
0.0
  0
LINE
  5
20C
100
AcDbEntity
  8
1
370
    50
100
AcDbLine
 10
-281.394107
 20
87.843866
 30
0.0
 11
-280.394109
 21
87.843866
 31
0.0
  0
LINE
  5
20D
100
AcDbEntity
  8
1
370
    50
100
AcDbLine
 10
-280.394109
 20
52.943916
 30
0.0
 11
-280.394109
 21
87.843866
 31
0.0
  0
LINE
  5
20E
100
AcDbEntity
  8
1
370
    50
100
AcDbLine
 10
-278.394112
 20
69.543892
 30
0.0
 11
-278.394112
 21
70.593891
 31
0.0
  0
LINE
  5
20F
100
AcDbEntity
  8
1
370
    50
100
AcDbLine
 10
-281.394107
 20
52.943916
 30
0.0
 11
-281.394107
 21
18.043966
 31
0.0
  0
LINE
  5
210
100
AcDbEntity
  8
1
370
    50
100
AcDbLine
 10
-281.394107
 20
18.043966
 30
0.0
 11
-280.394109
 21
18.043966
 31
0.0
  0
LINE
  5
211
100
AcDbEntity
  8
1
370
    50
100
AcDbLine
 10
-280.394109
 20
52.943916
 30
0.0
 11
-280.394109
 21
18.043966
 31
0.0
  0
LINE
  5
212
100
AcDbEntity
  8
1
370
    50
100
AcDbLine
 10
-278.394112
 20
36.34394
 30
0.0
 11
-278.394112
 21
35.293941
 31
0.0
  0
LINE
  5
213
100
AcDbEntity
  8
1
370
    25
  6
CENTER
100
AcDbLine
 10
-282.326413
 20
52.943916
 30
0.0
 11
-263.631135
 21
52.943916
 31
0.0
  0
LINE
  5
214
100
AcDbEntity
  8
1
370
    50
100
AcDbLine
 10
-280.394109
 20
87.443867
 30
0.0
 11
-278.494111
 21
87.443867
 31
0.0
  0
LINE
  5
215
100
AcDbEntity
  8
1
370
    50
100
AcDbLine
 10
-266.794128
 20
70.593891
 30
0.0
 11
-266.794128
 21
52.943916
 31
0.0
  0
LINE
  5
216
100
AcDbEntity
  8
1
370
    50
100
AcDbLine
 10
-280.394109
 20
71.593889
 30
0.0
 11
-280.394109
 21
87.443867
 31
0.0
  0
LINE
  5
217
100
AcDbEntity
  8
1
370
    50
100
AcDbLine
 10
-278.494111
 20
73.343887
 30
0.0
 11
-278.494111
 21
74.443885
 31
0.0
  0
LINE
  5
218
100
AcDbEntity
  8
1
370
    50
100
AcDbLine
 10
-279.49411
 20
73.705781
 30
0.0
 11
-279.49411
 21
74.443885
 31
0.0
  0
ARC
  5
219
100
AcDbEntity
  8
1
370
    50
100
AcDbCircle
 10
-279.39411
 20
71.593889
 30
0.0
 40
0.999999
100
AcDbArc
 50
180.0
 51
270.0
  0
LINE
  5
21A
100
AcDbEntity
  8
1
370
    50
100
AcDbLine
 10
-267.794127
 20
71.593889
 30
0.0
 11
-279.094111
 21
71.593889
 31
0.0
  0
ARC
  5
21B
100
AcDbEntity
  8
1
370
    50
100
AcDbCircle
 10
-267.794127
 20
70.593891
 30
0.0
 40
0.999999
100
AcDbArc
 50
0.0
 51
90.0
  0
LINE
  5
21C
100
AcDbEntity
  8
1
370
    50
100
AcDbLine
 10
-268.294126
 20
70.593891
 30
0.0
 11
-279.39411
 21
70.593891
 31
0.0
  0
LINE
  5
21D
100
AcDbEntity
  8
1
370
    50
100
AcDbLine
 10
-278.594111
 20
68.943893
 30
0.0
 11
-278.594111
 21
52.943916
 31
0.0
  0
LINE
  5
21E
100
AcDbEntity
  8
1
370
    50
100
AcDbLine
 10
-279.39411
 20
72.181994
 30
0.0
 11
-279.39411
 21
71.893889
 31
0.0
  0
ARC
  5
21F
100
AcDbEntity
  8
1
370
    50
100
AcDbCircle
 10
-279.094111
 20
71.893889
 30
0.0
 40
0.3
100
AcDbArc
 50
180.0
 51
270.0
  0
LINE
  5
220
100
AcDbEntity
  8
1
370
    50
100
AcDbLine
 10
-267.794127
 20
70.093892
 30
0.0
 11
-267.794127
 21
69.943892
 31
0.0
  0
ARC
  5
221
100
AcDbEntity
  8
1
370
    50
100
AcDbCircle
 10
-279.49411
 20
72.543888
 30
0.0
 40
0.899999
100
AcDbArc
 50
104.477512
 51
180.0
  0
ARC
  5
222
100
AcDbEntity
  8
1
370
    50
100
AcDbCircle
 10
-279.39411
 20
73.343887
 30
0.0
 40
0.899999
100
AcDbArc
 50
284.477512
 51
0.0
  0
ARC
  5
223
100
AcDbEntity
  8
1
370
    50
100
AcDbCircle
 10
-279.79411
 20
73.705781
 30
0.0
 40
0.3
100
AcDbArc
 50
284.477512
 51
0.0
  0
ARC
  5
224
100
AcDbEntity
  8
1
370
    50
100
AcDbCircle
 10
-279.094111
 20
72.181994
 30
0.0
 40
0.3
100
AcDbArc
 50
104.477512
 51
180.0
  0
LINE
  5
225
100
AcDbEntity
  8
1
370
    50
100
AcDbLine
 10
-278.494111
 20
87.443867
 30
0.0
 11
-278.494111
 21
74.443885
 31
0.0
  0
LINE
  5
226
100
AcDbEntity
  8
1
370
    50
100
AcDbLine
 10
-279.49411
 20
87.443867
 30
0.0
 11
-279.49411
 21
74.443885
 31
0.0
  0
LINE
  5
227
100
AcDbEntity
  8
1
370
    50
100
AcDbLine
 10
-268.094126
 20
62.443903
 30
0.0
 11
-268.094126
 21
52.943916
 31
0.0
  0
LINE
  5
228
100
AcDbEntity
  8
1
370
    50
100
AcDbLine
 10
-267.594127
 20
62.943902
 30
0.0
 11
-266.794128
 21
62.943902
 31
0.0
  0
ARC
  5
229
100
AcDbEntity
  8
1
370
    50
100
AcDbCircle
 10
-267.594127
 20
62.443903
 30
0.0
 40
0.499999
100
AcDbArc
 50
90.0
 51
180.0
  0
LINE
  5
22A
100
AcDbEntity
  8
1
370
    50
100
AcDbLine
 10
-271.594121
 20
68.943893
 30
0.0
 11
-271.594121
 21
52.943916
 31
0.0
  0
LINE
  5
22B
100
AcDbEntity
  8
1
370
    50
100
AcDbLine
 10
-277.594113
 20
69.943892
 30
0.0
 11
-266.794128
 21
69.943892
 31
0.0
  0
ARC
  5
22C
100
AcDbEntity
  8
1
370
    50
100
AcDbCircle
 10
-277.594113
 20
68.943893
 30
0.0
 40
0.999999
100
AcDbArc
 50
90.0
 51
180.0
  0
ARC
  5
22D
100
AcDbEntity
  8
1
370
    50
100
AcDbCircle
 10
-270.594123
 20
68.943893
 30
0.0
 40
0.999999
100
AcDbArc
 50
90.0
 51
180.0
  0
ARC
  5
22E
100
AcDbEntity
  8
1
370
    50
100
AcDbCircle
 10
-268.294126
 20
70.093892
 30
0.0
 40
0.499999
100
AcDbArc
 50
0.0
 51
90.0
  0
LINE
  5
22F
100
AcDbEntity
  8
1
370
    25
  6
CENTER
100
AcDbLine
 10
-282.326413
 20
52.943916
 30
0.0
 11
-263.631135
 21
52.943916
 31
0.0
  0
LINE
  5
230
100
AcDbEntity
  8
1
370
    50
100
AcDbLine
 10
-280.394109
 20
18.443965
 30
0.0
 11
-278.494111
 21
18.443965
 31
0.0
  0
LINE
  5
231
100
AcDbEntity
  8
1
370
    50
100
AcDbLine
 10
-266.794128
 20
35.293941
 30
0.0
 11
-266.794128
 21
52.943916
 31
0.0
  0
LINE
  5
232
100
AcDbEntity
  8
1
370
    50
100
AcDbLine
 10
-280.394109
 20
34.293943
 30
0.0
 11
-280.394109
 21
18.443965
 31
0.0
  0
LINE
  5
233
100
AcDbEntity
  8
1
370
    50
100
AcDbLine
 10
-278.494111
 20
32.543945
 30
0.0
 11
-278.494111
 21
31.443947
 31
0.0
  0
LINE
  5
234
100
AcDbEntity
  8
1
370
    50
100
AcDbLine
 10
-279.49411
 20
32.182051
 30
0.0
 11
-279.49411
 21
31.443947
 31
0.0
  0
ARC
  5
235
100
AcDbEntity
  8
1
370
    50
100
AcDbCircle
 10
-279.39411
 20
34.293943
 30
0.0
 40
0.999999
100
AcDbArc
 50
90.0
 51
180.0
  0
LINE
  5
236
100
AcDbEntity
  8
1
370
    50
100
AcDbLine
 10
-267.794127
 20
34.293943
 30
0.0
 11
-279.094111
 21
34.293943
 31
0.0
  0
ARC
  5
237
100
AcDbEntity
  8
1
370
    50
100
AcDbCircle
 10
-267.794127
 20
35.293941
 30
0.0
 40
0.999999
100
AcDbArc
 50
270.0
 51
360.0
  0
LINE
  5
238
100
AcDbEntity
  8
1
370
    50
100
AcDbLine
 10
-268.294126
 20
35.293941
 30
0.0
 11
-279.39411
 21
35.293941
 31
0.0
  0
LINE
  5
239
100
AcDbEntity
  8
1
370
    50
100
AcDbLine
 10
-278.594111
 20
36.943939
 30
0.0
 11
-278.594111
 21
52.943916
 31
0.0
  0
LINE
  5
23A
100
AcDbEntity
  8
1
370
    50
100
AcDbLine
 10
-279.39411
 20
33.705839
 30
0.0
 11
-279.39411
 21
33.993943
 31
0.0
  0
ARC
  5
23B
100
AcDbEntity
  8
1
370
    50
100
AcDbCircle
 10
-279.094111
 20
33.993943
 30
0.0
 40
0.3
100
AcDbArc
 50
90.0
 51
180.0
  0
LINE
  5
23C
100
AcDbEntity
  8
1
370
    50
100
AcDbLine
 10
-267.794127
 20
35.793941
 30
0.0
 11
-267.794127
 21
35.94394
 31
0.0
  0
ARC
  5
23D
100
AcDbEntity
  8
1
370
    50
100
AcDbCircle
 10
-279.49411
 20
33.343944
 30
0.0
 40
0.899999
100
AcDbArc
 50
180.0
 51
255.522488
  0
ARC
  5
23E
100
AcDbEntity
  8
1
370
    50
100
AcDbCircle
 10
-279.39411
 20
32.543945
 30
0.0
 40
0.899999
100
AcDbArc
 50
360.0
 51
75.522488
  0
ARC
  5
23F
100
AcDbEntity
  8
1
370
    50
100
AcDbCircle
 10
-279.79411
 20
32.182051
 30
0.0
 40
0.3
100
AcDbArc
 50
360.0
 51
75.522488
  0
ARC
  5
240
100
AcDbEntity
  8
1
370
    50
100
AcDbCircle
 10
-279.094111
 20
33.705839
 30
0.0
 40
0.3
100
AcDbArc
 50
180.0
 51
255.522488
  0
LINE
  5
241
100
AcDbEntity
  8
1
370
    50
100
AcDbLine
 10
-278.494111
 20
18.443965
 30
0.0
 11
-278.494111
 21
31.443947
 31
0.0
  0
LINE
  5
242
100
AcDbEntity
  8
1
370
    50
100
AcDbLine
 10
-279.49411
 20
18.443965
 30
0.0
 11
-279.49411
 21
31.443947
 31
0.0
  0
LINE
  5
243
100
AcDbEntity
  8
1
370
    50
100
AcDbLine
 10
-268.094126
 20
43.44393
 30
0.0
 11
-268.094126
 21
52.943916
 31
0.0
  0
LINE
  5
244
100
AcDbEntity
  8
1
370
    50
100
AcDbLine
 10
-267.594127
 20
42.94393
 30
0.0
 11
-266.794128
 21
42.94393
 31
0.0
  0
ARC
  5
245
100
AcDbEntity
  8
1
370
    50
100
AcDbCircle
 10
-267.594127
 20
43.44393
 30
0.0
 40
0.499999
100
AcDbArc
 50
180.0
 51
270.0
  0
LINE
  5
246
100
AcDbEntity
  8
1
370
    50
100
AcDbLine
 10
-271.594121
 20
36.943939
 30
0.0
 11
-271.594121
 21
52.943916
 31
0.0
  0
LINE
  5
247
100
AcDbEntity
  8
1
370
    50
100
AcDbLine
 10
-277.594113
 20
35.94394
 30
0.0
 11
-266.794128
 21
35.94394
 31
0.0
  0
ARC
  5
248
100
AcDbEntity
  8
1
370
    50
100
AcDbCircle
 10
-277.594113
 20
36.943939
 30
0.0
 40
0.999999
100
AcDbArc
 50
180.0
 51
270.0
  0
ARC
  5
249
100
AcDbEntity
  8
1
370
    50
100
AcDbCircle
 10
-270.594123
 20
36.943939
 30
0.0
 40
0.999999
100
AcDbArc
 50
180.0
 51
270.0
  0
ARC
  5
24A
100
AcDbEntity
  8
1
370
    50
100
AcDbCircle
 10
-268.294126
 20
35.793941
 30
0.0
 40
0.499999
100
AcDbArc
 50
270.0
 51
360.0
  0
LINE
  5
24B
100
AcDbEntity
  8
1
370
    25
  6
CENTER
100
AcDbLine
 10
-283.285502
 20
81.443916
 30
0.0
 11
-264.506995
 21
81.443916
 31
0.0
  0
LINE
  5
24C
100
AcDbEntity
  8
1
370
    50
100
AcDbLine
 10
-278.494111
 20
82.693916
 30
0.0
 11
-268.161874
 21
82.693916
 31
0.0
  0
LINE
  5
24D
100
AcDbEntity
  8
1
370
    50
100
AcDbLine
 10
-278.494111
 20
80.193916
 30
0.0
 11
-268.161874
 21
80.193916
 31
0.0
  0
LINE
  5
24E
100
AcDbEntity
  8
1
370
    50
100
AcDbLine
 10
-268.161874
 20
82.693916
 30
0.0
 11
-265.144107
 21
81.443916
 31
0.0
  0
LINE
  5
24F
100
AcDbEntity
  8
1
370
    50
100
AcDbLine
 10
-268.161874
 20
80.193916
 30
0.0
 11
-265.144107
 21
81.443916
 31
0.0
  0
LINE
  5
250
100
AcDbEntity
  8
1
370
    25
100
AcDbLine
 10
-277.844107
 20
83.193916
 30
0.0
 11
-276.432996
 21
79.693916
 31
0.0
  0
LINE
  5
251
100
AcDbEntity
  8
1
370
    25
100
AcDbLine
 10
-276.432996
 20
83.193916
 30
0.0
 11
-275.021885
 21
79.693916
 31
0.0
  0
LINE
  5
252
100
AcDbEntity
  8
1
370
    25
100
AcDbLine
 10
-275.021885
 20
83.193916
 30
0.0
 11
-273.610774
 21
79.693916
 31
0.0
  0
LINE
  5
253
100
AcDbEntity
  8
1
370
    25
100
AcDbLine
 10
-273.610774
 20
83.193916
 30
0.0
 11
-272.199663
 21
79.693916
 31
0.0
  0
LINE
  5
254
100
AcDbEntity
  8
1
370
    25
100
AcDbLine
 10
-272.199663
 20
83.193916
 30
0.0
 11
-270.788552
 21
79.693916
 31
0.0
  0
LINE
  5
255
100
AcDbEntity
  8
1
370
    25
100
AcDbLine
 10
-270.788552
 20
83.193916
 30
0.0
 11
-269.377441
 21
79.693916
 31
0.0
  0
LINE
  5
256
100
AcDbEntity
  8
1
370
    25
100
AcDbLine
 10
-269.377441
 20
83.193916
 30
0.0
 11
-267.98008
 21
79.728022
 31
0.0
  0
LINE
  5
257
100
AcDbEntity
  8
1
370
    25
100
AcDbLine
 10
-267.947066
 20
83.146136
 30
0.0
 11
-266.770902
 21
80.22888
 31
0.0
  0
LINE
  5
258
100
AcDbEntity
  8
1
370
    25
100
AcDbLine
 10
-266.253054
 20
82.444453
 30
0.0
 11
-265.561724
 21
80.729737
 31
0.0
  0
LINE
  5
259
100
AcDbEntity
  8
1
370
    25
100
AcDbLine
 10
-278.494111
 20
81.306131
 30
0.0
 11
-277.844107
 21
79.693916
 31
0.0
  0
LINE
  5
25A
100
AcDbEntity
  8
1
370
    25
  6
CENTER
100
AcDbLine
 10
-283.285502
 20
24.443916
 30
0.0
 11
-264.506995
 21
24.443916
 31
0.0
  0
LINE
  5
25B
100
AcDbEntity
  8
1
370
    50
100
AcDbLine
 10
-278.494111
 20
25.693916
 30
0.0
 11
-268.161874
 21
25.693916
 31
0.0
  0
LINE
  5
25C
100
AcDbEntity
  8
1
370
    50
100
AcDbLine
 10
-278.494111
 20
23.193916
 30
0.0
 11
-268.161874
 21
23.193916
 31
0.0
  0
LINE
  5
25D
100
AcDbEntity
  8
1
370
    50
100
AcDbLine
 10
-268.161874
 20
25.693916
 30
0.0
 11
-265.144107
 21
24.443916
 31
0.0
  0
LINE
  5
25E
100
AcDbEntity
  8
1
370
    50
100
AcDbLine
 10
-268.161874
 20
23.193916
 30
0.0
 11
-265.144107
 21
24.443916
 31
0.0
  0
LINE
  5
25F
100
AcDbEntity
  8
1
370
    25
100
AcDbLine
 10
-277.844107
 20
26.193916
 30
0.0
 11
-276.432996
 21
22.693916
 31
0.0
  0
LINE
  5
260
100
AcDbEntity
  8
1
370
    25
100
AcDbLine
 10
-276.432996
 20
26.193916
 30
0.0
 11
-275.021885
 21
22.693916
 31
0.0
  0
LINE
  5
261
100
AcDbEntity
  8
1
370
    25
100
AcDbLine
 10
-275.021885
 20
26.193916
 30
0.0
 11
-273.610774
 21
22.693916
 31
0.0
  0
LINE
  5
262
100
AcDbEntity
  8
1
370
    25
100
AcDbLine
 10
-273.610774
 20
26.193916
 30
0.0
 11
-272.199663
 21
22.693916
 31
0.0
  0
LINE
  5
263
100
AcDbEntity
  8
1
370
    25
100
AcDbLine
 10
-272.199663
 20
26.193916
 30
0.0
 11
-270.788552
 21
22.693916
 31
0.0
  0
LINE
  5
264
100
AcDbEntity
  8
1
370
    25
100
AcDbLine
 10
-270.788552
 20
26.193916
 30
0.0
 11
-269.377441
 21
22.693916
 31
0.0
  0
LINE
  5
265
100
AcDbEntity
  8
1
370
    25
100
AcDbLine
 10
-269.377441
 20
26.193916
 30
0.0
 11
-267.98008
 21
22.728022
 31
0.0
  0
LINE
  5
266
100
AcDbEntity
  8
1
370
    25
100
AcDbLine
 10
-267.947066
 20
26.146136
 30
0.0
 11
-266.770902
 21
23.22888
 31
0.0
  0
LINE
  5
267
100
AcDbEntity
  8
1
370
    25
100
AcDbLine
 10
-266.253054
 20
25.444453
 30
0.0
 11
-265.561724
 21
23.729737
 31
0.0
  0
LINE
  5
268
100
AcDbEntity
  8
1
370
    25
100
AcDbLine
 10
-278.494111
 20
24.306131
 30
0.0
 11
-277.844107
 21
22.693916
 31
0.0
  0
ARC
  5
269
100
AcDbEntity
  8
1
370
    50
100
AcDbCircle
 10
-280.394109
 20
85.843869
 30
0.0
 40
1.999997
100
AcDbArc
 50
0.0
 51
18.194872
  0
ARC
  5
26A
100
AcDbEntity
  8
1
370
    50
100
AcDbCircle
 10
-280.394109
 20
85.843869
 30
0.0
 40
1.999997
100
AcDbArc
 50
53.130102
 51
90.0
  0
ARC
  5
26B
100
AcDbEntity
  8
1
370
    50
100
AcDbCircle
 10
-280.394109
 20
20.043963
 30
0.0
 40
1.999997
100
AcDbArc
 50
270.0
 51
306.869898
  0
ARC
  5
26C
100
AcDbEntity
  8
1
370
    50
100
AcDbCircle
 10
-280.394109
 20
20.043963
 30
0.0
 40
1.999997
100
AcDbArc
 50
341.805128
 51
360.0
  0
LINE
  5
26D
100
AcDbEntity
  8
1
370
    50
100
AcDbLine
 10
-278.394112
 20
71.593889
 30
0.0
 11
-278.394112
 21
80.193916
 31
0.0
  0
LINE
  5
26E
100
AcDbEntity
  8
1
370
    50
100
AcDbLine
 10
-278.394112
 20
82.693916
 30
0.0
 11
-278.394112
 21
85.843869
 31
0.0
  0
LINE
  5
26F
100
AcDbEntity
  8
1
370
    50
100
AcDbLine
 10
-278.394112
 20
20.043963
 30
0.0
 11
-278.394112
 21
23.193916
 31
0.0
  0
LINE
  5
270
100
AcDbEntity
  8
1
370
    50
100
AcDbLine
 10
-278.394112
 20
25.693916
 30
0.0
 11
-278.394112
 21
34.293943
 31
0.0
  0
LINE
  5
271
100
AcDbEntity
  8
1
370
    25
  6
CENTER
100
AcDbLine
 10
96.105893
 20
-20.06469
 30
0.0
 11
96.105893
 21
-38.843197
 31
0.0
  0
LINE
  5
272
100
AcDbEntity
  8
1
370
    50
100
AcDbLine
 10
96.105893
 20
-22.956084
 30
0.0
 11
84.105893
 21
-22.956084
 31
0.0
  0
LINE
  5
273
100
AcDbEntity
  8
1
370
    50
100
AcDbLine
 10
85.105893
 20
-24.856084
 30
0.0
 11
85.105893
 21
-35.556084
 31
0.0
  0
LINE
  5
274
100
AcDbEntity
  8
1
370
    50
100
AcDbLine
 10
84.105893
 20
-24.856084
 30
0.0
 11
84.105893
 21
-35.556084
 31
0.0
  0
LINE
  5
275
100
AcDbEntity
  8
1
370
    50
100
AcDbLine
 10
108.105893
 20
-32.056084
 30
0.0
 11
108.105893
 21
-35.556084
 31
0.0
  0
ARC
  5
276
100
AcDbEntity
  8
1
370
    50
100
AcDbCircle
 10
85.105893
 20
-35.556084
 30
0.0
 40
1.0
100
AcDbArc
 50
180.0
 51
270.0
  0
ARC
  5
277
100
AcDbEntity
  8
1
370
    50
100
AcDbCircle
 10
107.105893
 20
-35.556084
 30
0.0
 40
1.0
100
AcDbArc
 50
270.0
 51
360.0
  0
LINE
  5
278
100
AcDbEntity
  8
1
370
    50
100
AcDbLine
 10
85.305893
 20
-24.856084
 30
0.0
 11
85.305893
 21
-36.556084
 31
0.0
  0
LINE
  5
279
100
AcDbEntity
  8
1
370
    50
100
AcDbLine
 10
108.105893
 20
-32.056084
 30
0.0
 11
107.105893
 21
-32.056084
 31
0.0
  0
LINE
  5
27A
100
AcDbEntity
  8
1
370
    50
100
AcDbLine
 10
96.105893
 20
-22.956084
 30
0.0
 11
108.105893
 21
-22.956084
 31
0.0
  0
LINE
  5
27B
100
AcDbEntity
  8
1
370
    50
100
AcDbLine
 10
106.905893
 20
-24.856084
 30
0.0
 11
106.905893
 21
-36.556084
 31
0.0
  0
LINE
  5
27C
100
AcDbEntity
  8
1
370
    50
100
AcDbLine
 10
85.105893
 20
-24.856084
 30
0.0
 11
84.105893
 21
-24.856084
 31
0.0
  0
LINE
  5
27D
100
AcDbEntity
  8
1
370
    50
100
AcDbLine
 10
96.455898
 20
50.443909
 30
0.0
 11
95.755898
 21
50.443909
 31
0.0
  0
LINE
  5
27E
100
AcDbEntity
  8
1
370
    50
100
AcDbLine
 10
96.455898
 20
55.443909
 30
0.0
 11
95.755898
 21
55.443909
 31
0.0
  0
LINE
  5
27F
100
AcDbEntity
  8
1
370
    50
100
AcDbLine
 10
93.605898
 20
52.593909
 30
0.0
 11
93.605898
 21
53.293909
 31
0.0
  0
LINE
  5
280
100
AcDbEntity
  8
1
370
    50
100
AcDbLine
 10
98.605898
 20
52.593909
 30
0.0
 11
98.605898
 21
53.293909
 31
0.0
  0
LINE
  5
281
100
AcDbEntity
  8
1
370
    50
100
AcDbLine
 10
95.455898
 20
50.743909
 30
0.0
 11
95.455898
 21
51.993909
 31
0.0
  0
LINE
  5
282
100
AcDbEntity
  8
1
370
    50
100
AcDbLine
 10
95.455898
 20
53.893909
 30
0.0
 11
95.455898
 21
55.143909
 31
0.0
  0
LINE
  5
283
100
AcDbEntity
  8
1
370
    50
100
AcDbLine
 10
98.305898
 20
53.593909
 30
0.0
 11
97.055898
 21
53.593909
 31
0.0
  0
LINE
  5
284
100
AcDbEntity
  8
1
370
    50
100
AcDbLine
 10
95.155898
 20
53.593909
 30
0.0
 11
93.905898
 21
53.593909
 31
0.0
  0
LINE
  5
285
100
AcDbEntity
  8
1
370
    50
100
AcDbLine
 10
98.305898
 20
52.293909
 30
0.0
 11
97.055898
 21
52.293909
 31
0.0
  0
LINE
  5
286
100
AcDbEntity
  8
1
370
    50
100
AcDbLine
 10
95.155898
 20
52.293909
 30
0.0
 11
93.905898
 21
52.293909
 31
0.0
  0
LINE
  5
287
100
AcDbEntity
  8
1
370
    50
100
AcDbLine
 10
96.755898
 20
50.743909
 30
0.0
 11
96.755898
 21
51.993909
 31
0.0
  0
LINE
  5
288
100
AcDbEntity
  8
1
370
    50
100
AcDbLine
 10
96.755898
 20
53.893909
 30
0.0
 11
96.755898
 21
55.143909
 31
0.0
  0
ARC
  5
289
100
AcDbEntity
  8
1
370
    50
100
AcDbCircle
 10
95.155898
 20
51.993909
 30
0.0
 40
0.3
100
AcDbArc
 50
0.0
 51
90.0
  0
ARC
  5
28A
100
AcDbEntity
  8
1
370
    50
100
AcDbCircle
 10
95.155898
 20
53.893909
 30
0.0
 40
0.3
100
AcDbArc
 50
270.0
 51
360.0
  0
ARC
  5
28B
100
AcDbEntity
  8
1
370
    50
100
AcDbCircle
 10
97.055898
 20
51.993909
 30
0.0
 40
0.3
100
AcDbArc
 50
90.0
 51
180.0
  0
ARC
  5
28C
100
AcDbEntity
  8
1
370
    50
100
AcDbCircle
 10
97.055898
 20
53.893909
 30
0.0
 40
0.3
100
AcDbArc
 50
180.0
 51
270.0
  0
ARC
  5
28D
100
AcDbEntity
  8
1
370
    50
100
AcDbCircle
 10
95.755898
 20
50.743909
 30
0.0
 40
0.3
100
AcDbArc
 50
180.0
 51
270.0
  0
ARC
  5
28E
100
AcDbEntity
  8
1
370
    50
100
AcDbCircle
 10
93.905898
 20
52.593909
 30
0.0
 40
0.3
100
AcDbArc
 50
180.0
 51
270.0
  0
ARC
  5
28F
100
AcDbEntity
  8
1
370
    50
100
AcDbCircle
 10
93.905898
 20
53.293909
 30
0.0
 40
0.3
100
AcDbArc
 50
90.0
 51
180.0
  0
ARC
  5
290
100
AcDbEntity
  8
1
370
    50
100
AcDbCircle
 10
95.755898
 20
55.143909
 30
0.0
 40
0.3
100
AcDbArc
 50
90.0
 51
180.0
  0
ARC
  5
291
100
AcDbEntity
  8
1
370
    50
100
AcDbCircle
 10
96.455898
 20
55.143909
 30
0.0
 40
0.3
100
AcDbArc
 50
0.0
 51
90.0
  0
ARC
  5
292
100
AcDbEntity
  8
1
370
    50
100
AcDbCircle
 10
98.305898
 20
53.293909
 30
0.0
 40
0.3
100
AcDbArc
 50
0.0
 51
90.0
  0
ARC
  5
293
100
AcDbEntity
  8
1
370
    50
100
AcDbCircle
 10
98.305898
 20
52.593909
 30
0.0
 40
0.3
100
AcDbArc
 50
270.0
 51
0.0
  0
ARC
  5
294
100
AcDbEntity
  8
1
370
    50
100
AcDbCircle
 10
96.455898
 20
50.743909
 30
0.0
 40
0.3
100
AcDbArc
 50
270.0
 51
360.0
  0
LINE
  5
295
100
AcDbEntity
  8
1
370
    50
100
AcDbLine
 10
85.105885
 20
-33.756084
 30
0.0
 11
85.305893
 21
-33.756084
 31
0.0
  0
LINE
  5
296
100
AcDbEntity
  8
1
370
    50
100
AcDbLine
 10
85.105885
 20
-33.756084
 30
0.0
 11
85.105885
 21
-35.356084
 31
0.0
  0
LINE
  5
297
100
AcDbEntity
  8
1
370
    50
100
AcDbLine
 10
107.105885
 20
-32.056084
 30
0.0
 11
107.105885
 21
-35.556084
 31
0.0
  0
LINE
  5
298
100
AcDbEntity
  8
1
370
    50
100
AcDbLine
 10
83.005893
 20
56.443916
 30
0.0
 11
89.105893
 21
56.443916
 31
0.0
  0
LINE
  5
299
100
AcDbEntity
  8
1
370
    50
100
AcDbLine
 10
82.005893
 20
52.943916
 30
0.0
 11
82.005893
 21
55.443916
 31
0.0
  0
ARC
  5
29A
100
AcDbEntity
  8
1
370
    50
100
AcDbCircle
 10
83.005893
 20
55.443916
 30
0.0
 40
1.0
100
AcDbArc
 50
90.0
 51
180.0
  0
LINE
  5
29B
100
AcDbEntity
  8
1
370
    50
100
AcDbLine
 10
89.105893
 20
67.143916
 30
0.0
 11
89.105893
 21
38.743916
 31
0.0
  0
ARC
  5
29C
100
AcDbEntity
  8
1
370
    50
100
AcDbCircle
 10
91.105893
 20
67.143916
 30
0.0
 40
2.0
100
AcDbArc
 50
115.841933
 51
180.0
  0
LINE
  5
29D
100
AcDbEntity
  8
1
370
    50
100
AcDbLine
 10
102.905893
 20
52.943916
 30
0.0
 11
102.905893
 21
67.143916
 31
0.0
  0
ARC
  5
29E
100
AcDbEntity
  8
1
370
    50
100
AcDbCircle
 10
100.905893
 20
67.143916
 30
0.0
 40
2.0
100
AcDbArc
 50
0.0
 51
64.145352
  0
LINE
  5
29F
100
AcDbEntity
  8
1
370
    50
100
AcDbLine
 10
82.005893
 20
-22.956084
 30
0.0
 11
82.005893
 21
-23.056084
 31
0.0
  0
LINE
  5
2A0
100
AcDbEntity
  8
1
370
    50
100
AcDbLine
 10
82.505893
 20
-21.956084
 30
0.0
 11
88.796069
 21
-21.956084
 31
0.0
  0
LINE
  5
2A1
100
AcDbEntity
  8
1
370
    50
100
AcDbLine
 10
76.605893
 20
-23.056084
 30
0.0
 11
82.005893
 21
-23.056084
 31
0.0
  0
LINE
  5
2A2
100
AcDbEntity
  8
1
370
    50
100
AcDbLine
 10
77.123424
 20
-24.556084
 30
0.0
 11
84.105893
 21
-24.556084
 31
0.0
  0
LINE
  5
2A3
100
AcDbEntity
  8
1
370
    50
100
AcDbLine
 10
76.605893
 20
-23.056084
 30
0.0
 11
76.6235
 21
-24.06481
 31
0.0
  0
ARC
  5
2A4
100
AcDbEntity
  8
1
370
    50
100
AcDbCircle
 10
77.123424
 20
-24.056084
 30
0.0
 40
0.5
100
AcDbArc
 50
181.0
 51
270.0
  0
LINE
  5
2A5
100
AcDbEntity
  8
1
370
    50
100
AcDbLine
 10
69.045893
 20
87.843916
 30
0.0
 11
102.605893
 21
87.843916
 31
0.0
  0
ARC
  5
2A6
100
AcDbEntity
  8
1
370
    50
100
AcDbCircle
 10
102.605893
 20
81.843916
 30
0.0
 40
6.0
100
AcDbArc
 50
0.0
 51
90.0
  0
LINE
  5
2A7
100
AcDbEntity
  8
1
370
    50
100
AcDbLine
 10
79.305893
 20
52.943916
 30
0.0
 11
79.305893
 21
56.093916
 31
0.0
  0
LINE
  5
2A8
100
AcDbEntity
  8
1
370
    50
100
AcDbLine
 10
87.505893
 20
68.943916
 30
0.0
 11
101.805893
 21
68.943916
 31
0.0
  0
LINE
  5
2A9
100
AcDbEntity
  8
1
370
    50
100
AcDbLine
 10
85.505893
 20
57.093916
 30
0.0
 11
85.505893
 21
66.943916
 31
0.0
  0
LINE
  5
2AA
100
AcDbEntity
  8
1
370
    50
100
AcDbLine
 10
79.805893
 20
56.593916
 30
0.0
 11
85.005893
 21
56.593916
 31
0.0
  0
ARC
  5
2AB
100
AcDbEntity
  8
1
370
    50
100
AcDbCircle
 10
85.005893
 20
57.093916
 30
0.0
 40
0.5
100
AcDbArc
 50
270.0
 51
360.0
  0
ARC
  5
2AC
100
AcDbEntity
  8
1
370
    50
100
AcDbCircle
 10
79.805893
 20
56.093916
 30
0.0
 40
0.5
100
AcDbArc
 50
90.0
 51
180.0
  0
LINE
  5
2AD
100
AcDbEntity
  8
1
370
    25
  6
CENTER
100
AcDbLine
 10
65.428452
 20
52.943916
 30
0.0
 11
112.103652
 21
52.943916
 31
0.0
  0
CIRCLE
  5
2AE
100
AcDbEntity
  8
1
370
    25
100
AcDbCircle
 10
96.105893
 20
81.443916
 30
0.0
 40
4.0
  0
ARC
  5
2AF
100
AcDbEntity
  8
1
370
    50
100
AcDbCircle
 10
87.505893
 20
66.943916
 30
0.0
 40
2.0
100
AcDbArc
 50
90.0
 51
180.0
  0
ARC
  5
2B0
100
AcDbEntity
  8
1
370
    50
100
AcDbCircle
 10
101.805893
 20
66.943916
 30
0.0
 40
2.0
100
AcDbArc
 50
0.0
 51
90.0
  0
LINE
  5
2B1
100
AcDbEntity
  8
1
370
    50
100
AcDbLine
 10
67.605893
 20
52.943916
 30
0.0
 11
67.605893
 21
87.231864
 31
0.0
  0
LINE
  5
2B2
100
AcDbEntity
  8
1
370
    50
100
AcDbLine
 10
108.605893
 20
52.943916
 30
0.0
 11
108.605893
 21
81.843916
 31
0.0
  0
LINE
  5
2B3
100
AcDbEntity
  8
1
370
    50
100
AcDbLine
 10
103.805893
 20
52.943916
 30
0.0
 11
103.805893
 21
66.943916
 31
0.0
  0
LINE
  5
2B4
100
AcDbEntity
  8
1
370
    25
  6
CENTER
100
AcDbLine
 10
90.605893
 20
81.443916
 30
0.0
 11
101.605893
 21
81.443916
 31
0.0
  0
LINE
  5
2B5
100
AcDbEntity
  8
1
370
    25
  6
CENTER
100
AcDbLine
 10
96.105893
 20
89.662589
 30
0.0
 11
96.105893
 21
15.653281
 31
0.0
  0
LINE
  5
2B6
100
AcDbEntity
  8
1
370
    50
100
AcDbLine
 10
108.605893
 20
-21.956084
 30
0.0
 11
70.081851
 21
-21.956084
 31
0.0
  0
LINE
  5
2B7
100
AcDbEntity
  8
1
370
    50
100
AcDbLine
 10
108.605893
 20
-22.956084
 30
0.0
 11
108.605893
 21
-21.956084
 31
0.0
  0
LINE
  5
2B8
100
AcDbEntity
  8
1
370
    50
100
AcDbLine
 10
68.512166
 20
-24.956081
 30
0.0
 11
67.605859
 21
-24.533463
 31
0.0
  0
LINE
  5
2B9
100
AcDbEntity
  8
1
370
    50
100
AcDbLine
 10
68.269235
 20
-23.110847
 30
0.0
 11
67.605859
 21
-24.533463
 31
0.0
  0
LINE
  5
2BA
100
AcDbEntity
  8
1
370
    50
100
AcDbLine
 10
108.605893
 20
-22.956084
 30
0.0
 11
70.081851
 21
-22.956084
 31
0.0
  0
LINE
  5
2BB
100
AcDbEntity
  8
1
370
    50
100
AcDbLine
 10
69.175543
 20
-23.533466
 30
0.0
 11
68.512166
 21
-24.956081
 31
0.0
  0
ARC
  5
2BC
100
AcDbEntity
  8
1
370
    50
100
AcDbCircle
 10
70.081851
 20
-23.956084
 30
0.0
 40
2.0
100
AcDbArc
 50
90.0
 51
155.0
  0
ARC
  5
2BD
100
AcDbEntity
  8
1
370
    50
100
AcDbCircle
 10
70.081851
 20
-23.956084
 30
0.0
 40
1.0
100
AcDbArc
 50
90.0
 51
155.0
  0
ARC
  5
2BE
100
AcDbEntity
  8
1
370
    50
100
AcDbCircle
 10
69.045893
 20
85.843916
 30
0.0
 40
2.0
100
AcDbArc
 50
90.0
 51
136.05448
  0
LINE
  5
2BF
100
AcDbEntity
  8
1
370
    25
100
AcDbLine
 10
95.605893
 20
83.643916
 30
0.0
 11
96.605893
 21
83.643916
 31
0.0
  0
ARC
  5
2C0
100
AcDbEntity
  8
1
370
    25
100
AcDbCircle
 10
98.305893
 20
83.643916
 30
0.0
 40
1.7
100
AcDbArc
 50
180.0
 51
270.0
  0
ARC
  5
2C1
100
AcDbEntity
  8
1
370
    25
100
AcDbCircle
 10
98.305893
 20
79.243916
 30
0.0
 40
1.7
100
AcDbArc
 50
90.0
 51
180.0
  0
LINE
  5
2C2
100
AcDbEntity
  8
1
370
    25
100
AcDbLine
 10
98.305893
 20
80.943916
 30
0.0
 11
98.305893
 21
81.943916
 31
0.0
  0
ARC
  5
2C3
100
AcDbEntity
  8
1
370
    25
100
AcDbCircle
 10
93.905893
 20
83.643916
 30
0.0
 40
1.7
100
AcDbArc
 50
270.0
 51
360.0
  0
LINE
  5
2C4
100
AcDbEntity
  8
1
370
    25
100
AcDbLine
 10
93.905893
 20
81.943916
 30
0.0
 11
93.905893
 21
80.943916
 31
0.0
  0
LINE
  5
2C5
100
AcDbEntity
  8
1
370
    25
100
AcDbLine
 10
96.605893
 20
79.243916
 30
0.0
 11
95.605893
 21
79.243916
 31
0.0
  0
ARC
  5
2C6
100
AcDbEntity
  8
1
370
    25
100
AcDbCircle
 10
93.905893
 20
79.243916
 30
0.0
 40
1.7
100
AcDbArc
 50
0.0
 51
90.0
  0
CIRCLE
  5
2C7
100
AcDbEntity
  8
1
370
    50
100
AcDbCircle
 10
96.105893
 20
81.443916
 30
0.0
 40
3.5
  0
ARC
  5
2C8
100
AcDbEntity
  8
1
370
    50
100
AcDbCircle
 10
96.105891
 20
52.943916
 30
0.0
 40
4.1
100
AcDbArc
 50
0.0
 51
180.0
  0
LINE
  5
2C9
100
AcDbEntity
  8
1
370
    50
100
AcDbLine
 10
83.005893
 20
49.443916
 30
0.0
 11
89.105893
 21
49.443916
 31
0.0
  0
LINE
  5
2CA
100
AcDbEntity
  8
1
370
    50
100
AcDbLine
 10
82.005893
 20
52.943916
 30
0.0
 11
82.005893
 21
50.443916
 31
0.0
  0
ARC
  5
2CB
100
AcDbEntity
  8
1
370
    50
100
AcDbCircle
 10
83.005893
 20
50.443916
 30
0.0
 40
1.0
100
AcDbArc
 50
180.0
 51
270.0
  0
ARC
  5
2CC
100
AcDbEntity
  8
1
370
    50
100
AcDbCircle
 10
91.105893
 20
38.743916
 30
0.0
 40
2.0
100
AcDbArc
 50
180.0
 51
244.158067
  0
LINE
  5
2CD
100
AcDbEntity
  8
1
370
    50
100
AcDbLine
 10
102.905893
 20
52.943916
 30
0.0
 11
102.905893
 21
38.743916
 31
0.0
  0
ARC
  5
2CE
100
AcDbEntity
  8
1
370
    50
100
AcDbCircle
 10
100.905893
 20
38.743916
 30
0.0
 40
2.0
100
AcDbArc
 50
295.854648
 51
360.0
  0
LINE
  5
2CF
100
AcDbEntity
  8
1
370
    50
100
AcDbLine
 10
69.045893
 20
18.043916
 30
0.0
 11
102.605893
 21
18.043916
 31
0.0
  0
ARC
  5
2D0
100
AcDbEntity
  8
1
370
    50
100
AcDbCircle
 10
102.605893
 20
24.043916
 30
0.0
 40
6.0
100
AcDbArc
 50
270.0
 51
360.0
  0
LINE
  5
2D1
100
AcDbEntity
  8
1
370
    50
100
AcDbLine
 10
79.305893
 20
52.943916
 30
0.0
 11
79.305893
 21
49.793916
 31
0.0
  0
LINE
  5
2D2
100
AcDbEntity
  8
1
370
    50
100
AcDbLine
 10
87.505893
 20
36.943916
 30
0.0
 11
101.805893
 21
36.943916
 31
0.0
  0
LINE
  5
2D3
100
AcDbEntity
  8
1
370
    50
100
AcDbLine
 10
85.505893
 20
48.793916
 30
0.0
 11
85.505893
 21
38.943916
 31
0.0
  0
LINE
  5
2D4
100
AcDbEntity
  8
1
370
    50
100
AcDbLine
 10
79.805893
 20
49.293916
 30
0.0
 11
85.005893
 21
49.293916
 31
0.0
  0
ARC
  5
2D5
100
AcDbEntity
  8
1
370
    50
100
AcDbCircle
 10
85.005893
 20
48.793916
 30
0.0
 40
0.5
100
AcDbArc
 50
0.0
 51
90.0
  0
ARC
  5
2D6
100
AcDbEntity
  8
1
370
    50
100
AcDbCircle
 10
79.805893
 20
49.793916
 30
0.0
 40
0.5
100
AcDbArc
 50
180.0
 51
270.0
  0
CIRCLE
  5
2D7
100
AcDbEntity
  8
1
370
    25
100
AcDbCircle
 10
96.105893
 20
24.443916
 30
0.0
 40
4.0
  0
ARC
  5
2D8
100
AcDbEntity
  8
1
370
    50
100
AcDbCircle
 10
87.505893
 20
38.943916
 30
0.0
 40
2.0
100
AcDbArc
 50
180.0
 51
270.0
  0
ARC
  5
2D9
100
AcDbEntity
  8
1
370
    50
100
AcDbCircle
 10
101.805893
 20
38.943916
 30
0.0
 40
2.0
100
AcDbArc
 50
270.0
 51
360.0
  0
LINE
  5
2DA
100
AcDbEntity
  8
1
370
    50
100
AcDbLine
 10
67.605893
 20
52.943916
 30
0.0
 11
67.605893
 21
18.655968
 31
0.0
  0
LINE
  5
2DB
100
AcDbEntity
  8
1
370
    50
100
AcDbLine
 10
108.605893
 20
52.943916
 30
0.0
 11
108.605893
 21
24.043916
 31
0.0
  0
LINE
  5
2DC
100
AcDbEntity
  8
1
370
    50
100
AcDbLine
 10
103.805893
 20
52.943916
 30
0.0
 11
103.805893
 21
38.943916
 31
0.0
  0
LINE
  5
2DD
100
AcDbEntity
  8
1
370
    25
  6
CENTER
100
AcDbLine
 10
90.605893
 20
24.443916
 30
0.0
 11
101.605893
 21
24.443916
 31
0.0
  0
ARC
  5
2DE
100
AcDbEntity
  8
1
370
    50
100
AcDbCircle
 10
69.045893
 20
20.043916
 30
0.0
 40
2.0
100
AcDbArc
 50
223.94552
 51
270.0
  0
LINE
  5
2DF
100
AcDbEntity
  8
1
370
    25
100
AcDbLine
 10
95.605893
 20
22.243916
 30
0.0
 11
96.605893
 21
22.243916
 31
0.0
  0
ARC
  5
2E0
100
AcDbEntity
  8
1
370
    25
100
AcDbCircle
 10
98.305893
 20
22.243916
 30
0.0
 40
1.7
100
AcDbArc
 50
90.0
 51
180.0
  0
ARC
  5
2E1
100
AcDbEntity
  8
1
370
    25
100
AcDbCircle
 10
98.305893
 20
26.643916
 30
0.0
 40
1.7
100
AcDbArc
 50
180.0
 51
270.0
  0
LINE
  5
2E2
100
AcDbEntity
  8
1
370
    25
100
AcDbLine
 10
98.305893
 20
24.943916
 30
0.0
 11
98.305893
 21
23.943916
 31
0.0
  0
ARC
  5
2E3
100
AcDbEntity
  8
1
370
    25
100
AcDbCircle
 10
93.905893
 20
22.243916
 30
0.0
 40
1.7
100
AcDbArc
 50
0.0
 51
90.0
  0
LINE
  5
2E4
100
AcDbEntity
  8
1
370
    25
100
AcDbLine
 10
93.905893
 20
23.943916
 30
0.0
 11
93.905893
 21
24.943916
 31
0.0
  0
LINE
  5
2E5
100
AcDbEntity
  8
1
370
    25
100
AcDbLine
 10
96.605893
 20
26.643916
 30
0.0
 11
95.605893
 21
26.643916
 31
0.0
  0
ARC
  5
2E6
100
AcDbEntity
  8
1
370
    25
100
AcDbCircle
 10
93.905893
 20
26.643916
 30
0.0
 40
1.7
100
AcDbArc
 50
270.0
 51
360.0
  0
CIRCLE
  5
2E7
100
AcDbEntity
  8
1
370
    50
100
AcDbCircle
 10
96.105893
 20
24.443916
 30
0.0
 40
3.5
  0
ARC
  5
2E8
100
AcDbEntity
  8
1
370
    50
100
AcDbCircle
 10
96.105891
 20
52.943916
 30
0.0
 40
4.1
100
AcDbArc
 50
180.0
 51
360.0
  0
LINE
  5
2E9
100
AcDbEntity
  8
1
370
    50
100
AcDbLine
 10
85.105893
 20
-35.556084
 30
0.0
 11
85.305893
 21
-35.556084
 31
0.0
  0
LINE
  5
2EA
100
AcDbEntity
  8
1
370
    50
100
AcDbLine
 10
106.905893
 20
-35.556084
 30
0.0
 11
107.105893
 21
-35.556084
 31
0.0
  0
LINE
  5
2EB
100
AcDbEntity
  8
1
370
    50
100
AcDbLine
 10
108.105893
 20
-22.956084
 30
0.0
 11
108.105893
 21
-24.856084
 31
0.0
  0
LINE
  5
2EC
100
AcDbEntity
  8
1
370
    50
100
AcDbLine
 10
96.105893
 20
-22.956084
 30
0.0
 11
84.105893
 21
-22.956084
 31
0.0
  0
LINE
  5
2ED
100
AcDbEntity
  8
1
370
    50
100
AcDbLine
 10
108.105893
 20
-23.856084
 30
0.0
 11
100.367788
 21
-23.856084
 31
0.0
  0
LINE
  5
2EE
100
AcDbEntity
  8
1
370
    50
100
AcDbLine
 10
84.105893
 20
-22.956084
 30
0.0
 11
84.105893
 21
-24.856084
 31
0.0
  0
LINE
  5
2EF
100
AcDbEntity
  8
1
370
    50
100
AcDbLine
 10
96.105893
 20
-23.956084
 30
0.0
 11
93.347824
 21
-23.956084
 31
0.0
  0
LINE
  5
2F0
100
AcDbEntity
  8
1
370
    50
100
AcDbLine
 10
84.105893
 20
-23.856084
 30
0.0
 11
91.843998
 21
-23.856084
 31
0.0
  0
ARC
  5
2F1
100
AcDbEntity
  8
1
370
    50
100
AcDbCircle
 10
92.110893
 20
-23.856084
 30
0.0
 40
1.0
100
AcDbArc
 50
270.0
 51
342.079787
  0
ARC
  5
2F2
100
AcDbEntity
  8
1
370
    50
100
AcDbCircle
 10
93.005893
 20
-23.856084
 30
0.0
 40
0.9
100
AcDbArc
 50
90.0
 51
165.522488
  0
ARC
  5
2F3
100
AcDbEntity
  8
1
370
    50
100
AcDbCircle
 10
99.205893
 20
-23.856084
 30
0.0
 40
0.9
100
AcDbArc
 50
14.477512
 51
90.0
  0
LINE
  5
2F4
100
AcDbEntity
  8
1
370
    50
100
AcDbLine
 10
96.105893
 20
-23.956084
 30
0.0
 11
98.863961
 21
-23.956084
 31
0.0
  0
ARC
  5
2F5
100
AcDbEntity
  8
1
370
    50
100
AcDbCircle
 10
100.100893
 20
-23.856084
 30
0.0
 40
1.0
100
AcDbArc
 50
197.920213
 51
270.0
  0
ARC
  5
2F6
100
AcDbEntity
  8
1
370
    50
100
AcDbCircle
 10
91.843998
 20
-23.556084
 30
0.0
 40
0.3
100
AcDbArc
 50
270.0
 51
345.522488
  0
ARC
  5
2F7
100
AcDbEntity
  8
1
370
    50
100
AcDbCircle
 10
93.347824
 20
-24.256084
 30
0.0
 40
0.3
100
AcDbArc
 50
90.0
 51
162.079787
  0
ARC
  5
2F8
100
AcDbEntity
  8
1
370
    50
100
AcDbCircle
 10
98.863961
 20
-24.256084
 30
0.0
 40
0.3
100
AcDbArc
 50
17.920213
 51
90.0
  0
ARC
  5
2F9
100
AcDbEntity
  8
1
370
    50
100
AcDbCircle
 10
100.367788
 20
-23.556084
 30
0.0
 40
0.3
100
AcDbArc
 50
194.477512
 51
270.0
  0
ARC
  5
2FA
100
AcDbEntity
  8
1
370
    50
100
AcDbCircle
 10
87.005893
 20
-23.856084
 30
0.0
 40
0.9
100
AcDbArc
 50
90.0
 51
165.522488
  0
ARC
  5
2FB
100
AcDbEntity
  8
1
370
    50
100
AcDbCircle
 10
85.843998
 20
-23.556084
 30
0.0
 40
0.3
100
AcDbArc
 50
270.0
 51
345.522488
  0
LINE
  5
2FC
100
AcDbEntity
  8
1
370
    50
100
AcDbLine
 10
96.105893
 20
-22.956084
 30
0.0
 11
108.105893
 21
-22.956084
 31
0.0
  0
ARC
  5
2FD
100
AcDbEntity
  8
1
370
    50
100
AcDbCircle
 10
105.205893
 20
-23.856084
 30
0.0
 40
0.9
100
AcDbArc
 50
14.477512
 51
90.0
  0
ARC
  5
2FE
100
AcDbEntity
  8
1
370
    50
100
AcDbCircle
 10
106.367788
 20
-23.556084
 30
0.0
 40
0.3
100
AcDbArc
 50
194.477512
 51
270.0
  0
LINE
  5
2FF
100
AcDbEntity
  8
1
370
    50
100
AcDbLine
 10
85.105893
 20
-36.556084
 30
0.0
 11
95.42244
 21
-36.556084
 31
0.0
  0
LINE
  5
300
100
AcDbEntity
  8
1
370
    50
100
AcDbLine
 10
96.789345
 20
-36.556084
 30
0.0
 11
107.105893
 21
-36.556084
 31
0.0
  0
LINE
  5
301
100
AcDbEntity
  8
1
370
    50
100
AcDbLine
 10
84.105893
 20
-24.856084
 30
0.0
 11
94.855893
 21
-24.856084
 31
0.0
  0
LINE
  5
302
100
AcDbEntity
  8
1
370
    50
100
AcDbLine
 10
97.355893
 20
-24.856084
 30
0.0
 11
108.105893
 21
-24.856084
 31
0.0
  0
LINE
  5
303
100
AcDbEntity
  8
1
370
    50
100
AcDbLine
 10
97.355893
 20
-24.706084
 30
0.0
 11
97.355893
 21
-35.188317
 31
0.0
  0
LINE
  5
304
100
AcDbEntity
  8
1
370
    50
100
AcDbLine
 10
94.855893
 20
-24.706084
 30
0.0
 11
94.855893
 21
-35.188317
 31
0.0
  0
LINE
  5
305
100
AcDbEntity
  8
1
370
    50
100
AcDbLine
 10
97.355893
 20
-35.188317
 30
0.0
 11
96.105893
 21
-38.206084
 31
0.0
  0
LINE
  5
306
100
AcDbEntity
  8
1
370
    50
100
AcDbLine
 10
94.855893
 20
-35.188317
 30
0.0
 11
96.105893
 21
-38.206084
 31
0.0
  0
LINE
  5
307
100
AcDbEntity
  8
1
370
    25
100
AcDbLine
 10
97.855893
 20
-25.506084
 30
0.0
 11
94.355893
 21
-26.917195
 31
0.0
  0
LINE
  5
308
100
AcDbEntity
  8
1
370
    25
100
AcDbLine
 10
97.855893
 20
-26.917195
 30
0.0
 11
94.355893
 21
-28.328306
 31
0.0
  0
LINE
  5
309
100
AcDbEntity
  8
1
370
    25
100
AcDbLine
 10
97.855893
 20
-28.328306
 30
0.0
 11
94.355893
 21
-29.739417
 31
0.0
  0
LINE
  5
30A
100
AcDbEntity
  8
1
370
    25
100
AcDbLine
 10
97.855893
 20
-29.739417
 30
0.0
 11
94.355893
 21
-31.150528
 31
0.0
  0
LINE
  5
30B
100
AcDbEntity
  8
1
370
    25
100
AcDbLine
 10
97.855893
 20
-31.150528
 30
0.0
 11
94.355893
 21
-32.561639
 31
0.0
  0
LINE
  5
30C
100
AcDbEntity
  8
1
370
    25
100
AcDbLine
 10
97.855893
 20
-32.561639
 30
0.0
 11
94.355893
 21
-33.972751
 31
0.0
  0
LINE
  5
30D
100
AcDbEntity
  8
1
370
    25
100
AcDbLine
 10
97.855893
 20
-33.972751
 30
0.0
 11
94.389998
 21
-35.370111
 31
0.0
  0
LINE
  5
30E
100
AcDbEntity
  8
1
370
    25
100
AcDbLine
 10
97.808112
 20
-35.403126
 30
0.0
 11
94.890856
 21
-36.579289
 31
0.0
  0
LINE
  5
30F
100
AcDbEntity
  8
1
370
    25
100
AcDbLine
 10
97.106429
 20
-37.097137
 30
0.0
 11
95.391714
 21
-37.788467
 31
0.0
  0
LINE
  5
310
100
AcDbEntity
  8
1
370
    25
100
AcDbLine
 10
96.340145
 20
-24.706084
 30
0.0
 11
94.355893
 21
-25.506084
 31
0.0
  0
LINE
  5
311
100
AcDbEntity
  8
1
370
    50
100
AcDbLine
 10
98.105893
 20
-23.956084
 30
0.0
 11
97.355893
 21
-24.706084
 31
0.0
  0
LINE
  5
312
100
AcDbEntity
  8
1
370
    50
100
AcDbLine
 10
94.105893
 20
-23.956084
 30
0.0
 11
94.855893
 21
-24.706084
 31
0.0
  0
LINE
  5
313
100
AcDbEntity
  8
1
370
    50
100
AcDbLine
 10
97.355893
 20
-24.706084
 30
0.0
 11
94.855893
 21
-24.706084
 31
0.0
  0
LINE
  5
314
100
AcDbEntity
  8
1
370
    25
  6
CENTER
100
AcDbLine
 10
142.673587
 20
52.943916
 30
0.0
 11
161.368865
 21
52.943916
 31
0.0
  0
LINE
  5
315
100
AcDbEntity
  8
1
370
    50
100
AcDbLine
 10
143.605893
 20
52.943916
 30
0.0
 11
143.605893
 21
87.843866
 31
0.0
  0
LINE
  5
316
100
AcDbEntity
  8
1
370
    50
100
AcDbLine
 10
143.605893
 20
87.843866
 30
0.0
 11
144.605891
 21
87.843866
 31
0.0
  0
LINE
  5
317
100
AcDbEntity
  8
1
370
    50
100
AcDbLine
 10
144.605891
 20
52.943916
 30
0.0
 11
144.605891
 21
87.843866
 31
0.0
  0
LINE
  5
318
100
AcDbEntity
  8
1
370
    50
100
AcDbLine
 10
146.605888
 20
69.543892
 30
0.0
 11
146.605888
 21
70.593891
 31
0.0
  0
LINE
  5
319
100
AcDbEntity
  8
1
370
    50
100
AcDbLine
 10
143.605893
 20
52.943916
 30
0.0
 11
143.605893
 21
18.043966
 31
0.0
  0
LINE
  5
31A
100
AcDbEntity
  8
1
370
    50
100
AcDbLine
 10
143.605893
 20
18.043966
 30
0.0
 11
144.605891
 21
18.043966
 31
0.0
  0
LINE
  5
31B
100
AcDbEntity
  8
1
370
    50
100
AcDbLine
 10
144.605891
 20
52.943916
 30
0.0
 11
144.605891
 21
18.043966
 31
0.0
  0
LINE
  5
31C
100
AcDbEntity
  8
1
370
    50
100
AcDbLine
 10
146.605888
 20
36.34394
 30
0.0
 11
146.605888
 21
35.293941
 31
0.0
  0
LINE
  5
31D
100
AcDbEntity
  8
1
370
    25
  6
CENTER
100
AcDbLine
 10
142.673587
 20
52.943916
 30
0.0
 11
161.368865
 21
52.943916
 31
0.0
  0
LINE
  5
31E
100
AcDbEntity
  8
1
370
    50
100
AcDbLine
 10
144.605891
 20
87.443867
 30
0.0
 11
146.505889
 21
87.443867
 31
0.0
  0
LINE
  5
31F
100
AcDbEntity
  8
1
370
    50
100
AcDbLine
 10
158.205872
 20
70.593891
 30
0.0
 11
158.205872
 21
52.943916
 31
0.0
  0
LINE
  5
320
100
AcDbEntity
  8
1
370
    50
100
AcDbLine
 10
144.605891
 20
71.593889
 30
0.0
 11
144.605891
 21
87.443867
 31
0.0
  0
LINE
  5
321
100
AcDbEntity
  8
1
370
    50
100
AcDbLine
 10
146.505889
 20
73.343887
 30
0.0
 11
146.505889
 21
74.443885
 31
0.0
  0
LINE
  5
322
100
AcDbEntity
  8
1
370
    50
100
AcDbLine
 10
145.50589
 20
73.705781
 30
0.0
 11
145.50589
 21
74.443885
 31
0.0
  0
ARC
  5
323
100
AcDbEntity
  8
1
370
    50
100
AcDbCircle
 10
145.60589
 20
71.593889
 30
0.0
 40
0.999999
100
AcDbArc
 50
180.0
 51
270.0
  0
LINE
  5
324
100
AcDbEntity
  8
1
370
    50
100
AcDbLine
 10
157.205873
 20
71.593889
 30
0.0
 11
145.905889
 21
71.593889
 31
0.0
  0
ARC
  5
325
100
AcDbEntity
  8
1
370
    50
100
AcDbCircle
 10
157.205873
 20
70.593891
 30
0.0
 40
0.999999
100
AcDbArc
 50
0.0
 51
90.0
  0
LINE
  5
326
100
AcDbEntity
  8
1
370
    50
100
AcDbLine
 10
156.705874
 20
70.593891
 30
0.0
 11
145.60589
 21
70.593891
 31
0.0
  0
LINE
  5
327
100
AcDbEntity
  8
1
370
    50
100
AcDbLine
 10
146.405889
 20
68.943893
 30
0.0
 11
146.405889
 21
52.943916
 31
0.0
  0
LINE
  5
328
100
AcDbEntity
  8
1
370
    50
100
AcDbLine
 10
145.60589
 20
72.181994
 30
0.0
 11
145.60589
 21
71.893889
 31
0.0
  0
ARC
  5
329
100
AcDbEntity
  8
1
370
    50
100
AcDbCircle
 10
145.905889
 20
71.893889
 30
0.0
 40
0.3
100
AcDbArc
 50
180.0
 51
270.0
  0
LINE
  5
32A
100
AcDbEntity
  8
1
370
    50
100
AcDbLine
 10
157.205873
 20
70.093892
 30
0.0
 11
157.205873
 21
69.943892
 31
0.0
  0
ARC
  5
32B
100
AcDbEntity
  8
1
370
    50
100
AcDbCircle
 10
145.50589
 20
72.543888
 30
0.0
 40
0.899999
100
AcDbArc
 50
104.477512
 51
180.0
  0
ARC
  5
32C
100
AcDbEntity
  8
1
370
    50
100
AcDbCircle
 10
145.60589
 20
73.343887
 30
0.0
 40
0.899999
100
AcDbArc
 50
284.477512
 51
0.0
  0
ARC
  5
32D
100
AcDbEntity
  8
1
370
    50
100
AcDbCircle
 10
145.20589
 20
73.705781
 30
0.0
 40
0.3
100
AcDbArc
 50
284.477512
 51
0.0
  0
ARC
  5
32E
100
AcDbEntity
  8
1
370
    50
100
AcDbCircle
 10
145.905889
 20
72.181994
 30
0.0
 40
0.3
100
AcDbArc
 50
104.477512
 51
180.0
  0
LINE
  5
32F
100
AcDbEntity
  8
1
370
    50
100
AcDbLine
 10
146.505889
 20
87.443867
 30
0.0
 11
146.505889
 21
74.443885
 31
0.0
  0
LINE
  5
330
100
AcDbEntity
  8
1
370
    50
100
AcDbLine
 10
145.50589
 20
87.443867
 30
0.0
 11
145.50589
 21
74.443885
 31
0.0
  0
LINE
  5
331
100
AcDbEntity
  8
1
370
    50
100
AcDbLine
 10
156.905874
 20
62.443903
 30
0.0
 11
156.905874
 21
52.943916
 31
0.0
  0
LINE
  5
332
100
AcDbEntity
  8
1
370
    50
100
AcDbLine
 10
157.405873
 20
62.943902
 30
0.0
 11
158.205872
 21
62.943902
 31
0.0
  0
ARC
  5
333
100
AcDbEntity
  8
1
370
    50
100
AcDbCircle
 10
157.405873
 20
62.443903
 30
0.0
 40
0.499999
100
AcDbArc
 50
90.0
 51
180.0
  0
LINE
  5
334
100
AcDbEntity
  8
1
370
    50
100
AcDbLine
 10
153.405879
 20
68.943893
 30
0.0
 11
153.405879
 21
52.943916
 31
0.0
  0
LINE
  5
335
100
AcDbEntity
  8
1
370
    50
100
AcDbLine
 10
147.405887
 20
69.943892
 30
0.0
 11
158.205872
 21
69.943892
 31
0.0
  0
ARC
  5
336
100
AcDbEntity
  8
1
370
    50
100
AcDbCircle
 10
147.405887
 20
68.943893
 30
0.0
 40
0.999999
100
AcDbArc
 50
90.0
 51
180.0
  0
ARC
  5
337
100
AcDbEntity
  8
1
370
    50
100
AcDbCircle
 10
154.405877
 20
68.943893
 30
0.0
 40
0.999999
100
AcDbArc
 50
90.0
 51
180.0
  0
ARC
  5
338
100
AcDbEntity
  8
1
370
    50
100
AcDbCircle
 10
156.705874
 20
70.093892
 30
0.0
 40
0.499999
100
AcDbArc
 50
0.0
 51
90.0
  0
LINE
  5
339
100
AcDbEntity
  8
1
370
    25
  6
CENTER
100
AcDbLine
 10
142.673587
 20
52.943916
 30
0.0
 11
161.368865
 21
52.943916
 31
0.0
  0
LINE
  5
33A
100
AcDbEntity
  8
1
370
    50
100
AcDbLine
 10
144.605891
 20
18.443965
 30
0.0
 11
146.505889
 21
18.443965
 31
0.0
  0
LINE
  5
33B
100
AcDbEntity
  8
1
370
    50
100
AcDbLine
 10
158.205872
 20
35.293941
 30
0.0
 11
158.205872
 21
52.943916
 31
0.0
  0
LINE
  5
33C
100
AcDbEntity
  8
1
370
    50
100
AcDbLine
 10
144.605891
 20
34.293943
 30
0.0
 11
144.605891
 21
18.443965
 31
0.0
  0
LINE
  5
33D
100
AcDbEntity
  8
1
370
    50
100
AcDbLine
 10
146.505889
 20
32.543945
 30
0.0
 11
146.505889
 21
31.443947
 31
0.0
  0
LINE
  5
33E
100
AcDbEntity
  8
1
370
    50
100
AcDbLine
 10
145.50589
 20
32.182051
 30
0.0
 11
145.50589
 21
31.443947
 31
0.0
  0
ARC
  5
33F
100
AcDbEntity
  8
1
370
    50
100
AcDbCircle
 10
145.60589
 20
34.293943
 30
0.0
 40
0.999999
100
AcDbArc
 50
90.0
 51
180.0
  0
LINE
  5
340
100
AcDbEntity
  8
1
370
    50
100
AcDbLine
 10
157.205873
 20
34.293943
 30
0.0
 11
145.905889
 21
34.293943
 31
0.0
  0
ARC
  5
341
100
AcDbEntity
  8
1
370
    50
100
AcDbCircle
 10
157.205873
 20
35.293941
 30
0.0
 40
0.999999
100
AcDbArc
 50
270.0
 51
360.0
  0
LINE
  5
342
100
AcDbEntity
  8
1
370
    50
100
AcDbLine
 10
156.705874
 20
35.293941
 30
0.0
 11
145.60589
 21
35.293941
 31
0.0
  0
LINE
  5
343
100
AcDbEntity
  8
1
370
    50
100
AcDbLine
 10
146.405889
 20
36.943939
 30
0.0
 11
146.405889
 21
52.943916
 31
0.0
  0
LINE
  5
344
100
AcDbEntity
  8
1
370
    50
100
AcDbLine
 10
145.60589
 20
33.705839
 30
0.0
 11
145.60589
 21
33.993943
 31
0.0
  0
ARC
  5
345
100
AcDbEntity
  8
1
370
    50
100
AcDbCircle
 10
145.905889
 20
33.993943
 30
0.0
 40
0.3
100
AcDbArc
 50
90.0
 51
180.0
  0
LINE
  5
346
100
AcDbEntity
  8
1
370
    50
100
AcDbLine
 10
157.205873
 20
35.793941
 30
0.0
 11
157.205873
 21
35.94394
 31
0.0
  0
ARC
  5
347
100
AcDbEntity
  8
1
370
    50
100
AcDbCircle
 10
145.50589
 20
33.343944
 30
0.0
 40
0.899999
100
AcDbArc
 50
180.0
 51
255.522488
  0
ARC
  5
348
100
AcDbEntity
  8
1
370
    50
100
AcDbCircle
 10
145.60589
 20
32.543945
 30
0.0
 40
0.899999
100
AcDbArc
 50
360.0
 51
75.522488
  0
ARC
  5
349
100
AcDbEntity
  8
1
370
    50
100
AcDbCircle
 10
145.20589
 20
32.182051
 30
0.0
 40
0.3
100
AcDbArc
 50
360.0
 51
75.522488
  0
ARC
  5
34A
100
AcDbEntity
  8
1
370
    50
100
AcDbCircle
 10
145.905889
 20
33.705839
 30
0.0
 40
0.3
100
AcDbArc
 50
180.0
 51
255.522488
  0
LINE
  5
34B
100
AcDbEntity
  8
1
370
    50
100
AcDbLine
 10
146.505889
 20
18.443965
 30
0.0
 11
146.505889
 21
31.443947
 31
0.0
  0
LINE
  5
34C
100
AcDbEntity
  8
1
370
    50
100
AcDbLine
 10
145.50589
 20
18.443965
 30
0.0
 11
145.50589
 21
31.443947
 31
0.0
  0
LINE
  5
34D
100
AcDbEntity
  8
1
370
    50
100
AcDbLine
 10
156.905874
 20
43.44393
 30
0.0
 11
156.905874
 21
52.943916
 31
0.0
  0
LINE
  5
34E
100
AcDbEntity
  8
1
370
    50
100
AcDbLine
 10
157.405873
 20
42.94393
 30
0.0
 11
158.205872
 21
42.94393
 31
0.0
  0
ARC
  5
34F
100
AcDbEntity
  8
1
370
    50
100
AcDbCircle
 10
157.405873
 20
43.44393
 30
0.0
 40
0.499999
100
AcDbArc
 50
180.0
 51
270.0
  0
LINE
  5
350
100
AcDbEntity
  8
1
370
    50
100
AcDbLine
 10
153.405879
 20
36.943939
 30
0.0
 11
153.405879
 21
52.943916
 31
0.0
  0
LINE
  5
351
100
AcDbEntity
  8
1
370
    50
100
AcDbLine
 10
147.405887
 20
35.94394
 30
0.0
 11
158.205872
 21
35.94394
 31
0.0
  0
ARC
  5
352
100
AcDbEntity
  8
1
370
    50
100
AcDbCircle
 10
147.405887
 20
36.943939
 30
0.0
 40
0.999999
100
AcDbArc
 50
180.0
 51
270.0
  0
ARC
  5
353
100
AcDbEntity
  8
1
370
    50
100
AcDbCircle
 10
154.405877
 20
36.943939
 30
0.0
 40
0.999999
100
AcDbArc
 50
180.0
 51
270.0
  0
ARC
  5
354
100
AcDbEntity
  8
1
370
    50
100
AcDbCircle
 10
156.705874
 20
35.793941
 30
0.0
 40
0.499999
100
AcDbArc
 50
270.0
 51
360.0
  0
LINE
  5
355
100
AcDbEntity
  8
1
370
    25
  6
CENTER
100
AcDbLine
 10
141.714498
 20
81.443916
 30
0.0
 11
160.493005
 21
81.443916
 31
0.0
  0
LINE
  5
356
100
AcDbEntity
  8
1
370
    50
100
AcDbLine
 10
146.505889
 20
82.693916
 30
0.0
 11
156.838126
 21
82.693916
 31
0.0
  0
LINE
  5
357
100
AcDbEntity
  8
1
370
    50
100
AcDbLine
 10
146.505889
 20
80.193916
 30
0.0
 11
156.838126
 21
80.193916
 31
0.0
  0
LINE
  5
358
100
AcDbEntity
  8
1
370
    50
100
AcDbLine
 10
156.838126
 20
82.693916
 30
0.0
 11
159.855893
 21
81.443916
 31
0.0
  0
LINE
  5
359
100
AcDbEntity
  8
1
370
    50
100
AcDbLine
 10
156.838126
 20
80.193916
 30
0.0
 11
159.855893
 21
81.443916
 31
0.0
  0
LINE
  5
35A
100
AcDbEntity
  8
1
370
    25
100
AcDbLine
 10
147.155893
 20
83.193916
 30
0.0
 11
148.567004
 21
79.693916
 31
0.0
  0
LINE
  5
35B
100
AcDbEntity
  8
1
370
    25
100
AcDbLine
 10
148.567004
 20
83.193916
 30
0.0
 11
149.978115
 21
79.693916
 31
0.0
  0
LINE
  5
35C
100
AcDbEntity
  8
1
370
    25
100
AcDbLine
 10
149.978115
 20
83.193916
 30
0.0
 11
151.389226
 21
79.693916
 31
0.0
  0
LINE
  5
35D
100
AcDbEntity
  8
1
370
    25
100
AcDbLine
 10
151.389226
 20
83.193916
 30
0.0
 11
152.800337
 21
79.693916
 31
0.0
  0
LINE
  5
35E
100
AcDbEntity
  8
1
370
    25
100
AcDbLine
 10
152.800337
 20
83.193916
 30
0.0
 11
154.211448
 21
79.693916
 31
0.0
  0
LINE
  5
35F
100
AcDbEntity
  8
1
370
    25
100
AcDbLine
 10
154.211448
 20
83.193916
 30
0.0
 11
155.622559
 21
79.693916
 31
0.0
  0
LINE
  5
360
100
AcDbEntity
  8
1
370
    25
100
AcDbLine
 10
155.622559
 20
83.193916
 30
0.0
 11
157.01992
 21
79.728022
 31
0.0
  0
LINE
  5
361
100
AcDbEntity
  8
1
370
    25
100
AcDbLine
 10
157.052934
 20
83.146136
 30
0.0
 11
158.229098
 21
80.22888
 31
0.0
  0
LINE
  5
362
100
AcDbEntity
  8
1
370
    25
100
AcDbLine
 10
158.746946
 20
82.444453
 30
0.0
 11
159.438276
 21
80.729737
 31
0.0
  0
LINE
  5
363
100
AcDbEntity
  8
1
370
    25
100
AcDbLine
 10
146.505889
 20
81.306131
 30
0.0
 11
147.155893
 21
79.693916
 31
0.0
  0
LINE
  5
364
100
AcDbEntity
  8
1
370
    25
  6
CENTER
100
AcDbLine
 10
141.714498
 20
24.443916
 30
0.0
 11
160.493005
 21
24.443916
 31
0.0
  0
LINE
  5
365
100
AcDbEntity
  8
1
370
    50
100
AcDbLine
 10
146.505889
 20
25.693916
 30
0.0
 11
156.838126
 21
25.693916
 31
0.0
  0
LINE
  5
366
100
AcDbEntity
  8
1
370
    50
100
AcDbLine
 10
146.505889
 20
23.193916
 30
0.0
 11
156.838126
 21
23.193916
 31
0.0
  0
LINE
  5
367
100
AcDbEntity
  8
1
370
    50
100
AcDbLine
 10
156.838126
 20
25.693916
 30
0.0
 11
159.855893
 21
24.443916
 31
0.0
  0
LINE
  5
368
100
AcDbEntity
  8
1
370
    50
100
AcDbLine
 10
156.838126
 20
23.193916
 30
0.0
 11
159.855893
 21
24.443916
 31
0.0
  0
LINE
  5
369
100
AcDbEntity
  8
1
370
    25
100
AcDbLine
 10
147.155893
 20
26.193916
 30
0.0
 11
148.567004
 21
22.693916
 31
0.0
  0
LINE
  5
36A
100
AcDbEntity
  8
1
370
    25
100
AcDbLine
 10
148.567004
 20
26.193916
 30
0.0
 11
149.978115
 21
22.693916
 31
0.0
  0
LINE
  5
36B
100
AcDbEntity
  8
1
370
    25
100
AcDbLine
 10
149.978115
 20
26.193916
 30
0.0
 11
151.389226
 21
22.693916
 31
0.0
  0
LINE
  5
36C
100
AcDbEntity
  8
1
370
    25
100
AcDbLine
 10
151.389226
 20
26.193916
 30
0.0
 11
152.800337
 21
22.693916
 31
0.0
  0
LINE
  5
36D
100
AcDbEntity
  8
1
370
    25
100
AcDbLine
 10
152.800337
 20
26.193916
 30
0.0
 11
154.211448
 21
22.693916
 31
0.0
  0
LINE
  5
36E
100
AcDbEntity
  8
1
370
    25
100
AcDbLine
 10
154.211448
 20
26.193916
 30
0.0
 11
155.622559
 21
22.693916
 31
0.0
  0
LINE
  5
36F
100
AcDbEntity
  8
1
370
    25
100
AcDbLine
 10
155.622559
 20
26.193916
 30
0.0
 11
157.01992
 21
22.728022
 31
0.0
  0
LINE
  5
370
100
AcDbEntity
  8
1
370
    25
100
AcDbLine
 10
157.052934
 20
26.146136
 30
0.0
 11
158.229098
 21
23.22888
 31
0.0
  0
LINE
  5
371
100
AcDbEntity
  8
1
370
    25
100
AcDbLine
 10
158.746946
 20
25.444453
 30
0.0
 11
159.438276
 21
23.729737
 31
0.0
  0
LINE
  5
372
100
AcDbEntity
  8
1
370
    25
100
AcDbLine
 10
146.505889
 20
24.306131
 30
0.0
 11
147.155893
 21
22.693916
 31
0.0
  0
ARC
  5
373
100
AcDbEntity
  8
1
370
    50
100
AcDbCircle
 10
144.605891
 20
85.843869
 30
0.0
 40
1.999997
100
AcDbArc
 50
0.0
 51
18.194872
  0
ARC
  5
374
100
AcDbEntity
  8
1
370
    50
100
AcDbCircle
 10
144.605891
 20
85.843869
 30
0.0
 40
1.999997
100
AcDbArc
 50
53.130102
 51
90.0
  0
ARC
  5
375
100
AcDbEntity
  8
1
370
    50
100
AcDbCircle
 10
144.605891
 20
20.043963
 30
0.0
 40
1.999997
100
AcDbArc
 50
270.0
 51
306.869898
  0
ARC
  5
376
100
AcDbEntity
  8
1
370
    50
100
AcDbCircle
 10
144.605891
 20
20.043963
 30
0.0
 40
1.999997
100
AcDbArc
 50
341.805128
 51
360.0
  0
LINE
  5
377
100
AcDbEntity
  8
1
370
    50
100
AcDbLine
 10
146.605888
 20
71.593889
 30
0.0
 11
146.605888
 21
80.193916
 31
0.0
  0
LINE
  5
378
100
AcDbEntity
  8
1
370
    50
100
AcDbLine
 10
146.605888
 20
82.693916
 30
0.0
 11
146.605888
 21
85.843869
 31
0.0
  0
LINE
  5
379
100
AcDbEntity
  8
1
370
    50
100
AcDbLine
 10
146.605888
 20
20.043963
 30
0.0
 11
146.605888
 21
23.193916
 31
0.0
  0
LINE
  5
37A
100
AcDbEntity
  8
1
370
    50
100
AcDbLine
 10
146.605888
 20
25.693916
 30
0.0
 11
146.605888
 21
34.293943
 31
0.0
  0
LINE
  5
37B
100
AcDbEntity
  8
1
370
    25
  6
CENTER
100
AcDbLine
 10
306.105893
 20
-20.06469
 30
0.0
 11
306.105893
 21
-38.843197
 31
0.0
  0
LINE
  5
37C
100
AcDbEntity
  8
1
370
    50
100
AcDbLine
 10
306.105893
 20
-22.956084
 30
0.0
 11
294.105893
 21
-22.956084
 31
0.0
  0
LINE
  5
37D
100
AcDbEntity
  8
1
370
    50
100
AcDbLine
 10
295.105893
 20
-24.856084
 30
0.0
 11
295.105893
 21
-35.556084
 31
0.0
  0
LINE
  5
37E
100
AcDbEntity
  8
1
370
    50
100
AcDbLine
 10
294.105893
 20
-24.856084
 30
0.0
 11
294.105893
 21
-35.556084
 31
0.0
  0
LINE
  5
37F
100
AcDbEntity
  8
1
370
    50
100
AcDbLine
 10
318.105893
 20
-32.056084
 30
0.0
 11
318.105893
 21
-35.556084
 31
0.0
  0
ARC
  5
380
100
AcDbEntity
  8
1
370
    50
100
AcDbCircle
 10
295.105893
 20
-35.556084
 30
0.0
 40
1.0
100
AcDbArc
 50
180.0
 51
270.0
  0
ARC
  5
381
100
AcDbEntity
  8
1
370
    50
100
AcDbCircle
 10
317.105893
 20
-35.556084
 30
0.0
 40
1.0
100
AcDbArc
 50
270.0
 51
360.0
  0
LINE
  5
382
100
AcDbEntity
  8
1
370
    50
100
AcDbLine
 10
295.305893
 20
-24.856084
 30
0.0
 11
295.305893
 21
-36.556084
 31
0.0
  0
LINE
  5
383
100
AcDbEntity
  8
1
370
    50
100
AcDbLine
 10
318.105893
 20
-32.056084
 30
0.0
 11
317.105893
 21
-32.056084
 31
0.0
  0
LINE
  5
384
100
AcDbEntity
  8
1
370
    50
100
AcDbLine
 10
306.105893
 20
-22.956084
 30
0.0
 11
318.105893
 21
-22.956084
 31
0.0
  0
LINE
  5
385
100
AcDbEntity
  8
1
370
    50
100
AcDbLine
 10
316.905893
 20
-24.856084
 30
0.0
 11
316.905893
 21
-36.556084
 31
0.0
  0
LINE
  5
386
100
AcDbEntity
  8
1
370
    50
100
AcDbLine
 10
295.105893
 20
-24.856084
 30
0.0
 11
294.105893
 21
-24.856084
 31
0.0
  0
LINE
  5
387
100
AcDbEntity
  8
1
370
    50
100
AcDbLine
 10
306.455898
 20
50.443909
 30
0.0
 11
305.755898
 21
50.443909
 31
0.0
  0
LINE
  5
388
100
AcDbEntity
  8
1
370
    50
100
AcDbLine
 10
306.455898
 20
55.443909
 30
0.0
 11
305.755898
 21
55.443909
 31
0.0
  0
LINE
  5
389
100
AcDbEntity
  8
1
370
    50
100
AcDbLine
 10
303.605898
 20
52.593909
 30
0.0
 11
303.605898
 21
53.293909
 31
0.0
  0
LINE
  5
38A
100
AcDbEntity
  8
1
370
    50
100
AcDbLine
 10
308.605898
 20
52.593909
 30
0.0
 11
308.605898
 21
53.293909
 31
0.0
  0
LINE
  5
38B
100
AcDbEntity
  8
1
370
    50
100
AcDbLine
 10
305.455898
 20
50.743909
 30
0.0
 11
305.455898
 21
51.993909
 31
0.0
  0
LINE
  5
38C
100
AcDbEntity
  8
1
370
    50
100
AcDbLine
 10
305.455898
 20
53.893909
 30
0.0
 11
305.455898
 21
55.143909
 31
0.0
  0
LINE
  5
38D
100
AcDbEntity
  8
1
370
    50
100
AcDbLine
 10
308.305898
 20
53.593909
 30
0.0
 11
307.055898
 21
53.593909
 31
0.0
  0
LINE
  5
38E
100
AcDbEntity
  8
1
370
    50
100
AcDbLine
 10
305.155898
 20
53.593909
 30
0.0
 11
303.905898
 21
53.593909
 31
0.0
  0
LINE
  5
38F
100
AcDbEntity
  8
1
370
    50
100
AcDbLine
 10
308.305898
 20
52.293909
 30
0.0
 11
307.055898
 21
52.293909
 31
0.0
  0
LINE
  5
390
100
AcDbEntity
  8
1
370
    50
100
AcDbLine
 10
305.155898
 20
52.293909
 30
0.0
 11
303.905898
 21
52.293909
 31
0.0
  0
LINE
  5
391
100
AcDbEntity
  8
1
370
    50
100
AcDbLine
 10
306.755898
 20
50.743909
 30
0.0
 11
306.755898
 21
51.993909
 31
0.0
  0
LINE
  5
392
100
AcDbEntity
  8
1
370
    50
100
AcDbLine
 10
306.755898
 20
53.893909
 30
0.0
 11
306.755898
 21
55.143909
 31
0.0
  0
ARC
  5
393
100
AcDbEntity
  8
1
370
    50
100
AcDbCircle
 10
305.155898
 20
51.993909
 30
0.0
 40
0.3
100
AcDbArc
 50
0.0
 51
90.0
  0
ARC
  5
394
100
AcDbEntity
  8
1
370
    50
100
AcDbCircle
 10
305.155898
 20
53.893909
 30
0.0
 40
0.3
100
AcDbArc
 50
270.0
 51
360.0
  0
ARC
  5
395
100
AcDbEntity
  8
1
370
    50
100
AcDbCircle
 10
307.055898
 20
51.993909
 30
0.0
 40
0.3
100
AcDbArc
 50
90.0
 51
180.0
  0
ARC
  5
396
100
AcDbEntity
  8
1
370
    50
100
AcDbCircle
 10
307.055898
 20
53.893909
 30
0.0
 40
0.3
100
AcDbArc
 50
180.0
 51
270.0
  0
ARC
  5
397
100
AcDbEntity
  8
1
370
    50
100
AcDbCircle
 10
305.755898
 20
50.743909
 30
0.0
 40
0.3
100
AcDbArc
 50
180.0
 51
270.0
  0
ARC
  5
398
100
AcDbEntity
  8
1
370
    50
100
AcDbCircle
 10
303.905898
 20
52.593909
 30
0.0
 40
0.3
100
AcDbArc
 50
180.0
 51
270.0
  0
ARC
  5
399
100
AcDbEntity
  8
1
370
    50
100
AcDbCircle
 10
303.905898
 20
53.293909
 30
0.0
 40
0.3
100
AcDbArc
 50
90.0
 51
180.0
  0
ARC
  5
39A
100
AcDbEntity
  8
1
370
    50
100
AcDbCircle
 10
305.755898
 20
55.143909
 30
0.0
 40
0.3
100
AcDbArc
 50
90.0
 51
180.0
  0
ARC
  5
39B
100
AcDbEntity
  8
1
370
    50
100
AcDbCircle
 10
306.455898
 20
55.143909
 30
0.0
 40
0.3
100
AcDbArc
 50
0.0
 51
90.0
  0
ARC
  5
39C
100
AcDbEntity
  8
1
370
    50
100
AcDbCircle
 10
308.305898
 20
53.293909
 30
0.0
 40
0.3
100
AcDbArc
 50
0.0
 51
90.0
  0
ARC
  5
39D
100
AcDbEntity
  8
1
370
    50
100
AcDbCircle
 10
308.305898
 20
52.593909
 30
0.0
 40
0.3
100
AcDbArc
 50
270.0
 51
0.0
  0
ARC
  5
39E
100
AcDbEntity
  8
1
370
    50
100
AcDbCircle
 10
306.455898
 20
50.743909
 30
0.0
 40
0.3
100
AcDbArc
 50
270.0
 51
360.0
  0
LINE
  5
39F
100
AcDbEntity
  8
1
370
    50
100
AcDbLine
 10
295.105885
 20
-33.756084
 30
0.0
 11
295.305893
 21
-33.756084
 31
0.0
  0
LINE
  5
3A0
100
AcDbEntity
  8
1
370
    50
100
AcDbLine
 10
295.105885
 20
-33.756084
 30
0.0
 11
295.105885
 21
-35.356084
 31
0.0
  0
LINE
  5
3A1
100
AcDbEntity
  8
1
370
    50
100
AcDbLine
 10
317.105885
 20
-32.056084
 30
0.0
 11
317.105885
 21
-35.556084
 31
0.0
  0
LINE
  5
3A2
100
AcDbEntity
  8
1
370
    50
100
AcDbLine
 10
293.005893
 20
56.443916
 30
0.0
 11
299.105893
 21
56.443916
 31
0.0
  0
LINE
  5
3A3
100
AcDbEntity
  8
1
370
    50
100
AcDbLine
 10
292.005893
 20
52.943916
 30
0.0
 11
292.005893
 21
55.443916
 31
0.0
  0
ARC
  5
3A4
100
AcDbEntity
  8
1
370
    50
100
AcDbCircle
 10
293.005893
 20
55.443916
 30
0.0
 40
1.0
100
AcDbArc
 50
90.0
 51
180.0
  0
LINE
  5
3A5
100
AcDbEntity
  8
1
370
    50
100
AcDbLine
 10
299.105893
 20
67.143916
 30
0.0
 11
299.105893
 21
38.743916
 31
0.0
  0
ARC
  5
3A6
100
AcDbEntity
  8
1
370
    50
100
AcDbCircle
 10
301.105893
 20
67.143916
 30
0.0
 40
2.0
100
AcDbArc
 50
115.841933
 51
180.0
  0
LINE
  5
3A7
100
AcDbEntity
  8
1
370
    50
100
AcDbLine
 10
312.905893
 20
52.943916
 30
0.0
 11
312.905893
 21
67.143916
 31
0.0
  0
ARC
  5
3A8
100
AcDbEntity
  8
1
370
    50
100
AcDbCircle
 10
310.905893
 20
67.143916
 30
0.0
 40
2.0
100
AcDbArc
 50
0.0
 51
64.145352
  0
LINE
  5
3A9
100
AcDbEntity
  8
1
370
    50
100
AcDbLine
 10
292.005893
 20
-22.956084
 30
0.0
 11
292.005893
 21
-23.056084
 31
0.0
  0
LINE
  5
3AA
100
AcDbEntity
  8
1
370
    50
100
AcDbLine
 10
292.505893
 20
-21.956084
 30
0.0
 11
298.796069
 21
-21.956084
 31
0.0
  0
LINE
  5
3AB
100
AcDbEntity
  8
1
370
    50
100
AcDbLine
 10
286.605893
 20
-23.056084
 30
0.0
 11
292.005893
 21
-23.056084
 31
0.0
  0
LINE
  5
3AC
100
AcDbEntity
  8
1
370
    50
100
AcDbLine
 10
287.123424
 20
-24.556084
 30
0.0
 11
294.105893
 21
-24.556084
 31
0.0
  0
LINE
  5
3AD
100
AcDbEntity
  8
1
370
    50
100
AcDbLine
 10
286.605893
 20
-23.056084
 30
0.0
 11
286.6235
 21
-24.06481
 31
0.0
  0
ARC
  5
3AE
100
AcDbEntity
  8
1
370
    50
100
AcDbCircle
 10
287.123424
 20
-24.056084
 30
0.0
 40
0.5
100
AcDbArc
 50
181.0
 51
270.0
  0
LINE
  5
3AF
100
AcDbEntity
  8
1
370
    50
100
AcDbLine
 10
277.545893
 20
87.843916
 30
0.0
 11
312.605893
 21
87.843916
 31
0.0
  0
ARC
  5
3B0
100
AcDbEntity
  8
1
370
    50
100
AcDbCircle
 10
312.605893
 20
81.843916
 30
0.0
 40
6.0
100
AcDbArc
 50
0.0
 51
90.0
  0
LINE
  5
3B1
100
AcDbEntity
  8
1
370
    50
100
AcDbLine
 10
289.305893
 20
52.943916
 30
0.0
 11
289.305893
 21
56.093916
 31
0.0
  0
LINE
  5
3B2
100
AcDbEntity
  8
1
370
    50
100
AcDbLine
 10
297.505893
 20
68.943916
 30
0.0
 11
311.805893
 21
68.943916
 31
0.0
  0
LINE
  5
3B3
100
AcDbEntity
  8
1
370
    50
100
AcDbLine
 10
295.505893
 20
57.093916
 30
0.0
 11
295.505893
 21
66.943916
 31
0.0
  0
LINE
  5
3B4
100
AcDbEntity
  8
1
370
    50
100
AcDbLine
 10
289.805893
 20
56.593916
 30
0.0
 11
295.005893
 21
56.593916
 31
0.0
  0
ARC
  5
3B5
100
AcDbEntity
  8
1
370
    50
100
AcDbCircle
 10
295.005893
 20
57.093916
 30
0.0
 40
0.5
100
AcDbArc
 50
270.0
 51
360.0
  0
ARC
  5
3B6
100
AcDbEntity
  8
1
370
    50
100
AcDbCircle
 10
289.805893
 20
56.093916
 30
0.0
 40
0.5
100
AcDbArc
 50
90.0
 51
180.0
  0
LINE
  5
3B7
100
AcDbEntity
  8
1
370
    25
  6
CENTER
100
AcDbLine
 10
273.928452
 20
52.943916
 30
0.0
 11
322.103652
 21
52.943916
 31
0.0
  0
CIRCLE
  5
3B8
100
AcDbEntity
  8
1
370
    25
100
AcDbCircle
 10
306.105893
 20
81.443916
 30
0.0
 40
4.0
  0
ARC
  5
3B9
100
AcDbEntity
  8
1
370
    50
100
AcDbCircle
 10
297.505893
 20
66.943916
 30
0.0
 40
2.0
100
AcDbArc
 50
90.0
 51
180.0
  0
ARC
  5
3BA
100
AcDbEntity
  8
1
370
    50
100
AcDbCircle
 10
311.805893
 20
66.943916
 30
0.0
 40
2.0
100
AcDbArc
 50
0.0
 51
90.0
  0
LINE
  5
3BB
100
AcDbEntity
  8
1
370
    50
100
AcDbLine
 10
276.105893
 20
52.943916
 30
0.0
 11
276.105893
 21
87.231864
 31
0.0
  0
LINE
  5
3BC
100
AcDbEntity
  8
1
370
    50
100
AcDbLine
 10
318.605893
 20
52.943916
 30
0.0
 11
318.605893
 21
81.843916
 31
0.0
  0
LINE
  5
3BD
100
AcDbEntity
  8
1
370
    50
100
AcDbLine
 10
313.805893
 20
52.943916
 30
0.0
 11
313.805893
 21
66.943916
 31
0.0
  0
LINE
  5
3BE
100
AcDbEntity
  8
1
370
    25
  6
CENTER
100
AcDbLine
 10
300.605893
 20
81.443916
 30
0.0
 11
311.605893
 21
81.443916
 31
0.0
  0
LINE
  5
3BF
100
AcDbEntity
  8
1
370
    25
  6
CENTER
100
AcDbLine
 10
306.105893
 20
89.662589
 30
0.0
 11
306.105893
 21
15.653281
 31
0.0
  0
LINE
  5
3C0
100
AcDbEntity
  8
1
370
    50
100
AcDbLine
 10
318.605893
 20
-21.956084
 30
0.0
 11
278.581851
 21
-21.956084
 31
0.0
  0
LINE
  5
3C1
100
AcDbEntity
  8
1
370
    50
100
AcDbLine
 10
318.605893
 20
-22.956084
 30
0.0
 11
318.605893
 21
-21.956084
 31
0.0
  0
LINE
  5
3C2
100
AcDbEntity
  8
1
370
    50
100
AcDbLine
 10
277.012166
 20
-24.956081
 30
0.0
 11
276.105859
 21
-24.533463
 31
0.0
  0
LINE
  5
3C3
100
AcDbEntity
  8
1
370
    50
100
AcDbLine
 10
276.769235
 20
-23.110847
 30
0.0
 11
276.105859
 21
-24.533463
 31
0.0
  0
LINE
  5
3C4
100
AcDbEntity
  8
1
370
    50
100
AcDbLine
 10
318.605893
 20
-22.956084
 30
0.0
 11
278.581851
 21
-22.956084
 31
0.0
  0
LINE
  5
3C5
100
AcDbEntity
  8
1
370
    50
100
AcDbLine
 10
277.675543
 20
-23.533466
 30
0.0
 11
277.012166
 21
-24.956081
 31
0.0
  0
ARC
  5
3C6
100
AcDbEntity
  8
1
370
    50
100
AcDbCircle
 10
278.581851
 20
-23.956084
 30
0.0
 40
2.0
100
AcDbArc
 50
90.0
 51
155.0
  0
ARC
  5
3C7
100
AcDbEntity
  8
1
370
    50
100
AcDbCircle
 10
278.581851
 20
-23.956084
 30
0.0
 40
1.0
100
AcDbArc
 50
90.0
 51
155.0
  0
ARC
  5
3C8
100
AcDbEntity
  8
1
370
    50
100
AcDbCircle
 10
277.545893
 20
85.843916
 30
0.0
 40
2.0
100
AcDbArc
 50
90.0
 51
136.05448
  0
LINE
  5
3C9
100
AcDbEntity
  8
1
370
    25
100
AcDbLine
 10
305.605893
 20
83.643916
 30
0.0
 11
306.605893
 21
83.643916
 31
0.0
  0
ARC
  5
3CA
100
AcDbEntity
  8
1
370
    25
100
AcDbCircle
 10
308.305893
 20
83.643916
 30
0.0
 40
1.7
100
AcDbArc
 50
180.0
 51
270.0
  0
ARC
  5
3CB
100
AcDbEntity
  8
1
370
    25
100
AcDbCircle
 10
308.305893
 20
79.243916
 30
0.0
 40
1.7
100
AcDbArc
 50
90.0
 51
180.0
  0
LINE
  5
3CC
100
AcDbEntity
  8
1
370
    25
100
AcDbLine
 10
308.305893
 20
80.943916
 30
0.0
 11
308.305893
 21
81.943916
 31
0.0
  0
ARC
  5
3CD
100
AcDbEntity
  8
1
370
    25
100
AcDbCircle
 10
303.905893
 20
83.643916
 30
0.0
 40
1.7
100
AcDbArc
 50
270.0
 51
360.0
  0
LINE
  5
3CE
100
AcDbEntity
  8
1
370
    25
100
AcDbLine
 10
303.905893
 20
81.943916
 30
0.0
 11
303.905893
 21
80.943916
 31
0.0
  0
LINE
  5
3CF
100
AcDbEntity
  8
1
370
    25
100
AcDbLine
 10
306.605893
 20
79.243916
 30
0.0
 11
305.605893
 21
79.243916
 31
0.0
  0
ARC
  5
3D0
100
AcDbEntity
  8
1
370
    25
100
AcDbCircle
 10
303.905893
 20
79.243916
 30
0.0
 40
1.7
100
AcDbArc
 50
0.0
 51
90.0
  0
CIRCLE
  5
3D1
100
AcDbEntity
  8
1
370
    50
100
AcDbCircle
 10
306.105893
 20
81.443916
 30
0.0
 40
3.5
  0
ARC
  5
3D2
100
AcDbEntity
  8
1
370
    50
100
AcDbCircle
 10
306.105891
 20
52.943916
 30
0.0
 40
4.1
100
AcDbArc
 50
0.0
 51
180.0
  0
LINE
  5
3D3
100
AcDbEntity
  8
1
370
    50
100
AcDbLine
 10
293.005893
 20
49.443916
 30
0.0
 11
299.105893
 21
49.443916
 31
0.0
  0
LINE
  5
3D4
100
AcDbEntity
  8
1
370
    50
100
AcDbLine
 10
292.005893
 20
52.943916
 30
0.0
 11
292.005893
 21
50.443916
 31
0.0
  0
ARC
  5
3D5
100
AcDbEntity
  8
1
370
    50
100
AcDbCircle
 10
293.005893
 20
50.443916
 30
0.0
 40
1.0
100
AcDbArc
 50
180.0
 51
270.0
  0
ARC
  5
3D6
100
AcDbEntity
  8
1
370
    50
100
AcDbCircle
 10
301.105893
 20
38.743916
 30
0.0
 40
2.0
100
AcDbArc
 50
180.0
 51
244.158067
  0
LINE
  5
3D7
100
AcDbEntity
  8
1
370
    50
100
AcDbLine
 10
312.905893
 20
52.943916
 30
0.0
 11
312.905893
 21
38.743916
 31
0.0
  0
ARC
  5
3D8
100
AcDbEntity
  8
1
370
    50
100
AcDbCircle
 10
310.905893
 20
38.743916
 30
0.0
 40
2.0
100
AcDbArc
 50
295.854648
 51
360.0
  0
LINE
  5
3D9
100
AcDbEntity
  8
1
370
    50
100
AcDbLine
 10
277.545893
 20
18.043916
 30
0.0
 11
312.605893
 21
18.043916
 31
0.0
  0
ARC
  5
3DA
100
AcDbEntity
  8
1
370
    50
100
AcDbCircle
 10
312.605893
 20
24.043916
 30
0.0
 40
6.0
100
AcDbArc
 50
270.0
 51
360.0
  0
LINE
  5
3DB
100
AcDbEntity
  8
1
370
    50
100
AcDbLine
 10
289.305893
 20
52.943916
 30
0.0
 11
289.305893
 21
49.793916
 31
0.0
  0
LINE
  5
3DC
100
AcDbEntity
  8
1
370
    50
100
AcDbLine
 10
297.505893
 20
36.943916
 30
0.0
 11
311.805893
 21
36.943916
 31
0.0
  0
LINE
  5
3DD
100
AcDbEntity
  8
1
370
    50
100
AcDbLine
 10
295.505893
 20
48.793916
 30
0.0
 11
295.505893
 21
38.943916
 31
0.0
  0
LINE
  5
3DE
100
AcDbEntity
  8
1
370
    50
100
AcDbLine
 10
289.805893
 20
49.293916
 30
0.0
 11
295.005893
 21
49.293916
 31
0.0
  0
ARC
  5
3DF
100
AcDbEntity
  8
1
370
    50
100
AcDbCircle
 10
295.005893
 20
48.793916
 30
0.0
 40
0.5
100
AcDbArc
 50
0.0
 51
90.0
  0
ARC
  5
3E0
100
AcDbEntity
  8
1
370
    50
100
AcDbCircle
 10
289.805893
 20
49.793916
 30
0.0
 40
0.5
100
AcDbArc
 50
180.0
 51
270.0
  0
CIRCLE
  5
3E1
100
AcDbEntity
  8
1
370
    25
100
AcDbCircle
 10
306.105893
 20
24.443916
 30
0.0
 40
4.0
  0
ARC
  5
3E2
100
AcDbEntity
  8
1
370
    50
100
AcDbCircle
 10
297.505893
 20
38.943916
 30
0.0
 40
2.0
100
AcDbArc
 50
180.0
 51
270.0
  0
ARC
  5
3E3
100
AcDbEntity
  8
1
370
    50
100
AcDbCircle
 10
311.805893
 20
38.943916
 30
0.0
 40
2.0
100
AcDbArc
 50
270.0
 51
360.0
  0
LINE
  5
3E4
100
AcDbEntity
  8
1
370
    50
100
AcDbLine
 10
276.105893
 20
52.943916
 30
0.0
 11
276.105893
 21
18.655968
 31
0.0
  0
LINE
  5
3E5
100
AcDbEntity
  8
1
370
    50
100
AcDbLine
 10
318.605893
 20
52.943916
 30
0.0
 11
318.605893
 21
24.043916
 31
0.0
  0
LINE
  5
3E6
100
AcDbEntity
  8
1
370
    50
100
AcDbLine
 10
313.805893
 20
52.943916
 30
0.0
 11
313.805893
 21
38.943916
 31
0.0
  0
LINE
  5
3E7
100
AcDbEntity
  8
1
370
    25
  6
CENTER
100
AcDbLine
 10
300.605893
 20
24.443916
 30
0.0
 11
311.605893
 21
24.443916
 31
0.0
  0
ARC
  5
3E8
100
AcDbEntity
  8
1
370
    50
100
AcDbCircle
 10
277.545893
 20
20.043916
 30
0.0
 40
2.0
100
AcDbArc
 50
223.94552
 51
270.0
  0
LINE
  5
3E9
100
AcDbEntity
  8
1
370
    25
100
AcDbLine
 10
305.605893
 20
22.243916
 30
0.0
 11
306.605893
 21
22.243916
 31
0.0
  0
ARC
  5
3EA
100
AcDbEntity
  8
1
370
    25
100
AcDbCircle
 10
308.305893
 20
22.243916
 30
0.0
 40
1.7
100
AcDbArc
 50
90.0
 51
180.0
  0
ARC
  5
3EB
100
AcDbEntity
  8
1
370
    25
100
AcDbCircle
 10
308.305893
 20
26.643916
 30
0.0
 40
1.7
100
AcDbArc
 50
180.0
 51
270.0
  0
LINE
  5
3EC
100
AcDbEntity
  8
1
370
    25
100
AcDbLine
 10
308.305893
 20
24.943916
 30
0.0
 11
308.305893
 21
23.943916
 31
0.0
  0
ARC
  5
3ED
100
AcDbEntity
  8
1
370
    25
100
AcDbCircle
 10
303.905893
 20
22.243916
 30
0.0
 40
1.7
100
AcDbArc
 50
0.0
 51
90.0
  0
LINE
  5
3EE
100
AcDbEntity
  8
1
370
    25
100
AcDbLine
 10
303.905893
 20
23.943916
 30
0.0
 11
303.905893
 21
24.943916
 31
0.0
  0
LINE
  5
3EF
100
AcDbEntity
  8
1
370
    25
100
AcDbLine
 10
306.605893
 20
26.643916
 30
0.0
 11
305.605893
 21
26.643916
 31
0.0
  0
ARC
  5
3F0
100
AcDbEntity
  8
1
370
    25
100
AcDbCircle
 10
303.905893
 20
26.643916
 30
0.0
 40
1.7
100
AcDbArc
 50
270.0
 51
360.0
  0
CIRCLE
  5
3F1
100
AcDbEntity
  8
1
370
    50
100
AcDbCircle
 10
306.105893
 20
24.443916
 30
0.0
 40
3.5
  0
ARC
  5
3F2
100
AcDbEntity
  8
1
370
    50
100
AcDbCircle
 10
306.105891
 20
52.943916
 30
0.0
 40
4.1
100
AcDbArc
 50
180.0
 51
360.0
  0
LINE
  5
3F3
100
AcDbEntity
  8
1
370
    50
100
AcDbLine
 10
295.105893
 20
-35.556084
 30
0.0
 11
295.305893
 21
-35.556084
 31
0.0
  0
LINE
  5
3F4
100
AcDbEntity
  8
1
370
    50
100
AcDbLine
 10
316.905893
 20
-35.556084
 30
0.0
 11
317.105893
 21
-35.556084
 31
0.0
  0
LINE
  5
3F5
100
AcDbEntity
  8
1
370
    50
100
AcDbLine
 10
318.105893
 20
-22.956084
 30
0.0
 11
318.105893
 21
-24.856084
 31
0.0
  0
LINE
  5
3F6
100
AcDbEntity
  8
1
370
    50
100
AcDbLine
 10
306.105893
 20
-22.956084
 30
0.0
 11
294.105893
 21
-22.956084
 31
0.0
  0
LINE
  5
3F7
100
AcDbEntity
  8
1
370
    50
100
AcDbLine
 10
318.105893
 20
-23.856084
 30
0.0
 11
310.367788
 21
-23.856084
 31
0.0
  0
LINE
  5
3F8
100
AcDbEntity
  8
1
370
    50
100
AcDbLine
 10
294.105893
 20
-22.956084
 30
0.0
 11
294.105893
 21
-24.856084
 31
0.0
  0
LINE
  5
3F9
100
AcDbEntity
  8
1
370
    50
100
AcDbLine
 10
306.105893
 20
-23.956084
 30
0.0
 11
303.347824
 21
-23.956084
 31
0.0
  0
LINE
  5
3FA
100
AcDbEntity
  8
1
370
    50
100
AcDbLine
 10
294.105893
 20
-23.856084
 30
0.0
 11
301.843998
 21
-23.856084
 31
0.0
  0
ARC
  5
3FB
100
AcDbEntity
  8
1
370
    50
100
AcDbCircle
 10
302.110893
 20
-23.856084
 30
0.0
 40
1.0
100
AcDbArc
 50
270.0
 51
342.079787
  0
ARC
  5
3FC
100
AcDbEntity
  8
1
370
    50
100
AcDbCircle
 10
303.005893
 20
-23.856084
 30
0.0
 40
0.9
100
AcDbArc
 50
90.0
 51
165.522488
  0
ARC
  5
3FD
100
AcDbEntity
  8
1
370
    50
100
AcDbCircle
 10
309.205893
 20
-23.856084
 30
0.0
 40
0.9
100
AcDbArc
 50
14.477512
 51
90.0
  0
LINE
  5
3FE
100
AcDbEntity
  8
1
370
    50
100
AcDbLine
 10
306.105893
 20
-23.956084
 30
0.0
 11
308.863961
 21
-23.956084
 31
0.0
  0
ARC
  5
3FF
100
AcDbEntity
  8
1
370
    50
100
AcDbCircle
 10
310.100893
 20
-23.856084
 30
0.0
 40
1.0
100
AcDbArc
 50
197.920213
 51
270.0
  0
ARC
  5
400
100
AcDbEntity
  8
1
370
    50
100
AcDbCircle
 10
301.843998
 20
-23.556084
 30
0.0
 40
0.3
100
AcDbArc
 50
270.0
 51
345.522488
  0
ARC
  5
401
100
AcDbEntity
  8
1
370
    50
100
AcDbCircle
 10
303.347824
 20
-24.256084
 30
0.0
 40
0.3
100
AcDbArc
 50
90.0
 51
162.079787
  0
ARC
  5
402
100
AcDbEntity
  8
1
370
    50
100
AcDbCircle
 10
308.863961
 20
-24.256084
 30
0.0
 40
0.3
100
AcDbArc
 50
17.920213
 51
90.0
  0
ARC
  5
403
100
AcDbEntity
  8
1
370
    50
100
AcDbCircle
 10
310.367788
 20
-23.556084
 30
0.0
 40
0.3
100
AcDbArc
 50
194.477512
 51
270.0
  0
ARC
  5
404
100
AcDbEntity
  8
1
370
    50
100
AcDbCircle
 10
297.005893
 20
-23.856084
 30
0.0
 40
0.9
100
AcDbArc
 50
90.0
 51
165.522488
  0
ARC
  5
405
100
AcDbEntity
  8
1
370
    50
100
AcDbCircle
 10
295.843998
 20
-23.556084
 30
0.0
 40
0.3
100
AcDbArc
 50
270.0
 51
345.522488
  0
LINE
  5
406
100
AcDbEntity
  8
1
370
    50
100
AcDbLine
 10
306.105893
 20
-22.956084
 30
0.0
 11
318.105893
 21
-22.956084
 31
0.0
  0
ARC
  5
407
100
AcDbEntity
  8
1
370
    50
100
AcDbCircle
 10
315.205893
 20
-23.856084
 30
0.0
 40
0.9
100
AcDbArc
 50
14.477512
 51
90.0
  0
ARC
  5
408
100
AcDbEntity
  8
1
370
    50
100
AcDbCircle
 10
316.367788
 20
-23.556084
 30
0.0
 40
0.3
100
AcDbArc
 50
194.477512
 51
270.0
  0
LINE
  5
409
100
AcDbEntity
  8
1
370
    50
100
AcDbLine
 10
295.105893
 20
-36.556084
 30
0.0
 11
305.42244
 21
-36.556084
 31
0.0
  0
LINE
  5
40A
100
AcDbEntity
  8
1
370
    50
100
AcDbLine
 10
306.789345
 20
-36.556084
 30
0.0
 11
317.105893
 21
-36.556084
 31
0.0
  0
LINE
  5
40B
100
AcDbEntity
  8
1
370
    50
100
AcDbLine
 10
294.105893
 20
-24.856084
 30
0.0
 11
304.855893
 21
-24.856084
 31
0.0
  0
LINE
  5
40C
100
AcDbEntity
  8
1
370
    50
100
AcDbLine
 10
307.355893
 20
-24.856084
 30
0.0
 11
318.105893
 21
-24.856084
 31
0.0
  0
LINE
  5
40D
100
AcDbEntity
  8
1
370
    50
100
AcDbLine
 10
307.355893
 20
-24.706084
 30
0.0
 11
307.355893
 21
-35.188317
 31
0.0
  0
LINE
  5
40E
100
AcDbEntity
  8
1
370
    50
100
AcDbLine
 10
304.855893
 20
-24.706084
 30
0.0
 11
304.855893
 21
-35.188317
 31
0.0
  0
LINE
  5
40F
100
AcDbEntity
  8
1
370
    50
100
AcDbLine
 10
307.355893
 20
-35.188317
 30
0.0
 11
306.105893
 21
-38.206084
 31
0.0
  0
LINE
  5
410
100
AcDbEntity
  8
1
370
    50
100
AcDbLine
 10
304.855893
 20
-35.188317
 30
0.0
 11
306.105893
 21
-38.206084
 31
0.0
  0
LINE
  5
411
100
AcDbEntity
  8
1
370
    25
100
AcDbLine
 10
307.855893
 20
-25.506084
 30
0.0
 11
304.355893
 21
-26.917195
 31
0.0
  0
LINE
  5
412
100
AcDbEntity
  8
1
370
    25
100
AcDbLine
 10
307.855893
 20
-26.917195
 30
0.0
 11
304.355893
 21
-28.328306
 31
0.0
  0
LINE
  5
413
100
AcDbEntity
  8
1
370
    25
100
AcDbLine
 10
307.855893
 20
-28.328306
 30
0.0
 11
304.355893
 21
-29.739417
 31
0.0
  0
LINE
  5
414
100
AcDbEntity
  8
1
370
    25
100
AcDbLine
 10
307.855893
 20
-29.739417
 30
0.0
 11
304.355893
 21
-31.150528
 31
0.0
  0
LINE
  5
415
100
AcDbEntity
  8
1
370
    25
100
AcDbLine
 10
307.855893
 20
-31.150528
 30
0.0
 11
304.355893
 21
-32.561639
 31
0.0
  0
LINE
  5
416
100
AcDbEntity
  8
1
370
    25
100
AcDbLine
 10
307.855893
 20
-32.561639
 30
0.0
 11
304.355893
 21
-33.972751
 31
0.0
  0
LINE
  5
417
100
AcDbEntity
  8
1
370
    25
100
AcDbLine
 10
307.855893
 20
-33.972751
 30
0.0
 11
304.389998
 21
-35.370111
 31
0.0
  0
LINE
  5
418
100
AcDbEntity
  8
1
370
    25
100
AcDbLine
 10
307.808112
 20
-35.403126
 30
0.0
 11
304.890856
 21
-36.579289
 31
0.0
  0
LINE
  5
419
100
AcDbEntity
  8
1
370
    25
100
AcDbLine
 10
307.106429
 20
-37.097137
 30
0.0
 11
305.391714
 21
-37.788467
 31
0.0
  0
LINE
  5
41A
100
AcDbEntity
  8
1
370
    25
100
AcDbLine
 10
306.340145
 20
-24.706084
 30
0.0
 11
304.355893
 21
-25.506084
 31
0.0
  0
LINE
  5
41B
100
AcDbEntity
  8
1
370
    50
100
AcDbLine
 10
308.105893
 20
-23.956084
 30
0.0
 11
307.355893
 21
-24.706084
 31
0.0
  0
LINE
  5
41C
100
AcDbEntity
  8
1
370
    50
100
AcDbLine
 10
304.105893
 20
-23.956084
 30
0.0
 11
304.855893
 21
-24.706084
 31
0.0
  0
LINE
  5
41D
100
AcDbEntity
  8
1
370
    50
100
AcDbLine
 10
307.355893
 20
-24.706084
 30
0.0
 11
304.855893
 21
-24.706084
 31
0.0
  0
LINE
  5
41E
100
AcDbEntity
  8
1
370
    25
  6
CENTER
100
AcDbLine
 10
352.673587
 20
52.943916
 30
0.0
 11
371.368865
 21
52.943916
 31
0.0
  0
LINE
  5
41F
100
AcDbEntity
  8
1
370
    50
100
AcDbLine
 10
353.605893
 20
52.943916
 30
0.0
 11
353.605893
 21
87.843866
 31
0.0
  0
LINE
  5
420
100
AcDbEntity
  8
1
370
    50
100
AcDbLine
 10
353.605893
 20
87.843866
 30
0.0
 11
354.605891
 21
87.843866
 31
0.0
  0
LINE
  5
421
100
AcDbEntity
  8
1
370
    50
100
AcDbLine
 10
354.605891
 20
52.943916
 30
0.0
 11
354.605891
 21
87.843866
 31
0.0
  0
LINE
  5
422
100
AcDbEntity
  8
1
370
    50
100
AcDbLine
 10
356.605888
 20
69.543892
 30
0.0
 11
356.605888
 21
70.593891
 31
0.0
  0
LINE
  5
423
100
AcDbEntity
  8
1
370
    50
100
AcDbLine
 10
353.605893
 20
52.943916
 30
0.0
 11
353.605893
 21
18.043966
 31
0.0
  0
LINE
  5
424
100
AcDbEntity
  8
1
370
    50
100
AcDbLine
 10
353.605893
 20
18.043966
 30
0.0
 11
354.605891
 21
18.043966
 31
0.0
  0
LINE
  5
425
100
AcDbEntity
  8
1
370
    50
100
AcDbLine
 10
354.605891
 20
52.943916
 30
0.0
 11
354.605891
 21
18.043966
 31
0.0
  0
LINE
  5
426
100
AcDbEntity
  8
1
370
    50
100
AcDbLine
 10
356.605888
 20
36.34394
 30
0.0
 11
356.605888
 21
35.293941
 31
0.0
  0
LINE
  5
427
100
AcDbEntity
  8
1
370
    25
  6
CENTER
100
AcDbLine
 10
352.673587
 20
52.943916
 30
0.0
 11
371.368865
 21
52.943916
 31
0.0
  0
LINE
  5
428
100
AcDbEntity
  8
1
370
    50
100
AcDbLine
 10
354.605891
 20
87.443867
 30
0.0
 11
356.505889
 21
87.443867
 31
0.0
  0
LINE
  5
429
100
AcDbEntity
  8
1
370
    50
100
AcDbLine
 10
368.205872
 20
70.593891
 30
0.0
 11
368.205872
 21
52.943916
 31
0.0
  0
LINE
  5
42A
100
AcDbEntity
  8
1
370
    50
100
AcDbLine
 10
354.605891
 20
71.593889
 30
0.0
 11
354.605891
 21
87.443867
 31
0.0
  0
LINE
  5
42B
100
AcDbEntity
  8
1
370
    50
100
AcDbLine
 10
356.505889
 20
73.343887
 30
0.0
 11
356.505889
 21
74.443885
 31
0.0
  0
LINE
  5
42C
100
AcDbEntity
  8
1
370
    50
100
AcDbLine
 10
355.50589
 20
73.705781
 30
0.0
 11
355.50589
 21
74.443885
 31
0.0
  0
ARC
  5
42D
100
AcDbEntity
  8
1
370
    50
100
AcDbCircle
 10
355.60589
 20
71.593889
 30
0.0
 40
0.999999
100
AcDbArc
 50
180.0
 51
270.0
  0
LINE
  5
42E
100
AcDbEntity
  8
1
370
    50
100
AcDbLine
 10
367.205873
 20
71.593889
 30
0.0
 11
355.905889
 21
71.593889
 31
0.0
  0
ARC
  5
42F
100
AcDbEntity
  8
1
370
    50
100
AcDbCircle
 10
367.205873
 20
70.593891
 30
0.0
 40
0.999999
100
AcDbArc
 50
0.0
 51
90.0
  0
LINE
  5
430
100
AcDbEntity
  8
1
370
    50
100
AcDbLine
 10
366.705874
 20
70.593891
 30
0.0
 11
355.60589
 21
70.593891
 31
0.0
  0
LINE
  5
431
100
AcDbEntity
  8
1
370
    50
100
AcDbLine
 10
356.405889
 20
68.943893
 30
0.0
 11
356.405889
 21
52.943916
 31
0.0
  0
LINE
  5
432
100
AcDbEntity
  8
1
370
    50
100
AcDbLine
 10
355.60589
 20
72.181994
 30
0.0
 11
355.60589
 21
71.893889
 31
0.0
  0
ARC
  5
433
100
AcDbEntity
  8
1
370
    50
100
AcDbCircle
 10
355.905889
 20
71.893889
 30
0.0
 40
0.3
100
AcDbArc
 50
180.0
 51
270.0
  0
LINE
  5
434
100
AcDbEntity
  8
1
370
    50
100
AcDbLine
 10
367.205873
 20
70.093892
 30
0.0
 11
367.205873
 21
69.943892
 31
0.0
  0
ARC
  5
435
100
AcDbEntity
  8
1
370
    50
100
AcDbCircle
 10
355.50589
 20
72.543888
 30
0.0
 40
0.899999
100
AcDbArc
 50
104.477512
 51
180.0
  0
ARC
  5
436
100
AcDbEntity
  8
1
370
    50
100
AcDbCircle
 10
355.60589
 20
73.343887
 30
0.0
 40
0.899999
100
AcDbArc
 50
284.477512
 51
0.0
  0
ARC
  5
437
100
AcDbEntity
  8
1
370
    50
100
AcDbCircle
 10
355.20589
 20
73.705781
 30
0.0
 40
0.3
100
AcDbArc
 50
284.477512
 51
0.0
  0
ARC
  5
438
100
AcDbEntity
  8
1
370
    50
100
AcDbCircle
 10
355.905889
 20
72.181994
 30
0.0
 40
0.3
100
AcDbArc
 50
104.477512
 51
180.0
  0
LINE
  5
439
100
AcDbEntity
  8
1
370
    50
100
AcDbLine
 10
356.505889
 20
87.443867
 30
0.0
 11
356.505889
 21
74.443885
 31
0.0
  0
LINE
  5
43A
100
AcDbEntity
  8
1
370
    50
100
AcDbLine
 10
355.50589
 20
87.443867
 30
0.0
 11
355.50589
 21
74.443885
 31
0.0
  0
LINE
  5
43B
100
AcDbEntity
  8
1
370
    50
100
AcDbLine
 10
366.905874
 20
62.443903
 30
0.0
 11
366.905874
 21
52.943916
 31
0.0
  0
LINE
  5
43C
100
AcDbEntity
  8
1
370
    50
100
AcDbLine
 10
367.405873
 20
62.943902
 30
0.0
 11
368.205872
 21
62.943902
 31
0.0
  0
ARC
  5
43D
100
AcDbEntity
  8
1
370
    50
100
AcDbCircle
 10
367.405873
 20
62.443903
 30
0.0
 40
0.499999
100
AcDbArc
 50
90.0
 51
180.0
  0
LINE
  5
43E
100
AcDbEntity
  8
1
370
    50
100
AcDbLine
 10
363.405879
 20
68.943893
 30
0.0
 11
363.405879
 21
52.943916
 31
0.0
  0
LINE
  5
43F
100
AcDbEntity
  8
1
370
    50
100
AcDbLine
 10
357.405887
 20
69.943892
 30
0.0
 11
368.205872
 21
69.943892
 31
0.0
  0
ARC
  5
440
100
AcDbEntity
  8
1
370
    50
100
AcDbCircle
 10
357.405887
 20
68.943893
 30
0.0
 40
0.999999
100
AcDbArc
 50
90.0
 51
180.0
  0
ARC
  5
441
100
AcDbEntity
  8
1
370
    50
100
AcDbCircle
 10
364.405877
 20
68.943893
 30
0.0
 40
0.999999
100
AcDbArc
 50
90.0
 51
180.0
  0
ARC
  5
442
100
AcDbEntity
  8
1
370
    50
100
AcDbCircle
 10
366.705874
 20
70.093892
 30
0.0
 40
0.499999
100
AcDbArc
 50
0.0
 51
90.0
  0
LINE
  5
443
100
AcDbEntity
  8
1
370
    25
  6
CENTER
100
AcDbLine
 10
352.673587
 20
52.943916
 30
0.0
 11
371.368865
 21
52.943916
 31
0.0
  0
LINE
  5
444
100
AcDbEntity
  8
1
370
    50
100
AcDbLine
 10
354.605891
 20
18.443965
 30
0.0
 11
356.505889
 21
18.443965
 31
0.0
  0
LINE
  5
445
100
AcDbEntity
  8
1
370
    50
100
AcDbLine
 10
368.205872
 20
35.293941
 30
0.0
 11
368.205872
 21
52.943916
 31
0.0
  0
LINE
  5
446
100
AcDbEntity
  8
1
370
    50
100
AcDbLine
 10
354.605891
 20
34.293943
 30
0.0
 11
354.605891
 21
18.443965
 31
0.0
  0
LINE
  5
447
100
AcDbEntity
  8
1
370
    50
100
AcDbLine
 10
356.505889
 20
32.543945
 30
0.0
 11
356.505889
 21
31.443947
 31
0.0
  0
LINE
  5
448
100
AcDbEntity
  8
1
370
    50
100
AcDbLine
 10
355.50589
 20
32.182051
 30
0.0
 11
355.50589
 21
31.443947
 31
0.0
  0
ARC
  5
449
100
AcDbEntity
  8
1
370
    50
100
AcDbCircle
 10
355.60589
 20
34.293943
 30
0.0
 40
0.999999
100
AcDbArc
 50
90.0
 51
180.0
  0
LINE
  5
44A
100
AcDbEntity
  8
1
370
    50
100
AcDbLine
 10
367.205873
 20
34.293943
 30
0.0
 11
355.905889
 21
34.293943
 31
0.0
  0
ARC
  5
44B
100
AcDbEntity
  8
1
370
    50
100
AcDbCircle
 10
367.205873
 20
35.293941
 30
0.0
 40
0.999999
100
AcDbArc
 50
270.0
 51
360.0
  0
LINE
  5
44C
100
AcDbEntity
  8
1
370
    50
100
AcDbLine
 10
366.705874
 20
35.293941
 30
0.0
 11
355.60589
 21
35.293941
 31
0.0
  0
LINE
  5
44D
100
AcDbEntity
  8
1
370
    50
100
AcDbLine
 10
356.405889
 20
36.943939
 30
0.0
 11
356.405889
 21
52.943916
 31
0.0
  0
LINE
  5
44E
100
AcDbEntity
  8
1
370
    50
100
AcDbLine
 10
355.60589
 20
33.705839
 30
0.0
 11
355.60589
 21
33.993943
 31
0.0
  0
ARC
  5
44F
100
AcDbEntity
  8
1
370
    50
100
AcDbCircle
 10
355.905889
 20
33.993943
 30
0.0
 40
0.3
100
AcDbArc
 50
90.0
 51
180.0
  0
LINE
  5
450
100
AcDbEntity
  8
1
370
    50
100
AcDbLine
 10
367.205873
 20
35.793941
 30
0.0
 11
367.205873
 21
35.94394
 31
0.0
  0
ARC
  5
451
100
AcDbEntity
  8
1
370
    50
100
AcDbCircle
 10
355.50589
 20
33.343944
 30
0.0
 40
0.899999
100
AcDbArc
 50
180.0
 51
255.522488
  0
ARC
  5
452
100
AcDbEntity
  8
1
370
    50
100
AcDbCircle
 10
355.60589
 20
32.543945
 30
0.0
 40
0.899999
100
AcDbArc
 50
360.0
 51
75.522488
  0
ARC
  5
453
100
AcDbEntity
  8
1
370
    50
100
AcDbCircle
 10
355.20589
 20
32.182051
 30
0.0
 40
0.3
100
AcDbArc
 50
360.0
 51
75.522488
  0
ARC
  5
454
100
AcDbEntity
  8
1
370
    50
100
AcDbCircle
 10
355.905889
 20
33.705839
 30
0.0
 40
0.3
100
AcDbArc
 50
180.0
 51
255.522488
  0
LINE
  5
455
100
AcDbEntity
  8
1
370
    50
100
AcDbLine
 10
356.505889
 20
18.443965
 30
0.0
 11
356.505889
 21
31.443947
 31
0.0
  0
LINE
  5
456
100
AcDbEntity
  8
1
370
    50
100
AcDbLine
 10
355.50589
 20
18.443965
 30
0.0
 11
355.50589
 21
31.443947
 31
0.0
  0
LINE
  5
457
100
AcDbEntity
  8
1
370
    50
100
AcDbLine
 10
366.905874
 20
43.44393
 30
0.0
 11
366.905874
 21
52.943916
 31
0.0
  0
LINE
  5
458
100
AcDbEntity
  8
1
370
    50
100
AcDbLine
 10
367.405873
 20
42.94393
 30
0.0
 11
368.205872
 21
42.94393
 31
0.0
  0
ARC
  5
459
100
AcDbEntity
  8
1
370
    50
100
AcDbCircle
 10
367.405873
 20
43.44393
 30
0.0
 40
0.499999
100
AcDbArc
 50
180.0
 51
270.0
  0
LINE
  5
45A
100
AcDbEntity
  8
1
370
    50
100
AcDbLine
 10
363.405879
 20
36.943939
 30
0.0
 11
363.405879
 21
52.943916
 31
0.0
  0
LINE
  5
45B
100
AcDbEntity
  8
1
370
    50
100
AcDbLine
 10
357.405887
 20
35.94394
 30
0.0
 11
368.205872
 21
35.94394
 31
0.0
  0
ARC
  5
45C
100
AcDbEntity
  8
1
370
    50
100
AcDbCircle
 10
357.405887
 20
36.943939
 30
0.0
 40
0.999999
100
AcDbArc
 50
180.0
 51
270.0
  0
ARC
  5
45D
100
AcDbEntity
  8
1
370
    50
100
AcDbCircle
 10
364.405877
 20
36.943939
 30
0.0
 40
0.999999
100
AcDbArc
 50
180.0
 51
270.0
  0
ARC
  5
45E
100
AcDbEntity
  8
1
370
    50
100
AcDbCircle
 10
366.705874
 20
35.793941
 30
0.0
 40
0.499999
100
AcDbArc
 50
270.0
 51
360.0
  0
LINE
  5
45F
100
AcDbEntity
  8
1
370
    25
  6
CENTER
100
AcDbLine
 10
351.714498
 20
81.443916
 30
0.0
 11
370.493005
 21
81.443916
 31
0.0
  0
LINE
  5
460
100
AcDbEntity
  8
1
370
    50
100
AcDbLine
 10
356.505889
 20
82.693916
 30
0.0
 11
366.838126
 21
82.693916
 31
0.0
  0
LINE
  5
461
100
AcDbEntity
  8
1
370
    50
100
AcDbLine
 10
356.505889
 20
80.193916
 30
0.0
 11
366.838126
 21
80.193916
 31
0.0
  0
LINE
  5
462
100
AcDbEntity
  8
1
370
    50
100
AcDbLine
 10
366.838126
 20
82.693916
 30
0.0
 11
369.855893
 21
81.443916
 31
0.0
  0
LINE
  5
463
100
AcDbEntity
  8
1
370
    50
100
AcDbLine
 10
366.838126
 20
80.193916
 30
0.0
 11
369.855893
 21
81.443916
 31
0.0
  0
LINE
  5
464
100
AcDbEntity
  8
1
370
    25
100
AcDbLine
 10
357.155893
 20
83.193916
 30
0.0
 11
358.567004
 21
79.693916
 31
0.0
  0
LINE
  5
465
100
AcDbEntity
  8
1
370
    25
100
AcDbLine
 10
358.567004
 20
83.193916
 30
0.0
 11
359.978115
 21
79.693916
 31
0.0
  0
LINE
  5
466
100
AcDbEntity
  8
1
370
    25
100
AcDbLine
 10
359.978115
 20
83.193916
 30
0.0
 11
361.389226
 21
79.693916
 31
0.0
  0
LINE
  5
467
100
AcDbEntity
  8
1
370
    25
100
AcDbLine
 10
361.389226
 20
83.193916
 30
0.0
 11
362.800337
 21
79.693916
 31
0.0
  0
LINE
  5
468
100
AcDbEntity
  8
1
370
    25
100
AcDbLine
 10
362.800337
 20
83.193916
 30
0.0
 11
364.211448
 21
79.693916
 31
0.0
  0
LINE
  5
469
100
AcDbEntity
  8
1
370
    25
100
AcDbLine
 10
364.211448
 20
83.193916
 30
0.0
 11
365.622559
 21
79.693916
 31
0.0
  0
LINE
  5
46A
100
AcDbEntity
  8
1
370
    25
100
AcDbLine
 10
365.622559
 20
83.193916
 30
0.0
 11
367.01992
 21
79.728022
 31
0.0
  0
LINE
  5
46B
100
AcDbEntity
  8
1
370
    25
100
AcDbLine
 10
367.052934
 20
83.146136
 30
0.0
 11
368.229098
 21
80.22888
 31
0.0
  0
LINE
  5
46C
100
AcDbEntity
  8
1
370
    25
100
AcDbLine
 10
368.746946
 20
82.444453
 30
0.0
 11
369.438276
 21
80.729737
 31
0.0
  0
LINE
  5
46D
100
AcDbEntity
  8
1
370
    25
100
AcDbLine
 10
356.505889
 20
81.306131
 30
0.0
 11
357.155893
 21
79.693916
 31
0.0
  0
LINE
  5
46E
100
AcDbEntity
  8
1
370
    25
  6
CENTER
100
AcDbLine
 10
351.714498
 20
24.443916
 30
0.0
 11
370.493005
 21
24.443916
 31
0.0
  0
LINE
  5
46F
100
AcDbEntity
  8
1
370
    50
100
AcDbLine
 10
356.505889
 20
25.693916
 30
0.0
 11
366.838126
 21
25.693916
 31
0.0
  0
LINE
  5
470
100
AcDbEntity
  8
1
370
    50
100
AcDbLine
 10
356.505889
 20
23.193916
 30
0.0
 11
366.838126
 21
23.193916
 31
0.0
  0
LINE
  5
471
100
AcDbEntity
  8
1
370
    50
100
AcDbLine
 10
366.838126
 20
25.693916
 30
0.0
 11
369.855893
 21
24.443916
 31
0.0
  0
LINE
  5
472
100
AcDbEntity
  8
1
370
    50
100
AcDbLine
 10
366.838126
 20
23.193916
 30
0.0
 11
369.855893
 21
24.443916
 31
0.0
  0
LINE
  5
473
100
AcDbEntity
  8
1
370
    25
100
AcDbLine
 10
357.155893
 20
26.193916
 30
0.0
 11
358.567004
 21
22.693916
 31
0.0
  0
LINE
  5
474
100
AcDbEntity
  8
1
370
    25
100
AcDbLine
 10
358.567004
 20
26.193916
 30
0.0
 11
359.978115
 21
22.693916
 31
0.0
  0
LINE
  5
475
100
AcDbEntity
  8
1
370
    25
100
AcDbLine
 10
359.978115
 20
26.193916
 30
0.0
 11
361.389226
 21
22.693916
 31
0.0
  0
LINE
  5
476
100
AcDbEntity
  8
1
370
    25
100
AcDbLine
 10
361.389226
 20
26.193916
 30
0.0
 11
362.800337
 21
22.693916
 31
0.0
  0
LINE
  5
477
100
AcDbEntity
  8
1
370
    25
100
AcDbLine
 10
362.800337
 20
26.193916
 30
0.0
 11
364.211448
 21
22.693916
 31
0.0
  0
LINE
  5
478
100
AcDbEntity
  8
1
370
    25
100
AcDbLine
 10
364.211448
 20
26.193916
 30
0.0
 11
365.622559
 21
22.693916
 31
0.0
  0
LINE
  5
479
100
AcDbEntity
  8
1
370
    25
100
AcDbLine
 10
365.622559
 20
26.193916
 30
0.0
 11
367.01992
 21
22.728022
 31
0.0
  0
LINE
  5
47A
100
AcDbEntity
  8
1
370
    25
100
AcDbLine
 10
367.052934
 20
26.146136
 30
0.0
 11
368.229098
 21
23.22888
 31
0.0
  0
LINE
  5
47B
100
AcDbEntity
  8
1
370
    25
100
AcDbLine
 10
368.746946
 20
25.444453
 30
0.0
 11
369.438276
 21
23.729737
 31
0.0
  0
LINE
  5
47C
100
AcDbEntity
  8
1
370
    25
100
AcDbLine
 10
356.505889
 20
24.306131
 30
0.0
 11
357.155893
 21
22.693916
 31
0.0
  0
ARC
  5
47D
100
AcDbEntity
  8
1
370
    50
100
AcDbCircle
 10
354.605891
 20
85.843869
 30
0.0
 40
1.999997
100
AcDbArc
 50
0.0
 51
18.194872
  0
ARC
  5
47E
100
AcDbEntity
  8
1
370
    50
100
AcDbCircle
 10
354.605891
 20
85.843869
 30
0.0
 40
1.999997
100
AcDbArc
 50
53.130102
 51
90.0
  0
ARC
  5
47F
100
AcDbEntity
  8
1
370
    50
100
AcDbCircle
 10
354.605891
 20
20.043963
 30
0.0
 40
1.999997
100
AcDbArc
 50
270.0
 51
306.869898
  0
ARC
  5
480
100
AcDbEntity
  8
1
370
    50
100
AcDbCircle
 10
354.605891
 20
20.043963
 30
0.0
 40
1.999997
100
AcDbArc
 50
341.805128
 51
360.0
  0
LINE
  5
481
100
AcDbEntity
  8
1
370
    50
100
AcDbLine
 10
356.605888
 20
71.593889
 30
0.0
 11
356.605888
 21
80.193916
 31
0.0
  0
LINE
  5
482
100
AcDbEntity
  8
1
370
    50
100
AcDbLine
 10
356.605888
 20
82.693916
 30
0.0
 11
356.605888
 21
85.843869
 31
0.0
  0
LINE
  5
483
100
AcDbEntity
  8
1
370
    50
100
AcDbLine
 10
356.605888
 20
20.043963
 30
0.0
 11
356.605888
 21
23.193916
 31
0.0
  0
LINE
  5
484
100
AcDbEntity
  8
1
370
    50
100
AcDbLine
 10
356.605888
 20
25.693916
 30
0.0
 11
356.605888
 21
34.293943
 31
0.0
  0
DIMENSION
  5
485
100
AcDbEntity
  8
2
370
    25
100
AcDbDimension
  2
*D0
 10
-150.057803
 20
87.843916
 30
0.0
 11
-153.557803
 21
49.943916
 31
0.0
 71
     0
 72
     0
 41
0.0
 42
0.0
  3
Standard
100
AcDbAlignedDimension
 13
-139.454107
 23
18.043916
 33
0.0
 14
-139.454107
 24
87.843916
 34
0.0
 50
90.0
100
AcDbRotatedDimension
  0
DIMENSION
  5
486
100
AcDbEntity
  8
2
370
    25
100
AcDbDimension
  2
*D1
 10
-113.894107
 20
106.93914
 30
0.0
 11
-117.394107
 21
108.93914
 31
0.0
 71
     0
 72
     0
 41
0.0
 42
0.0
  3
Standard
100
AcDbAlignedDimension
 13
-120.894107
 23
67.143916
 33
0.0
 14
-113.894107
 24
89.662589
 34
0.0
100
AcDbRotatedDimension
  0
TEXT
  5
487
100
AcDbEntity
  8
2
370
    18
100
AcDbText
 10
-156.801451
 20
106.620292
 30
0.0
 40
3.2
  1
（調整量４．６ｍｍ）
 72
     5
 11
-125.441451
 21
106.620292
 31
0.0
100
AcDbText
  0
TEXT
  5
488
100
AcDbEntity
  8
2
370
    18
100
AcDbText
 10
-116.093053
 20
116.293287
 30
0.0
 40
3.2
  1
調整基準位置
 72
     5
 11
-97.533053
 21
116.293287
 31
0.0
100
AcDbText
  0
LWPOLYLINE
  5
489
100
AcDbEntity
  8
2
370
    18
100
AcDbPolyline
 90
        3
 70
     0
 10
-120.96247
 20
107.835829
 10
-118.002678
 20
115.793287
 10
-96.611096
 20
115.793287
  0
LINE
  5
48E
100
AcDbEntity
  8
2
370
    25
100
AcDbLine
 10
-120.774157
 20
109.826944
 30
0.0
 11
-120.96247
 21
107.835829
 31
0.0
  0
LINE
  5
48F
100
AcDbEntity
  8
2
370
    25
100
AcDbLine
 10
-120.96247
 20
107.835829
 30
0.0
 11
-119.803829
 21
109.466028
 31
0.0
  0
DIMENSION
  5
490
100
AcDbEntity
  8
2
370
    25
100
AcDbDimension
  2
*D2
 10
-92.790747
 20
68.943916
 30
0.0
 11
-96.290747
 21
52.943916
 31
0.0
 71
     0
 72
     0
 41
0.0
 42
0.0
  3
Standard
100
AcDbAlignedDimension
 13
-108.194107
 23
36.943916
 33
0.0
 14
-108.194107
 24
68.943916
 34
0.0
 50
90.0
100
AcDbRotatedDimension
  0
DIMENSION
  5
491
100
AcDbEntity
  8
2
370
    25
100
AcDbDimension
  2
*D3
 10
-87.404803
 20
81.443916
 30
0.0
 11
-90.904803
 21
52.943916
 31
0.0
 71
     0
 72
     0
 41
0.0
 42
0.0
  3
Standard
100
AcDbAlignedDimension
 13
-108.394107
 23
24.443916
 33
0.0
 14
-108.394107
 24
81.443916
 34
0.0
 50
90.0
100
AcDbRotatedDimension
  0
DIMENSION
  5
492
100
AcDbEntity
  8
2
370
    25
100
AcDbDimension
  2
*D4
 10
-39.728273
 20
71.593889
 30
0.0
 11
-46.228273
 21
49.943916
 31
0.0
 71
     0
 72
     0
 41
0.0
 42
0.0
  3
Standard
100
AcDbAlignedDimension
 13
-51.794128
 23
34.293943
 33
0.0
 14
-51.794128
 24
71.593889
 34
0.0
 50
90.0
100
AcDbRotatedDimension
  0
DIMENSION
  5
493
100
AcDbEntity
  8
2
370
    25
100
AcDbDimension
  2
*D5
 10
-94.842173
 20
-21.956084
 30
0.0
 11
-99.842173
 21
-16.956084
 31
0.0
 71
     0
 72
     0
 41
0.0
 42
0.0
  3
Standard
100
AcDbAlignedDimension
 13
-101.894107
 23
-24.856084
 33
0.0
 14
-101.394107
 24
-21.956084
 34
0.0
 50
90.0
100
AcDbRotatedDimension
  0
DIMENSION
  5
494
100
AcDbEntity
  8
2
370
    25
100
AcDbDimension
  2
*D6
 10
-88.235785
 20
-21.956084
 30
0.0
 11
-94.735785
 21
-32.256084
 31
0.0
 71
     0
 72
     0
 41
0.0
 42
0.0
  3
Standard
100
AcDbAlignedDimension
 13
-102.894107
 23
-36.556084
 33
0.0
 14
-101.394107
 24
-21.956084
 34
0.0
 50
90.0
100
AcDbRotatedDimension
  0
DIMENSION
  5
495
100
AcDbEntity
  8
2
370
    25
100
AcDbDimension
  2
*D7
 10
-101.894107
 20
-45.759974
 30
0.0
 11
-113.894107
 21
-43.759974
 31
0.0
 71
     0
 72
     0
 41
0.0
 42
0.0
  3
Standard
100
AcDbAlignedDimension
 13
-125.894107
 23
-35.556084
 33
0.0
 14
-101.894107
 24
-35.556084
 34
0.0
100
AcDbRotatedDimension
  0
DIMENSION
  5
496
100
AcDbEntity
  8
2
370
    25
100
AcDbDimension
  2
*D8
 10
-146.047579
 20
-21.956084
 30
0.0
 11
-148.047579
 21
-16.956084
 31
0.0
 71
     0
 72
     0
 41
0.0
 42
0.0
  3
Standard
100
AcDbAlignedDimension
 13
-139.987834
 23
-24.956081
 33
0.0
 14
-138.418149
 24
-21.956084
 34
0.0
 50
90.0
100
AcDbRotatedDimension
  0
DIMENSION
  5
497
100
AcDbEntity
  8
2
370
    25
100
AcDbDimension
  2
*D9
 10
-101.394107
 20
7.637336
 30
0.0
 11
-107.644107
 21
9.637336
 31
0.0
 71
     0
 72
     0
 41
0.0
 42
0.0
  3
Standard
100
AcDbAlignedDimension
 13
-113.894107
 23
15.653281
 33
0.0
 14
-101.394107
 24
24.043916
 34
0.0
100
AcDbRotatedDimension
  0
DIMENSION
  5
498
100
AcDbEntity
  8
2
370
    25
100
AcDbDimension
  2
*D10
 10
-107.394107
 20
81.843916
 30
0.0
 11
-97.751683
 21
92.006281
 31
0.0
 70
     4
 71
     0
 72
     0
 41
0.0
 42
0.0
  3
Standard
100
AcDbRadialDimension
 15
-103.111556
 25
86.046267
 35
0.0
 40
4.5
  0
CIRCLE
  5
499
100
AcDbEntity
  8
2
370
    25
100
AcDbCircle
 10
-77.158026
 20
6.352428
 30
0.0
 40
3.0
  0
CIRCLE
  5
49A
100
AcDbEntity
  8
2
370
    25
100
AcDbCircle
 10
-39.794924
 20
6.352428
 30
0.0
 40
3.0
  0
TEXT
  5
49B
100
AcDbEntity
  8
2
370
    25
100
AcDbText
 10
-41.294924
 20
4.852428
 30
0.0
 40
3.0
  1
３
 72
     5
 11
-38.894924
 21
4.852428
 31
0.0
100
AcDbText
  0
TEXT
  5
49C
100
AcDbEntity
  8
2
370
    25
100
AcDbText
 10
-78.658026
 20
4.852428
 30
0.0
 40
3.0
  1
１
 72
     5
 11
-76.258026
 21
4.852428
 31
0.0
100
AcDbText
  0
LWPOLYLINE
  5
49D
100
AcDbEntity
  8
2
370
    25
100
AcDbPolyline
 90
        2
 70
     0
 10
-66.394107
 20
21.046575
 10
-75.225757
 20
8.990226
  0
LINE
  5
4A1
100
AcDbEntity
  8
2
370
    25
100
AcDbLine
 10
-66.223517
 20
21.279453
 30
0.0
 11
-66.626874
 21
21.574924
 31
0.0
  0
LINE
  5
4A2
100
AcDbEntity
  8
2
370
    25
100
AcDbLine
 10
-66.626874
 20
21.574924
 30
0.0
 11
-66.735288
 21
20.580819
 31
0.0
  0
LINE
  5
4A3
100
AcDbEntity
  8
2
370
    25
100
AcDbLine
 10
-66.735288
 20
20.580819
 30
0.0
 11
-65.82016
 21
20.983982
 31
0.0
  0
LINE
  5
4A4
100
AcDbEntity
  8
2
370
    25
100
AcDbLine
 10
-65.82016
 20
20.983982
 30
0.0
 11
-66.223517
 21
21.279453
 31
0.0
  0
LWPOLYLINE
  5
4A5
100
AcDbEntity
  8
2
370
    25
100
AcDbPolyline
 90
        2
 70
     0
 10
-55.508213
 20
24.453984
 10
-41.771269
 20
8.692337
  0
LINE
  5
4A9
100
AcDbEntity
  8
2
370
    25
100
AcDbLine
 10
-55.69788
 20
24.671607
 30
0.0
 11
-56.074814
 21
24.343093
 31
0.0
  0
LINE
  5
4AA
100
AcDbEntity
  8
2
370
    25
100
AcDbLine
 10
-56.074814
 20
24.343093
 30
0.0
 11
-55.128878
 21
24.018739
 31
0.0
  0
LINE
  5
4AB
100
AcDbEntity
  8
2
370
    25
100
AcDbLine
 10
-55.128878
 20
24.018739
 30
0.0
 11
-55.320947
 21
25.000121
 31
0.0
  0
LINE
  5
4AC
100
AcDbEntity
  8
2
370
    25
100
AcDbLine
 10
-55.320947
 20
25.000121
 30
0.0
 11
-55.69788
 21
24.671607
 31
0.0
  0
TEXT
  5
4AD
100
AcDbEntity
  8
2
370
    18
100
AcDbText
 10
-136.194107
 20
100.951724
 30
0.0
 40
3.0
  1
+2.3
 41
2.0
 72
     5
 11
-125.394107
 21
100.951724
 31
0.0
100
AcDbText
  0
DIMENSION
  5
4AE
100
AcDbEntity
  8
2
370
    25
100
AcDbDimension
  2
*D11
 10
-120.894107
 20
100.451724
 30
0.0
 11
-122.044107
 21
102.451724
 31
0.0
 71
     0
 72
     0
 41
0.0
 42
0.0
  3
Standard
100
AcDbAlignedDimension
 13
-123.194107
 23
68.943916
 33
0.0
 14
-120.894107
 24
67.143916
 34
0.0
100
AcDbRotatedDimension
  0
TEXT
  5
4AF
100
AcDbEntity
  8
2
370
    18
100
AcDbText
 10
-114.594107
 20
100.951724
 30
0.0
 40
3.0
  1
-2.3
 41
2.0
 72
     5
 11
-103.794107
 21
100.951724
 31
0.0
100
AcDbText
  0
DIMENSION
  5
4B0
100
AcDbEntity
  8
2
370
    25
100
AcDbDimension
  2
*D12
 10
-118.594107
 20
100.451724
 30
0.0
 11
-119.744107
 21
102.451724
 31
0.0
 71
     0
 72
     0
 41
0.0
 42
0.0
  3
Standard
100
AcDbAlignedDimension
 13
-120.894107
 23
67.143916
 33
0.0
 14
-118.594107
 24
68.943916
 34
0.0
100
AcDbRotatedDimension
  0
DIMENSION
  5
4B1
100
AcDbEntity
  8
2
370
    25
100
AcDbDimension
  2
*D13
 10
-363.057803
 20
87.843916
 30
0.0
 11
-366.557803
 21
49.943916
 31
0.0
 71
     0
 72
     0
 41
0.0
 42
0.0
  3
Standard
100
AcDbAlignedDimension
 13
-352.454107
 23
18.043916
 33
0.0
 14
-352.454107
 24
87.843916
 34
0.0
 50
90.0
100
AcDbRotatedDimension
  0
DIMENSION
  5
4B2
100
AcDbEntity
  8
2
370
    25
100
AcDbDimension
  2
*D14
 10
-328.894107
 20
106.93914
 30
0.0
 11
-332.394107
 21
108.93914
 31
0.0
 71
     0
 72
     0
 41
0.0
 42
0.0
  3
Standard
100
AcDbAlignedDimension
 13
-335.894107
 23
67.143916
 33
0.0
 14
-328.894107
 24
89.662589
 34
0.0
100
AcDbRotatedDimension
  0
TEXT
  5
4B3
100
AcDbEntity
  8
2
370
    18
100
AcDbText
 10
-371.801451
 20
106.620292
 30
0.0
 40
3.2
  1
（調整量４．６ｍｍ）
 72
     5
 11
-340.441451
 21
106.620292
 31
0.0
100
AcDbText
  0
TEXT
  5
4B4
100
AcDbEntity
  8
2
370
    18
100
AcDbText
 10
-331.093053
 20
116.293287
 30
0.0
 40
3.2
  1
調整基準位置
 72
     5
 11
-312.533053
 21
116.293287
 31
0.0
100
AcDbText
  0
LWPOLYLINE
  5
4B5
100
AcDbEntity
  8
2
370
    18
100
AcDbPolyline
 90
        3
 70
     0
 10
-335.96247
 20
107.835829
 10
-333.002678
 20
115.793287
 10
-311.611096
 20
115.793287
  0
LINE
  5
4BA
100
AcDbEntity
  8
2
370
    25
100
AcDbLine
 10
-335.774157
 20
109.826944
 30
0.0
 11
-335.96247
 21
107.835829
 31
0.0
  0
LINE
  5
4BB
100
AcDbEntity
  8
2
370
    25
100
AcDbLine
 10
-335.96247
 20
107.835829
 30
0.0
 11
-334.803829
 21
109.466028
 31
0.0
  0
DIMENSION
  5
4BC
100
AcDbEntity
  8
2
370
    25
100
AcDbDimension
  2
*D15
 10
-307.790747
 20
68.943916
 30
0.0
 11
-311.290747
 21
52.943916
 31
0.0
 71
     0
 72
     0
 41
0.0
 42
0.0
  3
Standard
100
AcDbAlignedDimension
 13
-323.194107
 23
36.943916
 33
0.0
 14
-323.194107
 24
68.943916
 34
0.0
 50
90.0
100
AcDbRotatedDimension
  0
DIMENSION
  5
4BD
100
AcDbEntity
  8
2
370
    25
100
AcDbDimension
  2
*D16
 10
-302.404803
 20
81.443916
 30
0.0
 11
-305.904803
 21
52.943916
 31
0.0
 71
     0
 72
     0
 41
0.0
 42
0.0
  3
Standard
100
AcDbAlignedDimension
 13
-323.394107
 23
24.443916
 33
0.0
 14
-323.394107
 24
81.443916
 34
0.0
 50
90.0
100
AcDbRotatedDimension
  0
DIMENSION
  5
4BE
100
AcDbEntity
  8
2
370
    25
100
AcDbDimension
  2
*D17
 10
-254.728273
 20
71.593889
 30
0.0
 11
-261.228273
 21
49.943916
 31
0.0
 71
     0
 72
     0
 41
0.0
 42
0.0
  3
Standard
100
AcDbAlignedDimension
 13
-266.794128
 23
34.293943
 33
0.0
 14
-266.794128
 24
71.593889
 34
0.0
 50
90.0
100
AcDbRotatedDimension
  0
DIMENSION
  5
4BF
100
AcDbEntity
  8
2
370
    25
100
AcDbDimension
  2
*D18
 10
-309.842173
 20
-21.956084
 30
0.0
 11
-314.842173
 21
-16.956084
 31
0.0
 71
     0
 72
     0
 41
0.0
 42
0.0
  3
Standard
100
AcDbAlignedDimension
 13
-316.894107
 23
-24.856084
 33
0.0
 14
-316.394107
 24
-21.956084
 34
0.0
 50
90.0
100
AcDbRotatedDimension
  0
DIMENSION
  5
4C0
100
AcDbEntity
  8
2
370
    25
100
AcDbDimension
  2
*D19
 10
-303.235785
 20
-21.956084
 30
0.0
 11
-309.735785
 21
-32.256084
 31
0.0
 71
     0
 72
     0
 41
0.0
 42
0.0
  3
Standard
100
AcDbAlignedDimension
 13
-317.894107
 23
-36.556084
 33
0.0
 14
-316.394107
 24
-21.956084
 34
0.0
 50
90.0
100
AcDbRotatedDimension
  0
DIMENSION
  5
4C1
100
AcDbEntity
  8
2
370
    25
100
AcDbDimension
  2
*D20
 10
-316.894107
 20
-45.759974
 30
0.0
 11
-328.894107
 21
-43.759974
 31
0.0
 71
     0
 72
     0
 41
0.0
 42
0.0
  3
Standard
100
AcDbAlignedDimension
 13
-340.894107
 23
-35.556084
 33
0.0
 14
-316.894107
 24
-35.556084
 34
0.0
100
AcDbRotatedDimension
  0
DIMENSION
  5
4C2
100
AcDbEntity
  8
2
370
    25
100
AcDbDimension
  2
*D21
 10
-359.047579
 20
-21.956084
 30
0.0
 11
-361.047579
 21
-16.956084
 31
0.0
 71
     0
 72
     0
 41
0.0
 42
0.0
  3
Standard
100
AcDbAlignedDimension
 13
-352.987834
 23
-24.956081
 33
0.0
 14
-351.418149
 24
-21.956084
 34
0.0
 50
90.0
100
AcDbRotatedDimension
  0
DIMENSION
  5
4C3
100
AcDbEntity
  8
2
370
    25
100
AcDbDimension
  2
*D22
 10
-316.394107
 20
7.637336
 30
0.0
 11
-322.644107
 21
9.637336
 31
0.0
 71
     0
 72
     0
 41
0.0
 42
0.0
  3
Standard
100
AcDbAlignedDimension
 13
-328.894107
 23
15.653281
 33
0.0
 14
-316.394107
 24
24.043916
 34
0.0
100
AcDbRotatedDimension
  0
DIMENSION
  5
4C4
100
AcDbEntity
  8
2
370
    25
100
AcDbDimension
  2
*D23
 10
-322.394107
 20
81.843916
 30
0.0
 11
-312.751683
 21
92.006281
 31
0.0
 70
     4
 71
     0
 72
     0
 41
0.0
 42
0.0
  3
Standard
100
AcDbRadialDimension
 15
-318.111556
 25
86.046267
 35
0.0
 40
4.5
  0
CIRCLE
  5
4C5
100
AcDbEntity
  8
2
370
    25
100
AcDbCircle
 10
-292.158026
 20
6.352428
 30
0.0
 40
3.0
  0
CIRCLE
  5
4C6
100
AcDbEntity
  8
2
370
    25
100
AcDbCircle
 10
-254.794924
 20
6.352428
 30
0.0
 40
3.0
  0
TEXT
  5
4C7
100
AcDbEntity
  8
2
370
    25
100
AcDbText
 10
-256.294924
 20
4.852428
 30
0.0
 40
3.0
  1
３
 72
     5
 11
-253.894924
 21
4.852428
 31
0.0
100
AcDbText
  0
TEXT
  5
4C8
100
AcDbEntity
  8
2
370
    25
100
AcDbText
 10
-293.658026
 20
4.852428
 30
0.0
 40
3.0
  1
１
 72
     5
 11
-291.258026
 21
4.852428
 31
0.0
100
AcDbText
  0
LWPOLYLINE
  5
4C9
100
AcDbEntity
  8
2
370
    25
100
AcDbPolyline
 90
        2
 70
     0
 10
-281.394107
 20
21.046575
 10
-290.225757
 20
8.990226
  0
LINE
  5
4CD
100
AcDbEntity
  8
2
370
    25
100
AcDbLine
 10
-281.223517
 20
21.279453
 30
0.0
 11
-281.626874
 21
21.574924
 31
0.0
  0
LINE
  5
4CE
100
AcDbEntity
  8
2
370
    25
100
AcDbLine
 10
-281.626874
 20
21.574924
 30
0.0
 11
-281.735288
 21
20.580819
 31
0.0
  0
LINE
  5
4CF
100
AcDbEntity
  8
2
370
    25
100
AcDbLine
 10
-281.735288
 20
20.580819
 30
0.0
 11
-280.82016
 21
20.983982
 31
0.0
  0
LINE
  5
4D0
100
AcDbEntity
  8
2
370
    25
100
AcDbLine
 10
-280.82016
 20
20.983982
 30
0.0
 11
-281.223517
 21
21.279453
 31
0.0
  0
LWPOLYLINE
  5
4D1
100
AcDbEntity
  8
2
370
    25
100
AcDbPolyline
 90
        2
 70
     0
 10
-270.508213
 20
24.453984
 10
-256.771269
 20
8.692337
  0
LINE
  5
4D5
100
AcDbEntity
  8
2
370
    25
100
AcDbLine
 10
-270.69788
 20
24.671607
 30
0.0
 11
-271.074814
 21
24.343093
 31
0.0
  0
LINE
  5
4D6
100
AcDbEntity
  8
2
370
    25
100
AcDbLine
 10
-271.074814
 20
24.343093
 30
0.0
 11
-270.128878
 21
24.018739
 31
0.0
  0
LINE
  5
4D7
100
AcDbEntity
  8
2
370
    25
100
AcDbLine
 10
-270.128878
 20
24.018739
 30
0.0
 11
-270.320947
 21
25.000121
 31
0.0
  0
LINE
  5
4D8
100
AcDbEntity
  8
2
370
    25
100
AcDbLine
 10
-270.320947
 20
25.000121
 30
0.0
 11
-270.69788
 21
24.671607
 31
0.0
  0
TEXT
  5
4D9
100
AcDbEntity
  8
2
370
    18
100
AcDbText
 10
-351.194107
 20
100.951724
 30
0.0
 40
3.0
  1
+2.3
 41
2.0
 72
     5
 11
-340.394107
 21
100.951724
 31
0.0
100
AcDbText
  0
DIMENSION
  5
4DA
100
AcDbEntity
  8
2
370
    25
100
AcDbDimension
  2
*D24
 10
-335.894107
 20
100.451724
 30
0.0
 11
-337.044107
 21
102.451724
 31
0.0
 71
     0
 72
     0
 41
0.0
 42
0.0
  3
Standard
100
AcDbAlignedDimension
 13
-338.194107
 23
68.943916
 33
0.0
 14
-335.894107
 24
67.143916
 34
0.0
100
AcDbRotatedDimension
  0
TEXT
  5
4DB
100
AcDbEntity
  8
2
370
    18
100
AcDbText
 10
-329.594107
 20
100.951724
 30
0.0
 40
3.0
  1
-2.3
 41
2.0
 72
     5
 11
-318.794107
 21
100.951724
 31
0.0
100
AcDbText
  0
DIMENSION
  5
4DC
100
AcDbEntity
  8
2
370
    25
100
AcDbDimension
  2
*D25
 10
-333.594107
 20
100.451724
 30
0.0
 11
-334.744107
 21
102.451724
 31
0.0
 71
     0
 72
     0
 41
0.0
 42
0.0
  3
Standard
100
AcDbAlignedDimension
 13
-335.894107
 23
67.143916
 33
0.0
 14
-333.594107
 24
68.943916
 34
0.0
100
AcDbRotatedDimension
  0
DIMENSION
  5
4DD
100
AcDbEntity
  8
2
370
    25
100
AcDbDimension
  2
*D26
 10
58.442197
 20
87.843916
 30
0.0
 11
54.942197
 21
49.943916
 31
0.0
 71
     0
 72
     0
 41
0.0
 42
0.0
  3
Standard
100
AcDbAlignedDimension
 13
69.045893
 23
18.043916
 33
0.0
 14
69.045893
 24
87.843916
 34
0.0
 50
90.0
100
AcDbRotatedDimension
  0
DIMENSION
  5
4DE
100
AcDbEntity
  8
2
370
    25
100
AcDbDimension
  2
*D27
 10
96.105893
 20
106.93914
 30
0.0
 11
92.605893
 21
108.93914
 31
0.0
 71
     0
 72
     0
 41
0.0
 42
0.0
  3
Standard
100
AcDbAlignedDimension
 13
89.105893
 23
67.143916
 33
0.0
 14
96.105893
 24
89.662589
 34
0.0
100
AcDbRotatedDimension
  0
TEXT
  5
4DF
100
AcDbEntity
  8
2
370
    18
100
AcDbText
 10
53.198549
 20
106.620292
 30
0.0
 40
3.2
  1
（調整量４．６ｍｍ）
 72
     5
 11
84.558549
 21
106.620292
 31
0.0
100
AcDbText
  0
TEXT
  5
4E0
100
AcDbEntity
  8
2
370
    18
100
AcDbText
 10
93.906947
 20
116.293287
 30
0.0
 40
3.2
  1
調整基準位置
 72
     5
 11
112.466947
 21
116.293287
 31
0.0
100
AcDbText
  0
LWPOLYLINE
  5
4E1
100
AcDbEntity
  8
2
370
    18
100
AcDbPolyline
 90
        3
 70
     0
 10
89.03753
 20
107.835829
 10
91.997322
 20
115.793287
 10
113.388904
 20
115.793287
  0
LINE
  5
4E6
100
AcDbEntity
  8
2
370
    25
100
AcDbLine
 10
89.225843
 20
109.826944
 30
0.0
 11
89.03753
 21
107.835829
 31
0.0
  0
LINE
  5
4E7
100
AcDbEntity
  8
2
370
    25
100
AcDbLine
 10
89.03753
 20
107.835829
 30
0.0
 11
90.196171
 21
109.466028
 31
0.0
  0
DIMENSION
  5
4E8
100
AcDbEntity
  8
2
370
    25
100
AcDbDimension
  2
*D28
 10
117.209253
 20
68.943916
 30
0.0
 11
113.709253
 21
52.943916
 31
0.0
 71
     0
 72
     0
 41
0.0
 42
0.0
  3
Standard
100
AcDbAlignedDimension
 13
101.805893
 23
36.943916
 33
0.0
 14
101.805893
 24
68.943916
 34
0.0
 50
90.0
100
AcDbRotatedDimension
  0
DIMENSION
  5
4E9
100
AcDbEntity
  8
2
370
    25
100
AcDbDimension
  2
*D29
 10
122.595197
 20
81.443916
 30
0.0
 11
119.095197
 21
52.943916
 31
0.0
 71
     0
 72
     0
 41
0.0
 42
0.0
  3
Standard
100
AcDbAlignedDimension
 13
101.605893
 23
24.443916
 33
0.0
 14
101.605893
 24
81.443916
 34
0.0
 50
90.0
100
AcDbRotatedDimension
  0
DIMENSION
  5
4EA
100
AcDbEntity
  8
2
370
    25
100
AcDbDimension
  2
*D30
 10
170.271727
 20
71.593889
 30
0.0
 11
163.771727
 21
49.943916
 31
0.0
 71
     0
 72
     0
 41
0.0
 42
0.0
  3
Standard
100
AcDbAlignedDimension
 13
158.205872
 23
34.293943
 33
0.0
 14
158.205872
 24
71.593889
 34
0.0
 50
90.0
100
AcDbRotatedDimension
  0
DIMENSION
  5
4EB
100
AcDbEntity
  8
2
370
    25
100
AcDbDimension
  2
*D31
 10
115.157827
 20
-21.956084
 30
0.0
 11
110.157827
 21
-16.956084
 31
0.0
 71
     0
 72
     0
 41
0.0
 42
0.0
  3
Standard
100
AcDbAlignedDimension
 13
108.105893
 23
-24.856084
 33
0.0
 14
108.605893
 24
-21.956084
 34
0.0
 50
90.0
100
AcDbRotatedDimension
  0
DIMENSION
  5
4EC
100
AcDbEntity
  8
2
370
    25
100
AcDbDimension
  2
*D32
 10
121.764215
 20
-21.956084
 30
0.0
 11
115.264215
 21
-32.256084
 31
0.0
 71
     0
 72
     0
 41
0.0
 42
0.0
  3
Standard
100
AcDbAlignedDimension
 13
107.105893
 23
-36.556084
 33
0.0
 14
108.605893
 24
-21.956084
 34
0.0
 50
90.0
100
AcDbRotatedDimension
  0
DIMENSION
  5
4ED
100
AcDbEntity
  8
2
370
    25
100
AcDbDimension
  2
*D33
 10
108.105893
 20
-45.759974
 30
0.0
 11
96.105893
 21
-43.759974
 31
0.0
 71
     0
 72
     0
 41
0.0
 42
0.0
  3
Standard
100
AcDbAlignedDimension
 13
84.105893
 23
-35.556084
 33
0.0
 14
108.105893
 24
-35.556084
 34
0.0
100
AcDbRotatedDimension
  0
DIMENSION
  5
4EE
100
AcDbEntity
  8
2
370
    25
100
AcDbDimension
  2
*D34
 10
62.452421
 20
-21.956084
 30
0.0
 11
60.452421
 21
-16.956084
 31
0.0
 71
     0
 72
     0
 41
0.0
 42
0.0
  3
Standard
100
AcDbAlignedDimension
 13
68.512166
 23
-24.956081
 33
0.0
 14
70.081851
 24
-21.956084
 34
0.0
 50
90.0
100
AcDbRotatedDimension
  0
DIMENSION
  5
4EF
100
AcDbEntity
  8
2
370
    25
100
AcDbDimension
  2
*D35
 10
108.605893
 20
7.637336
 30
0.0
 11
102.355893
 21
9.637336
 31
0.0
 71
     0
 72
     0
 41
0.0
 42
0.0
  3
Standard
100
AcDbAlignedDimension
 13
96.105893
 23
15.653281
 33
0.0
 14
108.605893
 24
24.043916
 34
0.0
100
AcDbRotatedDimension
  0
DIMENSION
  5
4F0
100
AcDbEntity
  8
2
370
    25
100
AcDbDimension
  2
*D36
 10
102.605893
 20
81.843916
 30
0.0
 11
112.248317
 21
92.006281
 31
0.0
 70
     4
 71
     0
 72
     0
 41
0.0
 42
0.0
  3
Standard
100
AcDbRadialDimension
 15
106.888444
 25
86.046267
 35
0.0
 40
4.5
  0
CIRCLE
  5
4F1
100
AcDbEntity
  8
2
370
    25
100
AcDbCircle
 10
132.841974
 20
6.352428
 30
0.0
 40
3.0
  0
CIRCLE
  5
4F2
100
AcDbEntity
  8
2
370
    25
100
AcDbCircle
 10
170.205076
 20
6.352428
 30
0.0
 40
3.0
  0
TEXT
  5
4F3
100
AcDbEntity
  8
2
370
    25
100
AcDbText
 10
168.705076
 20
4.852428
 30
0.0
 40
3.0
  1
３
 72
     5
 11
171.105076
 21
4.852428
 31
0.0
100
AcDbText
  0
TEXT
  5
4F4
100
AcDbEntity
  8
2
370
    25
100
AcDbText
 10
131.341974
 20
4.852428
 30
0.0
 40
3.0
  1
１
 72
     5
 11
133.741974
 21
4.852428
 31
0.0
100
AcDbText
  0
LWPOLYLINE
  5
4F5
100
AcDbEntity
  8
2
370
    25
100
AcDbPolyline
 90
        2
 70
     0
 10
143.605893
 20
21.046575
 10
134.774243
 20
8.990226
  0
LINE
  5
4F9
100
AcDbEntity
  8
2
370
    25
100
AcDbLine
 10
143.776483
 20
21.279453
 30
0.0
 11
143.373126
 21
21.574924
 31
0.0
  0
LINE
  5
4FA
100
AcDbEntity
  8
2
370
    25
100
AcDbLine
 10
143.373126
 20
21.574924
 30
0.0
 11
143.264712
 21
20.580819
 31
0.0
  0
LINE
  5
4FB
100
AcDbEntity
  8
2
370
    25
100
AcDbLine
 10
143.264712
 20
20.580819
 30
0.0
 11
144.17984
 21
20.983982
 31
0.0
  0
LINE
  5
4FC
100
AcDbEntity
  8
2
370
    25
100
AcDbLine
 10
144.17984
 20
20.983982
 30
0.0
 11
143.776483
 21
21.279453
 31
0.0
  0
LWPOLYLINE
  5
4FD
100
AcDbEntity
  8
2
370
    25
100
AcDbPolyline
 90
        2
 70
     0
 10
154.491787
 20
24.453984
 10
168.228731
 20
8.692337
  0
LINE
  5
501
100
AcDbEntity
  8
2
370
    25
100
AcDbLine
 10
154.30212
 20
24.671607
 30
0.0
 11
153.925186
 21
24.343093
 31
0.0
  0
LINE
  5
502
100
AcDbEntity
  8
2
370
    25
100
AcDbLine
 10
153.925186
 20
24.343093
 30
0.0
 11
154.871122
 21
24.018739
 31
0.0
  0
LINE
  5
503
100
AcDbEntity
  8
2
370
    25
100
AcDbLine
 10
154.871122
 20
24.018739
 30
0.0
 11
154.679053
 21
25.000121
 31
0.0
  0
LINE
  5
504
100
AcDbEntity
  8
2
370
    25
100
AcDbLine
 10
154.679053
 20
25.000121
 30
0.0
 11
154.30212
 21
24.671607
 31
0.0
  0
TEXT
  5
505
100
AcDbEntity
  8
2
370
    18
100
AcDbText
 10
73.805893
 20
100.951724
 30
0.0
 40
3.0
  1
+2.3
 41
2.0
 72
     5
 11
84.605893
 21
100.951724
 31
0.0
100
AcDbText
  0
DIMENSION
  5
506
100
AcDbEntity
  8
2
370
    25
100
AcDbDimension
  2
*D37
 10
89.105893
 20
100.451724
 30
0.0
 11
87.955893
 21
102.451724
 31
0.0
 71
     0
 72
     0
 41
0.0
 42
0.0
  3
Standard
100
AcDbAlignedDimension
 13
86.805893
 23
68.943916
 33
0.0
 14
89.105893
 24
67.143916
 34
0.0
100
AcDbRotatedDimension
  0
TEXT
  5
507
100
AcDbEntity
  8
2
370
    18
100
AcDbText
 10
95.405893
 20
100.951724
 30
0.0
 40
3.0
  1
-2.3
 41
2.0
 72
     5
 11
106.205893
 21
100.951724
 31
0.0
100
AcDbText
  0
DIMENSION
  5
508
100
AcDbEntity
  8
2
370
    25
100
AcDbDimension
  2
*D38
 10
91.405893
 20
100.451724
 30
0.0
 11
90.255893
 21
102.451724
 31
0.0
 71
     0
 72
     0
 41
0.0
 42
0.0
  3
Standard
100
AcDbAlignedDimension
 13
89.105893
 23
67.143916
 33
0.0
 14
91.405893
 24
68.943916
 34
0.0
100
AcDbRotatedDimension
  0
DIMENSION
  5
509
100
AcDbEntity
  8
2
370
    25
100
AcDbDimension
  2
*D39
 10
266.942197
 20
87.843916
 30
0.0
 11
263.442197
 21
49.943916
 31
0.0
 71
     0
 72
     0
 41
0.0
 42
0.0
  3
Standard
100
AcDbAlignedDimension
 13
277.545893
 23
18.043916
 33
0.0
 14
277.545893
 24
87.843916
 34
0.0
 50
90.0
100
AcDbRotatedDimension
  0
DIMENSION
  5
50A
100
AcDbEntity
  8
2
370
    25
100
AcDbDimension
  2
*D40
 10
306.105893
 20
106.93914
 30
0.0
 11
302.605893
 21
108.93914
 31
0.0
 71
     0
 72
     0
 41
0.0
 42
0.0
  3
Standard
100
AcDbAlignedDimension
 13
299.105893
 23
67.143916
 33
0.0
 14
306.105893
 24
89.662589
 34
0.0
100
AcDbRotatedDimension
  0
TEXT
  5
50B
100
AcDbEntity
  8
2
370
    18
100
AcDbText
 10
263.198549
 20
106.620292
 30
0.0
 40
3.2
  1
（調整量４．６ｍｍ）
 72
     5
 11
294.558549
 21
106.620292
 31
0.0
100
AcDbText
  0
TEXT
  5
50C
100
AcDbEntity
  8
2
370
    18
100
AcDbText
 10
303.906947
 20
116.293287
 30
0.0
 40
3.2
  1
調整基準位置
 72
     5
 11
322.466947
 21
116.293287
 31
0.0
100
AcDbText
  0
LWPOLYLINE
  5
50D
100
AcDbEntity
  8
2
370
    18
100
AcDbPolyline
 90
        3
 70
     0
 10
299.03753
 20
107.835829
 10
301.997322
 20
115.793287
 10
323.388904
 20
115.793287
  0
LINE
  5
512
100
AcDbEntity
  8
2
370
    25
100
AcDbLine
 10
299.225843
 20
109.826944
 30
0.0
 11
299.03753
 21
107.835829
 31
0.0
  0
LINE
  5
513
100
AcDbEntity
  8
2
370
    25
100
AcDbLine
 10
299.03753
 20
107.835829
 30
0.0
 11
300.196171
 21
109.466028
 31
0.0
  0
DIMENSION
  5
514
100
AcDbEntity
  8
2
370
    25
100
AcDbDimension
  2
*D41
 10
327.209253
 20
68.943916
 30
0.0
 11
323.709253
 21
52.943916
 31
0.0
 71
     0
 72
     0
 41
0.0
 42
0.0
  3
Standard
100
AcDbAlignedDimension
 13
311.805893
 23
36.943916
 33
0.0
 14
311.805893
 24
68.943916
 34
0.0
 50
90.0
100
AcDbRotatedDimension
  0
DIMENSION
  5
515
100
AcDbEntity
  8
2
370
    25
100
AcDbDimension
  2
*D42
 10
332.595197
 20
81.443916
 30
0.0
 11
329.095197
 21
52.943916
 31
0.0
 71
     0
 72
     0
 41
0.0
 42
0.0
  3
Standard
100
AcDbAlignedDimension
 13
311.605893
 23
24.443916
 33
0.0
 14
311.605893
 24
81.443916
 34
0.0
 50
90.0
100
AcDbRotatedDimension
  0
DIMENSION
  5
516
100
AcDbEntity
  8
2
370
    25
100
AcDbDimension
  2
*D43
 10
380.271727
 20
71.593889
 30
0.0
 11
373.771727
 21
49.943916
 31
0.0
 71
     0
 72
     0
 41
0.0
 42
0.0
  3
Standard
100
AcDbAlignedDimension
 13
368.205872
 23
34.293943
 33
0.0
 14
368.205872
 24
71.593889
 34
0.0
 50
90.0
100
AcDbRotatedDimension
  0
DIMENSION
  5
517
100
AcDbEntity
  8
2
370
    25
100
AcDbDimension
  2
*D44
 10
325.157827
 20
-21.956084
 30
0.0
 11
320.157827
 21
-16.956084
 31
0.0
 71
     0
 72
     0
 41
0.0
 42
0.0
  3
Standard
100
AcDbAlignedDimension
 13
318.105893
 23
-24.856084
 33
0.0
 14
318.605893
 24
-21.956084
 34
0.0
 50
90.0
100
AcDbRotatedDimension
  0
DIMENSION
  5
518
100
AcDbEntity
  8
2
370
    25
100
AcDbDimension
  2
*D45
 10
331.764215
 20
-21.956084
 30
0.0
 11
325.264215
 21
-32.256084
 31
0.0
 71
     0
 72
     0
 41
0.0
 42
0.0
  3
Standard
100
AcDbAlignedDimension
 13
317.105893
 23
-36.556084
 33
0.0
 14
318.605893
 24
-21.956084
 34
0.0
 50
90.0
100
AcDbRotatedDimension
  0
DIMENSION
  5
519
100
AcDbEntity
  8
2
370
    25
100
AcDbDimension
  2
*D46
 10
318.105893
 20
-45.759974
 30
0.0
 11
306.105893
 21
-43.759974
 31
0.0
 71
     0
 72
     0
 41
0.0
 42
0.0
  3
Standard
100
AcDbAlignedDimension
 13
294.105893
 23
-35.556084
 33
0.0
 14
318.105893
 24
-35.556084
 34
0.0
100
AcDbRotatedDimension
  0
DIMENSION
  5
51A
100
AcDbEntity
  8
2
370
    25
100
AcDbDimension
  2
*D47
 10
270.952421
 20
-21.956084
 30
0.0
 11
268.952421
 21
-16.956084
 31
0.0
 71
     0
 72
     0
 41
0.0
 42
0.0
  3
Standard
100
AcDbAlignedDimension
 13
277.012166
 23
-24.956081
 33
0.0
 14
278.581851
 24
-21.956084
 34
0.0
 50
90.0
100
AcDbRotatedDimension
  0
DIMENSION
  5
51B
100
AcDbEntity
  8
2
370
    25
100
AcDbDimension
  2
*D48
 10
318.605893
 20
7.637336
 30
0.0
 11
312.355893
 21
9.637336
 31
0.0
 71
     0
 72
     0
 41
0.0
 42
0.0
  3
Standard
100
AcDbAlignedDimension
 13
306.105893
 23
15.653281
 33
0.0
 14
318.605893
 24
24.043916
 34
0.0
100
AcDbRotatedDimension
  0
DIMENSION
  5
51C
100
AcDbEntity
  8
2
370
    25
100
AcDbDimension
  2
*D49
 10
306.105893
 20
7.637336
 30
0.0
 11
291.105893
 21
9.637336
 31
0.0
 71
     0
 72
     0
 41
0.0
 42
0.0
  3
Standard
100
AcDbAlignedDimension
 13
276.105893
 23
18.655968
 33
0.0
 14
306.105893
 24
7.637336
 34
0.0
100
AcDbRotatedDimension
  0
DIMENSION
  5
51D
100
AcDbEntity
  8
2
370
    25
100
AcDbDimension
  2
*D50
 10
318.605893
 20
0.470115
 30
0.0
 11
297.355893
 21
2.470115
 31
0.0
 71
     0
 72
     0
 41
0.0
 42
0.0
  3
Standard
100
AcDbAlignedDimension
 13
276.105893
 23
18.655968
 33
0.0
 14
318.605893
 24
24.043916
 34
0.0
100
AcDbRotatedDimension
  0
DIMENSION
  5
51E
100
AcDbEntity
  8
2
370
    25
100
AcDbDimension
  2
*D51
 10
312.605893
 20
81.843916
 30
0.0
 11
322.248317
 21
92.006281
 31
0.0
 70
     4
 71
     0
 72
     0
 41
0.0
 42
0.0
  3
Standard
100
AcDbRadialDimension
 15
316.888444
 25
86.046267
 35
0.0
 40
4.5
  0
CIRCLE
  5
51F
100
AcDbEntity
  8
2
370
    25
100
AcDbCircle
 10
342.841974
 20
6.352428
 30
0.0
 40
3.0
  0
CIRCLE
  5
520
100
AcDbEntity
  8
2
370
    25
100
AcDbCircle
 10
380.205076
 20
6.352428
 30
0.0
 40
3.0
  0
TEXT
  5
521
100
AcDbEntity
  8
2
370
    25
100
AcDbText
 10
378.705076
 20
4.852428
 30
0.0
 40
3.0
  1
３
 72
     5
 11
381.105076
 21
4.852428
 31
0.0
100
AcDbText
  0
TEXT
  5
522
100
AcDbEntity
  8
2
370
    25
100
AcDbText
 10
341.341974
 20
4.852428
 30
0.0
 40
3.0
  1
１
 72
     5
 11
343.741974
 21
4.852428
 31
0.0
100
AcDbText
  0
LWPOLYLINE
  5
523
100
AcDbEntity
  8
2
370
    25
100
AcDbPolyline
 90
        2
 70
     0
 10
353.605893
 20
21.046575
 10
344.774243
 20
8.990226
  0
LINE
  5
527
100
AcDbEntity
  8
2
370
    25
100
AcDbLine
 10
353.776483
 20
21.279453
 30
0.0
 11
353.373126
 21
21.574924
 31
0.0
  0
LINE
  5
528
100
AcDbEntity
  8
2
370
    25
100
AcDbLine
 10
353.373126
 20
21.574924
 30
0.0
 11
353.264712
 21
20.580819
 31
0.0
  0
LINE
  5
529
100
AcDbEntity
  8
2
370
    25
100
AcDbLine
 10
353.264712
 20
20.580819
 30
0.0
 11
354.17984
 21
20.983982
 31
0.0
  0
LINE
  5
52A
100
AcDbEntity
  8
2
370
    25
100
AcDbLine
 10
354.17984
 20
20.983982
 30
0.0
 11
353.776483
 21
21.279453
 31
0.0
  0
LWPOLYLINE
  5
52B
100
AcDbEntity
  8
2
370
    25
100
AcDbPolyline
 90
        2
 70
     0
 10
364.491787
 20
24.453984
 10
378.228731
 20
8.692337
  0
LINE
  5
52F
100
AcDbEntity
  8
2
370
    25
100
AcDbLine
 10
364.30212
 20
24.671607
 30
0.0
 11
363.925186
 21
24.343093
 31
0.0
  0
LINE
  5
530
100
AcDbEntity
  8
2
370
    25
100
AcDbLine
 10
363.925186
 20
24.343093
 30
0.0
 11
364.871122
 21
24.018739
 31
0.0
  0
LINE
  5
531
100
AcDbEntity
  8
2
370
    25
100
AcDbLine
 10
364.871122
 20
24.018739
 30
0.0
 11
364.679053
 21
25.000121
 31
0.0
  0
LINE
  5
532
100
AcDbEntity
  8
2
370
    25
100
AcDbLine
 10
364.679053
 20
25.000121
 30
0.0
 11
364.30212
 21
24.671607
 31
0.0
  0
TEXT
  5
533
100
AcDbEntity
  8
2
370
    18
100
AcDbText
 10
283.805893
 20
100.951724
 30
0.0
 40
3.0
  1
+2.3
 41
2.0
 72
     5
 11
294.605893
 21
100.951724
 31
0.0
100
AcDbText
  0
DIMENSION
  5
534
100
AcDbEntity
  8
2
370
    25
100
AcDbDimension
  2
*D52
 10
299.105893
 20
100.451724
 30
0.0
 11
297.955893
 21
102.451724
 31
0.0
 71
     0
 72
     0
 41
0.0
 42
0.0
  3
Standard
100
AcDbAlignedDimension
 13
296.805893
 23
68.943916
 33
0.0
 14
299.105893
 24
67.143916
 34
0.0
100
AcDbRotatedDimension
  0
TEXT
  5
535
100
AcDbEntity
  8
2
370
    18
100
AcDbText
 10
305.405893
 20
100.951724
 30
0.0
 40
3.0
  1
-2.3
 41
2.0
 72
     5
 11
316.205893
 21
100.951724
 31
0.0
100
AcDbText
  0
DIMENSION
  5
536
100
AcDbEntity
  8
2
370
    25
100
AcDbDimension
  2
*D53
 10
301.405893
 20
100.451724
 30
0.0
 11
300.255893
 21
102.451724
 31
0.0
 71
     0
 72
     0
 41
0.0
 42
0.0
  3
Standard
100
AcDbAlignedDimension
 13
299.105893
 23
67.143916
 33
0.0
 14
301.405893
 24
68.943916
 34
0.0
100
AcDbRotatedDimension
  0
DIMENSION
  5
537
100
AcDbEntity
  8
2
370
    25
100
AcDbDimension
  2
*D54
 10
-328.894107
 20
7.637336
 30
0.0
 11
-341.394107
 21
9.637336
 31
0.0
 71
     0
 72
     0
 41
0.0
 42
0.0
  3
Standard
100
AcDbAlignedDimension
 13
-353.894107
 23
18.655968
 33
0.0
 14
-328.894107
 24
15.653281
 34
0.0
100
AcDbRotatedDimension
  0
DIMENSION
  5
538
100
AcDbEntity
  8
2
370
    25
100
AcDbDimension
  2
*D55
 10
-316.394107
 20
0.470115
 30
0.0
 11
-335.144107
 21
2.470115
 31
0.0
 71
     0
 72
     0
 41
0.0
 42
0.0
  3
Standard
100
AcDbAlignedDimension
 13
-353.894107
 23
18.655968
 33
0.0
 14
-316.394107
 24
24.043916
 34
0.0
100
AcDbRotatedDimension
  0
DIMENSION
  5
539
100
AcDbEntity
  8
2
370
    25
100
AcDbDimension
  2
*D56
 10
-113.894107
 20
7.637336
 30
0.0
 11
-127.394107
 21
9.637336
 31
0.0
 71
     0
 72
     0
 41
0.0
 42
0.0
  3
Standard
100
AcDbAlignedDimension
 13
-140.894107
 23
18.655968
 33
0.0
 14
-113.894107
 24
15.653281
 34
0.0
100
AcDbRotatedDimension
  0
DIMENSION
  5
53A
100
AcDbEntity
  8
2
370
    25
100
AcDbDimension
  2
*D57
 10
-101.394107
 20
0.470115
 30
0.0
 11
-121.144107
 21
2.470115
 31
0.0
 71
     0
 72
     0
 41
0.0
 42
0.0
  3
Standard
100
AcDbAlignedDimension
 13
-140.894107
 23
18.655968
 33
0.0
 14
-101.394107
 24
24.043916
 34
0.0
100
AcDbRotatedDimension
  0
DIMENSION
  5
53B
100
AcDbEntity
  8
2
370
    25
100
AcDbDimension
  2
*D58
 10
96.105893
 20
7.637336
 30
0.0
 11
81.855893
 21
9.637336
 31
0.0
 71
     0
 72
     0
 41
0.0
 42
0.0
  3
Standard
100
AcDbAlignedDimension
 13
67.605893
 23
18.655968
 33
0.0
 14
96.105893
 24
15.653281
 34
0.0
100
AcDbRotatedDimension
  0
DIMENSION
  5
53C
100
AcDbEntity
  8
2
370
    25
100
AcDbDimension
  2
*D59
 10
108.605893
 20
0.470115
 30
0.0
 11
88.105893
 21
2.470115
 31
0.0
 71
     0
 72
     0
 41
0.0
 42
0.0
  3
Standard
100
AcDbAlignedDimension
 13
67.605893
 23
18.655968
 33
0.0
 14
108.605893
 24
24.043916
 34
0.0
100
AcDbRotatedDimension
  0
LINE
  5
53D
100
AcDbEntity
  8
3
370
   100
100
AcDbLine
 10
-187.5
 20
138.0
 30
0.0
 11
-187.5
 21
-138.0
 31
0.0
  0
LINE
  5
53E
100
AcDbEntity
  8
3
370
   100
100
AcDbLine
 10
-9.5
 20
-138.0
 30
0.0
 11
-9.5
 21
138.0
 31
0.0
  0
LINE
  5
53F
100
AcDbEntity
  8
3
370
   100
100
AcDbLine
 10
-187.5
 20
-138.0
 30
0.0
 11
-9.5
 21
-138.0
 31
0.0
  0
LINE
  5
540
100
AcDbEntity
  8
3
370
   100
100
AcDbLine
 10
-9.5
 20
138.0
 30
0.0
 11
-187.5
 21
138.0
 31
0.0
  0
LINE
  5
541
100
AcDbEntity
  8
3
370
   100
100
AcDbLine
 10
-187.5
 20
138.3
 30
0.0
 11
-9.2
 21
138.3
 31
0.0
  0
LINE
  5
542
100
AcDbEntity
  8
3
370
   100
100
AcDbLine
 10
-9.2
 20
138.3
 30
0.0
 11
-9.2
 21
-138.3
 31
0.0
  0
LINE
  5
543
100
AcDbEntity
  8
3
370
   100
100
AcDbLine
 10
-9.2
 20
-138.3
 30
0.0
 11
-187.8
 21
-138.3
 31
0.0
  0
LINE
  5
544
100
AcDbEntity
  8
3
370
   100
100
AcDbLine
 10
-187.8
 20
-138.3
 30
0.0
 11
-187.8
 21
138.0
 31
0.0
  0
LINE
  5
545
100
AcDbEntity
  8
3
370
    50
100
AcDbLine
 10
-187.5
 20
-108.0
 30
0.0
 11
-9.5
 21
-108.0
 31
0.0
  0
LINE
  5
546
100
AcDbEntity
  8
3
370
    50
100
AcDbLine
 10
-119.5
 20
-101.5
 30
0.0
 11
-9.5
 21
-101.5
 31
0.0
  0
LINE
  5
547
100
AcDbEntity
  8
3
370
    50
100
AcDbLine
 10
-109.5
 20
-108.0
 30
0.0
 11
-109.5
 21
-138.0
 31
0.0
  0
LINE
  5
548
100
AcDbEntity
  8
3
370
    50
100
AcDbLine
 10
-109.5
 20
-88.5
 30
0.0
 11
-109.5
 21
-108.0
 31
0.0
  0
LINE
  5
549
100
AcDbEntity
  8
3
370
    50
100
AcDbLine
 10
-49.5
 20
-88.5
 30
0.0
 11
-49.5
 21
-108.0
 31
0.0
  0
TEXT
  5
54A
100
AcDbEntity
  8
3
370
    25
100
AcDbText
 10
-118.5
 20
-106.75
 30
0.0
 40
4.0
  1
品番
 72
     5
 11
-111.3
 21
-106.75
 31
0.0
100
AcDbText
  0
TEXT
  5
54B
100
AcDbEntity
  8
3
370
    25
100
AcDbText
 10
-94.5
 20
-106.75
 30
0.0
 40
4.0
  1
品     名
 72
     5
 11
-67.3
 21
-106.75
 31
0.0
100
AcDbText
  0
TEXT
  5
54C
100
AcDbEntity
  8
3
370
    25
100
AcDbText
 10
-18.5
 20
-106.75
 30
0.0
 40
4.0
  1
員数
 72
     5
 11
-11.3
 21
-106.75
 31
0.0
100
AcDbText
  0
TEXT
  5
54D
100
AcDbEntity
  8
3
370
    25
100
AcDbText
 10
-182.5
 20
-112.5
 30
0.0
 40
4.0
  1
図  法
 72
     5
 11
-167.3
 21
-112.5
 31
0.0
100
AcDbText
  0
TEXT
  5
54E
100
AcDbEntity
  8
3
370
    25
100
AcDbText
 10
-156.5
 20
-112.5
 30
0.0
 40
4.0
  1
単  位
 72
     5
 11
-141.3
 21
-112.5
 31
0.0
100
AcDbText
  0
TEXT
  5
54F
100
AcDbEntity
  8
3
370
    25
100
AcDbText
 10
-130.5
 20
-112.5
 30
0.0
 40
4.0
  1
尺  度
 72
     5
 11
-115.3
 21
-112.5
 31
0.0
100
AcDbText
  0
TEXT
  5
550
100
AcDbEntity
  8
3
370
   100
100
AcDbText
 10
-176.5
 20
-135.5
 30
0.0
 40
8.0
  1
（株）川口技研
 72
     5
 11
-122.1
 21
-135.5
 31
0.0
100
AcDbText
  0
TEXT
  5
551
100
AcDbEntity
  8
3
370
    25
100
AcDbText
 10
-107.5
 20
-112.5
 30
0.0
 40
4.0
  1
図面名称
 72
     5
 11
-92.3
 21
-112.5
 31
0.0
100
AcDbText
  0
TEXT
  5
552
100
AcDbEntity
  8
3
370
    25
100
AcDbText
 10
-107.5
 20
-129.5
 30
0.0
 40
4.0
  1
図面番号
 72
     5
 11
-92.3
 21
-129.5
 31
0.0
100
AcDbText
  0
LINE
  5
553
100
AcDbEntity
  8
3
370
    25
100
AcDbLine
 10
-187.5
 20
-113.0
 30
0.0
 11
-89.5
 21
-113.0
 31
0.0
  0
LINE
  5
554
100
AcDbEntity
  8
3
370
    25
100
AcDbLine
 10
-89.5
 20
-108.0
 30
0.0
 11
-89.5
 21
-113.0
 31
0.0
  0
LINE
  5
555
100
AcDbEntity
  8
3
370
    25
100
AcDbLine
 10
-109.5
 20
-130.0
 30
0.0
 11
-89.5
 21
-130.0
 31
0.0
  0
LINE
  5
556
100
AcDbEntity
  8
3
370
    25
100
AcDbLine
 10
-89.5
 20
-125.0
 30
0.0
 11
-89.5
 21
-130.0
 31
0.0
  0
TEXT
  5
557
100
AcDbEntity
  8
3
370
    25
100
AcDbText
 10
-153.5
 20
-121.5
 30
0.0
 40
5.0
  1
ｍｍ
 72
     5
 11
-144.5
 21
-121.5
 31
0.0
100
AcDbText
  0
TEXT
  5
558
100
AcDbEntity
  8
3
370
    25
100
AcDbText
 10
-128.5
 20
-121.5
 30
0.0
 40
4.0
  1
１／１
 72
     5
 11
-117.3
 21
-121.5
 31
0.0
100
AcDbText
  0
LINE
  5
559
100
AcDbEntity
  8
3
370
    50
100
AcDbLine
 10
-119.5
 20
-95.0
 30
0.0
 11
-9.5
 21
-95.0
 31
0.0
  0
LINE
  5
55A
100
AcDbEntity
  8
3
370
    50
100
AcDbLine
 10
-119.5
 20
-88.5
 30
0.0
 11
-9.5
 21
-88.5
 31
0.0
  0
TEXT
  5
55B
100
AcDbEntity
  8
3
370
    25
100
AcDbText
 10
-116.5
 20
-100.25
 30
0.0
 40
4.0
  1
１
 72
     5
 11
-113.3
 21
-100.25
 31
0.0
100
AcDbText
  0
TEXT
  5
55C
100
AcDbEntity
  8
3
370
    25
100
AcDbText
 10
-116.5
 20
-93.75
 30
0.0
 40
4.0
  1
２
 72
     5
 11
-113.3
 21
-93.75
 31
0.0
100
AcDbText
  0
TEXT
  5
55D
100
AcDbEntity
  8
3
370
    25
100
AcDbText
 10
-107.5
 20
-93.75
 30
0.0
 40
3.5
  1
ストライク取付木ネジ
 72
     5
 11
-73.2
 21
-93.75
 31
0.0
100
AcDbText
  0
TEXT
  5
55E
100
AcDbEntity
  8
3
370
    25
100
AcDbText
 10
-16.5
 20
-100.25
 30
0.0
 40
4.0
  1
１
 72
     5
 11
-13.3
 21
-100.25
 31
0.0
100
AcDbText
  0
TEXT
  5
55F
100
AcDbEntity
  8
3
370
    25
100
AcDbText
 10
-16.5
 20
-93.75
 30
0.0
 40
4.0
  1
２
 72
     5
 11
-13.3
 21
-93.75
 31
0.0
100
AcDbText
  0
TEXT
  5
560
100
AcDbEntity
  8
3
370
    25
100
AcDbText
 10
-180.5
 20
-121.5
 30
0.0
 40
4.0
  1
３角法
 72
     5
 11
-169.3
 21
-121.5
 31
0.0
100
AcDbText
  0
LINE
  5
561
100
AcDbEntity
  8
3
370
    50
100
AcDbLine
 10
-19.5
 20
-88.5
 30
0.0
 11
-19.5
 21
-108.0
 31
0.0
  0
LINE
  5
562
100
AcDbEntity
  8
3
370
    50
100
AcDbLine
 10
-119.5
 20
-88.5
 30
0.0
 11
-119.5
 21
-108.0
 31
0.0
  0
LINE
  5
563
100
AcDbEntity
  8
3
370
    50
100
AcDbLine
 10
-187.5
 20
-125.0
 30
0.0
 11
-109.5
 21
-125.0
 31
0.0
  0
LINE
  5
564
100
AcDbEntity
  8
3
370
    50
100
AcDbLine
 10
-109.5
 20
-125.0
 30
0.0
 11
-9.5
 21
-125.0
 31
0.0
  0
LINE
  5
565
100
AcDbEntity
  8
3
370
    50
100
AcDbLine
 10
-161.5
 20
-125.0
 30
0.0
 11
-161.5
 21
-108.0
 31
0.0
  0
LINE
  5
566
100
AcDbEntity
  8
3
370
    50
100
AcDbLine
 10
-135.5
 20
-125.0
 30
0.0
 11
-135.5
 21
-108.0
 31
0.0
  0
TEXT
  5
567
100
AcDbEntity
  8
3
370
    25
100
AcDbText
 10
-40.5
 20
-106.75
 30
0.0
 40
4.0
  1
寸　法
 72
     5
 11
-29.3
 21
-106.75
 31
0.0
100
AcDbText
  0
LINE
  5
568
100
AcDbEntity
  8
3
370
   100
100
AcDbLine
 10
-402.5
 20
138.0
 30
0.0
 11
-402.5
 21
-138.0
 31
0.0
  0
LINE
  5
569
100
AcDbEntity
  8
3
370
   100
100
AcDbLine
 10
-224.5
 20
-138.0
 30
0.0
 11
-224.5
 21
138.0
 31
0.0
  0
LINE
  5
56A
100
AcDbEntity
  8
3
370
   100
100
AcDbLine
 10
-402.5
 20
-138.0
 30
0.0
 11
-224.5
 21
-138.0
 31
0.0
  0
LINE
  5
56B
100
AcDbEntity
  8
3
370
   100
100
AcDbLine
 10
-224.5
 20
138.0
 30
0.0
 11
-402.5
 21
138.0
 31
0.0
  0
LINE
  5
56C
100
AcDbEntity
  8
3
370
   100
100
AcDbLine
 10
-402.5
 20
138.3
 30
0.0
 11
-224.2
 21
138.3
 31
0.0
  0
LINE
  5
56D
100
AcDbEntity
  8
3
370
   100
100
AcDbLine
 10
-224.2
 20
138.3
 30
0.0
 11
-224.2
 21
-138.3
 31
0.0
  0
LINE
  5
56E
100
AcDbEntity
  8
3
370
   100
100
AcDbLine
 10
-224.2
 20
-138.3
 30
0.0
 11
-402.8
 21
-138.3
 31
0.0
  0
LINE
  5
56F
100
AcDbEntity
  8
3
370
   100
100
AcDbLine
 10
-402.8
 20
-138.3
 30
0.0
 11
-402.8
 21
138.0
 31
0.0
  0
LINE
  5
570
100
AcDbEntity
  8
3
370
    50
100
AcDbLine
 10
-402.5
 20
-108.0
 30
0.0
 11
-224.5
 21
-108.0
 31
0.0
  0
LINE
  5
571
100
AcDbEntity
  8
3
370
    50
100
AcDbLine
 10
-334.5
 20
-101.5
 30
0.0
 11
-224.5
 21
-101.5
 31
0.0
  0
LINE
  5
572
100
AcDbEntity
  8
3
370
    50
100
AcDbLine
 10
-324.5
 20
-108.0
 30
0.0
 11
-324.5
 21
-138.0
 31
0.0
  0
LINE
  5
573
100
AcDbEntity
  8
3
370
    50
100
AcDbLine
 10
-324.5
 20
-88.5
 30
0.0
 11
-324.5
 21
-108.0
 31
0.0
  0
LINE
  5
574
100
AcDbEntity
  8
3
370
    50
100
AcDbLine
 10
-264.5
 20
-88.5
 30
0.0
 11
-264.5
 21
-108.0
 31
0.0
  0
TEXT
  5
575
100
AcDbEntity
  8
3
370
    25
100
AcDbText
 10
-333.5
 20
-106.75
 30
0.0
 40
4.0
  1
品番
 72
     5
 11
-326.3
 21
-106.75
 31
0.0
100
AcDbText
  0
TEXT
  5
576
100
AcDbEntity
  8
3
370
    25
100
AcDbText
 10
-309.5
 20
-106.75
 30
0.0
 40
4.0
  1
品     名
 72
     5
 11
-282.3
 21
-106.75
 31
0.0
100
AcDbText
  0
TEXT
  5
577
100
AcDbEntity
  8
3
370
    25
100
AcDbText
 10
-233.5
 20
-106.75
 30
0.0
 40
4.0
  1
員数
 72
     5
 11
-226.3
 21
-106.75
 31
0.0
100
AcDbText
  0
TEXT
  5
578
100
AcDbEntity
  8
3
370
    25
100
AcDbText
 10
-397.5
 20
-112.5
 30
0.0
 40
4.0
  1
図  法
 72
     5
 11
-382.3
 21
-112.5
 31
0.0
100
AcDbText
  0
TEXT
  5
579
100
AcDbEntity
  8
3
370
    25
100
AcDbText
 10
-371.5
 20
-112.5
 30
0.0
 40
4.0
  1
単  位
 72
     5
 11
-356.3
 21
-112.5
 31
0.0
100
AcDbText
  0
TEXT
  5
57A
100
AcDbEntity
  8
3
370
    25
100
AcDbText
 10
-345.5
 20
-112.5
 30
0.0
 40
4.0
  1
尺  度
 72
     5
 11
-330.3
 21
-112.5
 31
0.0
100
AcDbText
  0
TEXT
  5
57B
100
AcDbEntity
  8
3
370
   100
100
AcDbText
 10
-391.5
 20
-135.5
 30
0.0
 40
8.0
  1
（株）川口技研
 72
     5
 11
-337.1
 21
-135.5
 31
0.0
100
AcDbText
  0
TEXT
  5
57C
100
AcDbEntity
  8
3
370
    25
100
AcDbText
 10
-322.5
 20
-112.5
 30
0.0
 40
4.0
  1
図面名称
 72
     5
 11
-307.3
 21
-112.5
 31
0.0
100
AcDbText
  0
TEXT
  5
57D
100
AcDbEntity
  8
3
370
    25
100
AcDbText
 10
-322.5
 20
-129.5
 30
0.0
 40
4.0
  1
図面番号
 72
     5
 11
-307.3
 21
-129.5
 31
0.0
100
AcDbText
  0
LINE
  5
57E
100
AcDbEntity
  8
3
370
    25
100
AcDbLine
 10
-402.5
 20
-113.0
 30
0.0
 11
-304.5
 21
-113.0
 31
0.0
  0
LINE
  5
57F
100
AcDbEntity
  8
3
370
    25
100
AcDbLine
 10
-304.5
 20
-108.0
 30
0.0
 11
-304.5
 21
-113.0
 31
0.0
  0
LINE
  5
580
100
AcDbEntity
  8
3
370
    25
100
AcDbLine
 10
-324.5
 20
-130.0
 30
0.0
 11
-304.5
 21
-130.0
 31
0.0
  0
LINE
  5
581
100
AcDbEntity
  8
3
370
    25
100
AcDbLine
 10
-304.5
 20
-125.0
 30
0.0
 11
-304.5
 21
-130.0
 31
0.0
  0
TEXT
  5
582
100
AcDbEntity
  8
3
370
    25
100
AcDbText
 10
-368.5
 20
-121.5
 30
0.0
 40
5.0
  1
ｍｍ
 72
     5
 11
-359.5
 21
-121.5
 31
0.0
100
AcDbText
  0
TEXT
  5
583
100
AcDbEntity
  8
3
370
    25
100
AcDbText
 10
-343.5
 20
-121.5
 30
0.0
 40
4.0
  1
１／１
 72
     5
 11
-332.3
 21
-121.5
 31
0.0
100
AcDbText
  0
LINE
  5
584
100
AcDbEntity
  8
3
370
    50
100
AcDbLine
 10
-334.5
 20
-95.0
 30
0.0
 11
-224.5
 21
-95.0
 31
0.0
  0
LINE
  5
585
100
AcDbEntity
  8
3
370
    50
100
AcDbLine
 10
-334.5
 20
-88.5
 30
0.0
 11
-224.5
 21
-88.5
 31
0.0
  0
TEXT
  5
586
100
AcDbEntity
  8
3
370
    25
100
AcDbText
 10
-331.5
 20
-100.25
 30
0.0
 40
4.0
  1
１
 72
     5
 11
-328.3
 21
-100.25
 31
0.0
100
AcDbText
  0
TEXT
  5
587
100
AcDbEntity
  8
3
370
    25
100
AcDbText
 10
-331.5
 20
-93.75
 30
0.0
 40
4.0
  1
２
 72
     5
 11
-328.3
 21
-93.75
 31
0.0
100
AcDbText
  0
TEXT
  5
588
100
AcDbEntity
  8
3
370
    25
100
AcDbText
 10
-322.5
 20
-93.75
 30
0.0
 40
3.5
  1
ストライク取付木ネジ
 72
     5
 11
-288.2
 21
-93.75
 31
0.0
100
AcDbText
  0
TEXT
  5
589
100
AcDbEntity
  8
3
370
    25
100
AcDbText
 10
-231.5
 20
-100.25
 30
0.0
 40
4.0
  1
１
 72
     5
 11
-228.3
 21
-100.25
 31
0.0
100
AcDbText
  0
TEXT
  5
58A
100
AcDbEntity
  8
3
370
    25
100
AcDbText
 10
-231.5
 20
-93.75
 30
0.0
 40
4.0
  1
２
 72
     5
 11
-228.3
 21
-93.75
 31
0.0
100
AcDbText
  0
TEXT
  5
58B
100
AcDbEntity
  8
3
370
    25
100
AcDbText
 10
-395.5
 20
-121.5
 30
0.0
 40
4.0
  1
３角法
 72
     5
 11
-384.3
 21
-121.5
 31
0.0
100
AcDbText
  0
LINE
  5
58C
100
AcDbEntity
  8
3
370
    50
100
AcDbLine
 10
-234.5
 20
-88.5
 30
0.0
 11
-234.5
 21
-108.0
 31
0.0
  0
LINE
  5
58D
100
AcDbEntity
  8
3
370
    50
100
AcDbLine
 10
-334.5
 20
-88.5
 30
0.0
 11
-334.5
 21
-108.0
 31
0.0
  0
LINE
  5
58E
100
AcDbEntity
  8
3
370
    50
100
AcDbLine
 10
-402.5
 20
-125.0
 30
0.0
 11
-324.5
 21
-125.0
 31
0.0
  0
LINE
  5
58F
100
AcDbEntity
  8
3
370
    50
100
AcDbLine
 10
-324.5
 20
-125.0
 30
0.0
 11
-224.5
 21
-125.0
 31
0.0
  0
LINE
  5
590
100
AcDbEntity
  8
3
370
    50
100
AcDbLine
 10
-376.5
 20
-125.0
 30
0.0
 11
-376.5
 21
-108.0
 31
0.0
  0
LINE
  5
591
100
AcDbEntity
  8
3
370
    50
100
AcDbLine
 10
-350.5
 20
-125.0
 30
0.0
 11
-350.5
 21
-108.0
 31
0.0
  0
TEXT
  5
592
100
AcDbEntity
  8
3
370
    25
100
AcDbText
 10
-255.5
 20
-106.75
 30
0.0
 40
4.0
  1
寸　法
 72
     5
 11
-244.3
 21
-106.75
 31
0.0
100
AcDbText
  0
TEXT
  5
593
100
AcDbEntity
  8
3
370
    50
100
AcDbText
 10
-311.404442
 20
-120.800041
 30
0.0
 40
5.0
  1
カム式調整ストライク　ＫＭ-２５
 72
     5
 11
-234.904442
 21
-120.800041
 31
0.0
100
AcDbText
  0
TEXT
  5
594
100
AcDbEntity
  8
3
370
    25
100
AcDbText
 10
-322.5
 20
-100.25
 30
0.0
 40
3.5
  1
カム式調整ストライク　ＫＭ-２５
 72
     5
 11
-268.95
 21
-100.25
 31
0.0
100
AcDbText
  0
LINE
  5
595
100
AcDbEntity
  8
3
370
   100
100
AcDbLine
 10
22.5
 20
138.0
 30
0.0
 11
22.5
 21
-138.0
 31
0.0
  0
LINE
  5
596
100
AcDbEntity
  8
3
370
   100
100
AcDbLine
 10
200.5
 20
-138.0
 30
0.0
 11
200.5
 21
138.0
 31
0.0
  0
LINE
  5
597
100
AcDbEntity
  8
3
370
   100
100
AcDbLine
 10
22.5
 20
-138.0
 30
0.0
 11
200.5
 21
-138.0
 31
0.0
  0
LINE
  5
598
100
AcDbEntity
  8
3
370
   100
100
AcDbLine
 10
200.5
 20
138.0
 30
0.0
 11
22.5
 21
138.0
 31
0.0
  0
LINE
  5
599
100
AcDbEntity
  8
3
370
   100
100
AcDbLine
 10
22.5
 20
138.3
 30
0.0
 11
200.8
 21
138.3
 31
0.0
  0
LINE
  5
59A
100
AcDbEntity
  8
3
370
   100
100
AcDbLine
 10
200.8
 20
138.3
 30
0.0
 11
200.8
 21
-138.3
 31
0.0
  0
LINE
  5
59B
100
AcDbEntity
  8
3
370
   100
100
AcDbLine
 10
200.8
 20
-138.3
 30
0.0
 11
22.2
 21
-138.3
 31
0.0
  0
LINE
  5
59C
100
AcDbEntity
  8
3
370
   100
100
AcDbLine
 10
22.2
 20
-138.3
 30
0.0
 11
22.2
 21
138.0
 31
0.0
  0
LINE
  5
59D
100
AcDbEntity
  8
3
370
    50
100
AcDbLine
 10
22.5
 20
-108.0
 30
0.0
 11
200.5
 21
-108.0
 31
0.0
  0
LINE
  5
59E
100
AcDbEntity
  8
3
370
    50
100
AcDbLine
 10
90.5
 20
-101.5
 30
0.0
 11
200.5
 21
-101.5
 31
0.0
  0
LINE
  5
59F
100
AcDbEntity
  8
3
370
    50
100
AcDbLine
 10
100.5
 20
-108.0
 30
0.0
 11
100.5
 21
-138.0
 31
0.0
  0
LINE
  5
5A0
100
AcDbEntity
  8
3
370
    50
100
AcDbLine
 10
100.5
 20
-88.5
 30
0.0
 11
100.5
 21
-108.0
 31
0.0
  0
LINE
  5
5A1
100
AcDbEntity
  8
3
370
    50
100
AcDbLine
 10
160.5
 20
-88.5
 30
0.0
 11
160.5
 21
-108.0
 31
0.0
  0
TEXT
  5
5A2
100
AcDbEntity
  8
3
370
    25
100
AcDbText
 10
91.5
 20
-106.75
 30
0.0
 40
4.0
  1
品番
 72
     5
 11
98.7
 21
-106.75
 31
0.0
100
AcDbText
  0
TEXT
  5
5A3
100
AcDbEntity
  8
3
370
    25
100
AcDbText
 10
115.5
 20
-106.75
 30
0.0
 40
4.0
  1
品     名
 72
     5
 11
142.7
 21
-106.75
 31
0.0
100
AcDbText
  0
TEXT
  5
5A4
100
AcDbEntity
  8
3
370
    25
100
AcDbText
 10
191.5
 20
-106.75
 30
0.0
 40
4.0
  1
員数
 72
     5
 11
198.7
 21
-106.75
 31
0.0
100
AcDbText
  0
TEXT
  5
5A5
100
AcDbEntity
  8
3
370
    25
100
AcDbText
 10
27.5
 20
-112.5
 30
0.0
 40
4.0
  1
図  法
 72
     5
 11
42.7
 21
-112.5
 31
0.0
100
AcDbText
  0
TEXT
  5
5A6
100
AcDbEntity
  8
3
370
    25
100
AcDbText
 10
53.5
 20
-112.5
 30
0.0
 40
4.0
  1
単  位
 72
     5
 11
68.7
 21
-112.5
 31
0.0
100
AcDbText
  0
TEXT
  5
5A7
100
AcDbEntity
  8
3
370
    25
100
AcDbText
 10
79.5
 20
-112.5
 30
0.0
 40
4.0
  1
尺  度
 72
     5
 11
94.7
 21
-112.5
 31
0.0
100
AcDbText
  0
TEXT
  5
5A8
100
AcDbEntity
  8
3
370
   100
100
AcDbText
 10
33.5
 20
-135.5
 30
0.0
 40
8.0
  1
（株）川口技研
 72
     5
 11
87.9
 21
-135.5
 31
0.0
100
AcDbText
  0
TEXT
  5
5A9
100
AcDbEntity
  8
3
370
    25
100
AcDbText
 10
102.5
 20
-112.5
 30
0.0
 40
4.0
  1
図面名称
 72
     5
 11
117.7
 21
-112.5
 31
0.0
100
AcDbText
  0
TEXT
  5
5AA
100
AcDbEntity
  8
3
370
    25
100
AcDbText
 10
102.5
 20
-129.5
 30
0.0
 40
4.0
  1
図面番号
 72
     5
 11
117.7
 21
-129.5
 31
0.0
100
AcDbText
  0
LINE
  5
5AB
100
AcDbEntity
  8
3
370
    25
100
AcDbLine
 10
22.5
 20
-113.0
 30
0.0
 11
120.5
 21
-113.0
 31
0.0
  0
LINE
  5
5AC
100
AcDbEntity
  8
3
370
    25
100
AcDbLine
 10
120.5
 20
-108.0
 30
0.0
 11
120.5
 21
-113.0
 31
0.0
  0
LINE
  5
5AD
100
AcDbEntity
  8
3
370
    25
100
AcDbLine
 10
100.5
 20
-130.0
 30
0.0
 11
120.5
 21
-130.0
 31
0.0
  0
LINE
  5
5AE
100
AcDbEntity
  8
3
370
    25
100
AcDbLine
 10
120.5
 20
-125.0
 30
0.0
 11
120.5
 21
-130.0
 31
0.0
  0
TEXT
  5
5AF
100
AcDbEntity
  8
3
370
    25
100
AcDbText
 10
56.5
 20
-121.5
 30
0.0
 40
5.0
  1
ｍｍ
 72
     5
 11
65.5
 21
-121.5
 31
0.0
100
AcDbText
  0
TEXT
  5
5B0
100
AcDbEntity
  8
3
370
    25
100
AcDbText
 10
81.5
 20
-121.5
 30
0.0
 40
4.0
  1
１／１
 72
     5
 11
92.7
 21
-121.5
 31
0.0
100
AcDbText
  0
LINE
  5
5B1
100
AcDbEntity
  8
3
370
    50
100
AcDbLine
 10
90.5
 20
-95.0
 30
0.0
 11
200.5
 21
-95.0
 31
0.0
  0
LINE
  5
5B2
100
AcDbEntity
  8
3
370
    50
100
AcDbLine
 10
90.5
 20
-88.5
 30
0.0
 11
200.5
 21
-88.5
 31
0.0
  0
TEXT
  5
5B3
100
AcDbEntity
  8
3
370
    25
100
AcDbText
 10
93.5
 20
-100.25
 30
0.0
 40
4.0
  1
１
 72
     5
 11
96.7
 21
-100.25
 31
0.0
100
AcDbText
  0
TEXT
  5
5B4
100
AcDbEntity
  8
3
370
    25
100
AcDbText
 10
93.5
 20
-93.75
 30
0.0
 40
4.0
  1
２
 72
     5
 11
96.7
 21
-93.75
 31
0.0
100
AcDbText
  0
TEXT
  5
5B5
100
AcDbEntity
  8
3
370
    25
100
AcDbText
 10
102.5
 20
-93.75
 30
0.0
 40
3.5
  1
ストライク取付木ネジ
 72
     5
 11
136.8
 21
-93.75
 31
0.0
100
AcDbText
  0
TEXT
  5
5B6
100
AcDbEntity
  8
3
370
    25
100
AcDbText
 10
193.5
 20
-100.25
 30
0.0
 40
4.0
  1
１
 72
     5
 11
196.7
 21
-100.25
 31
0.0
100
AcDbText
  0
TEXT
  5
5B7
100
AcDbEntity
  8
3
370
    25
100
AcDbText
 10
193.5
 20
-93.75
 30
0.0
 40
4.0
  1
２
 72
     5
 11
196.7
 21
-93.75
 31
0.0
100
AcDbText
  0
TEXT
  5
5B8
100
AcDbEntity
  8
3
370
    25
100
AcDbText
 10
29.5
 20
-121.5
 30
0.0
 40
4.0
  1
３角法
 72
     5
 11
40.7
 21
-121.5
 31
0.0
100
AcDbText
  0
LINE
  5
5B9
100
AcDbEntity
  8
3
370
    50
100
AcDbLine
 10
190.5
 20
-88.5
 30
0.0
 11
190.5
 21
-108.0
 31
0.0
  0
LINE
  5
5BA
100
AcDbEntity
  8
3
370
    50
100
AcDbLine
 10
90.5
 20
-88.5
 30
0.0
 11
90.5
 21
-108.0
 31
0.0
  0
LINE
  5
5BB
100
AcDbEntity
  8
3
370
    50
100
AcDbLine
 10
22.5
 20
-125.0
 30
0.0
 11
100.5
 21
-125.0
 31
0.0
  0
LINE
  5
5BC
100
AcDbEntity
  8
3
370
    50
100
AcDbLine
 10
100.5
 20
-125.0
 30
0.0
 11
200.5
 21
-125.0
 31
0.0
  0
LINE
  5
5BD
100
AcDbEntity
  8
3
370
    50
100
AcDbLine
 10
48.5
 20
-125.0
 30
0.0
 11
48.5
 21
-108.0
 31
0.0
  0
LINE
  5
5BE
100
AcDbEntity
  8
3
370
    50
100
AcDbLine
 10
74.5
 20
-125.0
 30
0.0
 11
74.5
 21
-108.0
 31
0.0
  0
TEXT
  5
5BF
100
AcDbEntity
  8
3
370
    25
100
AcDbText
 10
169.5
 20
-106.75
 30
0.0
 40
4.0
  1
寸　法
 72
     5
 11
180.7
 21
-106.75
 31
0.0
100
AcDbText
  0
LINE
  5
5C0
100
AcDbEntity
  8
3
370
   100
100
AcDbLine
 10
232.5
 20
138.0
 30
0.0
 11
232.5
 21
-138.0
 31
0.0
  0
LINE
  5
5C1
100
AcDbEntity
  8
3
370
   100
100
AcDbLine
 10
410.5
 20
-138.0
 30
0.0
 11
410.5
 21
138.0
 31
0.0
  0
LINE
  5
5C2
100
AcDbEntity
  8
3
370
   100
100
AcDbLine
 10
232.5
 20
-138.0
 30
0.0
 11
410.5
 21
-138.0
 31
0.0
  0
LINE
  5
5C3
100
AcDbEntity
  8
3
370
   100
100
AcDbLine
 10
410.5
 20
138.0
 30
0.0
 11
232.5
 21
138.0
 31
0.0
  0
LINE
  5
5C4
100
AcDbEntity
  8
3
370
   100
100
AcDbLine
 10
232.5
 20
138.3
 30
0.0
 11
410.8
 21
138.3
 31
0.0
  0
LINE
  5
5C5
100
AcDbEntity
  8
3
370
   100
100
AcDbLine
 10
410.8
 20
138.3
 30
0.0
 11
410.8
 21
-138.3
 31
0.0
  0
LINE
  5
5C6
100
AcDbEntity
  8
3
370
   100
100
AcDbLine
 10
410.8
 20
-138.3
 30
0.0
 11
232.2
 21
-138.3
 31
0.0
  0
LINE
  5
5C7
100
AcDbEntity
  8
3
370
   100
100
AcDbLine
 10
232.2
 20
-138.3
 30
0.0
 11
232.2
 21
138.0
 31
0.0
  0
LINE
  5
5C8
100
AcDbEntity
  8
3
370
    50
100
AcDbLine
 10
232.5
 20
-108.0
 30
0.0
 11
410.5
 21
-108.0
 31
0.0
  0
LINE
  5
5C9
100
AcDbEntity
  8
3
370
    50
100
AcDbLine
 10
300.5
 20
-101.5
 30
0.0
 11
410.5
 21
-101.5
 31
0.0
  0
LINE
  5
5CA
100
AcDbEntity
  8
3
370
    50
100
AcDbLine
 10
310.5
 20
-108.0
 30
0.0
 11
310.5
 21
-138.0
 31
0.0
  0
LINE
  5
5CB
100
AcDbEntity
  8
3
370
    50
100
AcDbLine
 10
310.5
 20
-88.5
 30
0.0
 11
310.5
 21
-108.0
 31
0.0
  0
LINE
  5
5CC
100
AcDbEntity
  8
3
370
    50
100
AcDbLine
 10
370.5
 20
-88.5
 30
0.0
 11
370.5
 21
-108.0
 31
0.0
  0
TEXT
  5
5CD
100
AcDbEntity
  8
3
370
    25
100
AcDbText
 10
301.5
 20
-106.75
 30
0.0
 40
4.0
  1
品番
 72
     5
 11
308.7
 21
-106.75
 31
0.0
100
AcDbText
  0
TEXT
  5
5CE
100
AcDbEntity
  8
3
370
    25
100
AcDbText
 10
325.5
 20
-106.75
 30
0.0
 40
4.0
  1
品     名
 72
     5
 11
352.7
 21
-106.75
 31
0.0
100
AcDbText
  0
TEXT
  5
5CF
100
AcDbEntity
  8
3
370
    25
100
AcDbText
 10
401.5
 20
-106.75
 30
0.0
 40
4.0
  1
員数
 72
     5
 11
408.7
 21
-106.75
 31
0.0
100
AcDbText
  0
TEXT
  5
5D0
100
AcDbEntity
  8
3
370
    25
100
AcDbText
 10
237.5
 20
-112.5
 30
0.0
 40
4.0
  1
図  法
 72
     5
 11
252.7
 21
-112.5
 31
0.0
100
AcDbText
  0
TEXT
  5
5D1
100
AcDbEntity
  8
3
370
    25
100
AcDbText
 10
263.5
 20
-112.5
 30
0.0
 40
4.0
  1
単  位
 72
     5
 11
278.7
 21
-112.5
 31
0.0
100
AcDbText
  0
TEXT
  5
5D2
100
AcDbEntity
  8
3
370
    25
100
AcDbText
 10
289.5
 20
-112.5
 30
0.0
 40
4.0
  1
尺  度
 72
     5
 11
304.7
 21
-112.5
 31
0.0
100
AcDbText
  0
TEXT
  5
5D3
100
AcDbEntity
  8
3
370
   100
100
AcDbText
 10
243.5
 20
-135.5
 30
0.0
 40
8.0
  1
（株）川口技研
 72
     5
 11
297.9
 21
-135.5
 31
0.0
100
AcDbText
  0
TEXT
  5
5D4
100
AcDbEntity
  8
3
370
    25
100
AcDbText
 10
312.5
 20
-112.5
 30
0.0
 40
4.0
  1
図面名称
 72
     5
 11
327.7
 21
-112.5
 31
0.0
100
AcDbText
  0
TEXT
  5
5D5
100
AcDbEntity
  8
3
370
    25
100
AcDbText
 10
312.5
 20
-129.5
 30
0.0
 40
4.0
  1
図面番号
 72
     5
 11
327.7
 21
-129.5
 31
0.0
100
AcDbText
  0
LINE
  5
5D6
100
AcDbEntity
  8
3
370
    25
100
AcDbLine
 10
232.5
 20
-113.0
 30
0.0
 11
330.5
 21
-113.0
 31
0.0
  0
LINE
  5
5D7
100
AcDbEntity
  8
3
370
    25
100
AcDbLine
 10
330.5
 20
-108.0
 30
0.0
 11
330.5
 21
-113.0
 31
0.0
  0
LINE
  5
5D8
100
AcDbEntity
  8
3
370
    25
100
AcDbLine
 10
310.5
 20
-130.0
 30
0.0
 11
330.5
 21
-130.0
 31
0.0
  0
LINE
  5
5D9
100
AcDbEntity
  8
3
370
    25
100
AcDbLine
 10
330.5
 20
-125.0
 30
0.0
 11
330.5
 21
-130.0
 31
0.0
  0
TEXT
  5
5DA
100
AcDbEntity
  8
3
370
    25
100
AcDbText
 10
266.5
 20
-121.5
 30
0.0
 40
5.0
  1
ｍｍ
 72
     5
 11
275.5
 21
-121.5
 31
0.0
100
AcDbText
  0
TEXT
  5
5DB
100
AcDbEntity
  8
3
370
    25
100
AcDbText
 10
291.5
 20
-121.5
 30
0.0
 40
4.0
  1
１／１
 72
     5
 11
302.7
 21
-121.5
 31
0.0
100
AcDbText
  0
LINE
  5
5DC
100
AcDbEntity
  8
3
370
    50
100
AcDbLine
 10
300.5
 20
-95.0
 30
0.0
 11
410.5
 21
-95.0
 31
0.0
  0
LINE
  5
5DD
100
AcDbEntity
  8
3
370
    50
100
AcDbLine
 10
300.5
 20
-88.5
 30
0.0
 11
410.5
 21
-88.5
 31
0.0
  0
TEXT
  5
5DE
100
AcDbEntity
  8
3
370
    25
100
AcDbText
 10
303.5
 20
-100.25
 30
0.0
 40
4.0
  1
１
 72
     5
 11
306.7
 21
-100.25
 31
0.0
100
AcDbText
  0
TEXT
  5
5DF
100
AcDbEntity
  8
3
370
    25
100
AcDbText
 10
303.5
 20
-93.75
 30
0.0
 40
4.0
  1
２
 72
     5
 11
306.7
 21
-93.75
 31
0.0
100
AcDbText
  0
TEXT
  5
5E0
100
AcDbEntity
  8
3
370
    25
100
AcDbText
 10
312.5
 20
-93.75
 30
0.0
 40
3.5
  1
ストライク取付木ネジ
 72
     5
 11
346.8
 21
-93.75
 31
0.0
100
AcDbText
  0
TEXT
  5
5E1
100
AcDbEntity
  8
3
370
    25
100
AcDbText
 10
403.5
 20
-100.25
 30
0.0
 40
4.0
  1
１
 72
     5
 11
406.7
 21
-100.25
 31
0.0
100
AcDbText
  0
TEXT
  5
5E2
100
AcDbEntity
  8
3
370
    25
100
AcDbText
 10
403.5
 20
-93.75
 30
0.0
 40
4.0
  1
２
 72
     5
 11
406.7
 21
-93.75
 31
0.0
100
AcDbText
  0
TEXT
  5
5E3
100
AcDbEntity
  8
3
370
    25
100
AcDbText
 10
239.5
 20
-121.5
 30
0.0
 40
4.0
  1
３角法
 72
     5
 11
250.7
 21
-121.5
 31
0.0
100
AcDbText
  0
LINE
  5
5E4
100
AcDbEntity
  8
3
370
    50
100
AcDbLine
 10
400.5
 20
-88.5
 30
0.0
 11
400.5
 21
-108.0
 31
0.0
  0
LINE
  5
5E5
100
AcDbEntity
  8
3
370
    50
100
AcDbLine
 10
300.5
 20
-88.5
 30
0.0
 11
300.5
 21
-108.0
 31
0.0
  0
LINE
  5
5E6
100
AcDbEntity
  8
3
370
    50
100
AcDbLine
 10
232.5
 20
-125.0
 30
0.0
 11
310.5
 21
-125.0
 31
0.0
  0
LINE
  5
5E7
100
AcDbEntity
  8
3
370
    50
100
AcDbLine
 10
310.5
 20
-125.0
 30
0.0
 11
410.5
 21
-125.0
 31
0.0
  0
LINE
  5
5E8
100
AcDbEntity
  8
3
370
    50
100
AcDbLine
 10
258.5
 20
-125.0
 30
0.0
 11
258.5
 21
-108.0
 31
0.0
  0
LINE
  5
5E9
100
AcDbEntity
  8
3
370
    50
100
AcDbLine
 10
284.5
 20
-125.0
 30
0.0
 11
284.5
 21
-108.0
 31
0.0
  0
TEXT
  5
5EA
100
AcDbEntity
  8
3
370
    25
100
AcDbText
 10
379.5
 20
-106.75
 30
0.0
 40
4.0
  1
寸　法
 72
     5
 11
390.7
 21
-106.75
 31
0.0
100
AcDbText
  0
TEXT
  5
5EB
100
AcDbEntity
  8
3
370
    50
100
AcDbText
 10
109.595558
 20
-120.800041
 30
0.0
 40
5.0
  1
カム式調整ストライク　ＫＭ-２８．５
 72
     5
 11
196.095558
 21
-120.800041
 31
0.0
100
AcDbText
  0
TEXT
  5
5EC
100
AcDbEntity
  8
3
370
    50
100
AcDbText
 10
-96.404442
 20
-120.800041
 30
0.0
 40
5.0
  1
カム式調整ストライク　ＫＭ-２７
 72
     5
 11
-19.904442
 21
-120.800041
 31
0.0
100
AcDbText
  0
TEXT
  5
5ED
100
AcDbEntity
  8
3
370
    50
100
AcDbText
 10
323.595558
 20
-120.800041
 30
0.0
 40
5.0
  1
カム式調整ストライク　ＫＭ-３０
 72
     5
 11
400.095558
 21
-120.800041
 31
0.0
100
AcDbText
  0
TEXT
  5
5EE
100
AcDbEntity
  8
3
370
    25
100
AcDbText
 10
-107.5
 20
-100.25
 30
0.0
 40
3.5
  1
カム式調整ストライク　ＫＭ-２７
 72
     5
 11
-53.95
 21
-100.25
 31
0.0
100
AcDbText
  0
TEXT
  5
5EF
100
AcDbEntity
  8
3
370
    25
100
AcDbText
 10
102.5
 20
-100.25
 30
0.0
 40
3.5
  1
カム式調整ストライク　ＫＭ-２８．５
 41
0.9
 72
     5
 11
156.995
 21
-100.25
 31
0.0
100
AcDbText
  0
TEXT
  5
5F0
100
AcDbEntity
  8
3
370
    25
100
AcDbText
 10
312.5
 20
-100.25
 30
0.0
 40
3.5
  1
カム式調整ストライク　ＫＭ-３０
 72
     5
 11
366.05
 21
-100.25
 31
0.0
100
AcDbText
  0
TEXT
  5
5F1
100
AcDbEntity
  8
3
370
    25
100
AcDbText
 10
-46.849052
 20
-93.48735
 30
0.0
 40
3.2
  1
サラタッピング３．５×１６
 41
0.6
 72
     5
 11
-22.273052
 21
-93.48735
 31
0.0
100
AcDbText
  0
TEXT
  5
5F2
100
AcDbEntity
  8
3
370
    25
100
AcDbText
 10
-261.849052
 20
-93.48735
 30
0.0
 40
3.2
  1
サラタッピング３．５×１６
 41
0.6
 72
     5
 11
-237.273052
 21
-93.48735
 31
0.0
100
AcDbText
  0
TEXT
  5
5F3
100
AcDbEntity
  8
3
370
    25
100
AcDbText
 10
163.150948
 20
-93.48735
 30
0.0
 40
3.2
  1
サラタッピング３．５×１６
 41
0.6
 72
     5
 11
187.726948
 21
-93.48735
 31
0.0
100
AcDbText
  0
TEXT
  5
5F4
100
AcDbEntity
  8
3
370
    25
100
AcDbText
 10
373.150948
 20
-93.48735
 30
0.0
 40
3.2
  1
サラタッピング３．５×１６
 41
0.6
 72
     5
 11
397.726948
 21
-93.48735
 31
0.0
100
AcDbText
  0
TEXT
  5
5F5
100
AcDbEntity
  8
3
370
   100
100
AcDbText
 10
-294.078545
 20
-134.545471
 30
0.0
 40
6.0
  1
ＥＺ－１４２５－００
 72
     5
 11
-235.278545
 21
-134.545471
 31
0.0
100
AcDbText
  0
TEXT
  5
5F6
100
AcDbEntity
  8
3
370
   100
100
AcDbText
 10
-79.078545
 20
-134.545471
 30
0.0
 40
6.0
  1
ＥＺ－１４２６－００
 72
     5
 11
-20.278545
 21
-134.545471
 31
0.0
100
AcDbText
  0
TEXT
  5
5F7
100
AcDbEntity
  8
3
370
   100
100
AcDbText
 10
130.921455
 20
-134.545471
 30
0.0
 40
6.0
  1
ＥＺ－１４２７－００
 72
     5
 11
189.721455
 21
-134.545471
 31
0.0
100
AcDbText
  0
TEXT
  5
5F8
100
AcDbEntity
  8
3
370
   100
100
AcDbText
 10
340.921455
 20
-134.545471
 30
0.0
 40
6.0
  1
ＥＺ－１４２８－００
 72
     5
 11
399.721455
 21
-134.545471
 31
0.0
100
AcDbText
  0
ENDSEC
  0
SECTION
  2
OBJECTS
  0
DICTIONARY
  5
838
100
AcDbDictionary
280
     0
281
     1
  3
ACAD_GROUP
350
839
  3
ACAD_MLINESTYLE
350
83A
  0
DICTIONARY
  5
839
102
{ACAD_REACTORS
330
838
102
}
100
AcDbDictionary
280
     0
281
     1
  0
DICTIONARY
  5
83A
102
{ACAD_REACTORS
330
838
102
}
100
AcDbDictionary
280
     0
281
     1
  3
Standard
350
83B
  0
MLINESTYLE
  5
83B
102
{ACAD_REACTORS
330
83A
102
}
100
AcDbMlineStyle
  2
Standard
 70
     0
  3

 62
     0
 51
90.0
 52
90.0
 71
     2
 49
0.5
 62
   256
  6
ByLayer
 49
-0.5
 62
   256
  6
ByLayer
  0
ENDSEC
  0
EOF
