  0
SECTION
  2
HEADER
  9
$ACADVER
  1
AC1015
  9
$ACADMAINTVER
 70
     6
  9
$DWGCODEPAGE
  3
ANSI_932
  9
$INSBASE
 10
0.0
 20
0.0
 30
0.0
  9
$EXTMIN
 10
-105.0
 20
-148.5
 30
0.0
  9
$EXTMAX
 10
105.0
 20
148.5
 30
0.0
  9
$LIMMIN
 10
-105.0
 20
-148.5
  9
$LIMMAX
 10
105.0
 20
148.5
  9
$ORTHOMODE
 70
     0
  9
$REGENMODE
 70
     1
  9
$FILLMODE
 70
     1
  9
$QTEXTMODE
 70
     0
  9
$MIRRTEXT
 70
     1
  9
$LTSCALE
 40
1.0
  9
$ATTMODE
 70
     1
  9
$TEXTSIZE
 40
1.0
  9
$TRACEWID
 40
0.05
  9
$TEXTSTYLE
  7
STANDARD
  9
$CLAYER
  8
0
  9
$CELTYPE
  6
ByBlock
  9
$CECOLOR
 62
   256
  9
$CELTSCALE
 40
1.0
  9
$DISPSILH
 70
     0
  9
$DIMSCALE
 40
1.0
  9
$DIMASZ
 40
2.0
  9
$DIMEXO
 40
0.5
  9
$DIMDLI
 40
0.38
  9
$DIMRND
 40
0.0
  9
$DIMDLE
 40
0.0
  9
$DIMEXE
 40
2.0
  9
$DIMTP
 40
0.0
  9
$DIMTM
 40
0.0
  9
$DIMTXT
 40
3.0
  9
$DIMCEN
 40
0.09
  9
$DIMTSZ
 40
0.0
  9
$DIMTOL
 70
     0
  9
$DIMLIM
 70
     0
  9
$DIMTIH
 70
     0
  9
$DIMTOH
 70
     0
  9
$DIMSE1
 70
     0
  9
$DIMSE2
 70
     0
  9
$DIMTAD
 70
     1
  9
$DIMZIN
 70
     0
  9
$DIMBLK
  1

  9
$DIMASO
 70
     1
  9
$DIMSHO
 70
     1
  9
$DIMPOST
  1

  9
$DIMAPOST
  1

  9
$DIMALT
 70
     0
  9
$DIMALTD
 70
     2
  9
$DIMALTF
 40
25.4
  9
$DIMLFAC
 40
1.0
  9
$DIMTOFL
 70
     0
  9
$DIMTVP
 40
0.0
  9
$DIMTIX
 70
     0
  9
$DIMSOXD
 70
     0
  9
$DIMSAH
 70
     0
  9
$DIMBLK1
  1

  9
$DIMBLK2
  1

  9
$DIMSTYLE
  2
Standard
  9
$DIMCLRD
 70
     0
  9
$DIMCLRE
 70
     0
  9
$DIMCLRT
 70
     0
  9
$DIMTFAC
 40
1.0
  9
$DIMGAP
 40
0.5
  9
$DIMJUST
 70
     0
  9
$DIMSD1
 70
     0
  9
$DIMSD2
 70
     0
  9
$DIMTOLJ
 70
     1
  9
$DIMTZIN
 70
     0
  9
$DIMALTZ
 70
     0
  9
$DIMALTTZ
 70
     0
  9
$DIMUPT
 70
     0
  9
$DIMDEC
 70
     4
  9
$DIMTDEC
 70
     4
  9
$DIMALTU
 70
     2
  9
$DIMALTTD
 70
     2
  9
$DIMTXSTY
  7
STANDARD
  9
$DIMAUNIT
 70
     0
  9
$DIMADEC
 70
     2
  9
$DIMALTRND
 40
0.0
  9
$DIMAZIN
 70
     0
  9
$DIMDSEP
 70
    46
  9
$DIMATFIT
 70
     3
  9
$DIMFRAC
 70
     0
  9
$DIMLDRBLK
  1

  9
$DIMLUNIT
 70
     2
  9
$DIMLWD
 70
    -2
  9
$DIMLWE
 70
    -2
  9
$DIMTMOVE
 70
     2
  9
$LUNITS
 70
     2
  9
$LUPREC
 70
     4
  9
$SKETCHINC
 40
0.1
  9
$FILLETRAD
 40
0.5
  9
$AUNITS
 70
     0
  9
$AUPREC
 70
     0
  9
$MENU
  1
.
  9
$ELEVATION
 40
0.0
  9
$PELEVATION
 40
0.0
  9
$THICKNESS
 40
0.0
  9
$LIMCHECK
 70
     0
  9
$CHAMFERA
 40
0.0
  9
$CHAMFERB
 40
0.0
  9
$CHAMFERC
 40
0.0
  9
$CHAMFERD
 40
0.0
  9
$SKPOLY
 70
     0
  9
$TDCREATE
 40
2448436.0
  9
$TDUCREATE
 40
2448435.625
  9
$TDUPDATE
 40
2459009.58675897
  9
$TDUUPDATE
 40
2459009.21175897
  9
$TDINDWG
 40
0.0000000116
  9
$TDUSRTIMER
 40
0.0000000116
  9
$USRTIMER
 70
     1
  9
$ANGBASE
 50
0.0
  9
$ANGDIR
 70
     0
  9
$PDMODE
 70
     0
  9
$PDSIZE
 40
0.0
  9
$PLINEWID
 40
0.0
  9
$SPLFRAME
 70
     0
  9
$SPLINETYPE
 70
     6
  9
$SPLINESEGS
 70
     8
  9
$HANDSEED
  5
2C6
  9
$SURFTAB1
 70
     6
  9
$SURFTAB2
 70
     6
  9
$SURFTYPE
 70
     6
  9
$SURFU
 70
     6
  9
$SURFV
 70
     6
  9
$UCSBASE
  2

  9
$UCSNAME
  2

  9
$UCSORG
 10
0.0
 20
0.0
 30
0.0
  9
$UCSXDIR
 10
1.0
 20
0.0
 30
0.0
  9
$UCSYDIR
 10
0.0
 20
1.0
 30
0.0
  9
$UCSORTHOREF
  2

  9
$UCSORTHOVIEW
 70
     0
  9
$UCSORGTOP
 10
0.0
 20
0.0
 30
0.0
  9
$UCSORGBOTTOM
 10
0.0
 20
0.0
 30
0.0
  9
$UCSORGLEFT
 10
0.0
 20
0.0
 30
0.0
  9
$UCSORGRIGHT
 10
0.0
 20
0.0
 30
0.0
  9
$UCSORGFRONT
 10
0.0
 20
0.0
 30
0.0
  9
$UCSORGBACK
 10
0.0
 20
0.0
 30
0.0
  9
$PUCSBASE
  2

  9
$PUCSNAME
  2

  9
$PUCSORG
 10
0.0
 20
0.0
 30
0.0
  9
$PUCSXDIR
 10
1.0
 20
0.0
 30
0.0
  9
$PUCSYDIR
 10
0.0
 20
1.0
 30
0.0
  9
$PUCSORTHOREF
  2

  9
$PUCSORTHOVIEW
 70
     0
  9
$PUCSORGTOP
 10
0.0
 20
0.0
 30
0.0
  9
$PUCSORGBOTTOM
 10
0.0
 20
0.0
 30
0.0
  9
$PUCSORGLEFT
 10
0.0
 20
0.0
 30
0.0
  9
$PUCSORGRIGHT
 10
0.0
 20
0.0
 30
0.0
  9
$PUCSORGFRONT
 10
0.0
 20
0.0
 30
0.0
  9
$PUCSORGBACK
 10
0.0
 20
0.0
 30
0.0
  9
$USERI1
 70
     0
  9
$USERI2
 70
     0
  9
$USERI3
 70
     0
  9
$USERI4
 70
     0
  9
$USERI5
 70
     0
  9
$USERR1
 40
0.0
  9
$USERR2
 40
0.0
  9
$USERR3
 40
0.0
  9
$USERR4
 40
0.0
  9
$USERR5
 40
0.0
  9
$WORLDVIEW
 70
     1
  9
$SHADEDGE
 70
     3
  9
$SHADEDIF
 70
    70
  9
$TILEMODE
 70
     1
  9
$MAXACTVP
 70
    64
  9
$PINSBASE
 10
0.0
 20
0.0
 30
0.0
  9
$PLIMCHECK
 70
     0
  9
$PEXTMIN
 10
1.000000000000000E+20
 20
1.000000000000000E+20
 30
1.000000000000000E+20
  9
$PEXTMAX
 10
-1.000000000000000E+20
 20
-1.000000000000000E+20
 30
-1.000000000000000E+20
  9
$PLIMMIN
 10
0.0
 20
0.0
  9
$PLIMMAX
 10
12.0
 20
9.0
  9
$UNITMODE
 70
     0
  9
$VISRETAIN
 70
     1
  9
$PLINEGEN
 70
     0
  9
$PSLTSCALE
 70
     1
  9
$TREEDEPTH
 70
  3020
  9
$CMLSTYLE
  2
Standard
  9
$CMLJUST
 70
     0
  9
$CMLSCALE
 40
1.0
  9
$PROXYGRAPHICS
 70
     1
  9
$MEASUREMENT
 70
     0
  9
$CELWEIGHT
370
    -1
  9
$ENDCAPS
280
     0
  9
$JOINSTYLE
280
     0
  9
$LWDISPLAY
290
     0
  9
$INSUNITS
 70
     0
  9
$HYPERLINKBASE
  1

  9
$STYLESHEET
  1

  9
$XEDIT
290
     1
  9
$CEPSNTYPE
380
     0
  9
$PSTYLEMODE
290
     1
  9
$FINGERPRINTGUID
  2
{c42dd223-3566-4239-bf5e-edbebbfb403d}
  9
$VERSIONGUID
  2
{FAEB1C32-E019-11D5-929B-00C0DF256EC4}
  9
$EXTNAMES
290
     1
  9
$PSVPSCALE
 40
0.0
  9
$OLESTARTUP
290
     0
  0
ENDSEC
  0
SECTION
  2
CLASSES
  0
CLASS
  1
ACDBDICTIONARYWDFLT
  2
AcDbDictionaryWithDefault
  3
ObjectDBX Classes
 90
        0
280
     0
281
     0
  0
CLASS
  1
MATERIAL
  2
AcDbMaterial
  3
ObjectDBX Classes
 90
     1153
280
     0
281
     0
  0
CLASS
  1
SCALE
  2
AcDbScale
  3
ObjectDBX Classes
 90
     1153
280
     0
281
     0
  0
CLASS
  1
VISUALSTYLE
  2
AcDbVisualStyle
  3
ObjectDBX Classes
 90
     4095
280
     0
281
     0
  0
CLASS
  1
TABLESTYLE
  2
AcDbTableStyle
  3
ObjectDBX Classes
 90
     4095
280
     0
281
     0
  0
CLASS
  1
MLEADERSTYLE
  2
AcDbMLeaderStyle
  3
ACDB_MLEADERSTYLE_CLASS
 90
     4095
280
     0
281
     0
  0
CLASS
  1
DICTIONARYVAR
  2
AcDbDictionaryVar
  3
ObjectDBX Classes
 90
        0
280
     0
281
     0
  0
CLASS
  1
ACDBPLACEHOLDER
  2
AcDbPlaceHolder
  3
ObjectDBX Classes
 90
        0
280
     0
281
     0
  0
CLASS
  1
LAYOUT
  2
AcDbLayout
  3
ObjectDBX Classes
 90
        0
280
     0
281
     0
  0
ENDSEC
  0
SECTION
  2
TABLES
  0
TABLE
  2
VPORT
  5
8
102
{ACAD_XDICTIONARY
360
28A
102
}
330
0
100
AcDbSymbolTable
 70
     1
  0
VPORT
  5
20
330
8
100
AcDbSymbolTableRecord
100
AcDbViewportTableRecord
  2
*ACTIVE
 70
     0
 10
0.0
 20
0.0
 11
1.0
 21
1.0
 12
0.0
 22
0.0
 13
0.0
 23
0.0
 14
1.0
 24
1.0
 15
0.0
 25
0.0
 16
0.0
 26
0.0
 36
1.0
 17
0.0
 27
0.0
 37
0.0
 40
297.0
 41
0.707071
 42
50.0
 43
0.0
 44
0.0
 50
0.0
 51
0.0
 71
     0
 72
   500
 73
     1
 74
     1
 75
     0
 76
     0
 77
     0
 78
     0
281
     0
 65
     0
110
0.0
120
0.0
130
0.0
111
1.0
121
0.0
131
0.0
112
0.0
122
1.0
132
0.0
 79
     0
146
0.0
  0
ENDTAB
  0
TABLE
  2
LTYPE
  5
5
330
0
100
AcDbSymbolTable
 70
     7
  0
LTYPE
  5
14
330
5
100
AcDbSymbolTableRecord
100
AcDbLinetypeTableRecord
  2
ByBlock
 70
     0
  3

 72
    65
 73
     0
 40
0.0
  0
LTYPE
  5
15
330
5
100
AcDbSymbolTableRecord
100
AcDbLinetypeTableRecord
  2
ByLayer
 70
     0
  3

 72
    65
 73
     0
 40
0.0
  0
LTYPE
  5
16
330
5
100
AcDbSymbolTableRecord
100
AcDbLinetypeTableRecord
  2
CONTINUOUS
 70
     0
  3
Solid line
 72
    65
 73
     0
 40
0.0
  0
LTYPE
  5
22
330
5
100
AcDbSymbolTableRecord
100
AcDbLinetypeTableRecord
  2
DASHED
 70
     0
  3
__ __ __ __ __ __ __ __ __ __ __ __ __ __ __
 72
    65
 73
     2
 40
2.0
 49
1.2
 74
     0
 49
-0.8
 74
     0
  0
LTYPE
  5
23
330
5
100
AcDbSymbolTableRecord
100
AcDbLinetypeTableRecord
  2
CENTER
 70
     0
  3
____ _ ____ _ ____ _ ____ _ ____ _ ____ _ ____
 72
    65
 73
     4
 40
12.0
 49
9.0
 74
     0
 49
-1.0
 74
     0
 49
1.0
 74
     0
 49
-1.0
 74
     0
  0
LTYPE
  5
24
330
5
100
AcDbSymbolTableRecord
100
AcDbLinetypeTableRecord
  2
HIDDEN
 70
     0
  3
_ _ _ _ _ _ _ _ _ _ _ _ _ _ _ _ _ _ _ _ _ _ _
 72
    65
 73
     2
 40
3.2
 49
1.3
 74
     0
 49
-1.9
 74
     0
  0
LTYPE
  5
25
330
5
100
AcDbSymbolTableRecord
100
AcDbLinetypeTableRecord
  2
PHANTOM
 70
     0
  3
_____ _ _ _____ _ _ _____ _ _ _____ _ _ _____
 72
    65
 73
     6
 40
12.5
 49
9.0
 74
     0
 49
-1.0
 74
     0
 49
0.5
 74
     0
 49
-0.5
 74
     0
 49
0.5
 74
     0
 49
-1.0
 74
     0
  0
LTYPE
  5
26
330
5
100
AcDbSymbolTableRecord
100
AcDbLinetypeTableRecord
  2
DOT
 70
     0
  3
...............................................
 72
    65
 73
     2
 40
1.0
 49
0.5
 74
     0
 49
-0.5
 74
     0
  0
LTYPE
  5
27
330
5
100
AcDbSymbolTableRecord
100
AcDbLinetypeTableRecord
  2
DASHDOT
 70
     0
  3
__ . __ . __ . __ . __ . __ . __ . __ . __ . __
 72
    65
 73
     4
 40
8.0
 49
5.0
 74
     0
 49
-1.0
 74
     0
 49
1.0
 74
     0
 49
-1.0
 74
     0
  0
ENDTAB
  0
TABLE
  2
LAYER
  5
2
330
0
100
AcDbSymbolTable
 70
     5
  0
LAYER
  5
10
330
2
100
AcDbSymbolTableRecord
100
AcDbLayerTableRecord
  2
0
 70
     0
 62
     8
  6
CONTINUOUS
370
    -3
390
F
  0
LAYER
  5
2D
330
2
100
AcDbSymbolTableRecord
100
AcDbLayerTableRecord
  2
1
 70
     0
 62
     2
  6
CONTINUOUS
370
    -3
390
F
  0
LAYER
  5
2E
330
2
100
AcDbSymbolTableRecord
100
AcDbLayerTableRecord
  2
2
 70
     0
 62
     3
  6
CONTINUOUS
370
    -3
390
F
  0
LAYER
  5
2F
330
2
100
AcDbSymbolTableRecord
100
AcDbLayerTableRecord
  2
3
 70
     0
 62
     4
  6
CONTINUOUS
370
    -3
390
F
  0
LAYER
  5
30
330
2
100
AcDbSymbolTableRecord
100
AcDbLayerTableRecord
  2
4
 70
     0
 62
     1
  6
CONTINUOUS
370
    -3
390
F
  0
ENDTAB
  0
TABLE
  2
STYLE
  5
3
330
0
100
AcDbSymbolTable
 70
     1
  0
STYLE
  5
11
330
3
100
AcDbSymbolTableRecord
100
AcDbTextStyleTableRecord
  2
STANDARD
 70
     0
 40
0.0
 41
1.0
 50
0.0
 71
     0
 42
1.0
  3
txt
  4
BIGFONT
  0
ENDTAB
  0
TABLE
  2
VIEW
  5
6
330
0
100
AcDbSymbolTable
 70
     0
  0
ENDTAB
  0
TABLE
  2
UCS
  5
7
330
0
100
AcDbSymbolTable
 70
     0
  0
ENDTAB
  0
TABLE
  2
APPID
  5
9
330
0
100
AcDbSymbolTable
 70
     2
  0
APPID
  5
12
330
9
100
AcDbSymbolTableRecord
100
AcDbRegAppTableRecord
  2
ACAD
 70
     0
  0
APPID
  5
2C3
330
9
100
AcDbSymbolTableRecord
100
AcDbRegAppTableRecord
  2
ACAD_MLEADERVER
 70
     0
  0
ENDTAB
  0
TABLE
  2
DIMSTYLE
  5
A
330
0
100
AcDbSymbolTable
 70
     1
100
AcDbDimStyleTable
  0
DIMSTYLE
105
32
330
A
100
AcDbSymbolTableRecord
100
AcDbDimStyleTableRecord
  2
Standard
 70
     0
178
     0
340
11
  0
ENDTAB
  0
TABLE
  2
BLOCK_RECORD
  5
1
330
0
100
AcDbSymbolTable
 70
    14
  0
BLOCK_RECORD
  5
1D
330
1
100
AcDbSymbolTableRecord
100
AcDbBlockTableRecord
  2
*Model_Space
340
1E
  0
BLOCK_RECORD
  5
1B
330
1
100
AcDbSymbolTableRecord
100
AcDbBlockTableRecord
  2
*Paper_Space
340
1C
  0
BLOCK_RECORD
  5
34
330
1
100
AcDbSymbolTableRecord
100
AcDbBlockTableRecord
  2
*D0
340
0
  0
BLOCK_RECORD
  5
3F
330
1
100
AcDbSymbolTableRecord
100
AcDbBlockTableRecord
  2
*D1
340
0
  0
BLOCK_RECORD
  5
4A
330
1
100
AcDbSymbolTableRecord
100
AcDbBlockTableRecord
  2
*D2
340
0
  0
BLOCK_RECORD
  5
55
330
1
100
AcDbSymbolTableRecord
100
AcDbBlockTableRecord
  2
*D3
340
0
  0
BLOCK_RECORD
  5
60
330
1
100
AcDbSymbolTableRecord
100
AcDbBlockTableRecord
  2
*D4
340
0
  0
BLOCK_RECORD
  5
6B
330
1
100
AcDbSymbolTableRecord
100
AcDbBlockTableRecord
  2
*D5
340
0
  0
BLOCK_RECORD
  5
75
330
1
100
AcDbSymbolTableRecord
100
AcDbBlockTableRecord
  2
*D6
340
0
  0
BLOCK_RECORD
  5
80
330
1
100
AcDbSymbolTableRecord
100
AcDbBlockTableRecord
  2
*D7
340
0
  0
BLOCK_RECORD
  5
8B
330
1
100
AcDbSymbolTableRecord
100
AcDbBlockTableRecord
  2
*D8
340
0
  0
BLOCK_RECORD
  5
95
330
1
100
AcDbSymbolTableRecord
100
AcDbBlockTableRecord
  2
*D9
340
0
  0
BLOCK_RECORD
  5
9F
330
1
100
AcDbSymbolTableRecord
100
AcDbBlockTableRecord
  2
*D10
340
0
  0
BLOCK_RECORD
  5
AA
330
1
100
AcDbSymbolTableRecord
100
AcDbBlockTableRecord
  2
*D11
340
0
  0
BLOCK_RECORD
  5
B5
330
1
100
AcDbSymbolTableRecord
100
AcDbBlockTableRecord
  2
*D12
340
0
  0
BLOCK_RECORD
  5
BC
330
1
100
AcDbSymbolTableRecord
100
AcDbBlockTableRecord
  2
*D13
340
0
  0
ENDTAB
  0
ENDSEC
  0
SECTION
  2
BLOCKS
  0
BLOCK
  5
261
330
1D
100
AcDbEntity
  8
0
100
AcDbBlockBegin
  2
*Model_Space
 70
     0
 10
0.0
 20
0.0
 30
0.0
  3
*Model_Space
  1

  0
ENDBLK
  5
262
330
1D
100
AcDbEntity
  8
0
100
AcDbBlockEnd
  0
BLOCK
  5
263
330
1B
100
AcDbEntity
 67
     1
  8
0
100
AcDbBlockBegin
  2
*Paper_Space
 70
     0
 10
0.0
 20
0.0
 30
0.0
  3
*Paper_Space
  1

  0
ENDBLK
  5
264
330
1B
100
AcDbEntity
 67
     1
  8
0
100
AcDbBlockEnd
  0
BLOCK
  5
33
330
34
100
AcDbEntity
  8
2
100
AcDbBlockBegin
  2
*D0
 70
     1
 10
0.0
 20
0.0
 30
0.0
  3
*D0
  1

  0
TEXT
  5
35
330
34
100
AcDbEntity
  8
2
370
    18
100
AcDbText
 10
-11.394107
 20
106.847388
 30
0.0
 40
3.0
  1
7
 41
2.0
 72
     5
 11
-9.594107
 21
106.847388
 31
0.0
100
AcDbText
  0
LINE
  5
36
330
34
100
AcDbEntity
  8
2
370
    25
100
AcDbLine
 10
-13.394107
 20
67.443913
 30
0.0
 11
-13.394107
 21
107.347388
 31
0.0
  0
LINE
  5
37
330
34
100
AcDbEntity
  8
2
370
    25
100
AcDbLine
 10
-13.394107
 20
106.347388
 30
0.0
 11
-11.462256
 21
105.82975
 31
0.0
  0
LINE
  5
38
330
34
100
AcDbEntity
  8
2
370
    25
100
AcDbLine
 10
-13.394107
 20
106.347388
 30
0.0
 11
-11.462256
 21
106.865026
 31
0.0
  0
LINE
  5
39
330
34
100
AcDbEntity
  8
2
370
    25
100
AcDbLine
 10
-13.394107
 20
106.347388
 30
0.0
 11
-6.394107
 21
106.347388
 31
0.0
  0
LINE
  5
3A
330
34
100
AcDbEntity
  8
2
370
    25
100
AcDbLine
 10
-6.394107
 20
106.347388
 30
0.0
 11
-8.325959
 21
106.865026
 31
0.0
  0
LINE
  5
3B
330
34
100
AcDbEntity
  8
2
370
    25
100
AcDbLine
 10
-6.394107
 20
106.347388
 30
0.0
 11
-8.325959
 21
105.82975
 31
0.0
  0
LINE
  5
3C
330
34
100
AcDbEntity
  8
2
370
    25
100
AcDbLine
 10
-6.394107
 20
92.218357
 30
0.0
 11
-6.394107
 21
107.347388
 31
0.0
  0
ENDBLK
  5
3D
330
34
100
AcDbEntity
  8
2
100
AcDbBlockEnd
  0
BLOCK
  5
3E
330
3F
100
AcDbEntity
  8
2
100
AcDbBlockBegin
  2
*D1
 70
     1
 10
0.0
 20
0.0
 30
0.0
  3
*D1
  1

  0
TEXT
  5
40
330
3F
100
AcDbEntity
  8
2
370
    18
100
AcDbText
 10
-32.155636
 20
-37.956084
 30
0.0
 40
3.0
  1
2.9
 50
90.0
 41
2.0
 72
     5
 11
-32.155636
 21
-30.156084
 31
0.0
100
AcDbText
  0
LINE
  5
41
330
3F
100
AcDbEntity
  8
2
370
    25
100
AcDbLine
 10
-23.394107
 20
-24.956084
 30
0.0
 11
-32.655636
 21
-24.956084
 31
0.0
  0
LINE
  5
42
330
3F
100
AcDbEntity
  8
2
370
    25
100
AcDbLine
 10
-31.655636
 20
-24.956084
 30
0.0
 11
-32.173274
 21
-26.887936
 31
0.0
  0
LINE
  5
43
330
3F
100
AcDbEntity
  8
2
370
    25
100
AcDbLine
 10
-31.655636
 20
-24.956084
 30
0.0
 11
-31.137998
 21
-26.887936
 31
0.0
  0
LINE
  5
44
330
3F
100
AcDbEntity
  8
2
370
    25
100
AcDbLine
 10
-31.655636
 20
-38.956084
 30
0.0
 11
-31.655636
 21
-17.056084
 31
0.0
  0
LINE
  5
45
330
3F
100
AcDbEntity
  8
2
370
    25
100
AcDbLine
 10
-31.655636
 20
-22.056084
 30
0.0
 11
-31.137998
 21
-20.124232
 31
0.0
  0
LINE
  5
46
330
3F
100
AcDbEntity
  8
2
370
    25
100
AcDbLine
 10
-31.655636
 20
-22.056084
 30
0.0
 11
-32.173274
 21
-20.124232
 31
0.0
  0
LINE
  5
47
330
3F
100
AcDbEntity
  8
2
370
    25
100
AcDbLine
 10
-22.194107
 20
-22.056084
 30
0.0
 11
-32.655636
 21
-22.056084
 31
0.0
  0
ENDBLK
  5
48
330
3F
100
AcDbEntity
  8
2
100
AcDbBlockEnd
  0
BLOCK
  5
49
330
4A
100
AcDbEntity
  8
2
100
AcDbBlockBegin
  2
*D2
 70
     1
 10
0.0
 20
0.0
 30
0.0
  3
*D2
  1

  0
TEXT
  5
4B
330
4A
100
AcDbEntity
  8
2
370
    18
100
AcDbText
 10
22.678043
 20
-35.656084
 30
0.0
 40
3.0
  1
15.2
 50
90.0
 41
2.0
 72
     5
 11
22.678043
 21
-24.856084
 31
0.0
100
AcDbText
  0
LINE
  5
4C
330
4A
100
AcDbEntity
  8
2
370
    25
100
AcDbLine
 10
4.740969
 20
-37.256084
 30
0.0
 11
24.178043
 21
-37.256084
 31
0.0
  0
LINE
  5
4D
330
4A
100
AcDbEntity
  8
2
370
    25
100
AcDbLine
 10
23.178043
 20
-37.256084
 30
0.0
 11
23.695681
 21
-35.324232
 31
0.0
  0
LINE
  5
4E
330
4A
100
AcDbEntity
  8
2
370
    25
100
AcDbLine
 10
23.178043
 20
-37.256084
 30
0.0
 11
22.660405
 21
-35.324232
 31
0.0
  0
LINE
  5
4F
330
4A
100
AcDbEntity
  8
2
370
    25
100
AcDbLine
 10
23.178043
 20
-37.256084
 30
0.0
 11
23.178043
 21
-22.056084
 31
0.0
  0
LINE
  5
50
330
4A
100
AcDbEntity
  8
2
370
    25
100
AcDbLine
 10
23.178043
 20
-22.056084
 30
0.0
 11
22.660405
 21
-23.987936
 31
0.0
  0
LINE
  5
51
330
4A
100
AcDbEntity
  8
2
370
    25
100
AcDbLine
 10
23.178043
 20
-22.056084
 30
0.0
 11
23.695681
 21
-23.987936
 31
0.0
  0
LINE
  5
52
330
4A
100
AcDbEntity
  8
2
370
    25
100
AcDbLine
 10
6.605893
 20
-22.056084
 30
0.0
 11
24.178043
 21
-22.056084
 31
0.0
  0
ENDBLK
  5
53
330
4A
100
AcDbEntity
  8
2
100
AcDbBlockEnd
  0
BLOCK
  5
54
330
55
100
AcDbEntity
  8
2
100
AcDbBlockBegin
  2
*D3
 70
     1
 10
0.0
 20
0.0
 30
0.0
  3
*D3
  1

  0
TEXT
  5
56
330
55
100
AcDbEntity
  8
2
370
    18
100
AcDbText
 10
-33.007843
 20
49.943916
 30
0.0
 40
3.0
  1
70
 50
90.0
 41
2.0
 72
     5
 11
-33.007843
 21
54.743916
 31
0.0
100
AcDbText
  0
LINE
  5
57
330
55
100
AcDbEntity
  8
2
370
    25
100
AcDbLine
 10
-23.394107
 20
17.943916
 30
0.0
 11
-33.507843
 21
17.943916
 31
0.0
  0
LINE
  5
58
330
55
100
AcDbEntity
  8
2
370
    25
100
AcDbLine
 10
-32.507843
 20
17.943916
 30
0.0
 11
-31.990205
 21
19.875768
 31
0.0
  0
LINE
  5
59
330
55
100
AcDbEntity
  8
2
370
    25
100
AcDbLine
 10
-32.507843
 20
17.943916
 30
0.0
 11
-33.025481
 21
19.875768
 31
0.0
  0
LINE
  5
5A
330
55
100
AcDbEntity
  8
2
370
    25
100
AcDbLine
 10
-32.507843
 20
17.943916
 30
0.0
 11
-32.507843
 21
87.943916
 31
0.0
  0
LINE
  5
5B
330
55
100
AcDbEntity
  8
2
370
    25
100
AcDbLine
 10
-32.507843
 20
87.943916
 30
0.0
 11
-33.025481
 21
86.012064
 31
0.0
  0
LINE
  5
5C
330
55
100
AcDbEntity
  8
2
370
    25
100
AcDbLine
 10
-32.507843
 20
87.943916
 30
0.0
 11
-31.990205
 21
86.012064
 31
0.0
  0
LINE
  5
5D
330
55
100
AcDbEntity
  8
2
370
    25
100
AcDbLine
 10
-23.394107
 20
87.943916
 30
0.0
 11
-33.507843
 21
87.943916
 31
0.0
  0
ENDBLK
  5
5E
330
55
100
AcDbEntity
  8
2
100
AcDbBlockEnd
  0
BLOCK
  5
5F
330
60
100
AcDbEntity
  8
2
100
AcDbBlockBegin
  2
*D4
 70
     1
 10
0.0
 20
0.0
 30
0.0
  3
*D4
  1

  0
TEXT
  5
61
330
60
100
AcDbEntity
  8
2
370
    18
100
AcDbText
 10
17.725464
 20
49.943916
 30
0.0
 40
3.0
  1
28
 50
90.0
 41
2.0
 72
     5
 11
17.725464
 21
54.743916
 31
0.0
100
AcDbText
  0
LINE
  5
62
330
60
100
AcDbEntity
  8
2
370
    25
100
AcDbLine
 10
-1.194107
 20
38.943916
 30
0.0
 11
19.225464
 21
38.943916
 31
0.0
  0
LINE
  5
63
330
60
100
AcDbEntity
  8
2
370
    25
100
AcDbLine
 10
18.225464
 20
38.943916
 30
0.0
 11
18.743102
 21
40.875768
 31
0.0
  0
LINE
  5
64
330
60
100
AcDbEntity
  8
2
370
    25
100
AcDbLine
 10
18.225464
 20
38.943916
 30
0.0
 11
17.707826
 21
40.875768
 31
0.0
  0
LINE
  5
65
330
60
100
AcDbEntity
  8
2
370
    25
100
AcDbLine
 10
18.225464
 20
38.943916
 30
0.0
 11
18.225464
 21
66.943916
 31
0.0
  0
LINE
  5
66
330
60
100
AcDbEntity
  8
2
370
    25
100
AcDbLine
 10
18.225464
 20
66.943916
 30
0.0
 11
17.707826
 21
65.012064
 31
0.0
  0
LINE
  5
67
330
60
100
AcDbEntity
  8
2
370
    25
100
AcDbLine
 10
18.225464
 20
66.943916
 30
0.0
 11
18.743102
 21
65.012064
 31
0.0
  0
LINE
  5
68
330
60
100
AcDbEntity
  8
2
370
    25
100
AcDbLine
 10
-1.194107
 20
66.943916
 30
0.0
 11
19.225464
 21
66.943916
 31
0.0
  0
ENDBLK
  5
69
330
60
100
AcDbEntity
  8
2
100
AcDbBlockEnd
  0
BLOCK
  5
6A
330
6B
100
AcDbEntity
  8
2
100
AcDbBlockBegin
  2
*D5
 70
     1
 10
0.0
 20
0.0
 30
0.0
  3
*D5
  1

  0
TEXT
  5
6C
330
6B
100
AcDbEntity
  8
2
370
    18
100
AcDbText
 10
-20.644107
 20
5.591911
 30
0.0
 40
3.0
  1
16.5
 41
2.0
 72
     5
 11
-9.844107
 21
5.591911
 31
0.0
100
AcDbText
  0
LINE
  5
6D
330
6B
100
AcDbEntity
  8
2
370
    25
100
AcDbLine
 10
-22.894107
 20
17.443913
 30
0.0
 11
-22.894107
 21
4.091911
 31
0.0
  0
LINE
  5
6E
330
6B
100
AcDbEntity
  8
2
370
    25
100
AcDbLine
 10
-22.894107
 20
5.091911
 30
0.0
 11
-20.962256
 21
4.574273
 31
0.0
  0
LINE
  5
6F
330
6B
100
AcDbEntity
  8
2
370
    25
100
AcDbLine
 10
-22.894107
 20
5.091911
 30
0.0
 11
-20.962256
 21
5.609549
 31
0.0
  0
LINE
  5
70
330
6B
100
AcDbEntity
  8
2
370
    25
100
AcDbLine
 10
-22.894107
 20
5.091911
 30
0.0
 11
-6.394107
 21
5.091911
 31
0.0
  0
LINE
  5
71
330
6B
100
AcDbEntity
  8
2
370
    25
100
AcDbLine
 10
-6.394107
 20
5.091911
 30
0.0
 11
-8.325959
 21
5.609549
 31
0.0
  0
LINE
  5
72
330
6B
100
AcDbEntity
  8
2
370
    25
100
AcDbLine
 10
-6.394107
 20
5.091911
 30
0.0
 11
-8.325959
 21
4.574273
 31
0.0
  0
ENDBLK
  5
73
330
6B
100
AcDbEntity
  8
2
100
AcDbBlockEnd
  0
BLOCK
  5
74
330
75
100
AcDbEntity
  8
2
100
AcDbBlockBegin
  2
*D6
 70
     1
 10
0.0
 20
0.0
 30
0.0
  3
*D6
  1

  0
TEXT
  5
76
330
75
100
AcDbEntity
  8
2
370
    18
100
AcDbText
 10
-6.144107
 20
5.591911
 30
0.0
 40
3.0
  1
12.5
 41
2.0
 72
     5
 11
4.655893
 21
5.591911
 31
0.0
100
AcDbText
  0
LINE
  5
77
330
75
100
AcDbEntity
  8
2
370
    25
100
AcDbLine
 10
-6.394107
 20
13.669475
 30
0.0
 11
-6.394107
 21
4.091911
 31
0.0
  0
LINE
  5
78
330
75
100
AcDbEntity
  8
2
370
    25
100
AcDbLine
 10
-6.394107
 20
5.091911
 30
0.0
 11
-4.462256
 21
4.574273
 31
0.0
  0
LINE
  5
79
330
75
100
AcDbEntity
  8
2
370
    25
100
AcDbLine
 10
-6.394107
 20
5.091911
 30
0.0
 11
-4.462256
 21
5.609549
 31
0.0
  0
LINE
  5
7A
330
75
100
AcDbEntity
  8
2
370
    25
100
AcDbLine
 10
-6.394107
 20
5.091911
 30
0.0
 11
6.105893
 21
5.091911
 31
0.0
  0
LINE
  5
7B
330
75
100
AcDbEntity
  8
2
370
    25
100
AcDbLine
 10
6.105893
 20
5.091911
 30
0.0
 11
4.174041
 21
5.609549
 31
0.0
  0
LINE
  5
7C
330
75
100
AcDbEntity
  8
2
370
    25
100
AcDbLine
 10
6.105893
 20
5.091911
 30
0.0
 11
4.174041
 21
4.574273
 31
0.0
  0
LINE
  5
7D
330
75
100
AcDbEntity
  8
2
370
    25
100
AcDbLine
 10
6.105893
 20
23.443916
 30
0.0
 11
6.105893
 21
4.091911
 31
0.0
  0
ENDBLK
  5
7E
330
75
100
AcDbEntity
  8
2
100
AcDbBlockEnd
  0
BLOCK
  5
7F
330
80
100
AcDbEntity
  8
2
100
AcDbBlockBegin
  2
*D7
 70
     1
 10
0.0
 20
0.0
 30
0.0
  3
*D7
  1

  0
TEXT
  5
81
330
80
100
AcDbEntity
  8
2
370
    18
100
AcDbText
 10
24.973053
 20
49.943916
 30
0.0
 40
3.0
  1
54
 50
90.0
 41
2.0
 72
     5
 11
24.973053
 21
54.743916
 31
0.0
100
AcDbText
  0
LINE
  5
82
330
80
100
AcDbEntity
  8
2
370
    25
100
AcDbLine
 10
-0.394107
 20
25.943916
 30
0.0
 11
26.473053
 21
25.943916
 31
0.0
  0
LINE
  5
83
330
80
100
AcDbEntity
  8
2
370
    25
100
AcDbLine
 10
25.473053
 20
25.943916
 30
0.0
 11
25.990691
 21
27.875768
 31
0.0
  0
LINE
  5
84
330
80
100
AcDbEntity
  8
2
370
    25
100
AcDbLine
 10
25.473053
 20
25.943916
 30
0.0
 11
24.955415
 21
27.875768
 31
0.0
  0
LINE
  5
85
330
80
100
AcDbEntity
  8
2
370
    25
100
AcDbLine
 10
25.473053
 20
25.943916
 30
0.0
 11
25.473053
 21
79.943916
 31
0.0
  0
LINE
  5
86
330
80
100
AcDbEntity
  8
2
370
    25
100
AcDbLine
 10
25.473053
 20
79.943916
 30
0.0
 11
24.955415
 21
78.012064
 31
0.0
  0
LINE
  5
87
330
80
100
AcDbEntity
  8
2
370
    25
100
AcDbLine
 10
25.473053
 20
79.943916
 30
0.0
 11
25.990691
 21
78.012064
 31
0.0
  0
LINE
  5
88
330
80
100
AcDbEntity
  8
2
370
    25
100
AcDbLine
 10
-0.394107
 20
79.943916
 30
0.0
 11
26.473053
 21
79.943916
 31
0.0
  0
ENDBLK
  5
89
330
80
100
AcDbEntity
  8
2
100
AcDbBlockEnd
  0
BLOCK
  5
8A
330
8B
100
AcDbEntity
  8
2
100
AcDbBlockBegin
  2
*D8
 70
     1
 10
0.0
 20
0.0
 30
0.0
  3
*D8
  1

  0
TEXT
  5
8C
330
8B
100
AcDbEntity
  8
2
370
    18
100
AcDbText
 10
-1.394107
 20
101.348506
 30
0.0
 40
3.0
  1
2
 41
2.0
 72
     5
 11
0.405893
 21
101.348506
 31
0.0
100
AcDbText
  0
LINE
  5
8D
330
8B
100
AcDbEntity
  8
2
370
    25
100
AcDbLine
 10
-13.394107
 20
100.848506
 30
0.0
 11
2.605893
 21
100.848506
 31
0.0
  0
LINE
  5
8E
330
8B
100
AcDbEntity
  8
2
370
    25
100
AcDbLine
 10
-11.394107
 20
100.848506
 30
0.0
 11
-9.462256
 21
100.330868
 31
0.0
  0
LINE
  5
8F
330
8B
100
AcDbEntity
  8
2
370
    25
100
AcDbLine
 10
-11.394107
 20
100.848506
 30
0.0
 11
-9.462256
 21
101.366144
 31
0.0
  0
LINE
  5
90
330
8B
100
AcDbEntity
  8
2
370
    25
100
AcDbLine
 10
-11.394107
 20
67.443916
 30
0.0
 11
-11.394107
 21
101.848506
 31
0.0
  0
CIRCLE
  5
91
330
8B
100
AcDbEntity
  8
2
370
    25
100
AcDbCircle
 10
-13.394107
 20
100.848506
 30
0.0
 40
0.5
  0
CIRCLE
  5
92
330
8B
100
AcDbEntity
  8
2
370
    25
100
AcDbCircle
 10
-13.394107
 20
100.848506
 30
0.0
 40
0.3
  0
ENDBLK
  5
93
330
8B
100
AcDbEntity
  8
2
100
AcDbBlockEnd
  0
BLOCK
  5
94
330
95
100
AcDbEntity
  8
2
100
AcDbBlockBegin
  2
*D9
 70
     1
 10
0.0
 20
0.0
 30
0.0
  3
*D9
  1

  0
TEXT
  5
96
330
95
100
AcDbEntity
  8
2
370
    18
100
AcDbText
 10
-27.194107
 20
101.348506
 30
0.0
 40
3.0
  1
0.8
 41
2.0
 72
     5
 11
-19.394107
 21
101.348506
 31
0.0
100
AcDbText
  0
LINE
  5
97
330
95
100
AcDbEntity
  8
2
370
    25
100
AcDbLine
 10
-14.194107
 20
67.443913
 30
0.0
 11
-14.194107
 21
101.848506
 31
0.0
  0
LINE
  5
98
330
95
100
AcDbEntity
  8
2
370
    25
100
AcDbLine
 10
-14.194107
 20
100.848506
 30
0.0
 11
-16.125959
 21
101.366144
 31
0.0
  0
LINE
  5
99
330
95
100
AcDbEntity
  8
2
370
    25
100
AcDbLine
 10
-14.194107
 20
100.848506
 30
0.0
 11
-16.125959
 21
100.330868
 31
0.0
  0
LINE
  5
9A
330
95
100
AcDbEntity
  8
2
370
    25
100
AcDbLine
 10
-31.194107
 20
100.848506
 30
0.0
 11
-13.394107
 21
100.848506
 31
0.0
  0
CIRCLE
  5
9B
330
95
100
AcDbEntity
  8
2
370
    25
100
AcDbCircle
 10
-13.394107
 20
100.848506
 30
0.0
 40
0.5
  0
CIRCLE
  5
9C
330
95
100
AcDbEntity
  8
2
370
    25
100
AcDbCircle
 10
-13.394107
 20
100.848506
 30
0.0
 40
0.3
  0
ENDBLK
  5
9D
330
95
100
AcDbEntity
  8
2
100
AcDbBlockEnd
  0
BLOCK
  5
9E
330
9F
100
AcDbEntity
  8
2
100
AcDbBlockBegin
  2
*D10
 70
     1
 10
0.0
 20
0.0
 30
0.0
  3
*D10
  1

  0
TEXT
  5
A0
330
9F
100
AcDbEntity
  8
2
370
    25
100
AcDbText
 10
13.639907
 20
-20.056084
 30
0.0
 40
3.0
  1
2.9
 50
90.0
 41
2.0
 72
     5
 11
13.639907
 21
-12.256084
 31
0.0
100
AcDbText
  0
LINE
  5
A1
330
9F
100
AcDbEntity
  8
2
370
    25
100
AcDbLine
 10
5.798996
 20
-24.956084
 30
0.0
 11
15.139907
 21
-24.956084
 31
0.0
  0
LINE
  5
A2
330
9F
100
AcDbEntity
  8
2
370
    25
100
AcDbLine
 10
14.139907
 20
-24.956084
 30
0.0
 11
13.622269
 21
-26.887936
 31
0.0
  0
LINE
  5
A3
330
9F
100
AcDbEntity
  8
2
370
    25
100
AcDbLine
 10
14.139907
 20
-24.956084
 30
0.0
 11
14.657546
 21
-26.887936
 31
0.0
  0
LINE
  5
A4
330
9F
100
AcDbEntity
  8
2
370
    25
100
AcDbLine
 10
14.139907
 20
-29.956084
 30
0.0
 11
14.139907
 21
-10.056084
 31
0.0
  0
LINE
  5
A5
330
9F
100
AcDbEntity
  8
2
370
    25
100
AcDbLine
 10
14.139907
 20
-22.056084
 30
0.0
 11
14.657546
 21
-20.124232
 31
0.0
  0
LINE
  5
A6
330
9F
100
AcDbEntity
  8
2
370
    25
100
AcDbLine
 10
14.139907
 20
-22.056084
 30
0.0
 11
13.622269
 21
-20.124232
 31
0.0
  0
LINE
  5
A7
330
9F
100
AcDbEntity
  8
2
370
    25
100
AcDbLine
 10
6.605893
 20
-22.056084
 30
0.0
 11
15.139907
 21
-22.056084
 31
0.0
  0
ENDBLK
  5
A8
330
9F
100
AcDbEntity
  8
2
100
AcDbBlockEnd
  0
BLOCK
  5
A9
330
AA
100
AcDbEntity
  8
2
100
AcDbBlockBegin
  2
*D11
 70
     1
 10
0.0
 20
0.0
 30
0.0
  3
*D11
  1

  0
TEXT
  5
AB
330
AA
100
AcDbEntity
  8
2
370
    25
100
AcDbText
 10
-9.394107
 20
-51.18195
 30
0.0
 40
3.0
  1
25
 41
2.0
 72
     5
 11
-4.594107
 21
-51.18195
 31
0.0
100
AcDbText
  0
LINE
  5
AC
330
AA
100
AcDbEntity
  8
2
370
    25
100
AcDbLine
 10
-18.894107
 20
-23.756084
 30
0.0
 11
-18.894107
 21
-52.68195
 31
0.0
  0
LINE
  5
AD
330
AA
100
AcDbEntity
  8
2
370
    25
100
AcDbLine
 10
-18.894107
 20
-51.68195
 30
0.0
 11
-16.962256
 21
-52.199588
 31
0.0
  0
LINE
  5
AE
330
AA
100
AcDbEntity
  8
2
370
    25
100
AcDbLine
 10
-18.894107
 20
-51.68195
 30
0.0
 11
-16.962256
 21
-51.164312
 31
0.0
  0
LINE
  5
AF
330
AA
100
AcDbEntity
  8
2
370
    25
100
AcDbLine
 10
-18.894107
 20
-51.68195
 30
0.0
 11
6.105893
 21
-51.68195
 31
0.0
  0
LINE
  5
B0
330
AA
100
AcDbEntity
  8
2
370
    25
100
AcDbLine
 10
6.105893
 20
-51.68195
 30
0.0
 11
4.174041
 21
-51.164312
 31
0.0
  0
LINE
  5
B1
330
AA
100
AcDbEntity
  8
2
370
    25
100
AcDbLine
 10
6.105893
 20
-51.68195
 30
0.0
 11
4.174041
 21
-52.199588
 31
0.0
  0
LINE
  5
B2
330
AA
100
AcDbEntity
  8
2
370
    25
100
AcDbLine
 10
6.105893
 20
-23.756084
 30
0.0
 11
6.105893
 21
-52.68195
 31
0.0
  0
ENDBLK
  5
B3
330
AA
100
AcDbEntity
  8
2
100
AcDbBlockEnd
  0
BLOCK
  5
B4
330
B5
100
AcDbEntity
  8
2
100
AcDbBlockBegin
  2
*D12
 70
     1
 10
0.0
 20
0.0
 30
0.0
  3
*D12
  1

  0
TEXT
  5
B6
330
B5
100
AcDbEntity
  8
2
370
    25
100
AcDbText
 10
5.255477
 20
88.086536
 30
0.0
 40
3.0
  1
R6
 50
46.44932
 41
2.0
 72
     5
 11
8.562658
 21
91.565409
 31
0.0
100
AcDbText
  0
LINE
  5
B7
330
B5
100
AcDbEntity
  8
2
370
    25
100
AcDbLine
 10
0.105893
 20
81.943916
 30
0.0
 11
10.440832
 21
92.815394
 31
0.0
  0
LINE
  5
B8
330
B5
100
AcDbEntity
  8
2
370
    25
100
AcDbLine
 10
4.239868
 20
86.292507
 30
0.0
 11
5.946072
 21
87.335996
 31
0.0
  0
LINE
  5
B9
330
B5
100
AcDbEntity
  8
2
370
    25
100
AcDbLine
 10
4.239868
 20
86.292507
 30
0.0
 11
5.19574
 21
88.049297
 31
0.0
  0
ENDBLK
  5
BA
330
B5
100
AcDbEntity
  8
2
100
AcDbBlockEnd
  0
BLOCK
  5
BB
330
BC
100
AcDbEntity
  8
2
100
AcDbBlockBegin
  2
*D13
 70
     1
 10
0.0
 20
0.0
 30
0.0
  3
*D13
  1

  0
TEXT
  5
BD
330
BC
100
AcDbEntity
  8
2
370
    25
100
AcDbText
 10
65.652176
 20
49.943916
 30
0.0
 40
3.0
  1
33
 50
90.0
 41
2.0
 72
     5
 11
65.652176
 21
54.743916
 31
0.0
100
AcDbText
  0
LINE
  5
BE
330
BC
100
AcDbEntity
  8
2
370
    25
100
AcDbLine
 10
44.505893
 20
36.443916
 30
0.0
 11
67.152176
 21
36.443916
 31
0.0
  0
LINE
  5
BF
330
BC
100
AcDbEntity
  8
2
370
    25
100
AcDbLine
 10
66.152176
 20
36.443916
 30
0.0
 11
66.669814
 21
38.375768
 31
0.0
  0
LINE
  5
C0
330
BC
100
AcDbEntity
  8
2
370
    25
100
AcDbLine
 10
66.152176
 20
36.443916
 30
0.0
 11
65.634537
 21
38.375768
 31
0.0
  0
LINE
  5
C1
330
BC
100
AcDbEntity
  8
2
370
    25
100
AcDbLine
 10
66.152176
 20
36.443916
 30
0.0
 11
66.152176
 21
69.443916
 31
0.0
  0
LINE
  5
C2
330
BC
100
AcDbEntity
  8
2
370
    25
100
AcDbLine
 10
66.152176
 20
69.443916
 30
0.0
 11
65.634537
 21
67.512064
 31
0.0
  0
LINE
  5
C3
330
BC
100
AcDbEntity
  8
2
370
    25
100
AcDbLine
 10
66.152176
 20
69.443916
 30
0.0
 11
66.669814
 21
67.512064
 31
0.0
  0
LINE
  5
C4
330
BC
100
AcDbEntity
  8
2
370
    25
100
AcDbLine
 10
44.505893
 20
69.443916
 30
0.0
 11
67.152176
 21
69.443916
 31
0.0
  0
ENDBLK
  5
C5
330
BC
100
AcDbEntity
  8
2
100
AcDbBlockEnd
  0
ENDSEC
  0
SECTION
  2
ENTITIES
  0
LINE
  5
C6
330
1D
100
AcDbEntity
  8
1
370
    50
100
AcDbLine
 10
6.105893
 20
-22.056084
 30
0.0
 11
-21.694107
 21
-22.056084
 31
0.0
  0
LINE
  5
C7
330
1D
100
AcDbEntity
  8
1
370
    50
100
AcDbLine
 10
6.105893
 20
-23.256084
 30
0.0
 11
-21.694107
 21
-23.256084
 31
0.0
  0
LINE
  5
C8
330
1D
100
AcDbEntity
  8
1
370
    50
100
AcDbLine
 10
6.105893
 20
-23.256084
 30
0.0
 11
6.105893
 21
-22.056084
 31
0.0
  0
LINE
  5
C9
330
1D
100
AcDbEntity
  8
1
  6
CENTER
370
    18
100
AcDbLine
 10
-6.394107
 20
-19.518447
 30
0.0
 11
-6.394107
 21
-47.232507
 31
0.0
  0
LINE
  5
CA
330
1D
100
AcDbEntity
  8
1
370
    50
100
AcDbLine
 10
6.105893
 20
-23.256084
 30
0.0
 11
6.105893
 21
-22.056084
 31
0.0
  0
LINE
  5
CB
330
1D
100
AcDbEntity
  8
1
370
    50
100
AcDbLine
 10
-21.694107
 20
-24.956084
 30
0.0
 11
-22.894107
 21
-24.956084
 31
0.0
  0
LINE
  5
CC
330
1D
100
AcDbEntity
  8
1
370
    50
100
AcDbLine
 10
-22.894107
 20
-24.956084
 30
0.0
 11
-22.894107
 21
-23.256084
 31
0.0
  0
LINE
  5
CD
330
1D
100
AcDbEntity
  8
1
370
    50
100
AcDbLine
 10
-21.694107
 20
-24.956084
 30
0.0
 11
-21.694107
 21
-23.256084
 31
0.0
  0
ARC
  5
CE
330
1D
100
AcDbEntity
  8
1
370
    50
100
AcDbCircle
 10
-21.694107
 20
-23.256084
 30
0.0
 40
1.2
100
AcDbArc
 50
90.0
 51
180.0
  0
LINE
  5
CF
330
1D
100
AcDbEntity
  8
1
  6
CENTER
370
    18
100
AcDbLine
 10
-6.394107
 20
91.718357
 30
0.0
 11
-6.394107
 21
14.169475
 31
0.0
  0
LINE
  5
D0
330
1D
100
AcDbEntity
  8
1
370
    50
100
AcDbLine
 10
-22.894107
 20
87.943916
 30
0.0
 11
0.105893
 21
87.943916
 31
0.0
  0
LINE
  5
D1
330
1D
100
AcDbEntity
  8
1
370
    50
100
AcDbLine
 10
-22.894107
 20
17.943916
 30
0.0
 11
0.105893
 21
17.943916
 31
0.0
  0
LINE
  5
D2
330
1D
100
AcDbEntity
  8
1
370
    50
100
AcDbLine
 10
6.105893
 20
23.943916
 30
0.0
 11
6.105893
 21
81.943916
 31
0.0
  0
ARC
  5
D3
330
1D
100
AcDbEntity
  8
1
370
    50
100
AcDbCircle
 10
0.105893
 20
81.943916
 30
0.0
 40
6.0
100
AcDbArc
 50
0.0
 51
90.0
  0
ARC
  5
D4
330
1D
100
AcDbEntity
  8
1
370
    50
100
AcDbCircle
 10
0.105893
 20
23.943916
 30
0.0
 40
6.0
100
AcDbArc
 50
270.0
 51
0.0
  0
LINE
  5
D5
330
1D
100
AcDbEntity
  8
1
370
    50
100
AcDbLine
 10
1.305893
 20
41.943916
 30
0.0
 11
1.305893
 21
63.943916
 31
0.0
  0
LINE
  5
D6
330
1D
100
AcDbEntity
  8
1
370
    50
100
AcDbLine
 10
-14.994107
 20
66.943916
 30
0.0
 11
-1.694107
 21
66.943916
 31
0.0
  0
LINE
  5
D7
330
1D
100
AcDbEntity
  8
1
370
    50
100
AcDbLine
 10
-14.994107
 20
38.943916
 30
0.0
 11
-1.694107
 21
38.943916
 31
0.0
  0
ARC
  5
D8
330
1D
100
AcDbEntity
  8
1
370
    50
100
AcDbCircle
 10
-1.694107
 20
63.943916
 30
0.0
 40
3.0
100
AcDbArc
 50
0.0
 51
90.0
  0
ARC
  5
D9
330
1D
100
AcDbEntity
  8
1
370
    50
100
AcDbCircle
 10
-13.994107
 20
63.943916
 30
0.0
 40
3.0
100
AcDbArc
 50
90.0
 51
180.0
  0
ARC
  5
DA
330
1D
100
AcDbEntity
  8
1
370
    50
100
AcDbCircle
 10
-13.994107
 20
41.943916
 30
0.0
 40
3.0
100
AcDbArc
 50
180.0
 51
270.0
  0
ARC
  5
DB
330
1D
100
AcDbEntity
  8
1
370
    50
100
AcDbCircle
 10
-1.694107
 20
41.943916
 30
0.0
 40
3.0
100
AcDbArc
 50
270.0
 51
0.0
  0
LINE
  5
DC
330
1D
100
AcDbEntity
  8
1
370
    50
100
AcDbLine
 10
-16.994107
 20
63.943916
 30
0.0
 11
-16.994107
 21
41.943916
 31
0.0
  0
LINE
  5
DD
330
1D
100
AcDbEntity
  8
1
  6
CENTER
370
    18
100
AcDbLine
 10
-11.894107
 20
79.943916
 30
0.0
 11
-0.894107
 21
79.943916
 31
0.0
  0
LINE
  5
DE
330
1D
100
AcDbEntity
  8
1
  6
CENTER
370
    18
100
AcDbLine
 10
-11.894107
 20
25.943916
 30
0.0
 11
-0.894107
 21
25.943916
 31
0.0
  0
LINE
  5
DF
330
1D
100
AcDbEntity
  8
1
  6
CENTER
370
    18
100
AcDbLine
 10
-26.224943
 20
52.943916
 30
0.0
 11
11.393418
 21
52.943916
 31
0.0
  0
LINE
  5
E0
330
1D
100
AcDbEntity
  8
1
370
    50
100
AcDbLine
 10
-17.994107
 20
41.943913
 30
0.0
 11
-17.994107
 21
63.943913
 31
0.0
  0
ARC
  5
E1
330
1D
100
AcDbEntity
  8
1
370
    50
100
AcDbCircle
 10
-14.994107
 20
63.943913
 30
0.0
 40
3.0
100
AcDbArc
 50
90.0
 51
180.0
  0
ARC
  5
E2
330
1D
100
AcDbEntity
  8
1
370
    50
100
AcDbCircle
 10
-14.994107
 20
41.943913
 30
0.0
 40
3.0
100
AcDbArc
 50
180.0
 51
270.0
  0
LINE
  5
E3
330
1D
100
AcDbEntity
  8
1
370
    50
100
AcDbLine
 10
-22.894107
 20
17.943913
 30
0.0
 11
-22.894107
 21
87.943913
 31
0.0
  0
LINE
  5
E4
330
1D
100
AcDbEntity
  8
1
370
    50
100
AcDbLine
 10
5.240332
 20
-36.291775
 30
0.0
 11
5.313036
 21
-34.256084
 31
0.0
  0
ARC
  5
E5
330
1D
100
AcDbEntity
  8
1
370
    50
100
AcDbCircle
 10
4.240969
 20
-36.256084
 30
0.0
 40
1.0
100
AcDbArc
 50
270.0
 51
357.954592
  0
ARC
  5
E6
330
1D
100
AcDbEntity
  8
1
370
    50
100
AcDbCircle
 10
5.594054
 20
-34.26612
 30
0.0
 40
0.281198
100
AcDbArc
 50
127.968115
 51
177.954592
  0
LINE
  5
E7
330
1D
100
AcDbEntity
  8
1
370
    50
100
AcDbLine
 10
5.890891
 20
-24.756084
 30
0.0
 11
5.805782
 21
-33.266084
 31
0.0
  0
LINE
  5
E8
330
1D
100
AcDbEntity
  8
1
370
    50
100
AcDbLine
 10
5.298996
 20
-24.956084
 30
0.0
 11
-18.287211
 21
-24.956084
 31
0.0
  0
LINE
  5
E9
330
1D
100
AcDbEntity
  8
1
370
    50
100
AcDbLine
 10
5.905893
 20
-23.256084
 30
0.0
 11
5.797094
 21
-24.499662
 31
0.0
  0
ARC
  5
EA
330
1D
100
AcDbEntity
  8
1
370
    50
100
AcDbCircle
 10
5.298996
 20
-24.456084
 30
0.0
 40
0.5
100
AcDbArc
 50
270.0
 51
355.0
  0
LINE
  5
EB
330
1D
100
AcDbEntity
  8
1
370
    50
100
AcDbLine
 10
-18.228547
 20
-36.291775
 30
0.0
 11
-18.30125
 21
-34.256084
 31
0.0
  0
ARC
  5
EC
330
1D
100
AcDbEntity
  8
1
370
    50
100
AcDbCircle
 10
-17.229184
 20
-36.256084
 30
0.0
 40
1.0
100
AcDbArc
 50
182.045408
 51
270.0
  0
ARC
  5
ED
330
1D
100
AcDbEntity
  8
1
370
    50
100
AcDbCircle
 10
-18.582269
 20
-34.26612
 30
0.0
 40
0.281198
100
AcDbArc
 50
2.045408
 51
52.031885
  0
LINE
  5
EE
330
1D
100
AcDbEntity
  8
1
370
    50
100
AcDbLine
 10
-18.879106
 20
-24.756084
 30
0.0
 11
-18.793997
 21
-33.266084
 31
0.0
  0
LINE
  5
EF
330
1D
100
AcDbEntity
  8
1
370
    50
100
AcDbLine
 10
-18.894107
 20
-23.256084
 30
0.0
 11
-18.785308
 21
-24.499662
 31
0.0
  0
ARC
  5
F0
330
1D
100
AcDbEntity
  8
1
370
    50
100
AcDbCircle
 10
-18.287211
 20
-24.456084
 30
0.0
 40
0.5
100
AcDbArc
 50
185.0
 51
270.0
  0
ARC
  5
F1
330
1D
100
AcDbEntity
  8
1
370
    50
100
AcDbCircle
 10
-17.794047
 20
-33.256084
 30
0.0
 40
1.0
100
AcDbArc
 50
180.573
 51
270.0
  0
ARC
  5
F2
330
1D
100
AcDbEntity
  8
1
370
    50
100
AcDbCircle
 10
4.805832
 20
-33.256084
 30
0.0
 40
1.0
100
AcDbArc
 50
270.0
 51
359.427
  0
LINE
  5
F3
330
1D
100
AcDbEntity
  8
1
370
    50
100
AcDbLine
 10
-18.879106
 20
-24.756084
 30
0.0
 11
-18.687211
 21
-24.756084
 31
0.0
  0
LINE
  5
F4
330
1D
100
AcDbEntity
  8
1
370
    50
100
AcDbLine
 10
5.698996
 20
-24.756084
 30
0.0
 11
5.890891
 21
-24.756084
 31
0.0
  0
LINE
  5
F5
330
1D
100
AcDbEntity
  8
1
370
    50
100
AcDbLine
 10
-17.794047
 20
-34.256084
 30
0.0
 11
-7.644107
 21
-34.256084
 31
0.0
  0
LINE
  5
F6
330
1D
100
AcDbEntity
  8
1
370
    50
100
AcDbLine
 10
-5.144107
 20
-34.256084
 30
0.0
 11
4.805832
 21
-34.256084
 31
0.0
  0
LINE
  5
F7
330
1D
100
AcDbEntity
  8
1
370
    50
100
AcDbLine
 10
-17.229184
 20
-37.256084
 30
0.0
 11
-7.644107
 21
-37.256084
 31
0.0
  0
LINE
  5
F8
330
1D
100
AcDbEntity
  8
1
370
    50
100
AcDbLine
 10
-5.144107
 20
-37.256084
 30
0.0
 11
4.240969
 21
-37.256084
 31
0.0
  0
LINE
  5
F9
330
1D
100
AcDbEntity
  8
1
370
    50
100
AcDbLine
 10
-8.144107
 20
-29.824995
 30
0.0
 11
-8.144107
 21
-24.956084
 31
0.0
  0
LINE
  5
FA
330
1D
100
AcDbEntity
  8
1
370
    50
100
AcDbLine
 10
-4.644107
 20
-28.887173
 30
0.0
 11
-4.644107
 21
-24.956084
 31
0.0
  0
LINE
  5
FB
330
1D
100
AcDbEntity
  8
1
370
    50
100
AcDbLine
 10
-6.394107
 20
-44.056084
 30
0.0
 11
-5.144107
 21
-39.39102
 31
0.0
  0
LINE
  5
FC
330
1D
100
AcDbEntity
  8
1
370
    50
100
AcDbLine
 10
-6.394107
 20
-44.056084
 30
0.0
 11
-7.644107
 21
-39.39102
 31
0.0
  0
LINE
  5
FD
330
1D
100
AcDbEntity
  8
1
370
    50
100
AcDbLine
 10
-7.644107
 20
-39.39102
 30
0.0
 11
-7.644107
 21
-29.69102
 31
0.0
  0
LINE
  5
FE
330
1D
100
AcDbEntity
  8
1
370
    50
100
AcDbLine
 10
-5.144107
 20
-39.39102
 30
0.0
 11
-5.144107
 21
-29.021147
 31
0.0
  0
LINE
  5
FF
330
1D
100
AcDbEntity
  8
1
370
    50
100
AcDbLine
 10
-8.144107
 20
-29.824995
 30
0.0
 11
-4.644107
 21
-28.887173
 31
0.0
  0
LINE
  5
100
330
1D
100
AcDbEntity
  8
1
370
    25
100
AcDbLine
 10
-8.144107
 20
-31.224995
 30
0.0
 11
-4.644107
 21
-30.287173
 31
0.0
  0
LINE
  5
101
330
1D
100
AcDbEntity
  8
1
370
    25
100
AcDbLine
 10
-8.144107
 20
-32.624995
 30
0.0
 11
-4.644107
 21
-31.687173
 31
0.0
  0
LINE
  5
102
330
1D
100
AcDbEntity
  8
1
370
    25
100
AcDbLine
 10
-8.144107
 20
-34.024995
 30
0.0
 11
-4.644107
 21
-33.087173
 31
0.0
  0
LINE
  5
103
330
1D
100
AcDbEntity
  8
1
370
    25
100
AcDbLine
 10
-8.144107
 20
-35.424995
 30
0.0
 11
-4.644107
 21
-34.487173
 31
0.0
  0
LINE
  5
104
330
1D
100
AcDbEntity
  8
1
370
    25
100
AcDbLine
 10
-8.144107
 20
-36.824995
 30
0.0
 11
-4.644107
 21
-35.887173
 31
0.0
  0
LINE
  5
105
330
1D
100
AcDbEntity
  8
1
370
    25
100
AcDbLine
 10
-8.144107
 20
-38.224995
 30
0.0
 11
-4.644107
 21
-37.287173
 31
0.0
  0
LINE
  5
106
330
1D
100
AcDbEntity
  8
1
370
    25
100
AcDbLine
 10
-8.10207
 20
-39.613731
 30
0.0
 11
-4.644107
 21
-38.687173
 31
0.0
  0
LINE
  5
107
330
1D
100
AcDbEntity
  8
1
370
    25
100
AcDbLine
 10
-7.75207
 20
-40.919949
 30
0.0
 11
-4.826067
 21
-40.135929
 31
0.0
  0
LINE
  5
108
330
1D
100
AcDbEntity
  8
1
370
    25
100
AcDbLine
 10
-7.40207
 20
-42.226167
 30
0.0
 11
-5.230212
 21
-41.644219
 31
0.0
  0
CIRCLE
  5
109
330
1D
100
AcDbEntity
  8
1
370
    50
100
AcDbCircle
 10
-6.394107
 20
79.943916
 30
0.0
 40
3.5
  0
LINE
  5
10A
330
1D
100
AcDbEntity
  8
1
370
    50
100
AcDbLine
 10
-6.894107
 20
82.143916
 30
0.0
 11
-5.894107
 21
82.143916
 31
0.0
  0
ARC
  5
10B
330
1D
100
AcDbEntity
  8
1
370
    50
100
AcDbCircle
 10
-4.194107
 20
82.143916
 30
0.0
 40
1.7
100
AcDbArc
 50
180.0
 51
270.0
  0
ARC
  5
10C
330
1D
100
AcDbEntity
  8
1
370
    50
100
AcDbCircle
 10
-8.594107
 20
82.143916
 30
0.0
 40
1.7
100
AcDbArc
 50
270.0
 51
0.0
  0
LINE
  5
10D
330
1D
100
AcDbEntity
  8
1
370
    50
100
AcDbLine
 10
-4.194107
 20
79.443916
 30
0.0
 11
-4.194107
 21
80.443916
 31
0.0
  0
LINE
  5
10E
330
1D
100
AcDbEntity
  8
1
370
    50
100
AcDbLine
 10
-8.594107
 20
80.443916
 30
0.0
 11
-8.594107
 21
79.443916
 31
0.0
  0
ARC
  5
10F
330
1D
100
AcDbEntity
  8
1
370
    50
100
AcDbCircle
 10
-8.594107
 20
77.743916
 30
0.0
 40
1.7
100
AcDbArc
 50
0.0
 51
90.0
  0
ARC
  5
110
330
1D
100
AcDbEntity
  8
1
370
    50
100
AcDbCircle
 10
-4.194107
 20
77.743916
 30
0.0
 40
1.7
100
AcDbArc
 50
90.0
 51
180.0
  0
LINE
  5
111
330
1D
100
AcDbEntity
  8
1
370
    50
100
AcDbLine
 10
-5.894107
 20
77.743916
 30
0.0
 11
-6.894107
 21
77.743916
 31
0.0
  0
LINE
  5
112
330
1D
100
AcDbEntity
  8
1
370
    50
100
AcDbLine
 10
-6.894107
 20
23.743923
 30
0.0
 11
-5.894107
 21
23.743923
 31
0.0
  0
ARC
  5
113
330
1D
100
AcDbEntity
  8
1
370
    50
100
AcDbCircle
 10
-4.194107
 20
23.743923
 30
0.0
 40
1.7
100
AcDbArc
 50
90.0
 51
180.0
  0
ARC
  5
114
330
1D
100
AcDbEntity
  8
1
370
    50
100
AcDbCircle
 10
-8.594107
 20
23.743923
 30
0.0
 40
1.7
100
AcDbArc
 50
0.0
 51
90.0
  0
ARC
  5
115
330
1D
100
AcDbEntity
  8
1
370
    50
100
AcDbCircle
 10
-4.194107
 20
28.143923
 30
0.0
 40
1.7
100
AcDbArc
 50
180.0
 51
270.0
  0
ARC
  5
116
330
1D
100
AcDbEntity
  8
1
370
    50
100
AcDbCircle
 10
-8.594107
 20
28.143923
 30
0.0
 40
1.7
100
AcDbArc
 50
270.0
 51
0.0
  0
LINE
  5
117
330
1D
100
AcDbEntity
  8
1
370
    50
100
AcDbLine
 10
-8.594107
 20
25.443923
 30
0.0
 11
-8.594107
 21
26.443923
 31
0.0
  0
LINE
  5
118
330
1D
100
AcDbEntity
  8
1
370
    50
100
AcDbLine
 10
-4.194107
 20
26.443923
 30
0.0
 11
-4.194107
 21
25.443923
 31
0.0
  0
LINE
  5
119
330
1D
100
AcDbEntity
  8
1
370
    50
100
AcDbLine
 10
-5.894107
 20
28.143923
 30
0.0
 11
-6.894107
 21
28.143923
 31
0.0
  0
CIRCLE
  5
11A
330
1D
100
AcDbEntity
  8
1
370
    50
100
AcDbCircle
 10
-6.394107
 20
25.943923
 30
0.0
 40
3.5
  0
LINE
  5
11B
330
1D
100
AcDbEntity
  8
1
370
    50
100
AcDbLine
 10
-20.894107
 20
-24.256084
 30
0.0
 11
-18.806619
 21
-24.256084
 31
0.0
  0
LINE
  5
11C
330
1D
100
AcDbEntity
  8
1
370
    50
100
AcDbLine
 10
-20.894107
 20
-24.256084
 30
0.0
 11
-20.894107
 21
-23.256084
 31
0.0
  0
LINE
  5
11D
330
1D
100
AcDbEntity
  8
1
370
    25
100
AcDbLine
 10
0.305893
 20
49.943916
 30
0.0
 11
0.305893
 21
55.943916
 31
0.0
  0
LINE
  5
11E
330
1D
100
AcDbEntity
  8
1
370
    50
100
AcDbLine
 10
-10.394107
 20
63.443916
 30
0.0
 11
-3.894107
 21
63.443916
 31
0.0
  0
LINE
  5
11F
330
1D
100
AcDbEntity
  8
1
370
    50
100
AcDbLine
 10
-10.394107
 20
42.443916
 30
0.0
 11
-3.894107
 21
42.443916
 31
0.0
  0
LINE
  5
120
330
1D
100
AcDbEntity
  8
1
370
    50
100
AcDbLine
 10
-10.394107
 20
45.443916
 30
0.0
 11
-3.894107
 21
45.443916
 31
0.0
  0
LINE
  5
121
330
1D
100
AcDbEntity
  8
1
370
    50
100
AcDbLine
 10
-10.394107
 20
60.443916
 30
0.0
 11
-3.894107
 21
60.443916
 31
0.0
  0
ARC
  5
122
330
1D
100
AcDbEntity
  8
1
370
    50
100
AcDbCircle
 10
-10.394107
 20
61.943916
 30
0.0
 40
1.5
100
AcDbArc
 50
90.0
 51
180.0
  0
ARC
  5
123
330
1D
100
AcDbEntity
  8
1
370
    50
100
AcDbCircle
 10
-10.394107
 20
61.943916
 30
0.0
 40
1.5
100
AcDbArc
 50
180.0
 51
270.0
  0
ARC
  5
124
330
1D
100
AcDbEntity
  8
1
370
    50
100
AcDbCircle
 10
-3.894107
 20
61.943916
 30
0.0
 40
1.5
100
AcDbArc
 50
0.0
 51
90.0
  0
ARC
  5
125
330
1D
100
AcDbEntity
  8
1
370
    50
100
AcDbCircle
 10
-3.894107
 20
61.943916
 30
0.0
 40
1.5
100
AcDbArc
 50
270.0
 51
0.0
  0
ARC
  5
126
330
1D
100
AcDbEntity
  8
1
370
    50
100
AcDbCircle
 10
-10.394107
 20
43.943916
 30
0.0
 40
1.5
100
AcDbArc
 50
90.0
 51
270.0
  0
ARC
  5
127
330
1D
100
AcDbEntity
  8
1
370
    50
100
AcDbCircle
 10
-3.894107
 20
43.943916
 30
0.0
 40
1.5
100
AcDbArc
 50
270.0
 51
0.0
  0
ARC
  5
128
330
1D
100
AcDbEntity
  8
1
370
    50
100
AcDbCircle
 10
-3.894107
 20
43.943916
 30
0.0
 40
1.5
100
AcDbArc
 50
0.0
 51
90.0
  0
LINE
  5
129
330
1D
100
AcDbEntity
  8
1
370
    50
100
AcDbLine
 10
-0.894107
 20
39.052546
 30
0.0
 11
-0.894107
 21
66.835279
 31
0.0
  0
LINE
  5
12A
330
1D
100
AcDbEntity
  8
1
370
    50
100
AcDbLine
 10
-13.394107
 20
38.943913
 30
0.0
 11
-13.394107
 21
66.943913
 31
0.0
  0
LINE
  5
12B
330
1D
100
AcDbEntity
  8
1
370
    50
100
AcDbLine
 10
-5.694107
 20
52.943913
 30
0.0
 11
-6.000791
 21
53.519429
 31
0.0
  0
LINE
  5
12C
330
1D
100
AcDbEntity
  8
1
370
    50
100
AcDbLine
 10
-6.000791
 20
53.519429
 30
0.0
 11
-5.937693
 21
54.1685
 31
0.0
  0
LINE
  5
12D
330
1D
100
AcDbEntity
  8
1
370
    50
100
AcDbLine
 10
-5.937693
 20
54.1685
 30
0.0
 11
-6.441272
 21
54.582845
 31
0.0
  0
LINE
  5
12E
330
1D
100
AcDbEntity
  8
1
370
    50
100
AcDbLine
 10
-6.441272
 20
54.582845
 30
0.0
 11
-6.631366
 21
55.206654
 31
0.0
  0
LINE
  5
12F
330
1D
100
AcDbEntity
  8
1
370
    50
100
AcDbLine
 10
-6.631366
 20
55.206654
 30
0.0
 11
-7.255175
 21
55.396748
 31
0.0
  0
LINE
  5
130
330
1D
100
AcDbEntity
  8
1
370
    50
100
AcDbLine
 10
-7.255175
 20
55.396748
 30
0.0
 11
-7.66952
 21
55.900327
 31
0.0
  0
LINE
  5
131
330
1D
100
AcDbEntity
  8
1
370
    50
100
AcDbLine
 10
-7.66952
 20
55.900327
 30
0.0
 11
-8.318591
 21
55.837229
 31
0.0
  0
LINE
  5
132
330
1D
100
AcDbEntity
  8
1
370
    50
100
AcDbLine
 10
-8.318591
 20
55.837229
 30
0.0
 11
-8.894107
 21
56.143913
 31
0.0
  0
LINE
  5
133
330
1D
100
AcDbEntity
  8
1
370
    50
100
AcDbLine
 10
-8.894107
 20
56.143913
 30
0.0
 11
-9.469624
 21
55.837229
 31
0.0
  0
LINE
  5
134
330
1D
100
AcDbEntity
  8
1
370
    50
100
AcDbLine
 10
-9.469624
 20
55.837229
 30
0.0
 11
-10.118694
 21
55.900327
 31
0.0
  0
LINE
  5
135
330
1D
100
AcDbEntity
  8
1
370
    50
100
AcDbLine
 10
-10.118694
 20
55.900327
 30
0.0
 11
-10.53304
 21
55.396748
 31
0.0
  0
LINE
  5
136
330
1D
100
AcDbEntity
  8
1
370
    50
100
AcDbLine
 10
-10.53304
 20
55.396748
 30
0.0
 11
-11.156849
 21
55.206654
 31
0.0
  0
LINE
  5
137
330
1D
100
AcDbEntity
  8
1
370
    50
100
AcDbLine
 10
-11.156849
 20
55.206654
 30
0.0
 11
-11.346943
 21
54.582845
 31
0.0
  0
LINE
  5
138
330
1D
100
AcDbEntity
  8
1
370
    50
100
AcDbLine
 10
-11.346943
 20
54.582845
 30
0.0
 11
-11.850522
 21
54.1685
 31
0.0
  0
LINE
  5
139
330
1D
100
AcDbEntity
  8
1
370
    50
100
AcDbLine
 10
-11.850522
 20
54.1685
 30
0.0
 11
-11.787424
 21
53.519429
 31
0.0
  0
LINE
  5
13A
330
1D
100
AcDbEntity
  8
1
370
    50
100
AcDbLine
 10
-11.787424
 20
53.519429
 30
0.0
 11
-12.094107
 21
52.943913
 31
0.0
  0
LINE
  5
13B
330
1D
100
AcDbEntity
  8
1
370
    50
100
AcDbLine
 10
-9.494107
 20
54.743913
 30
0.0
 11
-9.494107
 21
55.370845
 31
0.0
  0
LINE
  5
13C
330
1D
100
AcDbEntity
  8
1
370
    50
100
AcDbLine
 10
-9.314107
 20
52.723913
 30
0.0
 11
-9.314107
 21
53.163913
 31
0.0
  0
LINE
  5
13D
330
1D
100
AcDbEntity
  8
1
370
    50
100
AcDbLine
 10
-8.474107
 20
52.723913
 30
0.0
 11
-8.474107
 21
53.163913
 31
0.0
  0
LINE
  5
13E
330
1D
100
AcDbEntity
  8
1
370
    50
100
AcDbLine
 10
-8.294107
 20
54.743913
 30
0.0
 11
-8.294107
 21
55.370845
 31
0.0
  0
LINE
  5
13F
330
1D
100
AcDbEntity
  8
1
370
    50
100
AcDbLine
 10
-7.094107
 20
53.543913
 30
0.0
 11
-6.467175
 21
53.543913
 31
0.0
  0
LINE
  5
140
330
1D
100
AcDbEntity
  8
1
370
    50
100
AcDbLine
 10
-11.32104
 20
53.543913
 30
0.0
 11
-10.694107
 21
53.543913
 31
0.0
  0
LINE
  5
141
330
1D
100
AcDbEntity
  8
1
370
    50
100
AcDbLine
 10
-9.114107
 20
53.363913
 30
0.0
 11
-8.674107
 21
53.363913
 31
0.0
  0
ARC
  5
142
330
1D
100
AcDbEntity
  8
1
370
    50
100
AcDbCircle
 10
-10.694107
 20
54.743913
 30
0.0
 40
1.2
100
AcDbArc
 50
270.0
 51
0.0
  0
ARC
  5
143
330
1D
100
AcDbEntity
  8
1
370
    50
100
AcDbCircle
 10
-7.094107
 20
54.743913
 30
0.0
 40
1.2
100
AcDbArc
 50
180.0
 51
270.0
  0
LINE
  5
144
330
1D
100
AcDbEntity
  8
1
370
    50
100
AcDbLine
 10
-11.329657
 20
53.507915
 30
0.0
 11
-9.314107
 21
53.363913
 31
0.0
  0
LINE
  5
145
330
1D
100
AcDbEntity
  8
1
370
    50
100
AcDbLine
 10
-9.45811
 20
55.379462
 30
0.0
 11
-9.314107
 21
53.363913
 31
0.0
  0
LINE
  5
146
330
1D
100
AcDbEntity
  8
1
370
    50
100
AcDbLine
 10
-8.330105
 20
55.379462
 30
0.0
 11
-8.474107
 21
53.363913
 31
0.0
  0
LINE
  5
147
330
1D
100
AcDbEntity
  8
1
370
    50
100
AcDbLine
 10
-8.474107
 20
53.363913
 30
0.0
 11
-6.458558
 21
53.507915
 31
0.0
  0
ARC
  5
148
330
1D
100
AcDbEntity
  8
1
370
    50
100
AcDbCircle
 10
-9.114107
 20
53.163913
 30
0.0
 40
0.2
100
AcDbArc
 50
90.0
 51
180.0
  0
ARC
  5
149
330
1D
100
AcDbEntity
  8
1
370
    50
100
AcDbCircle
 10
-8.674107
 20
53.163913
 30
0.0
 40
0.2
100
AcDbArc
 50
0.0
 51
90.0
  0
ARC
  5
14A
330
1D
100
AcDbEntity
  8
1
370
    50
100
AcDbCircle
 10
-8.894107
 20
52.943913
 30
0.0
 40
2.5
100
AcDbArc
 50
76.11346
 51
103.88654
  0
ARC
  5
14B
330
1D
100
AcDbEntity
  8
1
370
    50
100
AcDbCircle
 10
-8.894107
 20
52.943913
 30
0.0
 40
2.5
100
AcDbArc
 50
346.11346
 51
13.88654
  0
ARC
  5
14C
330
1D
100
AcDbEntity
  8
1
370
    50
100
AcDbCircle
 10
-8.894107
 20
52.943913
 30
0.0
 40
2.5
100
AcDbArc
 50
166.11346
 51
193.88654
  0
LINE
  5
14D
330
1D
100
AcDbEntity
  8
1
370
    50
100
AcDbLine
 10
-5.694107
 20
52.943913
 30
0.0
 11
-6.000791
 21
52.368396
 31
0.0
  0
LINE
  5
14E
330
1D
100
AcDbEntity
  8
1
370
    50
100
AcDbLine
 10
-6.000791
 20
52.368396
 30
0.0
 11
-5.937693
 21
51.719326
 31
0.0
  0
LINE
  5
14F
330
1D
100
AcDbEntity
  8
1
370
    50
100
AcDbLine
 10
-5.937693
 20
51.719326
 30
0.0
 11
-6.441272
 21
51.304981
 31
0.0
  0
LINE
  5
150
330
1D
100
AcDbEntity
  8
1
370
    50
100
AcDbLine
 10
-6.441272
 20
51.304981
 30
0.0
 11
-6.631366
 21
50.681171
 31
0.0
  0
LINE
  5
151
330
1D
100
AcDbEntity
  8
1
370
    50
100
AcDbLine
 10
-6.631366
 20
50.681171
 30
0.0
 11
-7.255175
 21
50.491077
 31
0.0
  0
LINE
  5
152
330
1D
100
AcDbEntity
  8
1
370
    50
100
AcDbLine
 10
-7.255175
 20
50.491077
 30
0.0
 11
-7.66952
 21
49.987498
 31
0.0
  0
LINE
  5
153
330
1D
100
AcDbEntity
  8
1
370
    50
100
AcDbLine
 10
-7.66952
 20
49.987498
 30
0.0
 11
-8.318591
 21
50.050596
 31
0.0
  0
LINE
  5
154
330
1D
100
AcDbEntity
  8
1
370
    50
100
AcDbLine
 10
-8.318591
 20
50.050596
 30
0.0
 11
-8.894107
 21
49.743913
 31
0.0
  0
LINE
  5
155
330
1D
100
AcDbEntity
  8
1
370
    50
100
AcDbLine
 10
-8.894107
 20
49.743913
 30
0.0
 11
-9.469624
 21
50.050596
 31
0.0
  0
LINE
  5
156
330
1D
100
AcDbEntity
  8
1
370
    50
100
AcDbLine
 10
-9.469624
 20
50.050596
 30
0.0
 11
-10.118694
 21
49.987498
 31
0.0
  0
LINE
  5
157
330
1D
100
AcDbEntity
  8
1
370
    50
100
AcDbLine
 10
-10.118694
 20
49.987498
 30
0.0
 11
-10.53304
 21
50.491077
 31
0.0
  0
LINE
  5
158
330
1D
100
AcDbEntity
  8
1
370
    50
100
AcDbLine
 10
-10.53304
 20
50.491077
 30
0.0
 11
-11.156849
 21
50.681171
 31
0.0
  0
LINE
  5
159
330
1D
100
AcDbEntity
  8
1
370
    50
100
AcDbLine
 10
-11.156849
 20
50.681171
 30
0.0
 11
-11.346943
 21
51.304981
 31
0.0
  0
LINE
  5
15A
330
1D
100
AcDbEntity
  8
1
370
    50
100
AcDbLine
 10
-11.346943
 20
51.304981
 30
0.0
 11
-11.850522
 21
51.719326
 31
0.0
  0
LINE
  5
15B
330
1D
100
AcDbEntity
  8
1
370
    50
100
AcDbLine
 10
-11.850522
 20
51.719326
 30
0.0
 11
-11.787424
 21
52.368396
 31
0.0
  0
LINE
  5
15C
330
1D
100
AcDbEntity
  8
1
370
    50
100
AcDbLine
 10
-11.787424
 20
52.368396
 30
0.0
 11
-12.094107
 21
52.943913
 31
0.0
  0
LINE
  5
15D
330
1D
100
AcDbEntity
  8
1
370
    50
100
AcDbLine
 10
-9.494107
 20
51.143913
 30
0.0
 11
-9.494107
 21
50.51698
 31
0.0
  0
LINE
  5
15E
330
1D
100
AcDbEntity
  8
1
370
    50
100
AcDbLine
 10
-8.294107
 20
51.143913
 30
0.0
 11
-8.294107
 21
50.51698
 31
0.0
  0
LINE
  5
15F
330
1D
100
AcDbEntity
  8
1
370
    50
100
AcDbLine
 10
-7.094107
 20
52.343913
 30
0.0
 11
-6.467175
 21
52.343913
 31
0.0
  0
LINE
  5
160
330
1D
100
AcDbEntity
  8
1
370
    50
100
AcDbLine
 10
-11.32104
 20
52.343913
 30
0.0
 11
-10.694107
 21
52.343913
 31
0.0
  0
LINE
  5
161
330
1D
100
AcDbEntity
  8
1
370
    50
100
AcDbLine
 10
-9.114107
 20
52.523913
 30
0.0
 11
-8.674107
 21
52.523913
 31
0.0
  0
ARC
  5
162
330
1D
100
AcDbEntity
  8
1
370
    50
100
AcDbCircle
 10
-10.694107
 20
51.143913
 30
0.0
 40
1.2
100
AcDbArc
 50
0.0
 51
90.0
  0
ARC
  5
163
330
1D
100
AcDbEntity
  8
1
370
    50
100
AcDbCircle
 10
-7.094107
 20
51.143913
 30
0.0
 40
1.2
100
AcDbArc
 50
90.0
 51
180.0
  0
LINE
  5
164
330
1D
100
AcDbEntity
  8
1
370
    50
100
AcDbLine
 10
-11.329657
 20
52.37991
 30
0.0
 11
-9.314107
 21
52.523913
 31
0.0
  0
LINE
  5
165
330
1D
100
AcDbEntity
  8
1
370
    50
100
AcDbLine
 10
-9.45811
 20
50.508363
 30
0.0
 11
-9.314107
 21
52.523913
 31
0.0
  0
LINE
  5
166
330
1D
100
AcDbEntity
  8
1
370
    50
100
AcDbLine
 10
-8.330105
 20
50.508363
 30
0.0
 11
-8.474107
 21
52.523913
 31
0.0
  0
LINE
  5
167
330
1D
100
AcDbEntity
  8
1
370
    50
100
AcDbLine
 10
-8.474107
 20
52.523913
 30
0.0
 11
-6.458558
 21
52.37991
 31
0.0
  0
ARC
  5
168
330
1D
100
AcDbEntity
  8
1
370
    50
100
AcDbCircle
 10
-9.114107
 20
52.723913
 30
0.0
 40
0.2
100
AcDbArc
 50
180.0
 51
270.0
  0
ARC
  5
169
330
1D
100
AcDbEntity
  8
1
370
    50
100
AcDbCircle
 10
-8.674107
 20
52.723913
 30
0.0
 40
0.2
100
AcDbArc
 50
270.0
 51
0.0
  0
ARC
  5
16A
330
1D
100
AcDbEntity
  8
1
370
    50
100
AcDbCircle
 10
-8.894107
 20
52.943913
 30
0.0
 40
2.5
100
AcDbArc
 50
256.1134599999999
 51
283.88654
  0
LINE
  5
16B
330
1D
100
AcDbEntity
  8
1
370
    50
100
AcDbLine
 10
-5.983964
 20
54.888409
 30
0.0
 11
-6.631366
 21
55.206654
 31
0.0
  0
LINE
  5
16C
330
1D
100
AcDbEntity
  8
1
370
    50
100
AcDbLine
 10
-6.631366
 20
55.206654
 30
0.0
 11
-6.949612
 21
55.854056
 31
0.0
  0
LINE
  5
16D
330
1D
100
AcDbEntity
  8
1
370
    50
100
AcDbLine
 10
-6.949612
 20
55.854056
 30
0.0
 11
-7.66952
 21
55.900327
 31
0.0
  0
LINE
  5
16E
330
1D
100
AcDbEntity
  8
1
370
    50
100
AcDbLine
 10
-7.66952
 20
55.900327
 30
0.0
 11
-8.211291
 21
56.376661
 31
0.0
  0
LINE
  5
16F
330
1D
100
AcDbEntity
  8
1
370
    50
100
AcDbLine
 10
-8.211291
 20
56.376661
 30
0.0
 11
-8.894107
 21
56.143913
 31
0.0
  0
LINE
  5
170
330
1D
100
AcDbEntity
  8
1
370
    50
100
AcDbLine
 10
-8.894107
 20
56.143913
 30
0.0
 11
-9.576923
 21
56.376661
 31
0.0
  0
LINE
  5
171
330
1D
100
AcDbEntity
  8
1
370
    50
100
AcDbLine
 10
-9.576923
 20
56.376661
 30
0.0
 11
-10.118694
 21
55.900327
 31
0.0
  0
LINE
  5
172
330
1D
100
AcDbEntity
  8
1
370
    50
100
AcDbLine
 10
-10.118694
 20
55.900327
 30
0.0
 11
-10.838603
 21
55.854056
 31
0.0
  0
LINE
  5
173
330
1D
100
AcDbEntity
  8
1
370
    50
100
AcDbLine
 10
-10.838603
 20
55.854056
 30
0.0
 11
-11.156849
 21
55.206654
 31
0.0
  0
LINE
  5
174
330
1D
100
AcDbEntity
  8
1
370
    50
100
AcDbLine
 10
-11.156849
 20
55.206654
 30
0.0
 11
-11.804251
 21
54.888409
 31
0.0
  0
LINE
  5
175
330
1D
100
AcDbEntity
  8
1
370
    50
100
AcDbLine
 10
-11.804251
 20
54.888409
 30
0.0
 11
-11.850522
 21
54.1685
 31
0.0
  0
LINE
  5
176
330
1D
100
AcDbEntity
  8
1
370
    50
100
AcDbLine
 10
-11.850522
 20
54.1685
 30
0.0
 11
-12.326856
 21
53.626729
 31
0.0
  0
LINE
  5
177
330
1D
100
AcDbEntity
  8
1
370
    50
100
AcDbLine
 10
-12.326856
 20
53.626729
 30
0.0
 11
-12.094107
 21
52.943913
 31
0.0
  0
LINE
  5
178
330
1D
100
AcDbEntity
  8
1
370
    50
100
AcDbLine
 10
-5.694107
 20
52.943913
 30
0.0
 11
-5.461359
 21
53.626729
 31
0.0
  0
LINE
  5
179
330
1D
100
AcDbEntity
  8
1
370
    50
100
AcDbLine
 10
-5.461359
 20
53.626729
 30
0.0
 11
-5.937693
 21
54.1685
 31
0.0
  0
LINE
  5
17A
330
1D
100
AcDbEntity
  8
1
370
    50
100
AcDbLine
 10
-5.937693
 20
54.1685
 30
0.0
 11
-5.983964
 21
54.888409
 31
0.0
  0
LINE
  5
17B
330
1D
100
AcDbEntity
  8
1
370
    50
100
AcDbLine
 10
-5.983964
 20
50.999417
 30
0.0
 11
-6.631366
 21
50.681171
 31
0.0
  0
LINE
  5
17C
330
1D
100
AcDbEntity
  8
1
370
    50
100
AcDbLine
 10
-6.631366
 20
50.681171
 30
0.0
 11
-6.949612
 21
50.033769
 31
0.0
  0
LINE
  5
17D
330
1D
100
AcDbEntity
  8
1
370
    50
100
AcDbLine
 10
-6.949612
 20
50.033769
 30
0.0
 11
-7.66952
 21
49.987498
 31
0.0
  0
LINE
  5
17E
330
1D
100
AcDbEntity
  8
1
370
    50
100
AcDbLine
 10
-7.66952
 20
49.987498
 30
0.0
 11
-8.211291
 21
49.511164
 31
0.0
  0
LINE
  5
17F
330
1D
100
AcDbEntity
  8
1
370
    50
100
AcDbLine
 10
-8.211291
 20
49.511164
 30
0.0
 11
-8.894107
 21
49.743913
 31
0.0
  0
LINE
  5
180
330
1D
100
AcDbEntity
  8
1
370
    50
100
AcDbLine
 10
-8.894107
 20
49.743913
 30
0.0
 11
-9.576923
 21
49.511164
 31
0.0
  0
LINE
  5
181
330
1D
100
AcDbEntity
  8
1
370
    50
100
AcDbLine
 10
-9.576923
 20
49.511164
 30
0.0
 11
-10.118694
 21
49.987498
 31
0.0
  0
LINE
  5
182
330
1D
100
AcDbEntity
  8
1
370
    50
100
AcDbLine
 10
-10.118694
 20
49.987498
 30
0.0
 11
-10.838603
 21
50.033769
 31
0.0
  0
LINE
  5
183
330
1D
100
AcDbEntity
  8
1
370
    50
100
AcDbLine
 10
-10.838603
 20
50.033769
 30
0.0
 11
-11.156849
 21
50.681171
 31
0.0
  0
LINE
  5
184
330
1D
100
AcDbEntity
  8
1
370
    50
100
AcDbLine
 10
-11.156849
 20
50.681171
 30
0.0
 11
-11.804251
 21
50.999417
 31
0.0
  0
LINE
  5
185
330
1D
100
AcDbEntity
  8
1
370
    50
100
AcDbLine
 10
-11.804251
 20
50.999417
 30
0.0
 11
-11.850522
 21
51.719326
 31
0.0
  0
LINE
  5
186
330
1D
100
AcDbEntity
  8
1
370
    50
100
AcDbLine
 10
-11.850522
 20
51.719326
 30
0.0
 11
-12.326856
 21
52.261097
 31
0.0
  0
LINE
  5
187
330
1D
100
AcDbEntity
  8
1
370
    50
100
AcDbLine
 10
-12.326856
 20
52.261097
 30
0.0
 11
-12.094107
 21
52.943913
 31
0.0
  0
LINE
  5
188
330
1D
100
AcDbEntity
  8
1
370
    50
100
AcDbLine
 10
-5.694107
 20
52.943913
 30
0.0
 11
-5.461359
 21
52.261097
 31
0.0
  0
LINE
  5
189
330
1D
100
AcDbEntity
  8
1
370
    50
100
AcDbLine
 10
-5.461359
 20
52.261097
 30
0.0
 11
-5.937693
 21
51.719326
 31
0.0
  0
LINE
  5
18A
330
1D
100
AcDbEntity
  8
1
370
    50
100
AcDbLine
 10
-5.937693
 20
51.719326
 30
0.0
 11
-5.983964
 21
50.999417
 31
0.0
  0
POINT
  5
18B
330
1D
100
AcDbEntity
  8
1
370
    50
100
AcDbPoint
 10
-14.194107
 20
66.943913
 30
0.0
  0
POINT
  5
18C
330
1D
100
AcDbEntity
  8
1
370
    50
100
AcDbPoint
 10
-11.394107
 20
66.943916
 30
0.0
  0
POINT
  5
18D
330
1D
100
AcDbEntity
  8
1
370
    50
100
AcDbPoint
 10
-11.394107
 20
87.943916
 30
0.0
  0
POINT
  5
18E
330
1D
100
AcDbEntity
  8
1
370
    50
100
AcDbPoint
 10
-14.194107
 20
87.943916
 30
0.0
  0
LINE
  5
18F
330
1D
100
AcDbEntity
  8
1
370
    50
100
AcDbLine
 10
44.005893
 20
38.310916
 30
0.0
 11
44.005893
 21
19.050812
 31
0.0
  0
LINE
  5
190
330
1D
100
AcDbEntity
  8
1
370
    50
100
AcDbLine
 10
42.305893
 20
38.293916
 30
0.0
 11
44.005893
 21
38.310916
 31
0.0
  0
LINE
  5
191
330
1D
100
AcDbEntity
  8
1
370
    50
100
AcDbLine
 10
52.315892
 20
37.394016
 30
0.0
 11
44.495893
 21
37.315816
 31
0.0
  0
ARC
  5
192
330
1D
100
AcDbEntity
  8
1
370
    50
100
AcDbCircle
 10
52.305893
 20
38.393966
 30
0.0
 40
1.0
100
AcDbArc
 50
270.572939
 51
0.0
  0
LINE
  5
193
330
1D
100
AcDbEntity
  8
1
370
    50
100
AcDbLine
 10
42.305893
 20
18.443916
 30
0.0
 11
43.549471
 21
18.552715
 31
0.0
  0
ARC
  5
194
330
1D
100
AcDbEntity
  8
1
370
    50
100
AcDbCircle
 10
43.505893
 20
19.050812
 30
0.0
 40
0.5
100
AcDbArc
 50
275.0
 51
0.0
  0
ARC
  5
195
330
1D
100
AcDbEntity
  8
1
370
    50
100
AcDbCircle
 10
44.505893
 20
36.315866
 30
0.0
 40
1.0
100
AcDbArc
 50
90.57293899999999
 51
120.0
  0
LINE
  5
196
330
1D
100
AcDbEntity
  8
1
370
    50
100
AcDbLine
 10
44.005893
 20
36.443916
 30
0.0
 11
47.36702
 21
37.344527
 31
0.0
  0
LINE
  5
197
330
1D
100
AcDbEntity
  8
1
370
    50
100
AcDbLine
 10
55.341584
 20
41.209477
 30
0.0
 11
53.980909
 21
41.160881
 31
0.0
  0
ARC
  5
198
330
1D
100
AcDbEntity
  8
1
370
    50
100
AcDbCircle
 10
55.305893
 20
42.208839
 30
0.0
 40
1.0
100
AcDbArc
 50
272.045408
 51
0.0
  0
ARC
  5
199
330
1D
100
AcDbEntity
  8
1
370
    50
100
AcDbCircle
 10
54.005893
 20
40.461327
 30
0.0
 40
0.7
100
AcDbArc
 50
92.045408
 51
180.0
  0
LINE
  5
19A
330
1D
100
AcDbEntity
  8
1
  6
CENTER
370
    18
100
AcDbLine
 10
35.255021
 20
52.943916
 30
0.0
 11
57.677079
 21
52.943916
 31
0.0
  0
LINE
  5
19B
330
1D
100
AcDbEntity
  8
1
370
    50
100
AcDbLine
 10
43.805893
 20
40.443916
 30
0.0
 11
42.405893
 21
40.395027
 31
0.0
  0
LINE
  5
19C
330
1D
100
AcDbEntity
  8
1
370
    50
100
AcDbLine
 10
42.405893
 20
40.395027
 30
0.0
 11
42.405893
 21
38.294916
 31
0.0
  0
LINE
  5
19D
330
1D
100
AcDbEntity
  8
1
370
    50
100
AcDbLine
 10
42.305893
 20
40.643927
 30
0.0
 11
43.305893
 21
40.643927
 31
0.0
  0
LINE
  5
19E
330
1D
100
AcDbEntity
  8
1
370
    50
100
AcDbLine
 10
42.305893
 20
38.443916
 30
0.0
 11
42.405893
 21
38.443916
 31
0.0
  0
LINE
  5
19F
330
1D
100
AcDbEntity
  8
1
370
    50
100
AcDbLine
 10
41.105893
 20
17.943916
 30
0.0
 11
42.305893
 21
17.943916
 31
0.0
  0
LINE
  5
1A0
330
1D
100
AcDbEntity
  8
1
370
   100
100
AcDbLine
 10
41.105893
 20
17.943916
 30
0.0
 11
43.005893
 21
17.943916
 31
0.0
  0
ARC
  5
1A1
330
1D
100
AcDbEntity
  8
1
370
   100
100
AcDbCircle
 10
43.005893
 20
18.943916
 30
0.0
 40
1.0
100
AcDbArc
 50
270.0
 51
0.0
  0
LINE
  5
1A2
330
1D
100
AcDbEntity
  8
1
370
   100
100
AcDbLine
 10
44.005893
 20
19.050812
 30
0.0
 11
44.005893
 21
18.943916
 31
0.0
  0
LINE
  5
1A3
330
1D
100
AcDbEntity
  8
1
  6
CENTER
370
    18
100
AcDbLine
 10
38.786551
 20
25.943916
 30
0.0
 11
66.161935
 21
25.943916
 31
0.0
  0
LINE
  5
1A4
330
1D
100
AcDbEntity
  8
1
370
    50
100
AcDbLine
 10
44.005893
 20
27.693916
 30
0.0
 11
48.153648
 21
27.693916
 31
0.0
  0
LINE
  5
1A5
330
1D
100
AcDbEntity
  8
1
370
    50
100
AcDbLine
 10
44.005893
 20
24.193916
 30
0.0
 11
49.09147
 21
24.193916
 31
0.0
  0
LINE
  5
1A6
330
1D
100
AcDbEntity
  8
1
370
    25
100
AcDbLine
 10
50.49147
 20
24.193916
 30
0.0
 11
49.553648
 21
27.693916
 31
0.0
  0
LINE
  5
1A7
330
1D
100
AcDbEntity
  8
1
370
    25
100
AcDbLine
 10
51.89147
 20
24.193916
 30
0.0
 11
50.953648
 21
27.693916
 31
0.0
  0
LINE
  5
1A8
330
1D
100
AcDbEntity
  8
1
370
    25
100
AcDbLine
 10
53.29147
 20
24.193916
 30
0.0
 11
52.353648
 21
27.693916
 31
0.0
  0
LINE
  5
1A9
330
1D
100
AcDbEntity
  8
1
370
    25
100
AcDbLine
 10
54.69147
 20
24.193916
 30
0.0
 11
53.753648
 21
27.693916
 31
0.0
  0
LINE
  5
1AA
330
1D
100
AcDbEntity
  8
1
370
    25
100
AcDbLine
 10
56.09147
 20
24.193916
 30
0.0
 11
55.153648
 21
27.693916
 31
0.0
  0
LINE
  5
1AB
330
1D
100
AcDbEntity
  8
1
370
    25
100
AcDbLine
 10
57.49147
 20
24.193916
 30
0.0
 11
56.553648
 21
27.693916
 31
0.0
  0
LINE
  5
1AC
330
1D
100
AcDbEntity
  8
1
370
    25
100
AcDbLine
 10
58.817734
 20
24.469101
 30
0.0
 11
57.966249
 21
27.646885
 31
0.0
  0
LINE
  5
1AD
330
1D
100
AcDbEntity
  8
1
370
    25
100
AcDbLine
 10
60.123952
 20
24.819101
 30
0.0
 11
59.47454
 21
27.24274
 31
0.0
  0
LINE
  5
1AE
330
1D
100
AcDbEntity
  8
1
370
    25
100
AcDbLine
 10
61.43017
 20
25.169101
 30
0.0
 11
60.98283
 21
26.838595
 31
0.0
  0
LINE
  5
1AF
330
1D
100
AcDbEntity
  8
1
370
    25
100
AcDbLine
 10
62.736388
 20
25.519101
 30
0.0
 11
62.491121
 21
26.434449
 31
0.0
  0
LINE
  5
1B0
330
1D
100
AcDbEntity
  8
1
370
    50
100
AcDbLine
 10
48.220635
 20
27.443916
 30
0.0
 11
57.757816
 21
27.443916
 31
0.0
  0
LINE
  5
1B1
330
1D
100
AcDbEntity
  8
1
370
    50
100
AcDbLine
 10
49.024483
 20
24.443916
 30
0.0
 11
57.757816
 21
24.443916
 31
0.0
  0
LINE
  5
1B2
330
1D
100
AcDbEntity
  8
1
370
    50
100
AcDbLine
 10
63.355892
 20
25.943916
 30
0.0
 11
57.757816
 21
24.443916
 31
0.0
  0
LINE
  5
1B3
330
1D
100
AcDbEntity
  8
1
370
    50
100
AcDbLine
 10
63.355892
 20
25.943916
 30
0.0
 11
57.757816
 21
27.443916
 31
0.0
  0
LINE
  5
1B4
330
1D
100
AcDbEntity
  8
1
370
    50
100
AcDbLine
 10
49.09147
 20
24.193916
 30
0.0
 11
48.153648
 21
27.693916
 31
0.0
  0
LINE
  5
1B5
330
1D
100
AcDbEntity
  8
1
370
    50
100
AcDbLine
 10
43.805893
 20
67.578916
 30
0.0
 11
43.805893
 21
38.308916
 31
0.0
  0
LINE
  5
1B6
330
1D
100
AcDbEntity
  8
1
370
    50
100
AcDbLine
 10
53.305893
 20
67.493866
 30
0.0
 11
53.305893
 21
38.393966
 31
0.0
  0
LINE
  5
1B7
330
1D
100
AcDbEntity
  8
1
370
    50
100
AcDbLine
 10
56.305893
 20
63.678993
 30
0.0
 11
56.305893
 21
42.208839
 31
0.0
  0
LINE
  5
1B8
330
1D
100
AcDbEntity
  8
1
370
    50
100
AcDbLine
 10
44.005893
 20
67.576916
 30
0.0
 11
44.005893
 21
86.83702
 31
0.0
  0
LINE
  5
1B9
330
1D
100
AcDbEntity
  8
1
370
    50
100
AcDbLine
 10
42.305893
 20
67.593916
 30
0.0
 11
44.005893
 21
67.576916
 31
0.0
  0
LINE
  5
1BA
330
1D
100
AcDbEntity
  8
1
370
    50
100
AcDbLine
 10
52.315892
 20
68.493816
 30
0.0
 11
44.495893
 21
68.572016
 31
0.0
  0
ARC
  5
1BB
330
1D
100
AcDbEntity
  8
1
370
    50
100
AcDbCircle
 10
52.305893
 20
67.493866
 30
0.0
 40
1.0
100
AcDbArc
 50
0.0
 51
89.427061
  0
LINE
  5
1BC
330
1D
100
AcDbEntity
  8
1
370
    50
100
AcDbLine
 10
42.305893
 20
87.443916
 30
0.0
 11
43.549471
 21
87.335117
 31
0.0
  0
ARC
  5
1BD
330
1D
100
AcDbEntity
  8
1
370
    50
100
AcDbCircle
 10
43.505893
 20
86.83702
 30
0.0
 40
0.5
100
AcDbArc
 50
0.0
 51
85.00000000000001
  0
ARC
  5
1BE
330
1D
100
AcDbEntity
  8
1
370
    50
100
AcDbCircle
 10
44.505893
 20
69.571966
 30
0.0
 40
1.0
100
AcDbArc
 50
240.0
 51
269.427061
  0
LINE
  5
1BF
330
1D
100
AcDbEntity
  8
1
370
    50
100
AcDbLine
 10
44.005893
 20
69.443916
 30
0.0
 11
47.36702
 21
68.543305
 31
0.0
  0
LINE
  5
1C0
330
1D
100
AcDbEntity
  8
1
370
    50
100
AcDbLine
 10
55.341584
 20
64.678356
 30
0.0
 11
53.980909
 21
64.726951
 31
0.0
  0
ARC
  5
1C1
330
1D
100
AcDbEntity
  8
1
370
    50
100
AcDbCircle
 10
55.305893
 20
63.678993
 30
0.0
 40
1.0
100
AcDbArc
 50
0.0
 51
87.95459200000002
  0
ARC
  5
1C2
330
1D
100
AcDbEntity
  8
1
370
    50
100
AcDbCircle
 10
54.005893
 20
65.426505
 30
0.0
 40
0.7
100
AcDbArc
 50
180.0
 51
267.954592
  0
LINE
  5
1C3
330
1D
100
AcDbEntity
  8
1
370
    50
100
AcDbLine
 10
43.805893
 20
65.443916
 30
0.0
 11
42.405893
 21
65.492805
 31
0.0
  0
LINE
  5
1C4
330
1D
100
AcDbEntity
  8
1
370
    50
100
AcDbLine
 10
42.405893
 20
65.492805
 30
0.0
 11
42.405893
 21
67.592916
 31
0.0
  0
LINE
  5
1C5
330
1D
100
AcDbEntity
  8
1
370
    50
100
AcDbLine
 10
42.305893
 20
65.243905
 30
0.0
 11
43.305893
 21
65.243905
 31
0.0
  0
LINE
  5
1C6
330
1D
100
AcDbEntity
  8
1
370
    50
100
AcDbLine
 10
43.305893
 20
65.461376
 30
0.0
 11
43.305893
 21
40.426456
 31
0.0
  0
LINE
  5
1C7
330
1D
100
AcDbEntity
  8
1
370
    50
100
AcDbLine
 10
42.305893
 20
67.443916
 30
0.0
 11
42.405893
 21
67.443916
 31
0.0
  0
LINE
  5
1C8
330
1D
100
AcDbEntity
  8
1
370
    50
100
AcDbLine
 10
41.105893
 20
87.943916
 30
0.0
 11
42.305893
 21
87.943916
 31
0.0
  0
LINE
  5
1C9
330
1D
100
AcDbEntity
  8
1
370
    50
100
AcDbLine
 10
42.305893
 20
87.943916
 30
0.0
 11
42.305893
 21
17.943916
 31
0.0
  0
LINE
  5
1CA
330
1D
100
AcDbEntity
  8
1
370
    50
100
AcDbLine
 10
41.105893
 20
87.943916
 30
0.0
 11
41.105893
 21
17.943916
 31
0.0
  0
LINE
  5
1CB
330
1D
100
AcDbEntity
  8
1
370
   100
100
AcDbLine
 10
41.105893
 20
87.943916
 30
0.0
 11
43.005893
 21
87.943916
 31
0.0
  0
ARC
  5
1CC
330
1D
100
AcDbEntity
  8
1
370
   100
100
AcDbCircle
 10
43.005893
 20
86.943916
 30
0.0
 40
1.0
100
AcDbArc
 50
0.0
 51
90.0
  0
LINE
  5
1CD
330
1D
100
AcDbEntity
  8
1
370
   100
100
AcDbLine
 10
44.005893
 20
86.83702
 30
0.0
 11
44.005893
 21
86.943916
 31
0.0
  0
LINE
  5
1CE
330
1D
100
AcDbEntity
  8
1
  6
CENTER
370
    18
100
AcDbLine
 10
38.786551
 20
79.943917
 30
0.0
 11
66.161935
 21
79.943917
 31
0.0
  0
LINE
  5
1CF
330
1D
100
AcDbEntity
  8
1
370
    50
100
AcDbLine
 10
44.005893
 20
81.693917
 30
0.0
 11
48.153648
 21
81.693917
 31
0.0
  0
LINE
  5
1D0
330
1D
100
AcDbEntity
  8
1
370
    50
100
AcDbLine
 10
44.005893
 20
78.193917
 30
0.0
 11
49.09147
 21
78.193917
 31
0.0
  0
LINE
  5
1D1
330
1D
100
AcDbEntity
  8
1
370
    25
100
AcDbLine
 10
50.49147
 20
78.193917
 30
0.0
 11
49.553648
 21
81.693917
 31
0.0
  0
LINE
  5
1D2
330
1D
100
AcDbEntity
  8
1
370
    25
100
AcDbLine
 10
51.89147
 20
78.193917
 30
0.0
 11
50.953648
 21
81.693917
 31
0.0
  0
LINE
  5
1D3
330
1D
100
AcDbEntity
  8
1
370
    25
100
AcDbLine
 10
53.29147
 20
78.193917
 30
0.0
 11
52.353648
 21
81.693917
 31
0.0
  0
LINE
  5
1D4
330
1D
100
AcDbEntity
  8
1
370
    25
100
AcDbLine
 10
54.69147
 20
78.193917
 30
0.0
 11
53.753648
 21
81.693917
 31
0.0
  0
LINE
  5
1D5
330
1D
100
AcDbEntity
  8
1
370
    25
100
AcDbLine
 10
56.09147
 20
78.193917
 30
0.0
 11
55.153648
 21
81.693917
 31
0.0
  0
LINE
  5
1D6
330
1D
100
AcDbEntity
  8
1
370
    25
100
AcDbLine
 10
57.49147
 20
78.193917
 30
0.0
 11
56.553648
 21
81.693917
 31
0.0
  0
LINE
  5
1D7
330
1D
100
AcDbEntity
  8
1
370
    25
100
AcDbLine
 10
58.817734
 20
78.469102
 30
0.0
 11
57.966249
 21
81.646886
 31
0.0
  0
LINE
  5
1D8
330
1D
100
AcDbEntity
  8
1
370
    25
100
AcDbLine
 10
60.123952
 20
78.819102
 30
0.0
 11
59.47454
 21
81.242741
 31
0.0
  0
LINE
  5
1D9
330
1D
100
AcDbEntity
  8
1
370
    25
100
AcDbLine
 10
61.43017
 20
79.169102
 30
0.0
 11
60.98283
 21
80.838596
 31
0.0
  0
LINE
  5
1DA
330
1D
100
AcDbEntity
  8
1
370
    25
100
AcDbLine
 10
62.736388
 20
79.519102
 30
0.0
 11
62.491121
 21
80.434451
 31
0.0
  0
LINE
  5
1DB
330
1D
100
AcDbEntity
  8
1
370
    50
100
AcDbLine
 10
48.220635
 20
81.443917
 30
0.0
 11
57.757816
 21
81.443917
 31
0.0
  0
LINE
  5
1DC
330
1D
100
AcDbEntity
  8
1
370
    50
100
AcDbLine
 10
49.024483
 20
78.443917
 30
0.0
 11
57.757816
 21
78.443917
 31
0.0
  0
LINE
  5
1DD
330
1D
100
AcDbEntity
  8
1
370
    50
100
AcDbLine
 10
63.355892
 20
79.943917
 30
0.0
 11
57.757816
 21
78.443917
 31
0.0
  0
LINE
  5
1DE
330
1D
100
AcDbEntity
  8
1
370
    50
100
AcDbLine
 10
63.355892
 20
79.943917
 30
0.0
 11
57.757816
 21
81.443917
 31
0.0
  0
LINE
  5
1DF
330
1D
100
AcDbEntity
  8
1
370
    50
100
AcDbLine
 10
49.09147
 20
78.193917
 30
0.0
 11
48.153648
 21
81.693917
 31
0.0
  0
LINE
  5
1E0
330
1D
100
AcDbEntity
  8
1
370
    50
100
AcDbLine
 10
41.105893
 20
17.943916
 30
0.0
 11
41.105893
 21
52.943916
 31
0.0
  0
DIMENSION
  5
1E1
330
1D
100
AcDbEntity
  8
2
370
    25
100
AcDbDimension
  2
*D0
 10
-6.394107
 20
106.347388
 30
0.0
 11
-9.894107
 21
108.347388
 31
0.0
 70
    32
 71
     5
 42
-1.0
  3
Standard
100
AcDbAlignedDimension
 13
-13.394107
 23
66.943913
 33
0.0
 14
-6.394107
 24
91.718357
 34
0.0
100
AcDbRotatedDimension
  0
DIMENSION
  5
1E2
330
1D
100
AcDbEntity
  8
2
370
    25
100
AcDbDimension
  2
*D1
 10
-31.655636
 20
-22.056084
 30
0.0
 11
-36.655636
 21
-34.956084
 31
0.0
 70
    32
 71
     5
 42
-1.0
  3
Standard
100
AcDbAlignedDimension
 13
-22.894107
 23
-24.956084
 33
0.0
 14
-21.694107
 24
-22.056084
 34
0.0
 50
90.0
100
AcDbRotatedDimension
  0
DIMENSION
  5
1E3
330
1D
100
AcDbEntity
  8
2
370
    25
100
AcDbDimension
  2
*D2
 10
23.178043
 20
-22.056084
 30
0.0
 11
16.678043
 21
-32.656084
 31
0.0
 70
    32
 71
     5
 42
-1.0
  3
Standard
100
AcDbAlignedDimension
 13
4.240969
 23
-37.256084
 33
0.0
 14
6.105893
 24
-22.056084
 34
0.0
 50
90.0
100
AcDbRotatedDimension
  0
DIMENSION
  5
1E4
330
1D
100
AcDbEntity
  8
2
370
    25
100
AcDbDimension
  2
*D3
 10
-32.507843
 20
87.943916
 30
0.0
 11
-36.007843
 21
52.943916
 31
0.0
 70
    32
 71
     5
 42
-1.0
  3
Standard
100
AcDbAlignedDimension
 13
-22.894107
 23
17.943916
 33
0.0
 14
-22.894107
 24
87.943916
 34
0.0
 50
90.0
100
AcDbRotatedDimension
  0
DIMENSION
  5
1E5
330
1D
100
AcDbEntity
  8
2
370
    25
100
AcDbDimension
  2
*D4
 10
18.225464
 20
66.943916
 30
0.0
 11
14.725464
 21
52.943916
 31
0.0
 70
    32
 71
     5
 42
-1.0
  3
Standard
100
AcDbAlignedDimension
 13
-1.694107
 23
38.943916
 33
0.0
 14
-1.694107
 24
66.943916
 34
0.0
 50
90.0
100
AcDbRotatedDimension
  0
DIMENSION
  5
1E6
330
1D
100
AcDbEntity
  8
2
370
    25
100
AcDbDimension
  2
*D5
 10
-6.394107
 20
5.091911
 30
0.0
 11
-14.644107
 21
7.091911
 31
0.0
 70
    32
 71
     5
 42
-1.0
  3
Standard
100
AcDbAlignedDimension
 13
-22.894107
 23
17.943913
 33
0.0
 14
-6.394107
 24
5.091911
 34
0.0
100
AcDbRotatedDimension
  0
DIMENSION
  5
1E7
330
1D
100
AcDbEntity
  8
2
370
    25
100
AcDbDimension
  2
*D6
 10
6.105893
 20
5.091911
 30
0.0
 11
-0.144107
 21
7.091911
 31
0.0
 70
    32
 71
     5
 42
-1.0
  3
Standard
100
AcDbAlignedDimension
 13
-6.394107
 23
14.169475
 33
0.0
 14
6.105893
 24
23.943916
 34
0.0
100
AcDbRotatedDimension
  0
DIMENSION
  5
1E8
330
1D
100
AcDbEntity
  8
2
370
    25
100
AcDbDimension
  2
*D7
 10
25.473053
 20
79.943916
 30
0.0
 11
21.973053
 21
52.943916
 31
0.0
 70
    32
 71
     5
 42
-1.0
  3
Standard
100
AcDbAlignedDimension
 13
-0.894107
 23
25.943916
 33
0.0
 14
-0.894107
 24
79.943916
 34
0.0
 50
90.0
100
AcDbRotatedDimension
  0
TEXT
  5
1E9
330
1D
100
AcDbEntity
  8
2
370
    18
100
AcDbText
 10
-7.394107
 20
101.348506
 30
0.0
 40
3.0
  1
　－
 72
     5
 11
-1.994107
 21
101.348506
 31
0.0
100
AcDbText
  0
DIMENSION
  5
1EA
330
1D
100
AcDbEntity
  8
2
370
    25
100
AcDbDimension
  2
*D8
 10
-11.394107
 20
100.848506
 30
0.0
 11
0.105893
 21
102.848506
 31
0.0
 70
    32
 71
     5
 42
-1.0
  3
Standard
100
AcDbAlignedDimension
 13
-13.394107
 23
100.848506
 33
0.0
 14
-11.394107
 24
66.943916
 34
0.0
100
AcDbRotatedDimension
  0
TEXT
  5
1EB
330
1D
100
AcDbEntity
  8
2
370
    18
100
AcDbText
 10
-30.194107
 20
101.348506
 30
0.0
 40
3.0
  1
＋
 72
     5
 11
-27.794107
 21
101.348506
 31
0.0
100
AcDbText
  0
DIMENSION
  5
1EC
330
1D
100
AcDbEntity
  8
2
370
    25
100
AcDbDimension
  2
*D9
 10
-13.394107
 20
100.848506
 30
0.0
 11
-22.694107
 21
102.848506
 31
0.0
 70
    32
 71
     5
 42
-1.0
  3
Standard
100
AcDbAlignedDimension
 13
-14.194107
 23
66.943913
 33
0.0
 14
-13.394107
 24
100.848506
 34
0.0
100
AcDbRotatedDimension
  0
DIMENSION
  5
1ED
330
1D
100
AcDbEntity
  8
2
370
    25
100
AcDbDimension
  2
*D10
 10
14.139907
 20
-22.056084
 30
0.0
 11
9.139907
 21
-17.056084
 31
0.0
 70
    32
 71
     5
 42
-1.0
  3
Standard
100
AcDbAlignedDimension
 13
5.298996
 23
-24.956084
 33
0.0
 14
6.105893
 24
-22.056084
 34
0.0
 50
90.0
100
AcDbRotatedDimension
  0
DIMENSION
  5
1EE
330
1D
100
AcDbEntity
  8
2
370
    25
100
AcDbDimension
  2
*D11
 10
6.105893
 20
-51.68195
 30
0.0
 11
-6.394107
 21
-49.68195
 31
0.0
 70
    32
 71
     5
 42
-1.0
  3
Standard
100
AcDbAlignedDimension
 13
-18.894107
 23
-23.256084
 33
0.0
 14
6.105893
 24
-23.256084
 34
0.0
100
AcDbRotatedDimension
  0
DIMENSION
  5
1EF
330
1D
100
AcDbEntity
  8
2
370
    25
100
AcDbDimension
  2
*D12
 10
0.105893
 20
81.943916
 30
0.0
 11
9.389453
 21
92.435127
 31
0.0
 70
    36
 71
     5
 42
-1.0
  3
Standard
100
AcDbRadialDimension
 15
4.239868
 25
86.292507
 35
0.0
 40
4.5
  0
DIMENSION
  5
1F0
330
1D
100
AcDbEntity
  8
2
370
    25
100
AcDbDimension
  2
*D13
 10
66.152176
 20
69.443916
 30
0.0
 11
62.652176
 21
52.943916
 31
0.0
 70
    32
 71
     5
 42
-1.0
  3
Standard
100
AcDbAlignedDimension
 13
44.005893
 23
36.443916
 33
0.0
 14
44.005893
 24
69.443916
 34
0.0
 50
90.0
100
AcDbRotatedDimension
  0
TEXT
  5
1F1
330
1D
100
AcDbEntity
  8
2
370
    18
100
AcDbText
 10
-8.512819
 20
115.067037
 30
0.0
 40
3.2
  1
調整基準位置
 72
     5
 11
10.047182
 21
115.067037
 31
0.0
100
AcDbText
  0
LWPOLYLINE
  5
1F2
330
1D
100
AcDbEntity
  8
2
370
    18
100
AcDbPolyline
 90
        3
 70
     0
 43
0.0
 10
-13.382236
 20
106.609579
 10
-10.422444
 20
114.567037
 10
10.969138
 20
114.567037
  0
LINE
  5
1F7
330
1D
100
AcDbEntity
  8
2
370
    25
100
AcDbLine
 10
-13.193923
 20
108.600694
 30
0.0
 11
-13.382236
 21
106.609579
 31
0.0
  0
LINE
  5
1F8
330
1D
100
AcDbEntity
  8
2
370
    25
100
AcDbLine
 10
-13.382236
 20
106.609579
 30
0.0
 11
-12.223595
 21
108.239778
 31
0.0
  0
TEXT
  5
1F9
330
1D
100
AcDbEntity
  8
2
370
    18
100
AcDbText
 10
-55.627621
 20
109.843956
 30
0.0
 40
3.5
  1
（調整量２．８ｍｍ）
 72
     5
 11
-21.327621
 21
109.843956
 31
0.0
100
AcDbText
  0
CIRCLE
  5
1FA
330
1D
100
AcDbEntity
  8
2
370
    25
100
AcDbCircle
 10
30.341974
 20
6.352428
 30
0.0
 40
3.0
  0
CIRCLE
  5
1FB
330
1D
100
AcDbEntity
  8
2
370
    25
100
AcDbCircle
 10
67.705076
 20
6.352428
 30
0.0
 40
3.0
  0
TEXT
  5
1FC
330
1D
100
AcDbEntity
  8
2
370
    25
100
AcDbText
 10
66.205076
 20
4.852428
 30
0.0
 40
3.0
  1
３
 72
     5
 11
68.605076
 21
4.852428
 31
0.0
100
AcDbText
  0
TEXT
  5
1FD
330
1D
100
AcDbEntity
  8
2
370
    25
100
AcDbText
 10
28.841974
 20
4.852428
 30
0.0
 40
3.0
  1
１
 72
     5
 11
31.241974
 21
4.852428
 31
0.0
100
AcDbText
  0
LWPOLYLINE
  5
1FE
330
1D
100
AcDbEntity
  8
2
370
    25
100
AcDbPolyline
 90
        2
 70
     0
 43
0.0
 10
41.105893
 20
21.046575
 10
32.274243
 20
8.990226
  0
LINE
  5
202
330
1D
100
AcDbEntity
  8
2
370
    25
100
AcDbLine
 10
41.276483
 20
21.279453
 30
0.0
 11
40.873126
 21
21.574924
 31
0.0
  0
LINE
  5
203
330
1D
100
AcDbEntity
  8
2
370
    25
100
AcDbLine
 10
40.873126
 20
21.574924
 30
0.0
 11
40.764712
 21
20.580819
 31
0.0
  0
LINE
  5
204
330
1D
100
AcDbEntity
  8
2
370
    25
100
AcDbLine
 10
40.764712
 20
20.580819
 30
0.0
 11
41.67984
 21
20.983982
 31
0.0
  0
LINE
  5
205
330
1D
100
AcDbEntity
  8
2
370
    25
100
AcDbLine
 10
41.67984
 20
20.983982
 30
0.0
 11
41.276483
 21
21.279453
 31
0.0
  0
LWPOLYLINE
  5
206
330
1D
100
AcDbEntity
  8
2
370
    25
100
AcDbPolyline
 90
        2
 70
     0
 43
0.0
 10
51.991787
 20
24.453984
 10
65.728731
 20
8.692337
  0
LINE
  5
20A
330
1D
100
AcDbEntity
  8
2
370
    25
100
AcDbLine
 10
51.80212
 20
24.671607
 30
0.0
 11
51.425186
 21
24.343093
 31
0.0
  0
LINE
  5
20B
330
1D
100
AcDbEntity
  8
2
370
    25
100
AcDbLine
 10
51.425186
 20
24.343093
 30
0.0
 11
52.371122
 21
24.018739
 31
0.0
  0
LINE
  5
20C
330
1D
100
AcDbEntity
  8
2
370
    25
100
AcDbLine
 10
52.371122
 20
24.018739
 30
0.0
 11
52.179053
 21
25.000121
 31
0.0
  0
LINE
  5
20D
330
1D
100
AcDbEntity
  8
2
370
    25
100
AcDbLine
 10
52.179053
 20
25.000121
 30
0.0
 11
51.80212
 21
24.671607
 31
0.0
  0
LINE
  5
20E
330
1D
100
AcDbEntity
  8
3
370
   100
100
AcDbLine
 10
-80.0
 20
138.0
 30
0.0
 11
-80.0
 21
-138.0
 31
0.0
  0
LINE
  5
20F
330
1D
100
AcDbEntity
  8
3
370
   100
100
AcDbLine
 10
98.0
 20
-138.0
 30
0.0
 11
98.0
 21
138.0
 31
0.0
  0
LINE
  5
210
330
1D
100
AcDbEntity
  8
3
370
   100
100
AcDbLine
 10
-80.0
 20
-138.0
 30
0.0
 11
98.0
 21
-138.0
 31
0.0
  0
LINE
  5
211
330
1D
100
AcDbEntity
  8
3
370
   100
100
AcDbLine
 10
98.0
 20
138.0
 30
0.0
 11
-80.0
 21
138.0
 31
0.0
  0
LINE
  5
212
330
1D
100
AcDbEntity
  8
3
370
   100
100
AcDbLine
 10
-80.0
 20
138.3
 30
0.0
 11
98.3
 21
138.3
 31
0.0
  0
LINE
  5
213
330
1D
100
AcDbEntity
  8
3
370
   100
100
AcDbLine
 10
98.3
 20
138.3
 30
0.0
 11
98.3
 21
-138.3
 31
0.0
  0
LINE
  5
214
330
1D
100
AcDbEntity
  8
3
370
   100
100
AcDbLine
 10
98.3
 20
-138.3
 30
0.0
 11
-80.3
 21
-138.3
 31
0.0
  0
LINE
  5
215
330
1D
100
AcDbEntity
  8
3
370
   100
100
AcDbLine
 10
-80.3
 20
-138.3
 30
0.0
 11
-80.3
 21
138.0
 31
0.0
  0
LINE
  5
216
330
1D
100
AcDbEntity
  8
3
370
    50
100
AcDbLine
 10
-80.0
 20
-108.0
 30
0.0
 11
98.0
 21
-108.0
 31
0.0
  0
LINE
  5
217
330
1D
100
AcDbEntity
  8
3
370
    50
100
AcDbLine
 10
-12.0
 20
-101.5
 30
0.0
 11
98.0
 21
-101.5
 31
0.0
  0
LINE
  5
218
330
1D
100
AcDbEntity
  8
3
370
    50
100
AcDbLine
 10
-2.0
 20
-108.0
 30
0.0
 11
-2.0
 21
-138.0
 31
0.0
  0
LINE
  5
219
330
1D
100
AcDbEntity
  8
3
370
    50
100
AcDbLine
 10
-2.0
 20
-88.5
 30
0.0
 11
-2.0
 21
-108.0
 31
0.0
  0
LINE
  5
21A
330
1D
100
AcDbEntity
  8
3
370
    50
100
AcDbLine
 10
58.0
 20
-88.5
 30
0.0
 11
58.0
 21
-108.0
 31
0.0
  0
TEXT
  5
21B
330
1D
100
AcDbEntity
  8
3
370
    25
100
AcDbText
 10
-11.0
 20
-106.75
 30
0.0
 40
4.0
  1
品番
 72
     5
 11
-3.8
 21
-106.75
 31
0.0
100
AcDbText
  0
TEXT
  5
21C
330
1D
100
AcDbEntity
  8
3
370
    25
100
AcDbText
 10
13.0
 20
-106.75
 30
0.0
 40
4.0
  1
品     名
 72
     5
 11
40.2
 21
-106.75
 31
0.0
100
AcDbText
  0
TEXT
  5
21D
330
1D
100
AcDbEntity
  8
3
370
    25
100
AcDbText
 10
89.0
 20
-106.75
 30
0.0
 40
4.0
  1
員数
 72
     5
 11
96.2
 21
-106.75
 31
0.0
100
AcDbText
  0
TEXT
  5
21E
330
1D
100
AcDbEntity
  8
3
370
    25
100
AcDbText
 10
-75.0
 20
-112.5
 30
0.0
 40
4.0
  1
図  法
 72
     5
 11
-59.8
 21
-112.5
 31
0.0
100
AcDbText
  0
TEXT
  5
21F
330
1D
100
AcDbEntity
  8
3
370
    25
100
AcDbText
 10
-49.0
 20
-112.5
 30
0.0
 40
4.0
  1
単  位
 72
     5
 11
-33.8
 21
-112.5
 31
0.0
100
AcDbText
  0
TEXT
  5
220
330
1D
100
AcDbEntity
  8
3
370
    25
100
AcDbText
 10
-23.0
 20
-112.5
 30
0.0
 40
4.0
  1
尺  度
 72
     5
 11
-7.8
 21
-112.5
 31
0.0
100
AcDbText
  0
TEXT
  5
221
330
1D
100
AcDbEntity
  8
3
370
   100
100
AcDbText
 10
-69.0
 20
-135.5
 30
0.0
 40
8.0
  1
（株）川口技研
 72
     5
 11
-14.6
 21
-135.5
 31
0.0
100
AcDbText
  0
TEXT
  5
222
330
1D
100
AcDbEntity
  8
3
370
    25
100
AcDbText
 10
0.0
 20
-112.5
 30
0.0
 40
4.0
  1
図面名称
 72
     5
 11
15.2
 21
-112.5
 31
0.0
100
AcDbText
  0
TEXT
  5
223
330
1D
100
AcDbEntity
  8
3
370
    25
100
AcDbText
 10
0.0
 20
-129.5
 30
0.0
 40
4.0
  1
図面番号
 72
     5
 11
15.2
 21
-129.5
 31
0.0
100
AcDbText
  0
LINE
  5
224
330
1D
100
AcDbEntity
  8
3
370
    25
100
AcDbLine
 10
-80.0
 20
-113.0
 30
0.0
 11
18.0
 21
-113.0
 31
0.0
  0
LINE
  5
225
330
1D
100
AcDbEntity
  8
3
370
    25
100
AcDbLine
 10
18.0
 20
-108.0
 30
0.0
 11
18.0
 21
-113.0
 31
0.0
  0
LINE
  5
226
330
1D
100
AcDbEntity
  8
3
370
    25
100
AcDbLine
 10
-2.0
 20
-130.0
 30
0.0
 11
18.0
 21
-130.0
 31
0.0
  0
LINE
  5
227
330
1D
100
AcDbEntity
  8
3
370
    25
100
AcDbLine
 10
18.0
 20
-125.0
 30
0.0
 11
18.0
 21
-130.0
 31
0.0
  0
TEXT
  5
228
330
1D
100
AcDbEntity
  8
3
370
    25
100
AcDbText
 10
-46.0
 20
-121.5
 30
0.0
 40
5.0
  1
ｍｍ
 72
     5
 11
-37.0
 21
-121.5
 31
0.0
100
AcDbText
  0
TEXT
  5
229
330
1D
100
AcDbEntity
  8
3
370
    25
100
AcDbText
 10
-21.0
 20
-121.5
 30
0.0
 40
4.0
  1
１／１
 72
     5
 11
-9.8
 21
-121.5
 31
0.0
100
AcDbText
  0
LINE
  5
22A
330
1D
100
AcDbEntity
  8
3
370
    50
100
AcDbLine
 10
-12.0
 20
-95.0
 30
0.0
 11
98.0
 21
-95.0
 31
0.0
  0
LINE
  5
22B
330
1D
100
AcDbEntity
  8
3
370
    50
100
AcDbLine
 10
-12.0
 20
-88.5
 30
0.0
 11
98.0
 21
-88.5
 31
0.0
  0
TEXT
  5
22C
330
1D
100
AcDbEntity
  8
3
370
    25
100
AcDbText
 10
-9.0
 20
-100.25
 30
0.0
 40
4.0
  1
１
 72
     5
 11
-5.8
 21
-100.25
 31
0.0
100
AcDbText
  0
TEXT
  5
22D
330
1D
100
AcDbEntity
  8
3
370
    25
100
AcDbText
 10
-9.0
 20
-93.75
 30
0.0
 40
4.0
  1
２
 72
     5
 11
-5.8
 21
-93.75
 31
0.0
100
AcDbText
  0
TEXT
  5
22E
330
1D
100
AcDbEntity
  8
3
370
    25
100
AcDbText
 10
0.0
 20
-93.75
 30
0.0
 40
3.5
  1
ストライク取付木ネジ
 72
     5
 11
34.3
 21
-93.75
 31
0.0
100
AcDbText
  0
TEXT
  5
22F
330
1D
100
AcDbEntity
  8
3
370
    25
100
AcDbText
 10
91.0
 20
-100.25
 30
0.0
 40
4.0
  1
１
 72
     5
 11
94.2
 21
-100.25
 31
0.0
100
AcDbText
  0
TEXT
  5
230
330
1D
100
AcDbEntity
  8
3
370
    25
100
AcDbText
 10
91.0
 20
-93.75
 30
0.0
 40
4.0
  1
２
 72
     5
 11
94.2
 21
-93.75
 31
0.0
100
AcDbText
  0
TEXT
  5
231
330
1D
100
AcDbEntity
  8
3
370
    25
100
AcDbText
 10
-73.0
 20
-121.5
 30
0.0
 40
4.0
  1
３角法
 72
     5
 11
-61.8
 21
-121.5
 31
0.0
100
AcDbText
  0
LINE
  5
232
330
1D
100
AcDbEntity
  8
3
370
    50
100
AcDbLine
 10
88.0
 20
-88.5
 30
0.0
 11
88.0
 21
-108.0
 31
0.0
  0
LINE
  5
233
330
1D
100
AcDbEntity
  8
3
370
    50
100
AcDbLine
 10
-12.0
 20
-88.5
 30
0.0
 11
-12.0
 21
-108.0
 31
0.0
  0
LINE
  5
234
330
1D
100
AcDbEntity
  8
3
370
    50
100
AcDbLine
 10
-80.0
 20
-125.0
 30
0.0
 11
-2.0
 21
-125.0
 31
0.0
  0
LINE
  5
235
330
1D
100
AcDbEntity
  8
3
370
    50
100
AcDbLine
 10
-2.0
 20
-125.0
 30
0.0
 11
98.0
 21
-125.0
 31
0.0
  0
LINE
  5
236
330
1D
100
AcDbEntity
  8
3
370
    50
100
AcDbLine
 10
-54.0
 20
-125.0
 30
0.0
 11
-54.0
 21
-108.0
 31
0.0
  0
LINE
  5
237
330
1D
100
AcDbEntity
  8
3
370
    50
100
AcDbLine
 10
-28.0
 20
-125.0
 30
0.0
 11
-28.0
 21
-108.0
 31
0.0
  0
TEXT
  5
238
330
1D
100
AcDbEntity
  8
3
370
    25
100
AcDbText
 10
67.0
 20
-106.75
 30
0.0
 40
4.0
  1
寸　法
 72
     5
 11
78.2
 21
-106.75
 31
0.0
100
AcDbText
  0
TEXT
  5
239
330
1D
100
AcDbEntity
  8
3
370
   100
100
AcDbText
 10
28.421455
 20
-134.545471
 30
0.0
 40
6.0
  1
ＥＺ－１４２２－００
 72
     5
 11
87.221455
 21
-134.545471
 31
0.0
100
AcDbText
  0
TEXT
  5
23A
330
1D
100
AcDbEntity
  8
3
370
    50
100
AcDbText
 10
6.095558
 20
-120.800041
 30
0.0
 40
5.0
  1
ギア式調整ストライク　Ｃ－１６．５
 72
     5
 11
90.095558
 21
-120.800041
 31
0.0
100
AcDbText
  0
TEXT
  5
23B
330
1D
100
AcDbEntity
  8
3
370
    18
100
AcDbText
 10
59.25
 20
-93.6
 30
0.0
 40
2.5
  1
サラ木ネジ３．５×２２
 72
     5
 11
86.25
 21
-93.6
 31
0.0
100
AcDbText
  0
TEXT
  5
23C
330
1D
100
AcDbEntity
  8
3
370
    25
100
AcDbText
 10
0.0
 20
-100.25
 30
0.0
 40
3.5
  1
ギア式調整ストライク　Ｃ-１６．５
 72
     5
 11
57.05
 21
-100.25
 31
0.0
100
AcDbText
  0
POINT
  5
23D
330
1D
100
AcDbEntity
  8
4
370
    50
100
AcDbPoint
 10
-6.394107
 20
52.943916
 30
0.0
  0
TEXT
  5
23E
330
1D
100
AcDbEntity
  8
4
370
   100
100
AcDbText
 10
26.220108
 20
98.971436
 30
0.0
 40
30.0
  1
廃番
 72
     5
 11
80.220108
 21
98.971436
 31
0.0
100
AcDbText
  0
ENDSEC
  0
SECTION
  2
OBJECTS
  0
DICTIONARY
  5
C
330
0
100
AcDbDictionary
281
     1
  3
ACAD_GROUP
350
D
  3
ACAD_LAYOUT
350
1A
  3
ACAD_MATERIAL
350
29
  3
ACAD_MLEADERSTYLE
350
280
  3
ACAD_MLINESTYLE
350
17
  3
ACAD_PLOTSETTINGS
350
19
  3
ACAD_PLOTSTYLENAME
350
E
  3
ACAD_SCALELIST
350
23F
  3
ACAD_TABLESTYLE
350
27E
  3
ACAD_VISUALSTYLE
350
265
  3
AcDbVariableDictionary
350
282
  0
DICTIONARY
  5
28A
330
8
100
AcDbDictionary
280
     1
281
     1
  3
ACAD_XREC_ROUNDTRIP
360
28B
  0
DICTIONARY
  5
D
102
{ACAD_REACTORS
330
C
102
}
330
C
100
AcDbDictionary
281
     1
  0
DICTIONARY
  5
1A
102
{ACAD_REACTORS
330
C
102
}
330
C
100
AcDbDictionary
281
     1
  3
Layout1
350
1C
  3
Model
350
1E
  0
DICTIONARY
  5
29
102
{ACAD_REACTORS
330
C
102
}
330
C
100
AcDbDictionary
281
     1
  3
ByBlock
350
2B
  3
ByLayer
350
2A
  3
Global
350
2C
  0
DICTIONARY
  5
280
102
{ACAD_REACTORS
330
C
102
}
330
C
100
AcDbDictionary
281
     1
  3
Standard
350
281
  0
DICTIONARY
  5
17
102
{ACAD_REACTORS
330
C
102
}
330
C
100
AcDbDictionary
281
     1
  3
Standard
350
18
  0
DICTIONARY
  5
19
102
{ACAD_REACTORS
330
C
102
}
330
C
100
AcDbDictionary
281
     1
  0
ACDBDICTIONARYWDFLT
  5
E
102
{ACAD_REACTORS
330
C
102
}
330
C
100
AcDbDictionary
281
     1
  3
Normal
350
F
100
AcDbDictionaryWithDefault
340
F
  0
DICTIONARY
  5
23F
102
{ACAD_REACTORS
330
C
102
}
330
C
100
AcDbDictionary
281
     1
  3
A0
350
240
  3
A1
350
241
  3
A2
350
242
  3
A3
350
243
  3
A4
350
244
  3
A5
350
245
  3
A6
350
246
  3
A7
350
247
  3
A8
350
248
  3
A9
350
249
  3
B0
350
24A
  3
B1
350
24B
  3
B2
350
24C
  3
B3
350
24D
  3
B4
350
24E
  3
B5
350
24F
  3
B6
350
250
  3
B7
350
251
  3
B8
350
252
  3
B9
350
253
  3
C0
350
254
  3
C1
350
255
  3
C2
350
256
  3
C3
350
257
  3
C4
350
258
  3
C5
350
259
  3
C6
350
25A
  3
C7
350
25B
  3
C8
350
25C
  3
C9
350
25D
  3
D0
350
25E
  3
D1
350
25F
  3
D2
350
260
  0
DICTIONARY
  5
27E
102
{ACAD_REACTORS
330
C
102
}
330
C
100
AcDbDictionary
281
     1
  3
Standard
350
27F
  0
DICTIONARY
  5
265
102
{ACAD_REACTORS
330
C
102
}
330
C
100
AcDbDictionary
281
     1
  3
2dWireframe
350
26A
  3
Basic
350
26D
  3
Brighten
350
271
  3
ColorChange
350
275
  3
Conceptual
350
26F
  3
Dim
350
270
  3
EdgeColorOff
350
278
  3
Facepattern
350
274
  3
Flat
350
266
  3
FlatWithEdges
350
267
  3
Gouraud
350
268
  3
GouraudWithEdges
350
269
  3
Hidden
350
26C
  3
JitterOff
350
276
  3
Linepattern
350
273
  3
OverhangOff
350
277
  3
Realistic
350
26E
  3
Shaded
350
27D
  3
Shaded with edges
350
27C
  3
Shades of Gray
350
279
  3
Sketchy
350
27A
  3
Thicken
350
272
  3
Wireframe
350
26B
  3
X-Ray
350
27B
  0
DICTIONARY
  5
282
102
{ACAD_REACTORS
330
C
102
}
330
C
100
AcDbDictionary
281
     1
  3
CANNOSCALE
350
28C
  3
CMLEADERSTYLE
350
284
  3
CTABLESTYLE
350
283
  3
DIMASSOC
350
288
  3
HIDETEXT
350
289
  3
MSLTSCALE
350
285
  0
XRECORD
  5
28B
102
{ACAD_REACTORS
330
28A
102
}
330
28A
100
AcDbXrecord
280
     1
102
VTR_0.000_0.000_1.000_1.000_VISUALSTYLE
340
26A
102
VTR_0.000_0.000_1.000_1.000_GRIDDISPLAY
 70
     3
102
VTR_0.000_0.000_1.000_1.000_GRIDMAJOR
 70
     5
102
VTR_0.000_0.000_1.000_1.000_DEFAULTLIGHTING
280
     1
102
VTR_0.000_0.000_1.000_1.000_DEFAULTLIGHTINGTYPE
 70
     1
102
VTR_0.000_0.000_1.000_1.000_BRIGHTNESS
141
0.0
102
VTR_0.000_0.000_1.000_1.000_CONTRAST
142
0.0
  0
LAYOUT
  5
1C
102
{ACAD_REACTORS
330
1A
102
}
330
1A
100
AcDbPlotSettings
  1

  2
none_device
  4

  6

 40
0.0
 41
0.0
 42
0.0
 43
0.0
 44
0.0
 45
0.0
 46
0.0
 47
0.0
 48
0.0
 49
0.0
140
0.0
141
0.0
142
1.0
143
1.0
 70
   688
 72
     0
 73
     0
 74
     5
  7

 75
    16
147
1.0
148
0.0
149
0.0
100
AcDbLayout
  1
Layout1
 70
     1
 71
     1
 10
0.0
 20
0.0
 11
12.0
 21
9.0
 12
0.0
 22
0.0
 32
0.0
 14
1.000000000000000E+20
 24
1.000000000000000E+20
 34
1.000000000000000E+20
 15
-1.000000000000000E+20
 25
-1.000000000000000E+20
 35
-1.000000000000000E+20
146
0.0
 13
0.0
 23
0.0
 33
0.0
 16
1.0
 26
0.0
 36
0.0
 17
0.0
 27
1.0
 37
0.0
 76
     0
330
1B
  0
LAYOUT
  5
1E
102
{ACAD_REACTORS
330
1A
102
}
330
1A
100
AcDbPlotSettings
  1

  2
none_device
  4
Letter_(8.50_x_11.00_Inches)
  6

 40
6.35
 41
6.35
 42
6.35000508
 43
6.35000508
 44
215.9
 45
279.4
 46
0.0
 47
0.0
 48
0.0
 49
0.0
140
0.0
141
0.0
142
1.0
143
1.0
 70
  1712
 72
     0
 73
     0
 74
     0
  7

 75
     0
147
1.0
148
0.0
149
0.0
100
AcDbLayout
  1
Model
 70
     1
 71
     0
 10
0.0
 20
0.0
 11
12.0
 21
9.0
 12
0.0
 22
0.0
 32
0.0
 14
-105.0
 24
-148.5
 34
0.0
 15
105.0
 25
148.5
 35
0.0
146
0.0
 13
0.0
 23
0.0
 33
0.0
 16
1.0
 26
0.0
 36
0.0
 17
0.0
 27
1.0
 37
0.0
 76
     0
330
1D
331
20
  0
MATERIAL
  5
2B
102
{ACAD_REACTORS
330
29
102
}
102
{ACAD_XDICTIONARY
360
28F
102
}
330
29
100
AcDbMaterial
  1
ByBlock
  0
MATERIAL
  5
2A
102
{ACAD_REACTORS
330
29
102
}
102
{ACAD_XDICTIONARY
360
28D
102
}
330
29
100
AcDbMaterial
  1
ByLayer
  0
MATERIAL
  5
2C
102
{ACAD_REACTORS
330
29
102
}
102
{ACAD_XDICTIONARY
360
291
102
}
330
29
100
AcDbMaterial
  1
Global
  0
MLEADERSTYLE
  5
281
102
{ACAD_REACTORS
330
280
102
}
102
{ACAD_XDICTIONARY
360
2C4
102
}
330
280
100
AcDbMLeaderStyle
170
     2
171
     1
172
     0
 90
        2
 40
0.0
 41
0.0
173
     1
 91
-1056964608
340
14
 92
       -2
290
     1
 42
0.09
291
     1
 43
0.36
  3
Standard
341
0
 44
0.18
300

342
11
174
     1
178
     6
175
     1
176
     0
 93
-1056964608
 45
0.18
292
     0
297
     0
 46
0.18
343
0
 94
-1056964608
 47
1.0
 49
1.0
140
1.0
293
     1
141
0.0
294
     1
177
     0
142
1.0
295
     0
296
     0
143
0.125
1001
ACAD_MLEADERVER
1070
     2
  0
MLINESTYLE
  5
18
102
{ACAD_REACTORS
330
17
102
}
330
17
100
AcDbMlineStyle
  2
Standard
 70
     0
  3

 62
   256
 51
90.0
 52
90.0
 71
     2
 49
0.5
 62
   256
  6
BYLAYER
 49
-0.5
 62
   256
  6
BYLAYER
  0
ACDBPLACEHOLDER
  5
F
102
{ACAD_REACTORS
330
E
102
}
330
E
  0
SCALE
  5
240
102
{ACAD_REACTORS
330
23F
102
}
330
23F
100
AcDbScale
 70
     0
300
1:1
140
1.0
141
1.0
290
     1
  0
SCALE
  5
241
102
{ACAD_REACTORS
330
23F
102
}
330
23F
100
AcDbScale
 70
     0
300
1:2
140
1.0
141
2.0
290
     0
  0
SCALE
  5
242
102
{ACAD_REACTORS
330
23F
102
}
330
23F
100
AcDbScale
 70
     0
300
1:4
140
1.0
141
4.0
290
     0
  0
SCALE
  5
243
102
{ACAD_REACTORS
330
23F
102
}
330
23F
100
AcDbScale
 70
     0
300
1:5
140
1.0
141
5.0
290
     0
  0
SCALE
  5
244
102
{ACAD_REACTORS
330
23F
102
}
330
23F
100
AcDbScale
 70
     0
300
1:8
140
1.0
141
8.0
290
     0
  0
SCALE
  5
245
102
{ACAD_REACTORS
330
23F
102
}
330
23F
100
AcDbScale
 70
     0
300
1:10
140
1.0
141
10.0
290
     0
  0
SCALE
  5
246
102
{ACAD_REACTORS
330
23F
102
}
330
23F
100
AcDbScale
 70
     0
300
1:16
140
1.0
141
16.0
290
     0
  0
SCALE
  5
247
102
{ACAD_REACTORS
330
23F
102
}
330
23F
100
AcDbScale
 70
     0
300
1:20
140
1.0
141
20.0
290
     0
  0
SCALE
  5
248
102
{ACAD_REACTORS
330
23F
102
}
330
23F
100
AcDbScale
 70
     0
300
1:30
140
1.0
141
30.0
290
     0
  0
SCALE
  5
249
102
{ACAD_REACTORS
330
23F
102
}
330
23F
100
AcDbScale
 70
     0
300
1:40
140
1.0
141
40.0
290
     0
  0
SCALE
  5
24A
102
{ACAD_REACTORS
330
23F
102
}
330
23F
100
AcDbScale
 70
     0
300
1:50
140
1.0
141
50.0
290
     0
  0
SCALE
  5
24B
102
{ACAD_REACTORS
330
23F
102
}
330
23F
100
AcDbScale
 70
     0
300
1:100
140
1.0
141
100.0
290
     0
  0
SCALE
  5
24C
102
{ACAD_REACTORS
330
23F
102
}
330
23F
100
AcDbScale
 70
     0
300
2:1
140
2.0
141
1.0
290
     0
  0
SCALE
  5
24D
102
{ACAD_REACTORS
330
23F
102
}
330
23F
100
AcDbScale
 70
     0
300
4:1
140
4.0
141
1.0
290
     0
  0
SCALE
  5
24E
102
{ACAD_REACTORS
330
23F
102
}
330
23F
100
AcDbScale
 70
     0
300
8:1
140
8.0
141
1.0
290
     0
  0
SCALE
  5
24F
102
{ACAD_REACTORS
330
23F
102
}
330
23F
100
AcDbScale
 70
     0
300
10:1
140
10.0
141
1.0
290
     0
  0
SCALE
  5
250
102
{ACAD_REACTORS
330
23F
102
}
330
23F
100
AcDbScale
 70
     0
300
100:1
140
100.0
141
1.0
290
     0
  0
SCALE
  5
251
102
{ACAD_REACTORS
330
23F
102
}
330
23F
100
AcDbScale
 70
     0
300
1/128" = 1'-0"
140
0.0078125
141
12.0
290
     0
  0
SCALE
  5
252
102
{ACAD_REACTORS
330
23F
102
}
330
23F
100
AcDbScale
 70
     0
300
1/64" = 1'-0"
140
0.015625
141
12.0
290
     0
  0
SCALE
  5
253
102
{ACAD_REACTORS
330
23F
102
}
330
23F
100
AcDbScale
 70
     0
300
1/32" = 1'-0"
140
0.03125
141
12.0
290
     0
  0
SCALE
  5
254
102
{ACAD_REACTORS
330
23F
102
}
330
23F
100
AcDbScale
 70
     0
300
1/16" = 1'-0"
140
0.0625
141
12.0
290
     0
  0
SCALE
  5
255
102
{ACAD_REACTORS
330
23F
102
}
330
23F
100
AcDbScale
 70
     0
300
3/32" = 1'-0"
140
0.09375
141
12.0
290
     0
  0
SCALE
  5
256
102
{ACAD_REACTORS
330
23F
102
}
330
23F
100
AcDbScale
 70
     0
300
1/8" = 1'-0"
140
0.125
141
12.0
290
     0
  0
SCALE
  5
257
102
{ACAD_REACTORS
330
23F
102
}
330
23F
100
AcDbScale
 70
     0
300
3/16" = 1'-0"
140
0.1875
141
12.0
290
     0
  0
SCALE
  5
258
102
{ACAD_REACTORS
330
23F
102
}
330
23F
100
AcDbScale
 70
     0
300
1/4" = 1'-0"
140
0.25
141
12.0
290
     0
  0
SCALE
  5
259
102
{ACAD_REACTORS
330
23F
102
}
330
23F
100
AcDbScale
 70
     0
300
3/8" = 1'-0"
140
0.375
141
12.0
290
     0
  0
SCALE
  5
25A
102
{ACAD_REACTORS
330
23F
102
}
330
23F
100
AcDbScale
 70
     0
300
1/2" = 1'-0"
140
0.5
141
12.0
290
     0
  0
SCALE
  5
25B
102
{ACAD_REACTORS
330
23F
102
}
330
23F
100
AcDbScale
 70
     0
300
3/4" = 1'-0"
140
0.75
141
12.0
290
     0
  0
SCALE
  5
25C
102
{ACAD_REACTORS
330
23F
102
}
330
23F
100
AcDbScale
 70
     0
300
1" = 1'-0"
140
1.0
141
12.0
290
     0
  0
SCALE
  5
25D
102
{ACAD_REACTORS
330
23F
102
}
330
23F
100
AcDbScale
 70
     0
300
1-1/2" = 1'-0"
140
1.5
141
12.0
290
     0
  0
SCALE
  5
25E
102
{ACAD_REACTORS
330
23F
102
}
330
23F
100
AcDbScale
 70
     0
300
3" = 1'-0"
140
3.0
141
12.0
290
     0
  0
SCALE
  5
25F
102
{ACAD_REACTORS
330
23F
102
}
330
23F
100
AcDbScale
 70
     0
300
6" = 1'-0"
140
6.0
141
12.0
290
     0
  0
SCALE
  5
260
102
{ACAD_REACTORS
330
23F
102
}
330
23F
100
AcDbScale
 70
     0
300
1'-0" = 1'-0"
140
12.0
141
12.0
290
     0
  0
TABLESTYLE
  5
27F
102
{ACAD_REACTORS
330
27E
102
}
330
27E
100
AcDbTableStyle
  3
Standard
 70
     0
 71
     0
 40
0.06
 41
0.06
280
     0
281
     0
  7
STANDARD
140
0.18
170
     2
 62
     0
 63
   257
283
     0
274
    -2
284
     1
 64
     0
275
    -2
285
     1
 65
     0
276
    -2
286
     1
 66
     0
277
    -2
287
     1
 67
     0
278
    -2
288
     1
 68
     0
279
    -2
289
     1
 69
     0
  7
STANDARD
140
0.25
170
     5
 62
     0
 63
   257
283
     0
274
    -2
284
     1
 64
     0
275
    -2
285
     1
 65
     0
276
    -2
286
     1
 66
     0
277
    -2
287
     1
 67
     0
278
    -2
288
     1
 68
     0
279
    -2
289
     1
 69
     0
  7
STANDARD
140
0.18
170
     5
 62
     0
 63
   257
283
     0
274
    -2
284
     1
 64
     0
275
    -2
285
     1
 65
     0
276
    -2
286
     1
 66
     0
277
    -2
287
     1
 67
     0
278
    -2
288
     1
 68
     0
279
    -2
289
     1
 69
     0
  0
VISUALSTYLE
  5
26A
102
{ACAD_REACTORS
330
265
102
}
102
{ACAD_XDICTIONARY
360
29B
102
}
330
265
100
AcDbVisualStyle
  2
2dWireframe
 70
     4
 71
     0
 72
     2
 73
     0
 90
        0
 40
0.6
 41
30.0
 62
     5
 63
     7
 74
     1
 91
        4
 64
     7
 65
   257
 75
     1
175
     1
 42
1.0
 92
        0
 66
   257
 43
1.0
 76
     1
 77
     6
 78
     2
 67
     7
 79
     5
170
     0
171
     0
290
     0
174
     0
 93
        1
 44
0.0
173
     0
291
     0
 45
0.0
1001
ACAD
1000
AcDbSavedByObjectVersion
1070
     0
  0
VISUALSTYLE
  5
26D
102
{ACAD_REACTORS
330
265
102
}
102
{ACAD_XDICTIONARY
360
2A1
102
}
330
265
100
AcDbVisualStyle
  2
Basic
 70
     7
 71
     1
 72
     0
 73
     1
 90
        0
 40
0.6
 41
30.0
 62
     5
 63
     7
 74
     0
 91
        4
 64
     7
 65
   257
 75
     1
175
     1
 42
1.0
 92
        8
 66
     7
 43
1.0
 76
     1
 77
     6
 78
     2
 67
     7
 79
     5
170
     0
171
     0
290
     0
174
     0
 93
        1
 44
0.0
173
     0
291
     1
 45
0.0
1001
ACAD
1000
AcDbSavedByObjectVersion
1070
     0
  0
VISUALSTYLE
  5
271
102
{ACAD_REACTORS
330
265
102
}
102
{ACAD_XDICTIONARY
360
2A9
102
}
330
265
100
AcDbVisualStyle
  2
Brighten
 70
    12
 71
     2
 72
     2
 73
     0
 90
        0
 40
0.6
 41
30.0
 62
     5
 63
     7
 74
     1
 91
        4
 64
     7
 65
   257
 75
     1
175
     1
 42
1.0
 92
        8
 66
     7
 43
1.0
 76
     1
 77
     6
 78
     2
 67
     7
 79
     5
170
     0
171
     0
290
     0
174
     0
 93
        1
 44
50.0
173
     0
291
     1
 45
0.0
1001
ACAD
1000
AcDbSavedByObjectVersion
1070
     0
  0
VISUALSTYLE
  5
275
102
{ACAD_REACTORS
330
265
102
}
102
{ACAD_XDICTIONARY
360
2B1
102
}
330
265
100
AcDbVisualStyle
  2
ColorChange
 70
    16
 71
     2
 72
     2
 73
     3
 90
        0
 40
0.6
 41
30.0
 62
     5
 63
     8
 74
     1
 91
        4
 64
     7
 65
   257
 75
     1
175
     1
 42
1.0
 92
        8
 66
     8
 43
1.0
 76
     1
 77
     6
 78
     2
 67
     7
 79
     5
170
     0
171
     0
290
     0
174
     0
 93
        1
 44
0.0
173
     0
291
     1
 45
0.0
1001
ACAD
1000
AcDbSavedByObjectVersion
1070
     0
  0
VISUALSTYLE
  5
26F
102
{ACAD_REACTORS
330
265
102
}
102
{ACAD_XDICTIONARY
360
2A5
102
}
330
265
100
AcDbVisualStyle
  2
Conceptual
 70
     9
 71
     3
 72
     2
 73
     0
 90
        0
 40
0.6
 41
30.0
 62
     5
 63
     7
 74
     2
 91
        2
 64
     7
 65
   257
 75
     1
175
     1
 42
179.0
 92
        8
 66
     7
 43
1.0
 76
     1
 77
     6
 78
     2
 67
     7
 79
     3
170
     0
171
     0
290
     0
174
     0
 93
        1
 44
0.0
173
     0
291
     0
 45
0.0
1001
ACAD
1000
AcDbSavedByObjectVersion
1070
     0
  0
VISUALSTYLE
  5
270
102
{ACAD_REACTORS
330
265
102
}
102
{ACAD_XDICTIONARY
360
2A7
102
}
330
265
100
AcDbVisualStyle
  2
Dim
 70
    11
 71
     2
 72
     2
 73
     0
 90
        0
 40
0.6
 41
30.0
 62
     5
 63
     7
 74
     1
 91
        4
 64
     7
 65
   257
 75
     1
175
     1
 42
1.0
 92
        8
 66
     7
 43
1.0
 76
     1
 77
     6
 78
     2
 67
     7
 79
     5
170
     0
171
     0
290
     0
174
     0
 93
        1
 44
-50.0
173
     0
291
     1
 45
0.0
1001
ACAD
1000
AcDbSavedByObjectVersion
1070
     0
  0
VISUALSTYLE
  5
278
102
{ACAD_REACTORS
330
265
102
}
102
{ACAD_XDICTIONARY
360
2B7
102
}
330
265
100
AcDbVisualStyle
  2
EdgeColorOff
 70
    22
 71
     2
 72
     2
 73
     0
 90
        0
 40
0.6
 41
30.0
 62
     5
 63
     7
 74
     1
 91
        4
 64
     7
 65
   257
 75
     1
175
     1
 42
1.0
 92
        8
 66
     7
 43
1.0
 76
     1
 77
     6
 78
     2
 67
     7
 79
     5
170
     0
171
     0
290
     0
174
     0
 93
        1
 44
0.0
173
     0
291
     1
 45
0.0
1001
ACAD
1000
AcDbSavedByObjectVersion
1070
     0
  0
VISUALSTYLE
  5
274
102
{ACAD_REACTORS
330
265
102
}
102
{ACAD_XDICTIONARY
360
2AF
102
}
330
265
100
AcDbVisualStyle
  2
Facepattern
 70
    15
 71
     2
 72
     2
 73
     0
 90
        0
 40
0.6
 41
30.0
 62
     5
 63
     7
 74
     1
 91
        4
 64
     7
 65
   257
 75
     1
175
     1
 42
1.0
 92
        8
 66
     7
 43
1.0
 76
     1
 77
     6
 78
     2
 67
     7
 79
     5
170
     0
171
     0
290
     0
174
     0
 93
        1
 44
0.0
173
     0
291
     1
 45
0.0
1001
ACAD
1000
AcDbSavedByObjectVersion
1070
     0
  0
VISUALSTYLE
  5
266
102
{ACAD_REACTORS
330
265
102
}
102
{ACAD_XDICTIONARY
360
293
102
}
330
265
100
AcDbVisualStyle
  2
Flat
 70
     0
 71
     2
 72
     1
 73
     1
 90
        2
 40
0.6
 41
30.0
 62
     5
 63
     7
 74
     0
 91
        0
 64
     7
 65
   257
 75
     1
175
     1
 42
1.0
 92
        8
 66
     7
 43
1.0
 76
     1
 77
     6
 78
     2
 67
     7
 79
     5
170
     0
171
     0
290
     0
174
     0
 93
       13
 44
0.0
173
     0
291
     1
 45
0.0
1001
ACAD
1000
AcDbSavedByObjectVersion
1070
     0
  0
VISUALSTYLE
  5
267
102
{ACAD_REACTORS
330
265
102
}
102
{ACAD_XDICTIONARY
360
295
102
}
330
265
100
AcDbVisualStyle
  2
FlatWithEdges
 70
     1
 71
     2
 72
     1
 73
     1
 90
        2
 40
0.6
 41
30.0
 62
     5
 63
     7
 74
     1
 91
        0
 64
     7
 65
   257
 75
     1
175
     1
 42
1.0
 92
        0
 66
   257
 43
1.0
 76
     1
 77
     6
 78
     2
 67
     7
 79
     5
170
     0
171
     0
290
     0
174
     0
 93
       13
 44
0.0
173
     0
291
     1
 45
0.0
1001
ACAD
1000
AcDbSavedByObjectVersion
1070
     0
  0
VISUALSTYLE
  5
268
102
{ACAD_REACTORS
330
265
102
}
102
{ACAD_XDICTIONARY
360
297
102
}
330
265
100
AcDbVisualStyle
  2
Gouraud
 70
     2
 71
     2
 72
     2
 73
     1
 90
        2
 40
0.6
 41
30.0
 62
     5
 63
     7
 74
     0
 91
        0
 64
     7
 65
   257
 75
     1
175
     1
 42
1.0
 92
        0
 66
     7
 43
1.0
 76
     1
 77
     6
 78
     2
 67
     7
 79
     5
170
     0
171
     0
290
     0
174
     0
 93
       13
 44
0.0
173
     0
291
     1
 45
0.0
1001
ACAD
1000
AcDbSavedByObjectVersion
1070
     0
  0
VISUALSTYLE
  5
269
102
{ACAD_REACTORS
330
265
102
}
102
{ACAD_XDICTIONARY
360
299
102
}
330
265
100
AcDbVisualStyle
  2
GouraudWithEdges
 70
     3
 71
     2
 72
     2
 73
     1
 90
        2
 40
0.6
 41
30.0
 62
     5
 63
     7
 74
     1
 91
        0
 64
     7
 65
   257
 75
     1
175
     1
 42
1.0
 92
        0
 66
   257
 43
1.0
 76
     1
 77
     6
 78
     2
 67
     7
 79
     5
170
     0
171
     0
290
     0
174
     0
 93
       13
 44
0.0
173
     0
291
     1
 45
0.0
1001
ACAD
1000
AcDbSavedByObjectVersion
1070
     0
  0
VISUALSTYLE
  5
26C
102
{ACAD_REACTORS
330
265
102
}
102
{ACAD_XDICTIONARY
360
29F
102
}
330
265
100
AcDbVisualStyle
  2
Hidden
 70
     6
 71
     1
 72
     2
 73
     2
 90
        0
 40
0.6
 41
30.0
 62
     5
 63
     7
 74
     2
 91
        2
 64
     7
 65
   257
 75
     2
175
     1
 42
40.0
 92
        0
 66
   257
 43
1.0
 76
     1
 77
     6
 78
     2
 67
     7
 79
     3
170
     0
171
     0
290
     0
174
     0
 93
        1
 44
0.0
173
     0
291
     0
 45
0.0
1001
ACAD
1000
AcDbSavedByObjectVersion
1070
     0
  0
VISUALSTYLE
  5
276
102
{ACAD_REACTORS
330
265
102
}
102
{ACAD_XDICTIONARY
360
2B3
102
}
330
265
100
AcDbVisualStyle
  2
JitterOff
 70
    20
 71
     2
 72
     2
 73
     0
 90
        0
 40
0.6
 41
30.0
 62
     5
 63
     7
 74
     1
 91
        4
 64
     7
 65
   257
 75
     1
175
     1
 42
1.0
 92
       10
 66
     7
 43
1.0
 76
     1
 77
     6
 78
     2
 67
     7
 79
     5
170
     0
171
     0
290
     0
174
     0
 93
        1
 44
0.0
173
     0
291
     1
 45
0.0
1001
ACAD
1000
AcDbSavedByObjectVersion
1070
     0
  0
VISUALSTYLE
  5
273
102
{ACAD_REACTORS
330
265
102
}
102
{ACAD_XDICTIONARY
360
2AD
102
}
330
265
100
AcDbVisualStyle
  2
Linepattern
 70
    14
 71
     2
 72
     2
 73
     0
 90
        0
 40
0.6
 41
30.0
 62
     5
 63
     7
 74
     1
 91
        4
 64
     7
 65
   257
 75
     7
175
     7
 42
1.0
 92
        8
 66
     7
 43
1.0
 76
     1
 77
     6
 78
     2
 67
     7
 79
     5
170
     0
171
     0
290
     0
174
     0
 93
        1
 44
0.0
173
     0
291
     1
 45
0.0
1001
ACAD
1000
AcDbSavedByObjectVersion
1070
     0
  0
VISUALSTYLE
  5
277
102
{ACAD_REACTORS
330
265
102
}
102
{ACAD_XDICTIONARY
360
2B5
102
}
330
265
100
AcDbVisualStyle
  2
OverhangOff
 70
    21
 71
     2
 72
     2
 73
     0
 90
        0
 40
0.6
 41
30.0
 62
     5
 63
     7
 74
     1
 91
        4
 64
     7
 65
   257
 75
     1
175
     1
 42
1.0
 92
        9
 66
     7
 43
1.0
 76
     1
 77
     6
 78
     2
 67
     7
 79
     5
170
     0
171
     0
290
     0
174
     0
 93
        1
 44
0.0
173
     0
291
     1
 45
0.0
1001
ACAD
1000
AcDbSavedByObjectVersion
1070
     0
  0
VISUALSTYLE
  5
26E
102
{ACAD_REACTORS
330
265
102
}
102
{ACAD_XDICTIONARY
360
2A3
102
}
330
265
100
AcDbVisualStyle
  2
Realistic
 70
     8
 71
     2
 72
     3
 73
     0
 90
        2
 40
0.6
 41
30.0
 62
     5
 63
     7
 74
     0
 91
        0
 64
     7
 65
   257
 75
     1
175
     1
 42
1.0
 92
        8
 66
   257
 43
1.0
 76
     1
 77
     6
 78
     2
 67
     7
 79
     3
170
     0
171
     0
290
     0
174
     0
 93
       13
 44
0.0
173
     0
291
     0
 45
0.0
1001
ACAD
1000
AcDbSavedByObjectVersion
1070
     0
  0
VISUALSTYLE
  5
27D
102
{ACAD_REACTORS
330
265
102
}
102
{ACAD_XDICTIONARY
360
2C1
102
}
330
265
100
AcDbVisualStyle
  2
Shaded
 70
    27
 71
     2
 72
     2
 73
     1
 90
        2
 40
0.6
 41
30.0
 62
     5
 63
     7
 74
     0
 91
        4
 64
     7
 65
   257
 75
     1
175
     1
 42
1.0
 92
        8
 66
   257
 43
1.0
 76
     1
 77
     6
 78
     2
 67
     8
 79
     3
170
     0
171
     0
290
     0
174
     0
 93
        5
 44
0.0
173
     0
291
     0
 45
0.0
1001
ACAD
1000
AcDbSavedByObjectVersion
1070
     0
  0
VISUALSTYLE
  5
27C
102
{ACAD_REACTORS
330
265
102
}
102
{ACAD_XDICTIONARY
360
2BF
102
}
330
265
100
AcDbVisualStyle
  2
Shaded with edges
 70
    26
 71
     2
 72
     2
 73
     1
 90
        2
 40
0.6
 41
30.0
 62
     5
 63
     7
 74
     1
 91
       10
 64
     7
 65
   257
 75
     2
175
     1
 42
1.0
 92
        8
 66
   257
 43
1.0
 76
     1
 77
     6
 78
     2
 67
     7
 79
     3
170
     0
171
     0
290
     0
174
     0
 93
        5
 44
0.0
173
     0
291
     0
 45
0.0
1001
ACAD
1000
AcDbSavedByObjectVersion
1070
     0
  0
VISUALSTYLE
  5
279
102
{ACAD_REACTORS
330
265
102
}
102
{ACAD_XDICTIONARY
360
2B9
102
}
330
265
100
AcDbVisualStyle
  2
Shades of Gray
 70
    23
 71
     2
 72
     2
 73
     3
 90
        0
 40
0.6
 41
30.0
 62
     5
 63
     7
 74
     2
 91
        2
 64
     7
 65
     7
 75
     1
175
     1
 42
40.0
 92
        8
 66
     7
 43
1.0
 76
     1
 77
     6
 78
     2
 67
     7
 79
     3
170
     0
171
     0
290
     0
174
     0
 93
        1
 44
0.0
173
     0
291
     0
 45
0.0
1001
ACAD
1000
AcDbSavedByObjectVersion
1070
     0
  0
VISUALSTYLE
  5
27A
102
{ACAD_REACTORS
330
265
102
}
102
{ACAD_XDICTIONARY
360
2BB
102
}
330
265
100
AcDbVisualStyle
  2
Sketchy
 70
    24
 71
     1
 72
     2
 73
     2
 90
        0
 40
0.6
 41
30.0
 62
     5
 63
     7
 74
     2
 91
        2
 64
     7
 65
     7
 75
     1
175
     1
 42
40.0
 92
       11
 66
     7
 43
1.0
 76
     1
 77
     6
 78
     2
 67
     7
 79
     6
170
     0
171
     0
290
     0
174
     0
 93
        1
 44
0.0
173
     0
291
     0
 45
0.0
1001
ACAD
1000
AcDbSavedByObjectVersion
1070
     0
  0
VISUALSTYLE
  5
272
102
{ACAD_REACTORS
330
265
102
}
102
{ACAD_XDICTIONARY
360
2AB
102
}
330
265
100
AcDbVisualStyle
  2
Thicken
 70
    13
 71
     2
 72
     2
 73
     0
 90
        0
 40
0.6
 41
30.0
 62
     5
 63
     7
 74
     1
 91
        4
 64
     7
 65
   257
 75
     1
175
     1
 42
1.0
 92
       12
 66
     7
 43
1.0
 76
     1
 77
     6
 78
     2
 67
     7
 79
     5
170
     0
171
     0
290
     0
174
     0
 93
        1
 44
0.0
173
     0
291
     1
 45
0.0
1001
ACAD
1000
AcDbSavedByObjectVersion
1070
     0
  0
VISUALSTYLE
  5
26B
102
{ACAD_REACTORS
330
265
102
}
102
{ACAD_XDICTIONARY
360
29D
102
}
330
265
100
AcDbVisualStyle
  2
Wireframe
 70
     5
 71
     0
 72
     2
 73
     0
 90
        0
 40
0.6
 41
30.0
 62
     5
 63
     7
 74
     1
 91
        4
 64
     7
 65
   257
 75
     1
175
     1
 42
1.0
 92
        0
 66
   257
 43
1.0
 76
     1
 77
     6
 78
     2
 67
     7
 79
     3
170
     0
171
     0
290
     0
174
     0
 93
        1
 44
0.0
173
     0
291
     0
 45
0.0
1001
ACAD
1000
AcDbSavedByObjectVersion
1070
     0
  0
VISUALSTYLE
  5
27B
102
{ACAD_REACTORS
330
265
102
}
102
{ACAD_XDICTIONARY
360
2BD
102
}
330
265
100
AcDbVisualStyle
  2
X-Ray
 70
    25
 71
     2
 72
     2
 73
     1
 90
        1
 40
0.5
 41
30.0
 62
     5
 63
     7
 74
     1
 91
        0
 64
     7
 65
   257
 75
     1
175
     1
 42
1.0
 92
        8
 66
     7
 43
1.0
 76
     1
 77
     6
 78
     2
 67
     7
 79
     3
170
     0
171
     0
290
     0
174
     0
 93
       13
 44
0.0
173
     0
291
     0
 45
0.0
1001
ACAD
1000
AcDbSavedByObjectVersion
1070
     0
  0
DICTIONARYVAR
  5
28C
102
{ACAD_REACTORS
330
282
102
}
330
282
100
DictionaryVariables
280
     0
  1
1:1
  0
DICTIONARYVAR
  5
284
102
{ACAD_REACTORS
330
282
102
}
330
282
100
DictionaryVariables
280
     0
  1
Standard
  0
DICTIONARYVAR
  5
283
102
{ACAD_REACTORS
330
282
102
}
330
282
100
DictionaryVariables
280
     0
  1
Standard
  0
DICTIONARYVAR
  5
288
102
{ACAD_REACTORS
330
282
102
}
330
282
100
DictionaryVariables
280
     0
  1
2
  0
DICTIONARYVAR
  5
289
102
{ACAD_REACTORS
330
282
102
}
330
282
100
DictionaryVariables
280
     0
  1
1
  0
DICTIONARYVAR
  5
285
102
{ACAD_REACTORS
330
282
102
}
330
282
100
DictionaryVariables
280
     0
  1
0
  0
DICTIONARY
  5
28F
330
2B
100
AcDbDictionary
280
     1
281
     1
  3
ACAD_XREC_ROUNDTRIP
360
290
  0
DICTIONARY
  5
28D
330
2A
100
AcDbDictionary
280
     1
281
     1
  3
ACAD_XREC_ROUNDTRIP
360
28E
  0
DICTIONARY
  5
291
330
2C
100
AcDbDictionary
280
     1
281
     1
  3
ACAD_XREC_ROUNDTRIP
360
292
  0
DICTIONARY
  5
2C4
330
281
100
AcDbDictionary
280
     1
281
     1
  3
ACAD_XREC_ROUNDTRIP
360
2C5
  0
DICTIONARY
  5
29B
330
26A
100
AcDbDictionary
280
     1
281
     1
  3
ACAD_XREC_ROUNDTRIP
360
29C
  0
DICTIONARY
  5
2A1
330
26D
100
AcDbDictionary
280
     1
281
     1
  3
ACAD_XREC_ROUNDTRIP
360
2A2
  0
DICTIONARY
  5
2A9
330
271
100
AcDbDictionary
280
     1
281
     1
  3
ACAD_XREC_ROUNDTRIP
360
2AA
  0
DICTIONARY
  5
2B1
330
275
100
AcDbDictionary
280
     1
281
     1
  3
ACAD_XREC_ROUNDTRIP
360
2B2
  0
DICTIONARY
  5
2A5
330
26F
100
AcDbDictionary
280
     1
281
     1
  3
ACAD_XREC_ROUNDTRIP
360
2A6
  0
DICTIONARY
  5
2A7
330
270
100
AcDbDictionary
280
     1
281
     1
  3
ACAD_XREC_ROUNDTRIP
360
2A8
  0
DICTIONARY
  5
2B7
330
278
100
AcDbDictionary
280
     1
281
     1
  3
ACAD_XREC_ROUNDTRIP
360
2B8
  0
DICTIONARY
  5
2AF
330
274
100
AcDbDictionary
280
     1
281
     1
  3
ACAD_XREC_ROUNDTRIP
360
2B0
  0
DICTIONARY
  5
293
330
266
100
AcDbDictionary
280
     1
281
     1
  3
ACAD_XREC_ROUNDTRIP
360
294
  0
DICTIONARY
  5
295
330
267
100
AcDbDictionary
280
     1
281
     1
  3
ACAD_XREC_ROUNDTRIP
360
296
  0
DICTIONARY
  5
297
330
268
100
AcDbDictionary
280
     1
281
     1
  3
ACAD_XREC_ROUNDTRIP
360
298
  0
DICTIONARY
  5
299
330
269
100
AcDbDictionary
280
     1
281
     1
  3
ACAD_XREC_ROUNDTRIP
360
29A
  0
DICTIONARY
  5
29F
330
26C
100
AcDbDictionary
280
     1
281
     1
  3
ACAD_XREC_ROUNDTRIP
360
2A0
  0
DICTIONARY
  5
2B3
330
276
100
AcDbDictionary
280
     1
281
     1
  3
ACAD_XREC_ROUNDTRIP
360
2B4
  0
DICTIONARY
  5
2AD
330
273
100
AcDbDictionary
280
     1
281
     1
  3
ACAD_XREC_ROUNDTRIP
360
2AE
  0
DICTIONARY
  5
2B5
330
277
100
AcDbDictionary
280
     1
281
     1
  3
ACAD_XREC_ROUNDTRIP
360
2B6
  0
DICTIONARY
  5
2A3
330
26E
100
AcDbDictionary
280
     1
281
     1
  3
ACAD_XREC_ROUNDTRIP
360
2A4
  0
DICTIONARY
  5
2C1
330
27D
100
AcDbDictionary
280
     1
281
     1
  3
ACAD_XREC_ROUNDTRIP
360
2C2
  0
DICTIONARY
  5
2BF
330
27C
100
AcDbDictionary
280
     1
281
     1
  3
ACAD_XREC_ROUNDTRIP
360
2C0
  0
DICTIONARY
  5
2B9
330
279
100
AcDbDictionary
280
     1
281
     1
  3
ACAD_XREC_ROUNDTRIP
360
2BA
  0
DICTIONARY
  5
2BB
330
27A
100
AcDbDictionary
280
     1
281
     1
  3
ACAD_XREC_ROUNDTRIP
360
2BC
  0
DICTIONARY
  5
2AB
330
272
100
AcDbDictionary
280
     1
281
     1
  3
ACAD_XREC_ROUNDTRIP
360
2AC
  0
DICTIONARY
  5
29D
330
26B
100
AcDbDictionary
280
     1
281
     1
  3
ACAD_XREC_ROUNDTRIP
360
29E
  0
DICTIONARY
  5
2BD
330
27B
100
AcDbDictionary
280
     1
281
     1
  3
ACAD_XREC_ROUNDTRIP
360
2BE
  0
XRECORD
  5
290
102
{ACAD_REACTORS
330
28F
102
}
330
28F
100
AcDbXrecord
280
     1
102
MATERIAL
148
0.0
149
0.0
149
0.0
 93
        0
 94
      127
282
     0
 72
     1
 77
     1
171
     1
175
     1
179
     1
273
     0
  0
XRECORD
  5
28E
102
{ACAD_REACTORS
330
28D
102
}
330
28D
100
AcDbXrecord
280
     1
102
MATERIAL
148
0.0
149
0.0
149
0.0
 93
        0
 94
      127
282
     0
 72
     1
 77
     1
171
     1
175
     1
179
     1
273
     0
  0
XRECORD
  5
292
102
{ACAD_REACTORS
330
291
102
}
330
291
100
AcDbXrecord
280
     1
102
MATERIAL
148
0.0
149
0.0
149
0.0
 93
        0
 94
      127
282
     0
 72
     1
 77
     1
171
     1
175
     1
179
     1
273
     0
  0
XRECORD
  5
2C5
102
{ACAD_REACTORS
330
2C4
102
}
330
2C4
100
AcDbXrecord
280
     1
102
ACAD_ROUNDTRIP_2010_MLEADER_STYLE
  0
XRECORD
  5
29C
102
{ACAD_REACTORS
330
29B
102
}
330
29B
100
AcDbXrecord
280
     1
102
RTVSPropertyOp0
 70
     1
102
RTVSPropertyOp1
 70
     1
102
RTVSPropertyOp2
 70
     1
102
RTVSPropertyOp3
 70
     1
102
RTVSPropertyOp4
 70
     1
102
RTVSPropertyOp5
 70
     1
102
RTVSPropertyOp6
 70
     1
102
RTVSPropertyOp7
 70
     1
102
RTVSPropertyOp8
 70
     1
102
RTVSPropertyOp9
 70
     1
102
RTVSPropertyOp10
 70
     1
102
RTVSPropertyOp11
 70
     1
102
RTVSPropertyOp12
 70
     1
102
RTVSPropertyOp13
 70
     1
102
RTVSPropertyOp14
 70
     1
102
RTVSPropertyOp15
 70
     1
102
RTVSPropertyOp16
 70
     1
102
RTVSPropertyOp17
 70
     1
102
RTVSPropertyOp18
 70
     1
102
RTVSPropertyOp19
 70
     1
102
RTVSPropertyOp20
 70
     1
102
RTVSPropertyOp21
 70
     1
102
RTVSPropertyOp22
 70
     1
102
RTVSPropertyOp23
 70
     1
102
RTVSPropertyOp24
 70
     1
102
RTVSPropertyOp25
 70
     1
102
RTVSPropertyOp26
 70
     1
102
RTVSPropertyOp27
 70
     1
102
RTVSPropertyOp28
 70
     1
102
RTVSPropertyOp29
 70
     1
102
RTVSPropertyOp30
 70
     1
102
RTVSPropertyOp31
 70
     1
102
RTVSPropertyOp32
 70
     1
102
RTVSPropertyOp33
 70
     1
102
RTVSPropertyOp34
 70
     1
102
RTVSPropertyOp35
 70
     1
102
RTVSPropertyOp36
 70
     1
102
RTVSPropertyOp37
 70
     1
102
RTVSPropertyOp38
 70
     1
102
RTVSPropertyOp39
 70
     1
102
RTVSPropertyOp40
 70
     1
102
RTVSPropertyOp41
 70
     1
102
RTVSPropertyOp42
 70
     1
102
RTVSPropertyOp43
 70
     1
102
RTVSPropertyOp44
 70
     1
102
RTVSPropertyOp45
 70
     1
102
RTVSPropertyOp46
 70
     1
102
RTVSPropertyOp47
 70
     1
102
RTVSPropertyOp48
 70
     1
102
RTVSPropertyOp49
 70
     1
102
RTVSPropertyOp50
 70
     1
102
RTVSPropertyOp51
 70
     0
102
RTVSPropertyOp52
 70
     0
102
RTVSPropertyOp53
 70
     1
102
RTVSPropertyOp54
 70
     1
102
RTVSPropertyOp55
 70
     1
102
RTVSPropertyOp56
 70
     1
102
RTVSPropertyOp57
 70
     1
102
RTVSPost2010Prop28
280
     1
102
RTVSPost2010PropOp28
 70
     1
102
RTVSPost2010Prop29
280
     1
102
RTVSPost2010PropOp29
 70
     1
102
RTVSPost2010Prop30
280
     0
102
RTVSPost2010PropOp30
 70
     1
102
RTVSPost2010Prop31
280
     0
102
RTVSPost2010PropOp31
 70
     1
102
RTVSPost2010Prop32
280
     0
102
RTVSPost2010PropOp32
 70
     1
102
RTVSPost2010Prop33
280
     0
102
RTVSPost2010PropOp33
 70
     1
102
RTVSPost2010Prop34
280
     0
102
RTVSPost2010PropOp34
 70
     1
102
RTVSPost2010Prop35
280
     0
102
RTVSPost2010PropOp35
 70
     1
102
RTVSPost2010Prop36
280
     0
102
RTVSPost2010PropOp36
 70
     1
102
RTVSPost2010Prop37
 90
       50
102
RTVSPost2010PropOp37
 70
     1
102
RTVSPost2010Prop38
140
0.0
102
RTVSPost2010PropOp38
 70
     1
102
RTVSPost2010Prop39
140
1.0
102
RTVSPost2010PropOp39
 70
     1
102
RTVSPost2010Prop40
 90
        0
102
RTVSPost2010PropOp40
 70
     1
102
RTVSPost2010Prop41ColorIndex
 90
       18
102
RTVSPost2010Prop41ColorRGB
 90
        0
102
RTVSPost2010PropOp41
 70
     1
102
RTVSPost2010Prop42
 90
       50
102
RTVSPost2010PropOp42
 70
     1
102
RTVSPost2010Prop43
 90
        3
102
RTVSPost2010PropOp43
 70
     1
102
RTVSPost2010Prop44ColorIndex
 90
        5
102
RTVSPost2010Prop44ColorRGB
 90
      255
102
RTVSPost2010PropOp44
 70
     1
102
RTVSPost2010Prop45
280
     0
102
RTVSPost2010PropOp45
 70
     1
102
RTVSPost2010Prop46
 90
       50
102
RTVSPost2010PropOp46
 70
     1
102
RTVSPost2010Prop47
 90
       50
102
RTVSPost2010PropOp47
 70
     1
102
RTVSPost2010Prop48
 90
       50
102
RTVSPost2010PropOp48
 70
     1
102
RTVSPost2010Prop49
280
     0
102
RTVSPost2010PropOp49
 70
     1
102
RTVSPost2010Prop50
 90
       50
102
RTVSPost2010PropOp50
 70
     1
102
RTVSPost2010Prop51ColorIndex
 90
      256
102
RTVSPost2010Prop51ColorRGB
 90
-16777216
102
RTVSPost2010PropOp51
 70
     0
102
RTVSPost2010Prop52
140
1.0
102
RTVSPost2010PropOp52
 70
     0
102
RTVSPost2010Prop53
 90
        2
102
RTVSPost2010PropOp53
 70
     1
102
RTVSPost2010Prop54
  1
strokes_ogs.tif
102
RTVSPost2010PropOp54
 70
     1
102
RTVSPost2010Prop55
280
     0
102
RTVSPost2010PropOp55
 70
     1
102
RTVSPost2010Prop56
140
1.0
102
RTVSPost2010PropOp56
 70
     1
102
RTVSPost2010Prop57
140
1.0
102
RTVSPost2010PropOp57
 70
     1
  0
XRECORD
  5
2A2
102
{ACAD_REACTORS
330
2A1
102
}
330
2A1
100
AcDbXrecord
280
     1
102
RTVSPropertyOp0
 70
     1
102
RTVSPropertyOp1
 70
     1
102
RTVSPropertyOp2
 70
     1
102
RTVSPropertyOp3
 70
     1
102
RTVSPropertyOp4
 70
     1
102
RTVSPropertyOp5
 70
     1
102
RTVSPropertyOp6
 70
     1
102
RTVSPropertyOp7
 70
     1
102
RTVSPropertyOp8
 70
     1
102
RTVSPropertyOp9
 70
     1
102
RTVSPropertyOp10
 70
     1
102
RTVSPropertyOp11
 70
     1
102
RTVSPropertyOp12
 70
     1
102
RTVSPropertyOp13
 70
     1
102
RTVSPropertyOp14
 70
     1
102
RTVSPropertyOp15
 70
     1
102
RTVSPropertyOp16
 70
     1
102
RTVSPropertyOp17
 70
     1
102
RTVSPropertyOp18
 70
     1
102
RTVSPropertyOp19
 70
     1
102
RTVSPropertyOp20
 70
     1
102
RTVSPropertyOp21
 70
     1
102
RTVSPropertyOp22
 70
     1
102
RTVSPropertyOp23
 70
     1
102
RTVSPropertyOp24
 70
     1
102
RTVSPropertyOp25
 70
     1
102
RTVSPropertyOp26
 70
     1
102
RTVSPropertyOp27
 70
     1
102
RTVSPropertyOp28
 70
     1
102
RTVSPropertyOp29
 70
     1
102
RTVSPropertyOp30
 70
     1
102
RTVSPropertyOp31
 70
     1
102
RTVSPropertyOp32
 70
     1
102
RTVSPropertyOp33
 70
     1
102
RTVSPropertyOp34
 70
     1
102
RTVSPropertyOp35
 70
     1
102
RTVSPropertyOp36
 70
     1
102
RTVSPropertyOp37
 70
     1
102
RTVSPropertyOp38
 70
     1
102
RTVSPropertyOp39
 70
     1
102
RTVSPropertyOp40
 70
     1
102
RTVSPropertyOp41
 70
     1
102
RTVSPropertyOp42
 70
     1
102
RTVSPropertyOp43
 70
     1
102
RTVSPropertyOp44
 70
     1
102
RTVSPropertyOp45
 70
     1
102
RTVSPropertyOp46
 70
     1
102
RTVSPropertyOp47
 70
     1
102
RTVSPropertyOp48
 70
     1
102
RTVSPropertyOp49
 70
     1
102
RTVSPropertyOp50
 70
     1
102
RTVSPropertyOp51
 70
     0
102
RTVSPropertyOp52
 70
     0
102
RTVSPropertyOp53
 70
     1
102
RTVSPropertyOp54
 70
     1
102
RTVSPropertyOp55
 70
     1
102
RTVSPropertyOp56
 70
     1
102
RTVSPropertyOp57
 70
     1
102
RTVSPost2010Prop28
280
     0
102
RTVSPost2010PropOp28
 70
     1
102
RTVSPost2010Prop29
280
     1
102
RTVSPost2010PropOp29
 70
     1
102
RTVSPost2010Prop30
280
     1
102
RTVSPost2010PropOp30
 70
     1
102
RTVSPost2010Prop31
280
     0
102
RTVSPost2010PropOp31
 70
     1
102
RTVSPost2010Prop32
280
     0
102
RTVSPost2010PropOp32
 70
     1
102
RTVSPost2010Prop33
280
     0
102
RTVSPost2010PropOp33
 70
     1
102
RTVSPost2010Prop34
280
     0
102
RTVSPost2010PropOp34
 70
     1
102
RTVSPost2010Prop35
280
     0
102
RTVSPost2010PropOp35
 70
     1
102
RTVSPost2010Prop36
280
     0
102
RTVSPost2010PropOp36
 70
     1
102
RTVSPost2010Prop37
 90
       50
102
RTVSPost2010PropOp37
 70
     1
102
RTVSPost2010Prop38
140
0.0
102
RTVSPost2010PropOp38
 70
     1
102
RTVSPost2010Prop39
140
1.0
102
RTVSPost2010PropOp39
 70
     1
102
RTVSPost2010Prop40
 90
        0
102
RTVSPost2010PropOp40
 70
     1
102
RTVSPost2010Prop41ColorIndex
 90
       18
102
RTVSPost2010Prop41ColorRGB
 90
        0
102
RTVSPost2010PropOp41
 70
     1
102
RTVSPost2010Prop42
 90
       50
102
RTVSPost2010PropOp42
 70
     1
102
RTVSPost2010Prop43
 90
        3
102
RTVSPost2010PropOp43
 70
     1
102
RTVSPost2010Prop44ColorIndex
 90
        5
102
RTVSPost2010Prop44ColorRGB
 90
      255
102
RTVSPost2010PropOp44
 70
     1
102
RTVSPost2010Prop45
280
     0
102
RTVSPost2010PropOp45
 70
     1
102
RTVSPost2010Prop46
 90
       50
102
RTVSPost2010PropOp46
 70
     1
102
RTVSPost2010Prop47
 90
       50
102
RTVSPost2010PropOp47
 70
     1
102
RTVSPost2010Prop48
 90
       50
102
RTVSPost2010PropOp48
 70
     1
102
RTVSPost2010Prop49
280
     0
102
RTVSPost2010PropOp49
 70
     1
102
RTVSPost2010Prop50
 90
       50
102
RTVSPost2010PropOp50
 70
     1
102
RTVSPost2010Prop51ColorIndex
 90
      256
102
RTVSPost2010Prop51ColorRGB
 90
-16777216
102
RTVSPost2010PropOp51
 70
     0
102
RTVSPost2010Prop52
140
1.0
102
RTVSPost2010PropOp52
 70
     0
102
RTVSPost2010Prop53
 90
        2
102
RTVSPost2010PropOp53
 70
     1
102
RTVSPost2010Prop54
  1
strokes_ogs.tif
102
RTVSPost2010PropOp54
 70
     1
102
RTVSPost2010Prop55
280
     0
102
RTVSPost2010PropOp55
 70
     1
102
RTVSPost2010Prop56
140
1.0
102
RTVSPost2010PropOp56
 70
     1
102
RTVSPost2010Prop57
140
1.0
102
RTVSPost2010PropOp57
 70
     1
  0
XRECORD
  5
2AA
102
{ACAD_REACTORS
330
2A9
102
}
330
2A9
100
AcDbXrecord
280
     1
102
RTVSPropertyOp0
 70
     1
102
RTVSPropertyOp1
 70
     1
102
RTVSPropertyOp2
 70
     1
102
RTVSPropertyOp3
 70
     1
102
RTVSPropertyOp4
 70
     1
102
RTVSPropertyOp5
 70
     1
102
RTVSPropertyOp6
 70
     1
102
RTVSPropertyOp7
 70
     1
102
RTVSPropertyOp8
 70
     1
102
RTVSPropertyOp9
 70
     1
102
RTVSPropertyOp10
 70
     1
102
RTVSPropertyOp11
 70
     1
102
RTVSPropertyOp12
 70
     1
102
RTVSPropertyOp13
 70
     1
102
RTVSPropertyOp14
 70
     1
102
RTVSPropertyOp15
 70
     1
102
RTVSPropertyOp16
 70
     1
102
RTVSPropertyOp17
 70
     1
102
RTVSPropertyOp18
 70
     1
102
RTVSPropertyOp19
 70
     1
102
RTVSPropertyOp20
 70
     1
102
RTVSPropertyOp21
 70
     1
102
RTVSPropertyOp22
 70
     1
102
RTVSPropertyOp23
 70
     1
102
RTVSPropertyOp24
 70
     1
102
RTVSPropertyOp25
 70
     1
102
RTVSPropertyOp26
 70
     1
102
RTVSPropertyOp27
 70
     1
102
RTVSPropertyOp28
 70
     1
102
RTVSPropertyOp29
 70
     1
102
RTVSPropertyOp30
 70
     1
102
RTVSPropertyOp31
 70
     1
102
RTVSPropertyOp32
 70
     1
102
RTVSPropertyOp33
 70
     1
102
RTVSPropertyOp34
 70
     1
102
RTVSPropertyOp35
 70
     1
102
RTVSPropertyOp36
 70
     1
102
RTVSPropertyOp37
 70
     1
102
RTVSPropertyOp38
 70
     1
102
RTVSPropertyOp39
 70
     1
102
RTVSPropertyOp40
 70
     1
102
RTVSPropertyOp41
 70
     1
102
RTVSPropertyOp42
 70
     1
102
RTVSPropertyOp43
 70
     1
102
RTVSPropertyOp44
 70
     1
102
RTVSPropertyOp45
 70
     1
102
RTVSPropertyOp46
 70
     1
102
RTVSPropertyOp47
 70
     1
102
RTVSPropertyOp48
 70
     1
102
RTVSPropertyOp49
 70
     1
102
RTVSPropertyOp50
 70
     1
102
RTVSPropertyOp51
 70
     0
102
RTVSPropertyOp52
 70
     0
102
RTVSPropertyOp53
 70
     1
102
RTVSPropertyOp54
 70
     1
102
RTVSPropertyOp55
 70
     1
102
RTVSPropertyOp56
 70
     1
102
RTVSPropertyOp57
 70
     1
102
RTVSPost2010Prop28
280
     0
102
RTVSPost2010PropOp28
 70
     1
102
RTVSPost2010Prop29
280
     1
102
RTVSPost2010PropOp29
 70
     1
102
RTVSPost2010Prop30
280
     1
102
RTVSPost2010PropOp30
 70
     1
102
RTVSPost2010Prop31
280
     0
102
RTVSPost2010PropOp31
 70
     1
102
RTVSPost2010Prop32
280
     0
102
RTVSPost2010PropOp32
 70
     1
102
RTVSPost2010Prop33
280
     0
102
RTVSPost2010PropOp33
 70
     1
102
RTVSPost2010Prop34
280
     0
102
RTVSPost2010PropOp34
 70
     1
102
RTVSPost2010Prop35
280
     0
102
RTVSPost2010PropOp35
 70
     1
102
RTVSPost2010Prop36
280
     0
102
RTVSPost2010PropOp36
 70
     1
102
RTVSPost2010Prop37
 90
       50
102
RTVSPost2010PropOp37
 70
     1
102
RTVSPost2010Prop38
140
0.0
102
RTVSPost2010PropOp38
 70
     1
102
RTVSPost2010Prop39
140
1.0
102
RTVSPost2010PropOp39
 70
     1
102
RTVSPost2010Prop40
 90
        0
102
RTVSPost2010PropOp40
 70
     1
102
RTVSPost2010Prop41ColorIndex
 90
       18
102
RTVSPost2010Prop41ColorRGB
 90
        0
102
RTVSPost2010PropOp41
 70
     1
102
RTVSPost2010Prop42
 90
       50
102
RTVSPost2010PropOp42
 70
     1
102
RTVSPost2010Prop43
 90
        3
102
RTVSPost2010PropOp43
 70
     1
102
RTVSPost2010Prop44ColorIndex
 90
        5
102
RTVSPost2010Prop44ColorRGB
 90
      255
102
RTVSPost2010PropOp44
 70
     1
102
RTVSPost2010Prop45
280
     0
102
RTVSPost2010PropOp45
 70
     1
102
RTVSPost2010Prop46
 90
       50
102
RTVSPost2010PropOp46
 70
     1
102
RTVSPost2010Prop47
 90
       50
102
RTVSPost2010PropOp47
 70
     1
102
RTVSPost2010Prop48
 90
       50
102
RTVSPost2010PropOp48
 70
     1
102
RTVSPost2010Prop49
280
     0
102
RTVSPost2010PropOp49
 70
     1
102
RTVSPost2010Prop50
 90
       50
102
RTVSPost2010PropOp50
 70
     1
102
RTVSPost2010Prop51ColorIndex
 90
      256
102
RTVSPost2010Prop51ColorRGB
 90
-16777216
102
RTVSPost2010PropOp51
 70
     0
102
RTVSPost2010Prop52
140
1.0
102
RTVSPost2010PropOp52
 70
     0
102
RTVSPost2010Prop53
 90
        2
102
RTVSPost2010PropOp53
 70
     1
102
RTVSPost2010Prop54
  1
strokes_ogs.tif
102
RTVSPost2010PropOp54
 70
     1
102
RTVSPost2010Prop55
280
     0
102
RTVSPost2010PropOp55
 70
     1
102
RTVSPost2010Prop56
140
1.0
102
RTVSPost2010PropOp56
 70
     1
102
RTVSPost2010Prop57
140
1.0
102
RTVSPost2010PropOp57
 70
     1
  0
XRECORD
  5
2B2
102
{ACAD_REACTORS
330
2B1
102
}
330
2B1
100
AcDbXrecord
280
     1
102
RTVSPropertyOp0
 70
     1
102
RTVSPropertyOp1
 70
     1
102
RTVSPropertyOp2
 70
     1
102
RTVSPropertyOp3
 70
     1
102
RTVSPropertyOp4
 70
     1
102
RTVSPropertyOp5
 70
     1
102
RTVSPropertyOp6
 70
     1
102
RTVSPropertyOp7
 70
     1
102
RTVSPropertyOp8
 70
     1
102
RTVSPropertyOp9
 70
     1
102
RTVSPropertyOp10
 70
     1
102
RTVSPropertyOp11
 70
     1
102
RTVSPropertyOp12
 70
     1
102
RTVSPropertyOp13
 70
     1
102
RTVSPropertyOp14
 70
     1
102
RTVSPropertyOp15
 70
     1
102
RTVSPropertyOp16
 70
     1
102
RTVSPropertyOp17
 70
     1
102
RTVSPropertyOp18
 70
     1
102
RTVSPropertyOp19
 70
     1
102
RTVSPropertyOp20
 70
     1
102
RTVSPropertyOp21
 70
     1
102
RTVSPropertyOp22
 70
     1
102
RTVSPropertyOp23
 70
     1
102
RTVSPropertyOp24
 70
     1
102
RTVSPropertyOp25
 70
     1
102
RTVSPropertyOp26
 70
     1
102
RTVSPropertyOp27
 70
     1
102
RTVSPropertyOp28
 70
     1
102
RTVSPropertyOp29
 70
     1
102
RTVSPropertyOp30
 70
     1
102
RTVSPropertyOp31
 70
     1
102
RTVSPropertyOp32
 70
     1
102
RTVSPropertyOp33
 70
     1
102
RTVSPropertyOp34
 70
     1
102
RTVSPropertyOp35
 70
     1
102
RTVSPropertyOp36
 70
     1
102
RTVSPropertyOp37
 70
     1
102
RTVSPropertyOp38
 70
     1
102
RTVSPropertyOp39
 70
     1
102
RTVSPropertyOp40
 70
     1
102
RTVSPropertyOp41
 70
     1
102
RTVSPropertyOp42
 70
     1
102
RTVSPropertyOp43
 70
     1
102
RTVSPropertyOp44
 70
     1
102
RTVSPropertyOp45
 70
     1
102
RTVSPropertyOp46
 70
     1
102
RTVSPropertyOp47
 70
     1
102
RTVSPropertyOp48
 70
     1
102
RTVSPropertyOp49
 70
     1
102
RTVSPropertyOp50
 70
     1
102
RTVSPropertyOp51
 70
     0
102
RTVSPropertyOp52
 70
     0
102
RTVSPropertyOp53
 70
     1
102
RTVSPropertyOp54
 70
     1
102
RTVSPropertyOp55
 70
     1
102
RTVSPropertyOp56
 70
     1
102
RTVSPropertyOp57
 70
     1
102
RTVSPost2010Prop28
280
     0
102
RTVSPost2010PropOp28
 70
     1
102
RTVSPost2010Prop29
280
     1
102
RTVSPost2010PropOp29
 70
     1
102
RTVSPost2010Prop30
280
     1
102
RTVSPost2010PropOp30
 70
     1
102
RTVSPost2010Prop31
280
     0
102
RTVSPost2010PropOp31
 70
     1
102
RTVSPost2010Prop32
280
     0
102
RTVSPost2010PropOp32
 70
     1
102
RTVSPost2010Prop33
280
     0
102
RTVSPost2010PropOp33
 70
     1
102
RTVSPost2010Prop34
280
     0
102
RTVSPost2010PropOp34
 70
     1
102
RTVSPost2010Prop35
280
     0
102
RTVSPost2010PropOp35
 70
     1
102
RTVSPost2010Prop36
280
     0
102
RTVSPost2010PropOp36
 70
     1
102
RTVSPost2010Prop37
 90
       50
102
RTVSPost2010PropOp37
 70
     1
102
RTVSPost2010Prop38
140
0.0
102
RTVSPost2010PropOp38
 70
     1
102
RTVSPost2010Prop39
140
1.0
102
RTVSPost2010PropOp39
 70
     1
102
RTVSPost2010Prop40
 90
        0
102
RTVSPost2010PropOp40
 70
     1
102
RTVSPost2010Prop41ColorIndex
 90
       18
102
RTVSPost2010Prop41ColorRGB
 90
        0
102
RTVSPost2010PropOp41
 70
     1
102
RTVSPost2010Prop42
 90
       50
102
RTVSPost2010PropOp42
 70
     1
102
RTVSPost2010Prop43
 90
        3
102
RTVSPost2010PropOp43
 70
     1
102
RTVSPost2010Prop44ColorIndex
 90
        5
102
RTVSPost2010Prop44ColorRGB
 90
      255
102
RTVSPost2010PropOp44
 70
     1
102
RTVSPost2010Prop45
280
     0
102
RTVSPost2010PropOp45
 70
     1
102
RTVSPost2010Prop46
 90
       50
102
RTVSPost2010PropOp46
 70
     1
102
RTVSPost2010Prop47
 90
       50
102
RTVSPost2010PropOp47
 70
     1
102
RTVSPost2010Prop48
 90
       50
102
RTVSPost2010PropOp48
 70
     1
102
RTVSPost2010Prop49
280
     0
102
RTVSPost2010PropOp49
 70
     1
102
RTVSPost2010Prop50
 90
       50
102
RTVSPost2010PropOp50
 70
     1
102
RTVSPost2010Prop51ColorIndex
 90
      256
102
RTVSPost2010Prop51ColorRGB
 90
-16777216
102
RTVSPost2010PropOp51
 70
     0
102
RTVSPost2010Prop52
140
1.0
102
RTVSPost2010PropOp52
 70
     0
102
RTVSPost2010Prop53
 90
        2
102
RTVSPost2010PropOp53
 70
     1
102
RTVSPost2010Prop54
  1
strokes_ogs.tif
102
RTVSPost2010PropOp54
 70
     1
102
RTVSPost2010Prop55
280
     0
102
RTVSPost2010PropOp55
 70
     1
102
RTVSPost2010Prop56
140
1.0
102
RTVSPost2010PropOp56
 70
     1
102
RTVSPost2010Prop57
140
1.0
102
RTVSPost2010PropOp57
 70
     1
  0
XRECORD
  5
2A6
102
{ACAD_REACTORS
330
2A5
102
}
330
2A5
100
AcDbXrecord
280
     1
102
RTVSPropertyOp0
 70
     1
102
RTVSPropertyOp1
 70
     1
102
RTVSPropertyOp2
 70
     1
102
RTVSPropertyOp3
 70
     1
102
RTVSPropertyOp4
 70
     1
102
RTVSPropertyOp5
 70
     1
102
RTVSPropertyOp6
 70
     1
102
RTVSPropertyOp7
 70
     1
102
RTVSPropertyOp8
 70
     1
102
RTVSPropertyOp9
 70
     1
102
RTVSPropertyOp10
 70
     1
102
RTVSPropertyOp11
 70
     1
102
RTVSPropertyOp12
 70
     1
102
RTVSPropertyOp13
 70
     1
102
RTVSPropertyOp14
 70
     1
102
RTVSPropertyOp15
 70
     1
102
RTVSPropertyOp16
 70
     1
102
RTVSPropertyOp17
 70
     1
102
RTVSPropertyOp18
 70
     1
102
RTVSPropertyOp19
 70
     1
102
RTVSPropertyOp20
 70
     1
102
RTVSPropertyOp21
 70
     1
102
RTVSPropertyOp22
 70
     1
102
RTVSPropertyOp23
 70
     1
102
RTVSPropertyOp24
 70
     1
102
RTVSPropertyOp25
 70
     1
102
RTVSPropertyOp26
 70
     1
102
RTVSPropertyOp27
 70
     1
102
RTVSPropertyOp28
 70
     1
102
RTVSPropertyOp29
 70
     1
102
RTVSPropertyOp30
 70
     1
102
RTVSPropertyOp31
 70
     1
102
RTVSPropertyOp32
 70
     1
102
RTVSPropertyOp33
 70
     1
102
RTVSPropertyOp34
 70
     1
102
RTVSPropertyOp35
 70
     1
102
RTVSPropertyOp36
 70
     1
102
RTVSPropertyOp37
 70
     1
102
RTVSPropertyOp38
 70
     1
102
RTVSPropertyOp39
 70
     1
102
RTVSPropertyOp40
 70
     1
102
RTVSPropertyOp41
 70
     1
102
RTVSPropertyOp42
 70
     1
102
RTVSPropertyOp43
 70
     1
102
RTVSPropertyOp44
 70
     1
102
RTVSPropertyOp45
 70
     1
102
RTVSPropertyOp46
 70
     1
102
RTVSPropertyOp47
 70
     1
102
RTVSPropertyOp48
 70
     1
102
RTVSPropertyOp49
 70
     1
102
RTVSPropertyOp50
 70
     1
102
RTVSPropertyOp51
 70
     0
102
RTVSPropertyOp52
 70
     0
102
RTVSPropertyOp53
 70
     1
102
RTVSPropertyOp54
 70
     1
102
RTVSPropertyOp55
 70
     1
102
RTVSPropertyOp56
 70
     1
102
RTVSPropertyOp57
 70
     1
102
RTVSPost2010Prop28
280
     0
102
RTVSPost2010PropOp28
 70
     1
102
RTVSPost2010Prop29
280
     1
102
RTVSPost2010PropOp29
 70
     1
102
RTVSPost2010Prop30
280
     1
102
RTVSPost2010PropOp30
 70
     1
102
RTVSPost2010Prop31
280
     0
102
RTVSPost2010PropOp31
 70
     1
102
RTVSPost2010Prop32
280
     0
102
RTVSPost2010PropOp32
 70
     1
102
RTVSPost2010Prop33
280
     0
102
RTVSPost2010PropOp33
 70
     1
102
RTVSPost2010Prop34
280
     0
102
RTVSPost2010PropOp34
 70
     1
102
RTVSPost2010Prop35
280
     0
102
RTVSPost2010PropOp35
 70
     1
102
RTVSPost2010Prop36
280
     0
102
RTVSPost2010PropOp36
 70
     1
102
RTVSPost2010Prop37
 90
       50
102
RTVSPost2010PropOp37
 70
     1
102
RTVSPost2010Prop38
140
0.0
102
RTVSPost2010PropOp38
 70
     1
102
RTVSPost2010Prop39
140
1.0
102
RTVSPost2010PropOp39
 70
     1
102
RTVSPost2010Prop40
 90
        0
102
RTVSPost2010PropOp40
 70
     1
102
RTVSPost2010Prop41ColorIndex
 90
       18
102
RTVSPost2010Prop41ColorRGB
 90
        0
102
RTVSPost2010PropOp41
 70
     1
102
RTVSPost2010Prop42
 90
       50
102
RTVSPost2010PropOp42
 70
     1
102
RTVSPost2010Prop43
 90
        3
102
RTVSPost2010PropOp43
 70
     1
102
RTVSPost2010Prop44ColorIndex
 90
        5
102
RTVSPost2010Prop44ColorRGB
 90
      255
102
RTVSPost2010PropOp44
 70
     1
102
RTVSPost2010Prop45
280
     0
102
RTVSPost2010PropOp45
 70
     1
102
RTVSPost2010Prop46
 90
       50
102
RTVSPost2010PropOp46
 70
     1
102
RTVSPost2010Prop47
 90
       50
102
RTVSPost2010PropOp47
 70
     1
102
RTVSPost2010Prop48
 90
       50
102
RTVSPost2010PropOp48
 70
     1
102
RTVSPost2010Prop49
280
     0
102
RTVSPost2010PropOp49
 70
     1
102
RTVSPost2010Prop50
 90
       50
102
RTVSPost2010PropOp50
 70
     1
102
RTVSPost2010Prop51ColorIndex
 90
      256
102
RTVSPost2010Prop51ColorRGB
 90
-16777216
102
RTVSPost2010PropOp51
 70
     0
102
RTVSPost2010Prop52
140
1.0
102
RTVSPost2010PropOp52
 70
     0
102
RTVSPost2010Prop53
 90
        2
102
RTVSPost2010PropOp53
 70
     1
102
RTVSPost2010Prop54
  1
strokes_ogs.tif
102
RTVSPost2010PropOp54
 70
     1
102
RTVSPost2010Prop55
280
     0
102
RTVSPost2010PropOp55
 70
     1
102
RTVSPost2010Prop56
140
1.0
102
RTVSPost2010PropOp56
 70
     1
102
RTVSPost2010Prop57
140
1.0
102
RTVSPost2010PropOp57
 70
     1
  0
XRECORD
  5
2A8
102
{ACAD_REACTORS
330
2A7
102
}
330
2A7
100
AcDbXrecord
280
     1
102
RTVSPropertyOp0
 70
     1
102
RTVSPropertyOp1
 70
     1
102
RTVSPropertyOp2
 70
     1
102
RTVSPropertyOp3
 70
     1
102
RTVSPropertyOp4
 70
     1
102
RTVSPropertyOp5
 70
     1
102
RTVSPropertyOp6
 70
     1
102
RTVSPropertyOp7
 70
     1
102
RTVSPropertyOp8
 70
     1
102
RTVSPropertyOp9
 70
     1
102
RTVSPropertyOp10
 70
     1
102
RTVSPropertyOp11
 70
     1
102
RTVSPropertyOp12
 70
     1
102
RTVSPropertyOp13
 70
     1
102
RTVSPropertyOp14
 70
     1
102
RTVSPropertyOp15
 70
     1
102
RTVSPropertyOp16
 70
     1
102
RTVSPropertyOp17
 70
     1
102
RTVSPropertyOp18
 70
     1
102
RTVSPropertyOp19
 70
     1
102
RTVSPropertyOp20
 70
     1
102
RTVSPropertyOp21
 70
     1
102
RTVSPropertyOp22
 70
     1
102
RTVSPropertyOp23
 70
     1
102
RTVSPropertyOp24
 70
     1
102
RTVSPropertyOp25
 70
     1
102
RTVSPropertyOp26
 70
     1
102
RTVSPropertyOp27
 70
     1
102
RTVSPropertyOp28
 70
     1
102
RTVSPropertyOp29
 70
     1
102
RTVSPropertyOp30
 70
     1
102
RTVSPropertyOp31
 70
     1
102
RTVSPropertyOp32
 70
     1
102
RTVSPropertyOp33
 70
     1
102
RTVSPropertyOp34
 70
     1
102
RTVSPropertyOp35
 70
     1
102
RTVSPropertyOp36
 70
     1
102
RTVSPropertyOp37
 70
     1
102
RTVSPropertyOp38
 70
     1
102
RTVSPropertyOp39
 70
     1
102
RTVSPropertyOp40
 70
     1
102
RTVSPropertyOp41
 70
     1
102
RTVSPropertyOp42
 70
     1
102
RTVSPropertyOp43
 70
     1
102
RTVSPropertyOp44
 70
     1
102
RTVSPropertyOp45
 70
     1
102
RTVSPropertyOp46
 70
     1
102
RTVSPropertyOp47
 70
     1
102
RTVSPropertyOp48
 70
     1
102
RTVSPropertyOp49
 70
     1
102
RTVSPropertyOp50
 70
     1
102
RTVSPropertyOp51
 70
     0
102
RTVSPropertyOp52
 70
     0
102
RTVSPropertyOp53
 70
     1
102
RTVSPropertyOp54
 70
     1
102
RTVSPropertyOp55
 70
     1
102
RTVSPropertyOp56
 70
     1
102
RTVSPropertyOp57
 70
     1
102
RTVSPost2010Prop28
280
     0
102
RTVSPost2010PropOp28
 70
     1
102
RTVSPost2010Prop29
280
     1
102
RTVSPost2010PropOp29
 70
     1
102
RTVSPost2010Prop30
280
     1
102
RTVSPost2010PropOp30
 70
     1
102
RTVSPost2010Prop31
280
     0
102
RTVSPost2010PropOp31
 70
     1
102
RTVSPost2010Prop32
280
     0
102
RTVSPost2010PropOp32
 70
     1
102
RTVSPost2010Prop33
280
     0
102
RTVSPost2010PropOp33
 70
     1
102
RTVSPost2010Prop34
280
     0
102
RTVSPost2010PropOp34
 70
     1
102
RTVSPost2010Prop35
280
     0
102
RTVSPost2010PropOp35
 70
     1
102
RTVSPost2010Prop36
280
     0
102
RTVSPost2010PropOp36
 70
     1
102
RTVSPost2010Prop37
 90
       50
102
RTVSPost2010PropOp37
 70
     1
102
RTVSPost2010Prop38
140
0.0
102
RTVSPost2010PropOp38
 70
     1
102
RTVSPost2010Prop39
140
1.0
102
RTVSPost2010PropOp39
 70
     1
102
RTVSPost2010Prop40
 90
        0
102
RTVSPost2010PropOp40
 70
     1
102
RTVSPost2010Prop41ColorIndex
 90
       18
102
RTVSPost2010Prop41ColorRGB
 90
        0
102
RTVSPost2010PropOp41
 70
     1
102
RTVSPost2010Prop42
 90
       50
102
RTVSPost2010PropOp42
 70
     1
102
RTVSPost2010Prop43
 90
        3
102
RTVSPost2010PropOp43
 70
     1
102
RTVSPost2010Prop44ColorIndex
 90
        5
102
RTVSPost2010Prop44ColorRGB
 90
      255
102
RTVSPost2010PropOp44
 70
     1
102
RTVSPost2010Prop45
280
     0
102
RTVSPost2010PropOp45
 70
     1
102
RTVSPost2010Prop46
 90
       50
102
RTVSPost2010PropOp46
 70
     1
102
RTVSPost2010Prop47
 90
       50
102
RTVSPost2010PropOp47
 70
     1
102
RTVSPost2010Prop48
 90
       50
102
RTVSPost2010PropOp48
 70
     1
102
RTVSPost2010Prop49
280
     0
102
RTVSPost2010PropOp49
 70
     1
102
RTVSPost2010Prop50
 90
       50
102
RTVSPost2010PropOp50
 70
     1
102
RTVSPost2010Prop51ColorIndex
 90
      256
102
RTVSPost2010Prop51ColorRGB
 90
-16777216
102
RTVSPost2010PropOp51
 70
     0
102
RTVSPost2010Prop52
140
1.0
102
RTVSPost2010PropOp52
 70
     0
102
RTVSPost2010Prop53
 90
        2
102
RTVSPost2010PropOp53
 70
     1
102
RTVSPost2010Prop54
  1
strokes_ogs.tif
102
RTVSPost2010PropOp54
 70
     1
102
RTVSPost2010Prop55
280
     0
102
RTVSPost2010PropOp55
 70
     1
102
RTVSPost2010Prop56
140
1.0
102
RTVSPost2010PropOp56
 70
     1
102
RTVSPost2010Prop57
140
1.0
102
RTVSPost2010PropOp57
 70
     1
  0
XRECORD
  5
2B8
102
{ACAD_REACTORS
330
2B7
102
}
330
2B7
100
AcDbXrecord
280
     1
102
RTVSPropertyOp0
 70
     0
102
RTVSPropertyOp1
 70
     0
102
RTVSPropertyOp2
 70
     0
102
RTVSPropertyOp3
 70
     0
102
RTVSPropertyOp4
 70
     0
102
RTVSPropertyOp5
 70
     0
102
RTVSPropertyOp6
 70
     0
102
RTVSPropertyOp7
 70
     0
102
RTVSPropertyOp8
 70
     0
102
RTVSPropertyOp9
 70
     0
102
RTVSPropertyOp10
 70
     0
102
RTVSPropertyOp11
 70
     0
102
RTVSPropertyOp12
 70
     0
102
RTVSPropertyOp13
 70
     0
102
RTVSPropertyOp14
 70
     2
102
RTVSPropertyOp15
 70
     0
102
RTVSPropertyOp16
 70
     0
102
RTVSPropertyOp17
 70
     0
102
RTVSPropertyOp18
 70
     0
102
RTVSPropertyOp19
 70
     0
102
RTVSPropertyOp20
 70
     0
102
RTVSPropertyOp21
 70
     0
102
RTVSPropertyOp22
 70
     0
102
RTVSPropertyOp23
 70
     0
102
RTVSPropertyOp24
 70
     0
102
RTVSPropertyOp25
 70
     0
102
RTVSPropertyOp26
 70
     0
102
RTVSPropertyOp27
 70
     0
102
RTVSPropertyOp28
 70
     0
102
RTVSPropertyOp29
 70
     0
102
RTVSPropertyOp30
 70
     0
102
RTVSPropertyOp31
 70
     0
102
RTVSPropertyOp32
 70
     0
102
RTVSPropertyOp33
 70
     0
102
RTVSPropertyOp34
 70
     0
102
RTVSPropertyOp35
 70
     0
102
RTVSPropertyOp36
 70
     0
102
RTVSPropertyOp37
 70
     0
102
RTVSPropertyOp38
 70
     0
102
RTVSPropertyOp39
 70
     0
102
RTVSPropertyOp40
 70
     0
102
RTVSPropertyOp41
 70
     0
102
RTVSPropertyOp42
 70
     0
102
RTVSPropertyOp43
 70
     0
102
RTVSPropertyOp44
 70
     0
102
RTVSPropertyOp45
 70
     0
102
RTVSPropertyOp46
 70
     0
102
RTVSPropertyOp47
 70
     0
102
RTVSPropertyOp48
 70
     0
102
RTVSPropertyOp49
 70
     0
102
RTVSPropertyOp50
 70
     0
102
RTVSPropertyOp51
 70
     0
102
RTVSPropertyOp52
 70
     0
102
RTVSPropertyOp53
 70
     0
102
RTVSPropertyOp54
 70
     0
102
RTVSPropertyOp55
 70
     0
102
RTVSPropertyOp56
 70
     0
102
RTVSPropertyOp57
 70
     0
102
RTVSPost2010Prop28
280
     0
102
RTVSPost2010PropOp28
 70
     0
102
RTVSPost2010Prop29
280
     1
102
RTVSPost2010PropOp29
 70
     0
102
RTVSPost2010Prop30
280
     1
102
RTVSPost2010PropOp30
 70
     0
102
RTVSPost2010Prop31
280
     0
102
RTVSPost2010PropOp31
 70
     0
102
RTVSPost2010Prop32
280
     0
102
RTVSPost2010PropOp32
 70
     0
102
RTVSPost2010Prop33
280
     0
102
RTVSPost2010PropOp33
 70
     0
102
RTVSPost2010Prop34
280
     0
102
RTVSPost2010PropOp34
 70
     0
102
RTVSPost2010Prop35
280
     0
102
RTVSPost2010PropOp35
 70
     0
102
RTVSPost2010Prop36
280
     0
102
RTVSPost2010PropOp36
 70
     0
102
RTVSPost2010Prop37
 90
       50
102
RTVSPost2010PropOp37
 70
     0
102
RTVSPost2010Prop38
140
0.0
102
RTVSPost2010PropOp38
 70
     0
102
RTVSPost2010Prop39
140
1.0
102
RTVSPost2010PropOp39
 70
     0
102
RTVSPost2010Prop40
 90
        0
102
RTVSPost2010PropOp40
 70
     0
102
RTVSPost2010Prop41ColorIndex
 90
       18
102
RTVSPost2010Prop41ColorRGB
 90
        0
102
RTVSPost2010PropOp41
 70
     0
102
RTVSPost2010Prop42
 90
       50
102
RTVSPost2010PropOp42
 70
     0
102
RTVSPost2010Prop43
 90
        3
102
RTVSPost2010PropOp43
 70
     0
102
RTVSPost2010Prop44ColorIndex
 90
        5
102
RTVSPost2010Prop44ColorRGB
 90
      255
102
RTVSPost2010PropOp44
 70
     0
102
RTVSPost2010Prop45
280
     0
102
RTVSPost2010PropOp45
 70
     0
102
RTVSPost2010Prop46
 90
       50
102
RTVSPost2010PropOp46
 70
     0
102
RTVSPost2010Prop47
 90
       50
102
RTVSPost2010PropOp47
 70
     0
102
RTVSPost2010Prop48
 90
       50
102
RTVSPost2010PropOp48
 70
     0
102
RTVSPost2010Prop49
280
     0
102
RTVSPost2010PropOp49
 70
     0
102
RTVSPost2010Prop50
 90
       50
102
RTVSPost2010PropOp50
 70
     0
102
RTVSPost2010Prop51ColorIndex
 90
      256
102
RTVSPost2010Prop51ColorRGB
 90
-16777216
102
RTVSPost2010PropOp51
 70
     0
102
RTVSPost2010Prop52
140
1.0
102
RTVSPost2010PropOp52
 70
     0
102
RTVSPost2010Prop53
 90
        2
102
RTVSPost2010PropOp53
 70
     0
102
RTVSPost2010Prop54
  1
strokes_ogs.tif
102
RTVSPost2010PropOp54
 70
     0
102
RTVSPost2010Prop55
280
     0
102
RTVSPost2010PropOp55
 70
     0
102
RTVSPost2010Prop56
140
1.0
102
RTVSPost2010PropOp56
 70
     0
102
RTVSPost2010Prop57
140
1.0
102
RTVSPost2010PropOp57
 70
     0
  0
XRECORD
  5
2B0
102
{ACAD_REACTORS
330
2AF
102
}
330
2AF
100
AcDbXrecord
280
     1
102
RTVSPropertyOp0
 70
     1
102
RTVSPropertyOp1
 70
     1
102
RTVSPropertyOp2
 70
     1
102
RTVSPropertyOp3
 70
     1
102
RTVSPropertyOp4
 70
     1
102
RTVSPropertyOp5
 70
     1
102
RTVSPropertyOp6
 70
     1
102
RTVSPropertyOp7
 70
     1
102
RTVSPropertyOp8
 70
     1
102
RTVSPropertyOp9
 70
     1
102
RTVSPropertyOp10
 70
     1
102
RTVSPropertyOp11
 70
     1
102
RTVSPropertyOp12
 70
     1
102
RTVSPropertyOp13
 70
     1
102
RTVSPropertyOp14
 70
     1
102
RTVSPropertyOp15
 70
     1
102
RTVSPropertyOp16
 70
     1
102
RTVSPropertyOp17
 70
     1
102
RTVSPropertyOp18
 70
     1
102
RTVSPropertyOp19
 70
     1
102
RTVSPropertyOp20
 70
     1
102
RTVSPropertyOp21
 70
     1
102
RTVSPropertyOp22
 70
     1
102
RTVSPropertyOp23
 70
     1
102
RTVSPropertyOp24
 70
     1
102
RTVSPropertyOp25
 70
     1
102
RTVSPropertyOp26
 70
     1
102
RTVSPropertyOp27
 70
     1
102
RTVSPropertyOp28
 70
     1
102
RTVSPropertyOp29
 70
     1
102
RTVSPropertyOp30
 70
     1
102
RTVSPropertyOp31
 70
     1
102
RTVSPropertyOp32
 70
     1
102
RTVSPropertyOp33
 70
     1
102
RTVSPropertyOp34
 70
     1
102
RTVSPropertyOp35
 70
     1
102
RTVSPropertyOp36
 70
     1
102
RTVSPropertyOp37
 70
     1
102
RTVSPropertyOp38
 70
     1
102
RTVSPropertyOp39
 70
     1
102
RTVSPropertyOp40
 70
     1
102
RTVSPropertyOp41
 70
     1
102
RTVSPropertyOp42
 70
     1
102
RTVSPropertyOp43
 70
     1
102
RTVSPropertyOp44
 70
     1
102
RTVSPropertyOp45
 70
     1
102
RTVSPropertyOp46
 70
     1
102
RTVSPropertyOp47
 70
     1
102
RTVSPropertyOp48
 70
     1
102
RTVSPropertyOp49
 70
     1
102
RTVSPropertyOp50
 70
     1
102
RTVSPropertyOp51
 70
     0
102
RTVSPropertyOp52
 70
     0
102
RTVSPropertyOp53
 70
     1
102
RTVSPropertyOp54
 70
     1
102
RTVSPropertyOp55
 70
     1
102
RTVSPropertyOp56
 70
     1
102
RTVSPropertyOp57
 70
     1
102
RTVSPost2010Prop28
280
     0
102
RTVSPost2010PropOp28
 70
     1
102
RTVSPost2010Prop29
280
     1
102
RTVSPost2010PropOp29
 70
     1
102
RTVSPost2010Prop30
280
     1
102
RTVSPost2010PropOp30
 70
     1
102
RTVSPost2010Prop31
280
     0
102
RTVSPost2010PropOp31
 70
     1
102
RTVSPost2010Prop32
280
     0
102
RTVSPost2010PropOp32
 70
     1
102
RTVSPost2010Prop33
280
     0
102
RTVSPost2010PropOp33
 70
     1
102
RTVSPost2010Prop34
280
     0
102
RTVSPost2010PropOp34
 70
     1
102
RTVSPost2010Prop35
280
     0
102
RTVSPost2010PropOp35
 70
     1
102
RTVSPost2010Prop36
280
     0
102
RTVSPost2010PropOp36
 70
     1
102
RTVSPost2010Prop37
 90
       50
102
RTVSPost2010PropOp37
 70
     1
102
RTVSPost2010Prop38
140
0.0
102
RTVSPost2010PropOp38
 70
     1
102
RTVSPost2010Prop39
140
1.0
102
RTVSPost2010PropOp39
 70
     1
102
RTVSPost2010Prop40
 90
        0
102
RTVSPost2010PropOp40
 70
     1
102
RTVSPost2010Prop41ColorIndex
 90
       18
102
RTVSPost2010Prop41ColorRGB
 90
        0
102
RTVSPost2010PropOp41
 70
     1
102
RTVSPost2010Prop42
 90
       50
102
RTVSPost2010PropOp42
 70
     1
102
RTVSPost2010Prop43
 90
        3
102
RTVSPost2010PropOp43
 70
     1
102
RTVSPost2010Prop44ColorIndex
 90
        5
102
RTVSPost2010Prop44ColorRGB
 90
      255
102
RTVSPost2010PropOp44
 70
     1
102
RTVSPost2010Prop45
280
     0
102
RTVSPost2010PropOp45
 70
     1
102
RTVSPost2010Prop46
 90
       50
102
RTVSPost2010PropOp46
 70
     1
102
RTVSPost2010Prop47
 90
       50
102
RTVSPost2010PropOp47
 70
     1
102
RTVSPost2010Prop48
 90
       50
102
RTVSPost2010PropOp48
 70
     1
102
RTVSPost2010Prop49
280
     0
102
RTVSPost2010PropOp49
 70
     1
102
RTVSPost2010Prop50
 90
       50
102
RTVSPost2010PropOp50
 70
     1
102
RTVSPost2010Prop51ColorIndex
 90
      256
102
RTVSPost2010Prop51ColorRGB
 90
-16777216
102
RTVSPost2010PropOp51
 70
     0
102
RTVSPost2010Prop52
140
1.0
102
RTVSPost2010PropOp52
 70
     0
102
RTVSPost2010Prop53
 90
        2
102
RTVSPost2010PropOp53
 70
     1
102
RTVSPost2010Prop54
  1
strokes_ogs.tif
102
RTVSPost2010PropOp54
 70
     1
102
RTVSPost2010Prop55
280
     0
102
RTVSPost2010PropOp55
 70
     1
102
RTVSPost2010Prop56
140
1.0
102
RTVSPost2010PropOp56
 70
     1
102
RTVSPost2010Prop57
140
1.0
102
RTVSPost2010PropOp57
 70
     1
  0
XRECORD
  5
294
102
{ACAD_REACTORS
330
293
102
}
330
293
100
AcDbXrecord
280
     1
102
RTVSPropertyOp0
 70
     1
102
RTVSPropertyOp1
 70
     1
102
RTVSPropertyOp2
 70
     1
102
RTVSPropertyOp3
 70
     1
102
RTVSPropertyOp4
 70
     1
102
RTVSPropertyOp5
 70
     1
102
RTVSPropertyOp6
 70
     1
102
RTVSPropertyOp7
 70
     1
102
RTVSPropertyOp8
 70
     1
102
RTVSPropertyOp9
 70
     1
102
RTVSPropertyOp10
 70
     1
102
RTVSPropertyOp11
 70
     1
102
RTVSPropertyOp12
 70
     1
102
RTVSPropertyOp13
 70
     1
102
RTVSPropertyOp14
 70
     1
102
RTVSPropertyOp15
 70
     1
102
RTVSPropertyOp16
 70
     1
102
RTVSPropertyOp17
 70
     1
102
RTVSPropertyOp18
 70
     1
102
RTVSPropertyOp19
 70
     1
102
RTVSPropertyOp20
 70
     1
102
RTVSPropertyOp21
 70
     1
102
RTVSPropertyOp22
 70
     1
102
RTVSPropertyOp23
 70
     1
102
RTVSPropertyOp24
 70
     1
102
RTVSPropertyOp25
 70
     1
102
RTVSPropertyOp26
 70
     1
102
RTVSPropertyOp27
 70
     1
102
RTVSPropertyOp28
 70
     1
102
RTVSPropertyOp29
 70
     1
102
RTVSPropertyOp30
 70
     1
102
RTVSPropertyOp31
 70
     1
102
RTVSPropertyOp32
 70
     1
102
RTVSPropertyOp33
 70
     1
102
RTVSPropertyOp34
 70
     1
102
RTVSPropertyOp35
 70
     1
102
RTVSPropertyOp36
 70
     1
102
RTVSPropertyOp37
 70
     1
102
RTVSPropertyOp38
 70
     1
102
RTVSPropertyOp39
 70
     1
102
RTVSPropertyOp40
 70
     1
102
RTVSPropertyOp41
 70
     1
102
RTVSPropertyOp42
 70
     1
102
RTVSPropertyOp43
 70
     1
102
RTVSPropertyOp44
 70
     1
102
RTVSPropertyOp45
 70
     1
102
RTVSPropertyOp46
 70
     1
102
RTVSPropertyOp47
 70
     1
102
RTVSPropertyOp48
 70
     1
102
RTVSPropertyOp49
 70
     1
102
RTVSPropertyOp50
 70
     1
102
RTVSPropertyOp51
 70
     0
102
RTVSPropertyOp52
 70
     0
102
RTVSPropertyOp53
 70
     1
102
RTVSPropertyOp54
 70
     1
102
RTVSPropertyOp55
 70
     1
102
RTVSPropertyOp56
 70
     1
102
RTVSPropertyOp57
 70
     1
102
RTVSPost2010Prop28
280
     0
102
RTVSPost2010PropOp28
 70
     1
102
RTVSPost2010Prop29
280
     1
102
RTVSPost2010PropOp29
 70
     1
102
RTVSPost2010Prop30
280
     1
102
RTVSPost2010PropOp30
 70
     1
102
RTVSPost2010Prop31
280
     0
102
RTVSPost2010PropOp31
 70
     1
102
RTVSPost2010Prop32
280
     0
102
RTVSPost2010PropOp32
 70
     1
102
RTVSPost2010Prop33
280
     0
102
RTVSPost2010PropOp33
 70
     1
102
RTVSPost2010Prop34
280
     0
102
RTVSPost2010PropOp34
 70
     1
102
RTVSPost2010Prop35
280
     0
102
RTVSPost2010PropOp35
 70
     1
102
RTVSPost2010Prop36
280
     0
102
RTVSPost2010PropOp36
 70
     1
102
RTVSPost2010Prop37
 90
       50
102
RTVSPost2010PropOp37
 70
     1
102
RTVSPost2010Prop38
140
0.0
102
RTVSPost2010PropOp38
 70
     1
102
RTVSPost2010Prop39
140
1.0
102
RTVSPost2010PropOp39
 70
     1
102
RTVSPost2010Prop40
 90
        0
102
RTVSPost2010PropOp40
 70
     1
102
RTVSPost2010Prop41ColorIndex
 90
       18
102
RTVSPost2010Prop41ColorRGB
 90
        0
102
RTVSPost2010PropOp41
 70
     1
102
RTVSPost2010Prop42
 90
       50
102
RTVSPost2010PropOp42
 70
     1
102
RTVSPost2010Prop43
 90
        3
102
RTVSPost2010PropOp43
 70
     1
102
RTVSPost2010Prop44ColorIndex
 90
        5
102
RTVSPost2010Prop44ColorRGB
 90
      255
102
RTVSPost2010PropOp44
 70
     1
102
RTVSPost2010Prop45
280
     0
102
RTVSPost2010PropOp45
 70
     1
102
RTVSPost2010Prop46
 90
       50
102
RTVSPost2010PropOp46
 70
     1
102
RTVSPost2010Prop47
 90
       50
102
RTVSPost2010PropOp47
 70
     1
102
RTVSPost2010Prop48
 90
       50
102
RTVSPost2010PropOp48
 70
     1
102
RTVSPost2010Prop49
280
     0
102
RTVSPost2010PropOp49
 70
     1
102
RTVSPost2010Prop50
 90
       50
102
RTVSPost2010PropOp50
 70
     1
102
RTVSPost2010Prop51ColorIndex
 90
      256
102
RTVSPost2010Prop51ColorRGB
 90
-16777216
102
RTVSPost2010PropOp51
 70
     0
102
RTVSPost2010Prop52
140
1.0
102
RTVSPost2010PropOp52
 70
     0
102
RTVSPost2010Prop53
 90
        2
102
RTVSPost2010PropOp53
 70
     1
102
RTVSPost2010Prop54
  1
strokes_ogs.tif
102
RTVSPost2010PropOp54
 70
     1
102
RTVSPost2010Prop55
280
     0
102
RTVSPost2010PropOp55
 70
     1
102
RTVSPost2010Prop56
140
1.0
102
RTVSPost2010PropOp56
 70
     1
102
RTVSPost2010Prop57
140
1.0
102
RTVSPost2010PropOp57
 70
     1
  0
XRECORD
  5
296
102
{ACAD_REACTORS
330
295
102
}
330
295
100
AcDbXrecord
280
     1
102
RTVSPropertyOp0
 70
     1
102
RTVSPropertyOp1
 70
     1
102
RTVSPropertyOp2
 70
     1
102
RTVSPropertyOp3
 70
     1
102
RTVSPropertyOp4
 70
     1
102
RTVSPropertyOp5
 70
     1
102
RTVSPropertyOp6
 70
     1
102
RTVSPropertyOp7
 70
     1
102
RTVSPropertyOp8
 70
     1
102
RTVSPropertyOp9
 70
     1
102
RTVSPropertyOp10
 70
     1
102
RTVSPropertyOp11
 70
     1
102
RTVSPropertyOp12
 70
     1
102
RTVSPropertyOp13
 70
     1
102
RTVSPropertyOp14
 70
     1
102
RTVSPropertyOp15
 70
     1
102
RTVSPropertyOp16
 70
     1
102
RTVSPropertyOp17
 70
     1
102
RTVSPropertyOp18
 70
     1
102
RTVSPropertyOp19
 70
     1
102
RTVSPropertyOp20
 70
     1
102
RTVSPropertyOp21
 70
     1
102
RTVSPropertyOp22
 70
     1
102
RTVSPropertyOp23
 70
     1
102
RTVSPropertyOp24
 70
     1
102
RTVSPropertyOp25
 70
     1
102
RTVSPropertyOp26
 70
     1
102
RTVSPropertyOp27
 70
     1
102
RTVSPropertyOp28
 70
     1
102
RTVSPropertyOp29
 70
     1
102
RTVSPropertyOp30
 70
     1
102
RTVSPropertyOp31
 70
     1
102
RTVSPropertyOp32
 70
     1
102
RTVSPropertyOp33
 70
     1
102
RTVSPropertyOp34
 70
     1
102
RTVSPropertyOp35
 70
     1
102
RTVSPropertyOp36
 70
     1
102
RTVSPropertyOp37
 70
     1
102
RTVSPropertyOp38
 70
     1
102
RTVSPropertyOp39
 70
     1
102
RTVSPropertyOp40
 70
     1
102
RTVSPropertyOp41
 70
     1
102
RTVSPropertyOp42
 70
     1
102
RTVSPropertyOp43
 70
     1
102
RTVSPropertyOp44
 70
     1
102
RTVSPropertyOp45
 70
     1
102
RTVSPropertyOp46
 70
     1
102
RTVSPropertyOp47
 70
     1
102
RTVSPropertyOp48
 70
     1
102
RTVSPropertyOp49
 70
     1
102
RTVSPropertyOp50
 70
     1
102
RTVSPropertyOp51
 70
     0
102
RTVSPropertyOp52
 70
     0
102
RTVSPropertyOp53
 70
     1
102
RTVSPropertyOp54
 70
     1
102
RTVSPropertyOp55
 70
     1
102
RTVSPropertyOp56
 70
     1
102
RTVSPropertyOp57
 70
     1
102
RTVSPost2010Prop28
280
     0
102
RTVSPost2010PropOp28
 70
     1
102
RTVSPost2010Prop29
280
     1
102
RTVSPost2010PropOp29
 70
     1
102
RTVSPost2010Prop30
280
     1
102
RTVSPost2010PropOp30
 70
     1
102
RTVSPost2010Prop31
280
     0
102
RTVSPost2010PropOp31
 70
     1
102
RTVSPost2010Prop32
280
     0
102
RTVSPost2010PropOp32
 70
     1
102
RTVSPost2010Prop33
280
     0
102
RTVSPost2010PropOp33
 70
     1
102
RTVSPost2010Prop34
280
     0
102
RTVSPost2010PropOp34
 70
     1
102
RTVSPost2010Prop35
280
     0
102
RTVSPost2010PropOp35
 70
     1
102
RTVSPost2010Prop36
280
     0
102
RTVSPost2010PropOp36
 70
     1
102
RTVSPost2010Prop37
 90
       50
102
RTVSPost2010PropOp37
 70
     1
102
RTVSPost2010Prop38
140
0.0
102
RTVSPost2010PropOp38
 70
     1
102
RTVSPost2010Prop39
140
1.0
102
RTVSPost2010PropOp39
 70
     1
102
RTVSPost2010Prop40
 90
        0
102
RTVSPost2010PropOp40
 70
     1
102
RTVSPost2010Prop41ColorIndex
 90
       18
102
RTVSPost2010Prop41ColorRGB
 90
        0
102
RTVSPost2010PropOp41
 70
     1
102
RTVSPost2010Prop42
 90
       50
102
RTVSPost2010PropOp42
 70
     1
102
RTVSPost2010Prop43
 90
        3
102
RTVSPost2010PropOp43
 70
     1
102
RTVSPost2010Prop44ColorIndex
 90
        5
102
RTVSPost2010Prop44ColorRGB
 90
      255
102
RTVSPost2010PropOp44
 70
     1
102
RTVSPost2010Prop45
280
     0
102
RTVSPost2010PropOp45
 70
     1
102
RTVSPost2010Prop46
 90
       50
102
RTVSPost2010PropOp46
 70
     1
102
RTVSPost2010Prop47
 90
       50
102
RTVSPost2010PropOp47
 70
     1
102
RTVSPost2010Prop48
 90
       50
102
RTVSPost2010PropOp48
 70
     1
102
RTVSPost2010Prop49
280
     0
102
RTVSPost2010PropOp49
 70
     1
102
RTVSPost2010Prop50
 90
       50
102
RTVSPost2010PropOp50
 70
     1
102
RTVSPost2010Prop51ColorIndex
 90
      256
102
RTVSPost2010Prop51ColorRGB
 90
-16777216
102
RTVSPost2010PropOp51
 70
     0
102
RTVSPost2010Prop52
140
1.0
102
RTVSPost2010PropOp52
 70
     0
102
RTVSPost2010Prop53
 90
        2
102
RTVSPost2010PropOp53
 70
     1
102
RTVSPost2010Prop54
  1
strokes_ogs.tif
102
RTVSPost2010PropOp54
 70
     1
102
RTVSPost2010Prop55
280
     0
102
RTVSPost2010PropOp55
 70
     1
102
RTVSPost2010Prop56
140
1.0
102
RTVSPost2010PropOp56
 70
     1
102
RTVSPost2010Prop57
140
1.0
102
RTVSPost2010PropOp57
 70
     1
  0
XRECORD
  5
298
102
{ACAD_REACTORS
330
297
102
}
330
297
100
AcDbXrecord
280
     1
102
RTVSPropertyOp0
 70
     1
102
RTVSPropertyOp1
 70
     1
102
RTVSPropertyOp2
 70
     1
102
RTVSPropertyOp3
 70
     1
102
RTVSPropertyOp4
 70
     1
102
RTVSPropertyOp5
 70
     1
102
RTVSPropertyOp6
 70
     1
102
RTVSPropertyOp7
 70
     1
102
RTVSPropertyOp8
 70
     1
102
RTVSPropertyOp9
 70
     1
102
RTVSPropertyOp10
 70
     1
102
RTVSPropertyOp11
 70
     1
102
RTVSPropertyOp12
 70
     1
102
RTVSPropertyOp13
 70
     1
102
RTVSPropertyOp14
 70
     1
102
RTVSPropertyOp15
 70
     1
102
RTVSPropertyOp16
 70
     1
102
RTVSPropertyOp17
 70
     1
102
RTVSPropertyOp18
 70
     1
102
RTVSPropertyOp19
 70
     1
102
RTVSPropertyOp20
 70
     1
102
RTVSPropertyOp21
 70
     1
102
RTVSPropertyOp22
 70
     1
102
RTVSPropertyOp23
 70
     1
102
RTVSPropertyOp24
 70
     1
102
RTVSPropertyOp25
 70
     1
102
RTVSPropertyOp26
 70
     1
102
RTVSPropertyOp27
 70
     1
102
RTVSPropertyOp28
 70
     1
102
RTVSPropertyOp29
 70
     1
102
RTVSPropertyOp30
 70
     1
102
RTVSPropertyOp31
 70
     1
102
RTVSPropertyOp32
 70
     1
102
RTVSPropertyOp33
 70
     1
102
RTVSPropertyOp34
 70
     1
102
RTVSPropertyOp35
 70
     1
102
RTVSPropertyOp36
 70
     1
102
RTVSPropertyOp37
 70
     1
102
RTVSPropertyOp38
 70
     1
102
RTVSPropertyOp39
 70
     1
102
RTVSPropertyOp40
 70
     1
102
RTVSPropertyOp41
 70
     1
102
RTVSPropertyOp42
 70
     1
102
RTVSPropertyOp43
 70
     1
102
RTVSPropertyOp44
 70
     1
102
RTVSPropertyOp45
 70
     1
102
RTVSPropertyOp46
 70
     1
102
RTVSPropertyOp47
 70
     1
102
RTVSPropertyOp48
 70
     1
102
RTVSPropertyOp49
 70
     1
102
RTVSPropertyOp50
 70
     1
102
RTVSPropertyOp51
 70
     0
102
RTVSPropertyOp52
 70
     0
102
RTVSPropertyOp53
 70
     1
102
RTVSPropertyOp54
 70
     1
102
RTVSPropertyOp55
 70
     1
102
RTVSPropertyOp56
 70
     1
102
RTVSPropertyOp57
 70
     1
102
RTVSPost2010Prop28
280
     0
102
RTVSPost2010PropOp28
 70
     1
102
RTVSPost2010Prop29
280
     1
102
RTVSPost2010PropOp29
 70
     1
102
RTVSPost2010Prop30
280
     1
102
RTVSPost2010PropOp30
 70
     1
102
RTVSPost2010Prop31
280
     0
102
RTVSPost2010PropOp31
 70
     1
102
RTVSPost2010Prop32
280
     0
102
RTVSPost2010PropOp32
 70
     1
102
RTVSPost2010Prop33
280
     0
102
RTVSPost2010PropOp33
 70
     1
102
RTVSPost2010Prop34
280
     0
102
RTVSPost2010PropOp34
 70
     1
102
RTVSPost2010Prop35
280
     0
102
RTVSPost2010PropOp35
 70
     1
102
RTVSPost2010Prop36
280
     0
102
RTVSPost2010PropOp36
 70
     1
102
RTVSPost2010Prop37
 90
       50
102
RTVSPost2010PropOp37
 70
     1
102
RTVSPost2010Prop38
140
0.0
102
RTVSPost2010PropOp38
 70
     1
102
RTVSPost2010Prop39
140
1.0
102
RTVSPost2010PropOp39
 70
     1
102
RTVSPost2010Prop40
 90
        0
102
RTVSPost2010PropOp40
 70
     1
102
RTVSPost2010Prop41ColorIndex
 90
       18
102
RTVSPost2010Prop41ColorRGB
 90
        0
102
RTVSPost2010PropOp41
 70
     1
102
RTVSPost2010Prop42
 90
       50
102
RTVSPost2010PropOp42
 70
     1
102
RTVSPost2010Prop43
 90
        3
102
RTVSPost2010PropOp43
 70
     1
102
RTVSPost2010Prop44ColorIndex
 90
        5
102
RTVSPost2010Prop44ColorRGB
 90
      255
102
RTVSPost2010PropOp44
 70
     1
102
RTVSPost2010Prop45
280
     0
102
RTVSPost2010PropOp45
 70
     1
102
RTVSPost2010Prop46
 90
       50
102
RTVSPost2010PropOp46
 70
     1
102
RTVSPost2010Prop47
 90
       50
102
RTVSPost2010PropOp47
 70
     1
102
RTVSPost2010Prop48
 90
       50
102
RTVSPost2010PropOp48
 70
     1
102
RTVSPost2010Prop49
280
     0
102
RTVSPost2010PropOp49
 70
     1
102
RTVSPost2010Prop50
 90
       50
102
RTVSPost2010PropOp50
 70
     1
102
RTVSPost2010Prop51ColorIndex
 90
      256
102
RTVSPost2010Prop51ColorRGB
 90
-16777216
102
RTVSPost2010PropOp51
 70
     0
102
RTVSPost2010Prop52
140
1.0
102
RTVSPost2010PropOp52
 70
     0
102
RTVSPost2010Prop53
 90
        2
102
RTVSPost2010PropOp53
 70
     1
102
RTVSPost2010Prop54
  1
strokes_ogs.tif
102
RTVSPost2010PropOp54
 70
     1
102
RTVSPost2010Prop55
280
     0
102
RTVSPost2010PropOp55
 70
     1
102
RTVSPost2010Prop56
140
1.0
102
RTVSPost2010PropOp56
 70
     1
102
RTVSPost2010Prop57
140
1.0
102
RTVSPost2010PropOp57
 70
     1
  0
XRECORD
  5
29A
102
{ACAD_REACTORS
330
299
102
}
330
299
100
AcDbXrecord
280
     1
102
RTVSPropertyOp0
 70
     1
102
RTVSPropertyOp1
 70
     1
102
RTVSPropertyOp2
 70
     1
102
RTVSPropertyOp3
 70
     1
102
RTVSPropertyOp4
 70
     1
102
RTVSPropertyOp5
 70
     1
102
RTVSPropertyOp6
 70
     1
102
RTVSPropertyOp7
 70
     1
102
RTVSPropertyOp8
 70
     1
102
RTVSPropertyOp9
 70
     1
102
RTVSPropertyOp10
 70
     1
102
RTVSPropertyOp11
 70
     1
102
RTVSPropertyOp12
 70
     1
102
RTVSPropertyOp13
 70
     1
102
RTVSPropertyOp14
 70
     1
102
RTVSPropertyOp15
 70
     1
102
RTVSPropertyOp16
 70
     1
102
RTVSPropertyOp17
 70
     1
102
RTVSPropertyOp18
 70
     1
102
RTVSPropertyOp19
 70
     1
102
RTVSPropertyOp20
 70
     1
102
RTVSPropertyOp21
 70
     1
102
RTVSPropertyOp22
 70
     1
102
RTVSPropertyOp23
 70
     1
102
RTVSPropertyOp24
 70
     1
102
RTVSPropertyOp25
 70
     1
102
RTVSPropertyOp26
 70
     1
102
RTVSPropertyOp27
 70
     1
102
RTVSPropertyOp28
 70
     1
102
RTVSPropertyOp29
 70
     1
102
RTVSPropertyOp30
 70
     1
102
RTVSPropertyOp31
 70
     1
102
RTVSPropertyOp32
 70
     1
102
RTVSPropertyOp33
 70
     1
102
RTVSPropertyOp34
 70
     1
102
RTVSPropertyOp35
 70
     1
102
RTVSPropertyOp36
 70
     1
102
RTVSPropertyOp37
 70
     1
102
RTVSPropertyOp38
 70
     1
102
RTVSPropertyOp39
 70
     1
102
RTVSPropertyOp40
 70
     1
102
RTVSPropertyOp41
 70
     1
102
RTVSPropertyOp42
 70
     1
102
RTVSPropertyOp43
 70
     1
102
RTVSPropertyOp44
 70
     1
102
RTVSPropertyOp45
 70
     1
102
RTVSPropertyOp46
 70
     1
102
RTVSPropertyOp47
 70
     1
102
RTVSPropertyOp48
 70
     1
102
RTVSPropertyOp49
 70
     1
102
RTVSPropertyOp50
 70
     1
102
RTVSPropertyOp51
 70
     0
102
RTVSPropertyOp52
 70
     0
102
RTVSPropertyOp53
 70
     1
102
RTVSPropertyOp54
 70
     1
102
RTVSPropertyOp55
 70
     1
102
RTVSPropertyOp56
 70
     1
102
RTVSPropertyOp57
 70
     1
102
RTVSPost2010Prop28
280
     0
102
RTVSPost2010PropOp28
 70
     1
102
RTVSPost2010Prop29
280
     1
102
RTVSPost2010PropOp29
 70
     1
102
RTVSPost2010Prop30
280
     1
102
RTVSPost2010PropOp30
 70
     1
102
RTVSPost2010Prop31
280
     0
102
RTVSPost2010PropOp31
 70
     1
102
RTVSPost2010Prop32
280
     0
102
RTVSPost2010PropOp32
 70
     1
102
RTVSPost2010Prop33
280
     0
102
RTVSPost2010PropOp33
 70
     1
102
RTVSPost2010Prop34
280
     0
102
RTVSPost2010PropOp34
 70
     1
102
RTVSPost2010Prop35
280
     0
102
RTVSPost2010PropOp35
 70
     1
102
RTVSPost2010Prop36
280
     0
102
RTVSPost2010PropOp36
 70
     1
102
RTVSPost2010Prop37
 90
       50
102
RTVSPost2010PropOp37
 70
     1
102
RTVSPost2010Prop38
140
0.0
102
RTVSPost2010PropOp38
 70
     1
102
RTVSPost2010Prop39
140
1.0
102
RTVSPost2010PropOp39
 70
     1
102
RTVSPost2010Prop40
 90
        0
102
RTVSPost2010PropOp40
 70
     1
102
RTVSPost2010Prop41ColorIndex
 90
       18
102
RTVSPost2010Prop41ColorRGB
 90
        0
102
RTVSPost2010PropOp41
 70
     1
102
RTVSPost2010Prop42
 90
       50
102
RTVSPost2010PropOp42
 70
     1
102
RTVSPost2010Prop43
 90
        3
102
RTVSPost2010PropOp43
 70
     1
102
RTVSPost2010Prop44ColorIndex
 90
        5
102
RTVSPost2010Prop44ColorRGB
 90
      255
102
RTVSPost2010PropOp44
 70
     1
102
RTVSPost2010Prop45
280
     0
102
RTVSPost2010PropOp45
 70
     1
102
RTVSPost2010Prop46
 90
       50
102
RTVSPost2010PropOp46
 70
     1
102
RTVSPost2010Prop47
 90
       50
102
RTVSPost2010PropOp47
 70
     1
102
RTVSPost2010Prop48
 90
       50
102
RTVSPost2010PropOp48
 70
     1
102
RTVSPost2010Prop49
280
     0
102
RTVSPost2010PropOp49
 70
     1
102
RTVSPost2010Prop50
 90
       50
102
RTVSPost2010PropOp50
 70
     1
102
RTVSPost2010Prop51ColorIndex
 90
      256
102
RTVSPost2010Prop51ColorRGB
 90
-16777216
102
RTVSPost2010PropOp51
 70
     0
102
RTVSPost2010Prop52
140
1.0
102
RTVSPost2010PropOp52
 70
     0
102
RTVSPost2010Prop53
 90
        2
102
RTVSPost2010PropOp53
 70
     1
102
RTVSPost2010Prop54
  1
strokes_ogs.tif
102
RTVSPost2010PropOp54
 70
     1
102
RTVSPost2010Prop55
280
     0
102
RTVSPost2010PropOp55
 70
     1
102
RTVSPost2010Prop56
140
1.0
102
RTVSPost2010PropOp56
 70
     1
102
RTVSPost2010Prop57
140
1.0
102
RTVSPost2010PropOp57
 70
     1
  0
XRECORD
  5
2A0
102
{ACAD_REACTORS
330
29F
102
}
330
29F
100
AcDbXrecord
280
     1
102
RTVSPropertyOp0
 70
     1
102
RTVSPropertyOp1
 70
     1
102
RTVSPropertyOp2
 70
     1
102
RTVSPropertyOp3
 70
     1
102
RTVSPropertyOp4
 70
     1
102
RTVSPropertyOp5
 70
     1
102
RTVSPropertyOp6
 70
     1
102
RTVSPropertyOp7
 70
     1
102
RTVSPropertyOp8
 70
     1
102
RTVSPropertyOp9
 70
     1
102
RTVSPropertyOp10
 70
     1
102
RTVSPropertyOp11
 70
     1
102
RTVSPropertyOp12
 70
     1
102
RTVSPropertyOp13
 70
     1
102
RTVSPropertyOp14
 70
     1
102
RTVSPropertyOp15
 70
     1
102
RTVSPropertyOp16
 70
     1
102
RTVSPropertyOp17
 70
     1
102
RTVSPropertyOp18
 70
     1
102
RTVSPropertyOp19
 70
     1
102
RTVSPropertyOp20
 70
     1
102
RTVSPropertyOp21
 70
     1
102
RTVSPropertyOp22
 70
     1
102
RTVSPropertyOp23
 70
     1
102
RTVSPropertyOp24
 70
     1
102
RTVSPropertyOp25
 70
     1
102
RTVSPropertyOp26
 70
     1
102
RTVSPropertyOp27
 70
     1
102
RTVSPropertyOp28
 70
     1
102
RTVSPropertyOp29
 70
     1
102
RTVSPropertyOp30
 70
     1
102
RTVSPropertyOp31
 70
     1
102
RTVSPropertyOp32
 70
     1
102
RTVSPropertyOp33
 70
     1
102
RTVSPropertyOp34
 70
     1
102
RTVSPropertyOp35
 70
     1
102
RTVSPropertyOp36
 70
     1
102
RTVSPropertyOp37
 70
     1
102
RTVSPropertyOp38
 70
     1
102
RTVSPropertyOp39
 70
     1
102
RTVSPropertyOp40
 70
     1
102
RTVSPropertyOp41
 70
     1
102
RTVSPropertyOp42
 70
     1
102
RTVSPropertyOp43
 70
     1
102
RTVSPropertyOp44
 70
     1
102
RTVSPropertyOp45
 70
     1
102
RTVSPropertyOp46
 70
     1
102
RTVSPropertyOp47
 70
     1
102
RTVSPropertyOp48
 70
     1
102
RTVSPropertyOp49
 70
     1
102
RTVSPropertyOp50
 70
     1
102
RTVSPropertyOp51
 70
     0
102
RTVSPropertyOp52
 70
     0
102
RTVSPropertyOp53
 70
     1
102
RTVSPropertyOp54
 70
     1
102
RTVSPropertyOp55
 70
     1
102
RTVSPropertyOp56
 70
     1
102
RTVSPropertyOp57
 70
     1
102
RTVSPost2010Prop28
280
     0
102
RTVSPost2010PropOp28
 70
     1
102
RTVSPost2010Prop29
280
     1
102
RTVSPost2010PropOp29
 70
     1
102
RTVSPost2010Prop30
280
     1
102
RTVSPost2010PropOp30
 70
     1
102
RTVSPost2010Prop31
280
     0
102
RTVSPost2010PropOp31
 70
     1
102
RTVSPost2010Prop32
280
     0
102
RTVSPost2010PropOp32
 70
     1
102
RTVSPost2010Prop33
280
     0
102
RTVSPost2010PropOp33
 70
     1
102
RTVSPost2010Prop34
280
     0
102
RTVSPost2010PropOp34
 70
     1
102
RTVSPost2010Prop35
280
     0
102
RTVSPost2010PropOp35
 70
     1
102
RTVSPost2010Prop36
280
     0
102
RTVSPost2010PropOp36
 70
     1
102
RTVSPost2010Prop37
 90
       50
102
RTVSPost2010PropOp37
 70
     1
102
RTVSPost2010Prop38
140
0.0
102
RTVSPost2010PropOp38
 70
     1
102
RTVSPost2010Prop39
140
1.0
102
RTVSPost2010PropOp39
 70
     1
102
RTVSPost2010Prop40
 90
        0
102
RTVSPost2010PropOp40
 70
     1
102
RTVSPost2010Prop41ColorIndex
 90
       18
102
RTVSPost2010Prop41ColorRGB
 90
        0
102
RTVSPost2010PropOp41
 70
     1
102
RTVSPost2010Prop42
 90
       50
102
RTVSPost2010PropOp42
 70
     1
102
RTVSPost2010Prop43
 90
        3
102
RTVSPost2010PropOp43
 70
     1
102
RTVSPost2010Prop44ColorIndex
 90
        5
102
RTVSPost2010Prop44ColorRGB
 90
      255
102
RTVSPost2010PropOp44
 70
     1
102
RTVSPost2010Prop45
280
     0
102
RTVSPost2010PropOp45
 70
     1
102
RTVSPost2010Prop46
 90
       50
102
RTVSPost2010PropOp46
 70
     1
102
RTVSPost2010Prop47
 90
       50
102
RTVSPost2010PropOp47
 70
     1
102
RTVSPost2010Prop48
 90
       50
102
RTVSPost2010PropOp48
 70
     1
102
RTVSPost2010Prop49
280
     0
102
RTVSPost2010PropOp49
 70
     1
102
RTVSPost2010Prop50
 90
       50
102
RTVSPost2010PropOp50
 70
     1
102
RTVSPost2010Prop51ColorIndex
 90
      256
102
RTVSPost2010Prop51ColorRGB
 90
-16777216
102
RTVSPost2010PropOp51
 70
     0
102
RTVSPost2010Prop52
140
1.0
102
RTVSPost2010PropOp52
 70
     0
102
RTVSPost2010Prop53
 90
        2
102
RTVSPost2010PropOp53
 70
     1
102
RTVSPost2010Prop54
  1
strokes_ogs.tif
102
RTVSPost2010PropOp54
 70
     1
102
RTVSPost2010Prop55
280
     0
102
RTVSPost2010PropOp55
 70
     1
102
RTVSPost2010Prop56
140
1.0
102
RTVSPost2010PropOp56
 70
     1
102
RTVSPost2010Prop57
140
1.0
102
RTVSPost2010PropOp57
 70
     1
  0
XRECORD
  5
2B4
102
{ACAD_REACTORS
330
2B3
102
}
330
2B3
100
AcDbXrecord
280
     1
102
RTVSPropertyOp0
 70
     0
102
RTVSPropertyOp1
 70
     0
102
RTVSPropertyOp2
 70
     0
102
RTVSPropertyOp3
 70
     0
102
RTVSPropertyOp4
 70
     0
102
RTVSPropertyOp5
 70
     0
102
RTVSPropertyOp6
 70
     0
102
RTVSPropertyOp7
 70
     0
102
RTVSPropertyOp8
 70
     0
102
RTVSPropertyOp9
 70
     0
102
RTVSPropertyOp10
 70
     0
102
RTVSPropertyOp11
 70
     0
102
RTVSPropertyOp12
 70
     0
102
RTVSPropertyOp13
 70
     0
102
RTVSPropertyOp14
 70
     2
102
RTVSPropertyOp15
 70
     0
102
RTVSPropertyOp16
 70
     0
102
RTVSPropertyOp17
 70
     0
102
RTVSPropertyOp18
 70
     0
102
RTVSPropertyOp19
 70
     0
102
RTVSPropertyOp20
 70
     0
102
RTVSPropertyOp21
 70
     0
102
RTVSPropertyOp22
 70
     0
102
RTVSPropertyOp23
 70
     0
102
RTVSPropertyOp24
 70
     0
102
RTVSPropertyOp25
 70
     0
102
RTVSPropertyOp26
 70
     0
102
RTVSPropertyOp27
 70
     0
102
RTVSPropertyOp28
 70
     0
102
RTVSPropertyOp29
 70
     0
102
RTVSPropertyOp30
 70
     0
102
RTVSPropertyOp31
 70
     0
102
RTVSPropertyOp32
 70
     0
102
RTVSPropertyOp33
 70
     0
102
RTVSPropertyOp34
 70
     0
102
RTVSPropertyOp35
 70
     0
102
RTVSPropertyOp36
 70
     0
102
RTVSPropertyOp37
 70
     0
102
RTVSPropertyOp38
 70
     0
102
RTVSPropertyOp39
 70
     0
102
RTVSPropertyOp40
 70
     0
102
RTVSPropertyOp41
 70
     0
102
RTVSPropertyOp42
 70
     0
102
RTVSPropertyOp43
 70
     0
102
RTVSPropertyOp44
 70
     0
102
RTVSPropertyOp45
 70
     0
102
RTVSPropertyOp46
 70
     0
102
RTVSPropertyOp47
 70
     0
102
RTVSPropertyOp48
 70
     0
102
RTVSPropertyOp49
 70
     0
102
RTVSPropertyOp50
 70
     0
102
RTVSPropertyOp51
 70
     0
102
RTVSPropertyOp52
 70
     0
102
RTVSPropertyOp53
 70
     0
102
RTVSPropertyOp54
 70
     0
102
RTVSPropertyOp55
 70
     0
102
RTVSPropertyOp56
 70
     0
102
RTVSPropertyOp57
 70
     0
102
RTVSPost2010Prop28
280
     0
102
RTVSPost2010PropOp28
 70
     0
102
RTVSPost2010Prop29
280
     1
102
RTVSPost2010PropOp29
 70
     0
102
RTVSPost2010Prop30
280
     1
102
RTVSPost2010PropOp30
 70
     0
102
RTVSPost2010Prop31
280
     0
102
RTVSPost2010PropOp31
 70
     0
102
RTVSPost2010Prop32
280
     0
102
RTVSPost2010PropOp32
 70
     0
102
RTVSPost2010Prop33
280
     0
102
RTVSPost2010PropOp33
 70
     0
102
RTVSPost2010Prop34
280
     0
102
RTVSPost2010PropOp34
 70
     0
102
RTVSPost2010Prop35
280
     0
102
RTVSPost2010PropOp35
 70
     0
102
RTVSPost2010Prop36
280
     0
102
RTVSPost2010PropOp36
 70
     0
102
RTVSPost2010Prop37
 90
       50
102
RTVSPost2010PropOp37
 70
     0
102
RTVSPost2010Prop38
140
0.0
102
RTVSPost2010PropOp38
 70
     0
102
RTVSPost2010Prop39
140
1.0
102
RTVSPost2010PropOp39
 70
     0
102
RTVSPost2010Prop40
 90
        0
102
RTVSPost2010PropOp40
 70
     0
102
RTVSPost2010Prop41ColorIndex
 90
       18
102
RTVSPost2010Prop41ColorRGB
 90
        0
102
RTVSPost2010PropOp41
 70
     0
102
RTVSPost2010Prop42
 90
       50
102
RTVSPost2010PropOp42
 70
     0
102
RTVSPost2010Prop43
 90
        3
102
RTVSPost2010PropOp43
 70
     0
102
RTVSPost2010Prop44ColorIndex
 90
        5
102
RTVSPost2010Prop44ColorRGB
 90
      255
102
RTVSPost2010PropOp44
 70
     0
102
RTVSPost2010Prop45
280
     0
102
RTVSPost2010PropOp45
 70
     0
102
RTVSPost2010Prop46
 90
       50
102
RTVSPost2010PropOp46
 70
     0
102
RTVSPost2010Prop47
 90
       50
102
RTVSPost2010PropOp47
 70
     0
102
RTVSPost2010Prop48
 90
       50
102
RTVSPost2010PropOp48
 70
     0
102
RTVSPost2010Prop49
280
     0
102
RTVSPost2010PropOp49
 70
     0
102
RTVSPost2010Prop50
 90
       50
102
RTVSPost2010PropOp50
 70
     0
102
RTVSPost2010Prop51ColorIndex
 90
      256
102
RTVSPost2010Prop51ColorRGB
 90
-16777216
102
RTVSPost2010PropOp51
 70
     0
102
RTVSPost2010Prop52
140
1.0
102
RTVSPost2010PropOp52
 70
     0
102
RTVSPost2010Prop53
 90
        2
102
RTVSPost2010PropOp53
 70
     0
102
RTVSPost2010Prop54
  1
strokes_ogs.tif
102
RTVSPost2010PropOp54
 70
     0
102
RTVSPost2010Prop55
280
     0
102
RTVSPost2010PropOp55
 70
     0
102
RTVSPost2010Prop56
140
1.0
102
RTVSPost2010PropOp56
 70
     0
102
RTVSPost2010Prop57
140
1.0
102
RTVSPost2010PropOp57
 70
     0
  0
XRECORD
  5
2AE
102
{ACAD_REACTORS
330
2AD
102
}
330
2AD
100
AcDbXrecord
280
     1
102
RTVSPropertyOp0
 70
     1
102
RTVSPropertyOp1
 70
     1
102
RTVSPropertyOp2
 70
     1
102
RTVSPropertyOp3
 70
     1
102
RTVSPropertyOp4
 70
     1
102
RTVSPropertyOp5
 70
     1
102
RTVSPropertyOp6
 70
     1
102
RTVSPropertyOp7
 70
     1
102
RTVSPropertyOp8
 70
     1
102
RTVSPropertyOp9
 70
     1
102
RTVSPropertyOp10
 70
     1
102
RTVSPropertyOp11
 70
     1
102
RTVSPropertyOp12
 70
     1
102
RTVSPropertyOp13
 70
     1
102
RTVSPropertyOp14
 70
     1
102
RTVSPropertyOp15
 70
     1
102
RTVSPropertyOp16
 70
     1
102
RTVSPropertyOp17
 70
     1
102
RTVSPropertyOp18
 70
     1
102
RTVSPropertyOp19
 70
     1
102
RTVSPropertyOp20
 70
     1
102
RTVSPropertyOp21
 70
     1
102
RTVSPropertyOp22
 70
     1
102
RTVSPropertyOp23
 70
     1
102
RTVSPropertyOp24
 70
     1
102
RTVSPropertyOp25
 70
     1
102
RTVSPropertyOp26
 70
     1
102
RTVSPropertyOp27
 70
     1
102
RTVSPropertyOp28
 70
     1
102
RTVSPropertyOp29
 70
     1
102
RTVSPropertyOp30
 70
     1
102
RTVSPropertyOp31
 70
     1
102
RTVSPropertyOp32
 70
     1
102
RTVSPropertyOp33
 70
     1
102
RTVSPropertyOp34
 70
     1
102
RTVSPropertyOp35
 70
     1
102
RTVSPropertyOp36
 70
     1
102
RTVSPropertyOp37
 70
     1
102
RTVSPropertyOp38
 70
     1
102
RTVSPropertyOp39
 70
     1
102
RTVSPropertyOp40
 70
     1
102
RTVSPropertyOp41
 70
     1
102
RTVSPropertyOp42
 70
     1
102
RTVSPropertyOp43
 70
     1
102
RTVSPropertyOp44
 70
     1
102
RTVSPropertyOp45
 70
     1
102
RTVSPropertyOp46
 70
     1
102
RTVSPropertyOp47
 70
     1
102
RTVSPropertyOp48
 70
     1
102
RTVSPropertyOp49
 70
     1
102
RTVSPropertyOp50
 70
     1
102
RTVSPropertyOp51
 70
     0
102
RTVSPropertyOp52
 70
     0
102
RTVSPropertyOp53
 70
     1
102
RTVSPropertyOp54
 70
     1
102
RTVSPropertyOp55
 70
     1
102
RTVSPropertyOp56
 70
     1
102
RTVSPropertyOp57
 70
     1
102
RTVSPost2010Prop28
280
     0
102
RTVSPost2010PropOp28
 70
     1
102
RTVSPost2010Prop29
280
     1
102
RTVSPost2010PropOp29
 70
     1
102
RTVSPost2010Prop30
280
     1
102
RTVSPost2010PropOp30
 70
     1
102
RTVSPost2010Prop31
280
     0
102
RTVSPost2010PropOp31
 70
     1
102
RTVSPost2010Prop32
280
     0
102
RTVSPost2010PropOp32
 70
     1
102
RTVSPost2010Prop33
280
     0
102
RTVSPost2010PropOp33
 70
     1
102
RTVSPost2010Prop34
280
     0
102
RTVSPost2010PropOp34
 70
     1
102
RTVSPost2010Prop35
280
     0
102
RTVSPost2010PropOp35
 70
     1
102
RTVSPost2010Prop36
280
     0
102
RTVSPost2010PropOp36
 70
     1
102
RTVSPost2010Prop37
 90
       50
102
RTVSPost2010PropOp37
 70
     1
102
RTVSPost2010Prop38
140
0.0
102
RTVSPost2010PropOp38
 70
     1
102
RTVSPost2010Prop39
140
1.0
102
RTVSPost2010PropOp39
 70
     1
102
RTVSPost2010Prop40
 90
        0
102
RTVSPost2010PropOp40
 70
     1
102
RTVSPost2010Prop41ColorIndex
 90
       18
102
RTVSPost2010Prop41ColorRGB
 90
        0
102
RTVSPost2010PropOp41
 70
     1
102
RTVSPost2010Prop42
 90
       50
102
RTVSPost2010PropOp42
 70
     1
102
RTVSPost2010Prop43
 90
        3
102
RTVSPost2010PropOp43
 70
     1
102
RTVSPost2010Prop44ColorIndex
 90
        5
102
RTVSPost2010Prop44ColorRGB
 90
      255
102
RTVSPost2010PropOp44
 70
     1
102
RTVSPost2010Prop45
280
     0
102
RTVSPost2010PropOp45
 70
     1
102
RTVSPost2010Prop46
 90
       50
102
RTVSPost2010PropOp46
 70
     1
102
RTVSPost2010Prop47
 90
       50
102
RTVSPost2010PropOp47
 70
     1
102
RTVSPost2010Prop48
 90
       50
102
RTVSPost2010PropOp48
 70
     1
102
RTVSPost2010Prop49
280
     0
102
RTVSPost2010PropOp49
 70
     1
102
RTVSPost2010Prop50
 90
       50
102
RTVSPost2010PropOp50
 70
     1
102
RTVSPost2010Prop51ColorIndex
 90
      256
102
RTVSPost2010Prop51ColorRGB
 90
-16777216
102
RTVSPost2010PropOp51
 70
     0
102
RTVSPost2010Prop52
140
1.0
102
RTVSPost2010PropOp52
 70
     0
102
RTVSPost2010Prop53
 90
        2
102
RTVSPost2010PropOp53
 70
     1
102
RTVSPost2010Prop54
  1
strokes_ogs.tif
102
RTVSPost2010PropOp54
 70
     1
102
RTVSPost2010Prop55
280
     0
102
RTVSPost2010PropOp55
 70
     1
102
RTVSPost2010Prop56
140
1.0
102
RTVSPost2010PropOp56
 70
     1
102
RTVSPost2010Prop57
140
1.0
102
RTVSPost2010PropOp57
 70
     1
  0
XRECORD
  5
2B6
102
{ACAD_REACTORS
330
2B5
102
}
330
2B5
100
AcDbXrecord
280
     1
102
RTVSPropertyOp0
 70
     0
102
RTVSPropertyOp1
 70
     0
102
RTVSPropertyOp2
 70
     0
102
RTVSPropertyOp3
 70
     0
102
RTVSPropertyOp4
 70
     0
102
RTVSPropertyOp5
 70
     0
102
RTVSPropertyOp6
 70
     0
102
RTVSPropertyOp7
 70
     0
102
RTVSPropertyOp8
 70
     0
102
RTVSPropertyOp9
 70
     0
102
RTVSPropertyOp10
 70
     0
102
RTVSPropertyOp11
 70
     0
102
RTVSPropertyOp12
 70
     0
102
RTVSPropertyOp13
 70
     0
102
RTVSPropertyOp14
 70
     2
102
RTVSPropertyOp15
 70
     0
102
RTVSPropertyOp16
 70
     0
102
RTVSPropertyOp17
 70
     0
102
RTVSPropertyOp18
 70
     0
102
RTVSPropertyOp19
 70
     0
102
RTVSPropertyOp20
 70
     0
102
RTVSPropertyOp21
 70
     0
102
RTVSPropertyOp22
 70
     0
102
RTVSPropertyOp23
 70
     0
102
RTVSPropertyOp24
 70
     0
102
RTVSPropertyOp25
 70
     0
102
RTVSPropertyOp26
 70
     0
102
RTVSPropertyOp27
 70
     0
102
RTVSPropertyOp28
 70
     0
102
RTVSPropertyOp29
 70
     0
102
RTVSPropertyOp30
 70
     0
102
RTVSPropertyOp31
 70
     0
102
RTVSPropertyOp32
 70
     0
102
RTVSPropertyOp33
 70
     0
102
RTVSPropertyOp34
 70
     0
102
RTVSPropertyOp35
 70
     0
102
RTVSPropertyOp36
 70
     0
102
RTVSPropertyOp37
 70
     0
102
RTVSPropertyOp38
 70
     0
102
RTVSPropertyOp39
 70
     0
102
RTVSPropertyOp40
 70
     0
102
RTVSPropertyOp41
 70
     0
102
RTVSPropertyOp42
 70
     0
102
RTVSPropertyOp43
 70
     0
102
RTVSPropertyOp44
 70
     0
102
RTVSPropertyOp45
 70
     0
102
RTVSPropertyOp46
 70
     0
102
RTVSPropertyOp47
 70
     0
102
RTVSPropertyOp48
 70
     0
102
RTVSPropertyOp49
 70
     0
102
RTVSPropertyOp50
 70
     0
102
RTVSPropertyOp51
 70
     0
102
RTVSPropertyOp52
 70
     0
102
RTVSPropertyOp53
 70
     0
102
RTVSPropertyOp54
 70
     0
102
RTVSPropertyOp55
 70
     0
102
RTVSPropertyOp56
 70
     0
102
RTVSPropertyOp57
 70
     0
102
RTVSPost2010Prop28
280
     0
102
RTVSPost2010PropOp28
 70
     0
102
RTVSPost2010Prop29
280
     1
102
RTVSPost2010PropOp29
 70
     0
102
RTVSPost2010Prop30
280
     1
102
RTVSPost2010PropOp30
 70
     0
102
RTVSPost2010Prop31
280
     0
102
RTVSPost2010PropOp31
 70
     0
102
RTVSPost2010Prop32
280
     0
102
RTVSPost2010PropOp32
 70
     0
102
RTVSPost2010Prop33
280
     0
102
RTVSPost2010PropOp33
 70
     0
102
RTVSPost2010Prop34
280
     0
102
RTVSPost2010PropOp34
 70
     0
102
RTVSPost2010Prop35
280
     0
102
RTVSPost2010PropOp35
 70
     0
102
RTVSPost2010Prop36
280
     0
102
RTVSPost2010PropOp36
 70
     0
102
RTVSPost2010Prop37
 90
       50
102
RTVSPost2010PropOp37
 70
     0
102
RTVSPost2010Prop38
140
0.0
102
RTVSPost2010PropOp38
 70
     0
102
RTVSPost2010Prop39
140
1.0
102
RTVSPost2010PropOp39
 70
     0
102
RTVSPost2010Prop40
 90
        0
102
RTVSPost2010PropOp40
 70
     0
102
RTVSPost2010Prop41ColorIndex
 90
       18
102
RTVSPost2010Prop41ColorRGB
 90
        0
102
RTVSPost2010PropOp41
 70
     0
102
RTVSPost2010Prop42
 90
       50
102
RTVSPost2010PropOp42
 70
     0
102
RTVSPost2010Prop43
 90
        3
102
RTVSPost2010PropOp43
 70
     0
102
RTVSPost2010Prop44ColorIndex
 90
        5
102
RTVSPost2010Prop44ColorRGB
 90
      255
102
RTVSPost2010PropOp44
 70
     0
102
RTVSPost2010Prop45
280
     0
102
RTVSPost2010PropOp45
 70
     0
102
RTVSPost2010Prop46
 90
       50
102
RTVSPost2010PropOp46
 70
     0
102
RTVSPost2010Prop47
 90
       50
102
RTVSPost2010PropOp47
 70
     0
102
RTVSPost2010Prop48
 90
       50
102
RTVSPost2010PropOp48
 70
     0
102
RTVSPost2010Prop49
280
     0
102
RTVSPost2010PropOp49
 70
     0
102
RTVSPost2010Prop50
 90
       50
102
RTVSPost2010PropOp50
 70
     0
102
RTVSPost2010Prop51ColorIndex
 90
      256
102
RTVSPost2010Prop51ColorRGB
 90
-16777216
102
RTVSPost2010PropOp51
 70
     0
102
RTVSPost2010Prop52
140
1.0
102
RTVSPost2010PropOp52
 70
     0
102
RTVSPost2010Prop53
 90
        2
102
RTVSPost2010PropOp53
 70
     0
102
RTVSPost2010Prop54
  1
strokes_ogs.tif
102
RTVSPost2010PropOp54
 70
     0
102
RTVSPost2010Prop55
280
     0
102
RTVSPost2010PropOp55
 70
     0
102
RTVSPost2010Prop56
140
1.0
102
RTVSPost2010PropOp56
 70
     0
102
RTVSPost2010Prop57
140
1.0
102
RTVSPost2010PropOp57
 70
     0
  0
XRECORD
  5
2A4
102
{ACAD_REACTORS
330
2A3
102
}
330
2A3
100
AcDbXrecord
280
     1
102
RTVSPropertyOp0
 70
     1
102
RTVSPropertyOp1
 70
     1
102
RTVSPropertyOp2
 70
     1
102
RTVSPropertyOp3
 70
     1
102
RTVSPropertyOp4
 70
     1
102
RTVSPropertyOp5
 70
     1
102
RTVSPropertyOp6
 70
     1
102
RTVSPropertyOp7
 70
     1
102
RTVSPropertyOp8
 70
     1
102
RTVSPropertyOp9
 70
     1
102
RTVSPropertyOp10
 70
     1
102
RTVSPropertyOp11
 70
     1
102
RTVSPropertyOp12
 70
     1
102
RTVSPropertyOp13
 70
     1
102
RTVSPropertyOp14
 70
     1
102
RTVSPropertyOp15
 70
     1
102
RTVSPropertyOp16
 70
     1
102
RTVSPropertyOp17
 70
     1
102
RTVSPropertyOp18
 70
     1
102
RTVSPropertyOp19
 70
     1
102
RTVSPropertyOp20
 70
     1
102
RTVSPropertyOp21
 70
     1
102
RTVSPropertyOp22
 70
     1
102
RTVSPropertyOp23
 70
     1
102
RTVSPropertyOp24
 70
     1
102
RTVSPropertyOp25
 70
     1
102
RTVSPropertyOp26
 70
     1
102
RTVSPropertyOp27
 70
     1
102
RTVSPropertyOp28
 70
     1
102
RTVSPropertyOp29
 70
     1
102
RTVSPropertyOp30
 70
     1
102
RTVSPropertyOp31
 70
     1
102
RTVSPropertyOp32
 70
     1
102
RTVSPropertyOp33
 70
     1
102
RTVSPropertyOp34
 70
     1
102
RTVSPropertyOp35
 70
     1
102
RTVSPropertyOp36
 70
     1
102
RTVSPropertyOp37
 70
     1
102
RTVSPropertyOp38
 70
     1
102
RTVSPropertyOp39
 70
     1
102
RTVSPropertyOp40
 70
     1
102
RTVSPropertyOp41
 70
     1
102
RTVSPropertyOp42
 70
     1
102
RTVSPropertyOp43
 70
     1
102
RTVSPropertyOp44
 70
     1
102
RTVSPropertyOp45
 70
     1
102
RTVSPropertyOp46
 70
     1
102
RTVSPropertyOp47
 70
     1
102
RTVSPropertyOp48
 70
     1
102
RTVSPropertyOp49
 70
     1
102
RTVSPropertyOp50
 70
     1
102
RTVSPropertyOp51
 70
     0
102
RTVSPropertyOp52
 70
     0
102
RTVSPropertyOp53
 70
     1
102
RTVSPropertyOp54
 70
     1
102
RTVSPropertyOp55
 70
     1
102
RTVSPropertyOp56
 70
     1
102
RTVSPropertyOp57
 70
     1
102
RTVSPost2010Prop28
280
     0
102
RTVSPost2010PropOp28
 70
     1
102
RTVSPost2010Prop29
280
     1
102
RTVSPost2010PropOp29
 70
     1
102
RTVSPost2010Prop30
280
     1
102
RTVSPost2010PropOp30
 70
     1
102
RTVSPost2010Prop31
280
     0
102
RTVSPost2010PropOp31
 70
     1
102
RTVSPost2010Prop32
280
     0
102
RTVSPost2010PropOp32
 70
     1
102
RTVSPost2010Prop33
280
     0
102
RTVSPost2010PropOp33
 70
     1
102
RTVSPost2010Prop34
280
     0
102
RTVSPost2010PropOp34
 70
     1
102
RTVSPost2010Prop35
280
     0
102
RTVSPost2010PropOp35
 70
     1
102
RTVSPost2010Prop36
280
     0
102
RTVSPost2010PropOp36
 70
     1
102
RTVSPost2010Prop37
 90
       50
102
RTVSPost2010PropOp37
 70
     1
102
RTVSPost2010Prop38
140
0.0
102
RTVSPost2010PropOp38
 70
     1
102
RTVSPost2010Prop39
140
1.0
102
RTVSPost2010PropOp39
 70
     1
102
RTVSPost2010Prop40
 90
        0
102
RTVSPost2010PropOp40
 70
     1
102
RTVSPost2010Prop41ColorIndex
 90
       18
102
RTVSPost2010Prop41ColorRGB
 90
        0
102
RTVSPost2010PropOp41
 70
     1
102
RTVSPost2010Prop42
 90
       50
102
RTVSPost2010PropOp42
 70
     1
102
RTVSPost2010Prop43
 90
        3
102
RTVSPost2010PropOp43
 70
     1
102
RTVSPost2010Prop44ColorIndex
 90
        5
102
RTVSPost2010Prop44ColorRGB
 90
      255
102
RTVSPost2010PropOp44
 70
     1
102
RTVSPost2010Prop45
280
     0
102
RTVSPost2010PropOp45
 70
     1
102
RTVSPost2010Prop46
 90
       50
102
RTVSPost2010PropOp46
 70
     1
102
RTVSPost2010Prop47
 90
       50
102
RTVSPost2010PropOp47
 70
     1
102
RTVSPost2010Prop48
 90
       50
102
RTVSPost2010PropOp48
 70
     1
102
RTVSPost2010Prop49
280
     0
102
RTVSPost2010PropOp49
 70
     1
102
RTVSPost2010Prop50
 90
       50
102
RTVSPost2010PropOp50
 70
     1
102
RTVSPost2010Prop51ColorIndex
 90
      256
102
RTVSPost2010Prop51ColorRGB
 90
-16777216
102
RTVSPost2010PropOp51
 70
     0
102
RTVSPost2010Prop52
140
1.0
102
RTVSPost2010PropOp52
 70
     0
102
RTVSPost2010Prop53
 90
        2
102
RTVSPost2010PropOp53
 70
     1
102
RTVSPost2010Prop54
  1
strokes_ogs.tif
102
RTVSPost2010PropOp54
 70
     1
102
RTVSPost2010Prop55
280
     0
102
RTVSPost2010PropOp55
 70
     1
102
RTVSPost2010Prop56
140
1.0
102
RTVSPost2010PropOp56
 70
     1
102
RTVSPost2010Prop57
140
1.0
102
RTVSPost2010PropOp57
 70
     1
  0
XRECORD
  5
2C2
102
{ACAD_REACTORS
330
2C1
102
}
330
2C1
100
AcDbXrecord
280
     1
102
RTVSPropertyOp0
 70
     1
102
RTVSPropertyOp1
 70
     1
102
RTVSPropertyOp2
 70
     1
102
RTVSPropertyOp3
 70
     1
102
RTVSPropertyOp4
 70
     1
102
RTVSPropertyOp5
 70
     1
102
RTVSPropertyOp6
 70
     1
102
RTVSPropertyOp7
 70
     1
102
RTVSPropertyOp8
 70
     1
102
RTVSPropertyOp9
 70
     1
102
RTVSPropertyOp10
 70
     1
102
RTVSPropertyOp11
 70
     1
102
RTVSPropertyOp12
 70
     1
102
RTVSPropertyOp13
 70
     1
102
RTVSPropertyOp14
 70
     1
102
RTVSPropertyOp15
 70
     1
102
RTVSPropertyOp16
 70
     1
102
RTVSPropertyOp17
 70
     1
102
RTVSPropertyOp18
 70
     1
102
RTVSPropertyOp19
 70
     1
102
RTVSPropertyOp20
 70
     1
102
RTVSPropertyOp21
 70
     1
102
RTVSPropertyOp22
 70
     1
102
RTVSPropertyOp23
 70
     1
102
RTVSPropertyOp24
 70
     1
102
RTVSPropertyOp25
 70
     1
102
RTVSPropertyOp26
 70
     1
102
RTVSPropertyOp27
 70
     1
102
RTVSPropertyOp28
 70
     1
102
RTVSPropertyOp29
 70
     1
102
RTVSPropertyOp30
 70
     1
102
RTVSPropertyOp31
 70
     1
102
RTVSPropertyOp32
 70
     1
102
RTVSPropertyOp33
 70
     1
102
RTVSPropertyOp34
 70
     1
102
RTVSPropertyOp35
 70
     1
102
RTVSPropertyOp36
 70
     1
102
RTVSPropertyOp37
 70
     1
102
RTVSPropertyOp38
 70
     1
102
RTVSPropertyOp39
 70
     1
102
RTVSPropertyOp40
 70
     1
102
RTVSPropertyOp41
 70
     1
102
RTVSPropertyOp42
 70
     1
102
RTVSPropertyOp43
 70
     1
102
RTVSPropertyOp44
 70
     1
102
RTVSPropertyOp45
 70
     1
102
RTVSPropertyOp46
 70
     1
102
RTVSPropertyOp47
 70
     1
102
RTVSPropertyOp48
 70
     1
102
RTVSPropertyOp49
 70
     1
102
RTVSPropertyOp50
 70
     1
102
RTVSPropertyOp51
 70
     0
102
RTVSPropertyOp52
 70
     0
102
RTVSPropertyOp53
 70
     1
102
RTVSPropertyOp54
 70
     1
102
RTVSPropertyOp55
 70
     1
102
RTVSPropertyOp56
 70
     1
102
RTVSPropertyOp57
 70
     1
102
RTVSPost2010Prop28
280
     0
102
RTVSPost2010PropOp28
 70
     1
102
RTVSPost2010Prop29
280
     1
102
RTVSPost2010PropOp29
 70
     1
102
RTVSPost2010Prop30
280
     1
102
RTVSPost2010PropOp30
 70
     1
102
RTVSPost2010Prop31
280
     0
102
RTVSPost2010PropOp31
 70
     1
102
RTVSPost2010Prop32
280
     0
102
RTVSPost2010PropOp32
 70
     1
102
RTVSPost2010Prop33
280
     0
102
RTVSPost2010PropOp33
 70
     1
102
RTVSPost2010Prop34
280
     0
102
RTVSPost2010PropOp34
 70
     1
102
RTVSPost2010Prop35
280
     0
102
RTVSPost2010PropOp35
 70
     1
102
RTVSPost2010Prop36
280
     0
102
RTVSPost2010PropOp36
 70
     1
102
RTVSPost2010Prop37
 90
       50
102
RTVSPost2010PropOp37
 70
     1
102
RTVSPost2010Prop38
140
0.0
102
RTVSPost2010PropOp38
 70
     1
102
RTVSPost2010Prop39
140
1.0
102
RTVSPost2010PropOp39
 70
     1
102
RTVSPost2010Prop40
 90
        0
102
RTVSPost2010PropOp40
 70
     1
102
RTVSPost2010Prop41ColorIndex
 90
       18
102
RTVSPost2010Prop41ColorRGB
 90
        0
102
RTVSPost2010PropOp41
 70
     1
102
RTVSPost2010Prop42
 90
       50
102
RTVSPost2010PropOp42
 70
     1
102
RTVSPost2010Prop43
 90
        3
102
RTVSPost2010PropOp43
 70
     1
102
RTVSPost2010Prop44ColorIndex
 90
        5
102
RTVSPost2010Prop44ColorRGB
 90
      255
102
RTVSPost2010PropOp44
 70
     1
102
RTVSPost2010Prop45
280
     0
102
RTVSPost2010PropOp45
 70
     1
102
RTVSPost2010Prop46
 90
       50
102
RTVSPost2010PropOp46
 70
     1
102
RTVSPost2010Prop47
 90
       50
102
RTVSPost2010PropOp47
 70
     1
102
RTVSPost2010Prop48
 90
       50
102
RTVSPost2010PropOp48
 70
     1
102
RTVSPost2010Prop49
280
     0
102
RTVSPost2010PropOp49
 70
     1
102
RTVSPost2010Prop50
 90
       50
102
RTVSPost2010PropOp50
 70
     1
102
RTVSPost2010Prop51ColorIndex
 90
      256
102
RTVSPost2010Prop51ColorRGB
 90
-16777216
102
RTVSPost2010PropOp51
 70
     0
102
RTVSPost2010Prop52
140
1.0
102
RTVSPost2010PropOp52
 70
     0
102
RTVSPost2010Prop53
 90
        2
102
RTVSPost2010PropOp53
 70
     1
102
RTVSPost2010Prop54
  1
strokes_ogs.tif
102
RTVSPost2010PropOp54
 70
     1
102
RTVSPost2010Prop55
280
     0
102
RTVSPost2010PropOp55
 70
     1
102
RTVSPost2010Prop56
140
1.0
102
RTVSPost2010PropOp56
 70
     1
102
RTVSPost2010Prop57
140
1.0
102
RTVSPost2010PropOp57
 70
     1
  0
XRECORD
  5
2C0
102
{ACAD_REACTORS
330
2BF
102
}
330
2BF
100
AcDbXrecord
280
     1
102
RTVSPropertyOp0
 70
     1
102
RTVSPropertyOp1
 70
     1
102
RTVSPropertyOp2
 70
     1
102
RTVSPropertyOp3
 70
     1
102
RTVSPropertyOp4
 70
     1
102
RTVSPropertyOp5
 70
     1
102
RTVSPropertyOp6
 70
     1
102
RTVSPropertyOp7
 70
     1
102
RTVSPropertyOp8
 70
     1
102
RTVSPropertyOp9
 70
     1
102
RTVSPropertyOp10
 70
     1
102
RTVSPropertyOp11
 70
     1
102
RTVSPropertyOp12
 70
     1
102
RTVSPropertyOp13
 70
     1
102
RTVSPropertyOp14
 70
     1
102
RTVSPropertyOp15
 70
     1
102
RTVSPropertyOp16
 70
     1
102
RTVSPropertyOp17
 70
     1
102
RTVSPropertyOp18
 70
     1
102
RTVSPropertyOp19
 70
     1
102
RTVSPropertyOp20
 70
     1
102
RTVSPropertyOp21
 70
     1
102
RTVSPropertyOp22
 70
     1
102
RTVSPropertyOp23
 70
     1
102
RTVSPropertyOp24
 70
     1
102
RTVSPropertyOp25
 70
     1
102
RTVSPropertyOp26
 70
     1
102
RTVSPropertyOp27
 70
     1
102
RTVSPropertyOp28
 70
     1
102
RTVSPropertyOp29
 70
     1
102
RTVSPropertyOp30
 70
     1
102
RTVSPropertyOp31
 70
     1
102
RTVSPropertyOp32
 70
     1
102
RTVSPropertyOp33
 70
     1
102
RTVSPropertyOp34
 70
     1
102
RTVSPropertyOp35
 70
     1
102
RTVSPropertyOp36
 70
     1
102
RTVSPropertyOp37
 70
     1
102
RTVSPropertyOp38
 70
     1
102
RTVSPropertyOp39
 70
     1
102
RTVSPropertyOp40
 70
     1
102
RTVSPropertyOp41
 70
     1
102
RTVSPropertyOp42
 70
     1
102
RTVSPropertyOp43
 70
     1
102
RTVSPropertyOp44
 70
     1
102
RTVSPropertyOp45
 70
     1
102
RTVSPropertyOp46
 70
     1
102
RTVSPropertyOp47
 70
     1
102
RTVSPropertyOp48
 70
     1
102
RTVSPropertyOp49
 70
     1
102
RTVSPropertyOp50
 70
     1
102
RTVSPropertyOp51
 70
     0
102
RTVSPropertyOp52
 70
     0
102
RTVSPropertyOp53
 70
     1
102
RTVSPropertyOp54
 70
     1
102
RTVSPropertyOp55
 70
     1
102
RTVSPropertyOp56
 70
     1
102
RTVSPropertyOp57
 70
     1
102
RTVSPost2010Prop28
280
     0
102
RTVSPost2010PropOp28
 70
     1
102
RTVSPost2010Prop29
280
     1
102
RTVSPost2010PropOp29
 70
     1
102
RTVSPost2010Prop30
280
     1
102
RTVSPost2010PropOp30
 70
     1
102
RTVSPost2010Prop31
280
     0
102
RTVSPost2010PropOp31
 70
     1
102
RTVSPost2010Prop32
280
     0
102
RTVSPost2010PropOp32
 70
     1
102
RTVSPost2010Prop33
280
     0
102
RTVSPost2010PropOp33
 70
     1
102
RTVSPost2010Prop34
280
     0
102
RTVSPost2010PropOp34
 70
     1
102
RTVSPost2010Prop35
280
     0
102
RTVSPost2010PropOp35
 70
     1
102
RTVSPost2010Prop36
280
     0
102
RTVSPost2010PropOp36
 70
     1
102
RTVSPost2010Prop37
 90
       50
102
RTVSPost2010PropOp37
 70
     1
102
RTVSPost2010Prop38
140
0.0
102
RTVSPost2010PropOp38
 70
     1
102
RTVSPost2010Prop39
140
1.0
102
RTVSPost2010PropOp39
 70
     1
102
RTVSPost2010Prop40
 90
        0
102
RTVSPost2010PropOp40
 70
     1
102
RTVSPost2010Prop41ColorIndex
 90
       18
102
RTVSPost2010Prop41ColorRGB
 90
        0
102
RTVSPost2010PropOp41
 70
     1
102
RTVSPost2010Prop42
 90
       50
102
RTVSPost2010PropOp42
 70
     1
102
RTVSPost2010Prop43
 90
        3
102
RTVSPost2010PropOp43
 70
     1
102
RTVSPost2010Prop44ColorIndex
 90
        5
102
RTVSPost2010Prop44ColorRGB
 90
      255
102
RTVSPost2010PropOp44
 70
     1
102
RTVSPost2010Prop45
280
     0
102
RTVSPost2010PropOp45
 70
     1
102
RTVSPost2010Prop46
 90
       50
102
RTVSPost2010PropOp46
 70
     1
102
RTVSPost2010Prop47
 90
       50
102
RTVSPost2010PropOp47
 70
     1
102
RTVSPost2010Prop48
 90
       50
102
RTVSPost2010PropOp48
 70
     1
102
RTVSPost2010Prop49
280
     0
102
RTVSPost2010PropOp49
 70
     1
102
RTVSPost2010Prop50
 90
       50
102
RTVSPost2010PropOp50
 70
     1
102
RTVSPost2010Prop51ColorIndex
 90
      256
102
RTVSPost2010Prop51ColorRGB
 90
-16777216
102
RTVSPost2010PropOp51
 70
     0
102
RTVSPost2010Prop52
140
1.0
102
RTVSPost2010PropOp52
 70
     0
102
RTVSPost2010Prop53
 90
        2
102
RTVSPost2010PropOp53
 70
     1
102
RTVSPost2010Prop54
  1
strokes_ogs.tif
102
RTVSPost2010PropOp54
 70
     1
102
RTVSPost2010Prop55
280
     0
102
RTVSPost2010PropOp55
 70
     1
102
RTVSPost2010Prop56
140
1.0
102
RTVSPost2010PropOp56
 70
     1
102
RTVSPost2010Prop57
140
1.0
102
RTVSPost2010PropOp57
 70
     1
  0
XRECORD
  5
2BA
102
{ACAD_REACTORS
330
2B9
102
}
330
2B9
100
AcDbXrecord
280
     1
102
RTVSPropertyOp0
 70
     1
102
RTVSPropertyOp1
 70
     1
102
RTVSPropertyOp2
 70
     1
102
RTVSPropertyOp3
 70
     1
102
RTVSPropertyOp4
 70
     1
102
RTVSPropertyOp5
 70
     1
102
RTVSPropertyOp6
 70
     1
102
RTVSPropertyOp7
 70
     1
102
RTVSPropertyOp8
 70
     1
102
RTVSPropertyOp9
 70
     1
102
RTVSPropertyOp10
 70
     1
102
RTVSPropertyOp11
 70
     1
102
RTVSPropertyOp12
 70
     1
102
RTVSPropertyOp13
 70
     1
102
RTVSPropertyOp14
 70
     1
102
RTVSPropertyOp15
 70
     1
102
RTVSPropertyOp16
 70
     1
102
RTVSPropertyOp17
 70
     1
102
RTVSPropertyOp18
 70
     1
102
RTVSPropertyOp19
 70
     1
102
RTVSPropertyOp20
 70
     1
102
RTVSPropertyOp21
 70
     1
102
RTVSPropertyOp22
 70
     1
102
RTVSPropertyOp23
 70
     1
102
RTVSPropertyOp24
 70
     1
102
RTVSPropertyOp25
 70
     1
102
RTVSPropertyOp26
 70
     1
102
RTVSPropertyOp27
 70
     1
102
RTVSPropertyOp28
 70
     1
102
RTVSPropertyOp29
 70
     1
102
RTVSPropertyOp30
 70
     1
102
RTVSPropertyOp31
 70
     1
102
RTVSPropertyOp32
 70
     1
102
RTVSPropertyOp33
 70
     1
102
RTVSPropertyOp34
 70
     1
102
RTVSPropertyOp35
 70
     1
102
RTVSPropertyOp36
 70
     1
102
RTVSPropertyOp37
 70
     1
102
RTVSPropertyOp38
 70
     1
102
RTVSPropertyOp39
 70
     1
102
RTVSPropertyOp40
 70
     1
102
RTVSPropertyOp41
 70
     1
102
RTVSPropertyOp42
 70
     1
102
RTVSPropertyOp43
 70
     1
102
RTVSPropertyOp44
 70
     1
102
RTVSPropertyOp45
 70
     1
102
RTVSPropertyOp46
 70
     1
102
RTVSPropertyOp47
 70
     1
102
RTVSPropertyOp48
 70
     1
102
RTVSPropertyOp49
 70
     1
102
RTVSPropertyOp50
 70
     1
102
RTVSPropertyOp51
 70
     0
102
RTVSPropertyOp52
 70
     0
102
RTVSPropertyOp53
 70
     1
102
RTVSPropertyOp54
 70
     1
102
RTVSPropertyOp55
 70
     1
102
RTVSPropertyOp56
 70
     1
102
RTVSPropertyOp57
 70
     1
102
RTVSPost2010Prop28
280
     0
102
RTVSPost2010PropOp28
 70
     1
102
RTVSPost2010Prop29
280
     1
102
RTVSPost2010PropOp29
 70
     1
102
RTVSPost2010Prop30
280
     1
102
RTVSPost2010PropOp30
 70
     1
102
RTVSPost2010Prop31
280
     0
102
RTVSPost2010PropOp31
 70
     1
102
RTVSPost2010Prop32
280
     0
102
RTVSPost2010PropOp32
 70
     1
102
RTVSPost2010Prop33
280
     0
102
RTVSPost2010PropOp33
 70
     1
102
RTVSPost2010Prop34
280
     0
102
RTVSPost2010PropOp34
 70
     1
102
RTVSPost2010Prop35
280
     0
102
RTVSPost2010PropOp35
 70
     1
102
RTVSPost2010Prop36
280
     0
102
RTVSPost2010PropOp36
 70
     1
102
RTVSPost2010Prop37
 90
       50
102
RTVSPost2010PropOp37
 70
     1
102
RTVSPost2010Prop38
140
0.0
102
RTVSPost2010PropOp38
 70
     1
102
RTVSPost2010Prop39
140
1.0
102
RTVSPost2010PropOp39
 70
     1
102
RTVSPost2010Prop40
 90
        0
102
RTVSPost2010PropOp40
 70
     1
102
RTVSPost2010Prop41ColorIndex
 90
       18
102
RTVSPost2010Prop41ColorRGB
 90
        0
102
RTVSPost2010PropOp41
 70
     1
102
RTVSPost2010Prop42
 90
       50
102
RTVSPost2010PropOp42
 70
     1
102
RTVSPost2010Prop43
 90
        3
102
RTVSPost2010PropOp43
 70
     1
102
RTVSPost2010Prop44ColorIndex
 90
        5
102
RTVSPost2010Prop44ColorRGB
 90
      255
102
RTVSPost2010PropOp44
 70
     1
102
RTVSPost2010Prop45
280
     0
102
RTVSPost2010PropOp45
 70
     1
102
RTVSPost2010Prop46
 90
       50
102
RTVSPost2010PropOp46
 70
     1
102
RTVSPost2010Prop47
 90
       50
102
RTVSPost2010PropOp47
 70
     1
102
RTVSPost2010Prop48
 90
       50
102
RTVSPost2010PropOp48
 70
     1
102
RTVSPost2010Prop49
280
     0
102
RTVSPost2010PropOp49
 70
     1
102
RTVSPost2010Prop50
 90
       50
102
RTVSPost2010PropOp50
 70
     1
102
RTVSPost2010Prop51ColorIndex
 90
      256
102
RTVSPost2010Prop51ColorRGB
 90
-16777216
102
RTVSPost2010PropOp51
 70
     0
102
RTVSPost2010Prop52
140
1.0
102
RTVSPost2010PropOp52
 70
     0
102
RTVSPost2010Prop53
 90
        2
102
RTVSPost2010PropOp53
 70
     1
102
RTVSPost2010Prop54
  1
strokes_ogs.tif
102
RTVSPost2010PropOp54
 70
     1
102
RTVSPost2010Prop55
280
     0
102
RTVSPost2010PropOp55
 70
     1
102
RTVSPost2010Prop56
140
1.0
102
RTVSPost2010PropOp56
 70
     1
102
RTVSPost2010Prop57
140
1.0
102
RTVSPost2010PropOp57
 70
     1
  0
XRECORD
  5
2BC
102
{ACAD_REACTORS
330
2BB
102
}
330
2BB
100
AcDbXrecord
280
     1
102
RTVSPropertyOp0
 70
     1
102
RTVSPropertyOp1
 70
     1
102
RTVSPropertyOp2
 70
     1
102
RTVSPropertyOp3
 70
     1
102
RTVSPropertyOp4
 70
     1
102
RTVSPropertyOp5
 70
     1
102
RTVSPropertyOp6
 70
     1
102
RTVSPropertyOp7
 70
     1
102
RTVSPropertyOp8
 70
     1
102
RTVSPropertyOp9
 70
     1
102
RTVSPropertyOp10
 70
     1
102
RTVSPropertyOp11
 70
     1
102
RTVSPropertyOp12
 70
     1
102
RTVSPropertyOp13
 70
     1
102
RTVSPropertyOp14
 70
     1
102
RTVSPropertyOp15
 70
     1
102
RTVSPropertyOp16
 70
     1
102
RTVSPropertyOp17
 70
     1
102
RTVSPropertyOp18
 70
     1
102
RTVSPropertyOp19
 70
     1
102
RTVSPropertyOp20
 70
     1
102
RTVSPropertyOp21
 70
     1
102
RTVSPropertyOp22
 70
     1
102
RTVSPropertyOp23
 70
     1
102
RTVSPropertyOp24
 70
     1
102
RTVSPropertyOp25
 70
     1
102
RTVSPropertyOp26
 70
     1
102
RTVSPropertyOp27
 70
     1
102
RTVSPropertyOp28
 70
     1
102
RTVSPropertyOp29
 70
     1
102
RTVSPropertyOp30
 70
     1
102
RTVSPropertyOp31
 70
     1
102
RTVSPropertyOp32
 70
     1
102
RTVSPropertyOp33
 70
     1
102
RTVSPropertyOp34
 70
     1
102
RTVSPropertyOp35
 70
     1
102
RTVSPropertyOp36
 70
     1
102
RTVSPropertyOp37
 70
     1
102
RTVSPropertyOp38
 70
     1
102
RTVSPropertyOp39
 70
     1
102
RTVSPropertyOp40
 70
     1
102
RTVSPropertyOp41
 70
     1
102
RTVSPropertyOp42
 70
     1
102
RTVSPropertyOp43
 70
     1
102
RTVSPropertyOp44
 70
     1
102
RTVSPropertyOp45
 70
     1
102
RTVSPropertyOp46
 70
     1
102
RTVSPropertyOp47
 70
     1
102
RTVSPropertyOp48
 70
     1
102
RTVSPropertyOp49
 70
     1
102
RTVSPropertyOp50
 70
     1
102
RTVSPropertyOp51
 70
     0
102
RTVSPropertyOp52
 70
     0
102
RTVSPropertyOp53
 70
     1
102
RTVSPropertyOp54
 70
     1
102
RTVSPropertyOp55
 70
     1
102
RTVSPropertyOp56
 70
     1
102
RTVSPropertyOp57
 70
     1
102
RTVSPost2010Prop28
280
     0
102
RTVSPost2010PropOp28
 70
     1
102
RTVSPost2010Prop29
280
     1
102
RTVSPost2010PropOp29
 70
     1
102
RTVSPost2010Prop30
280
     1
102
RTVSPost2010PropOp30
 70
     1
102
RTVSPost2010Prop31
280
     0
102
RTVSPost2010PropOp31
 70
     1
102
RTVSPost2010Prop32
280
     0
102
RTVSPost2010PropOp32
 70
     1
102
RTVSPost2010Prop33
280
     0
102
RTVSPost2010PropOp33
 70
     1
102
RTVSPost2010Prop34
280
     0
102
RTVSPost2010PropOp34
 70
     1
102
RTVSPost2010Prop35
280
     0
102
RTVSPost2010PropOp35
 70
     1
102
RTVSPost2010Prop36
280
     0
102
RTVSPost2010PropOp36
 70
     1
102
RTVSPost2010Prop37
 90
       50
102
RTVSPost2010PropOp37
 70
     1
102
RTVSPost2010Prop38
140
0.0
102
RTVSPost2010PropOp38
 70
     1
102
RTVSPost2010Prop39
140
1.0
102
RTVSPost2010PropOp39
 70
     1
102
RTVSPost2010Prop40
 90
        0
102
RTVSPost2010PropOp40
 70
     1
102
RTVSPost2010Prop41ColorIndex
 90
       18
102
RTVSPost2010Prop41ColorRGB
 90
        0
102
RTVSPost2010PropOp41
 70
     1
102
RTVSPost2010Prop42
 90
       50
102
RTVSPost2010PropOp42
 70
     1
102
RTVSPost2010Prop43
 90
        3
102
RTVSPost2010PropOp43
 70
     1
102
RTVSPost2010Prop44ColorIndex
 90
        5
102
RTVSPost2010Prop44ColorRGB
 90
      255
102
RTVSPost2010PropOp44
 70
     1
102
RTVSPost2010Prop45
280
     0
102
RTVSPost2010PropOp45
 70
     1
102
RTVSPost2010Prop46
 90
       50
102
RTVSPost2010PropOp46
 70
     1
102
RTVSPost2010Prop47
 90
       50
102
RTVSPost2010PropOp47
 70
     1
102
RTVSPost2010Prop48
 90
       50
102
RTVSPost2010PropOp48
 70
     1
102
RTVSPost2010Prop49
280
     0
102
RTVSPost2010PropOp49
 70
     1
102
RTVSPost2010Prop50
 90
       50
102
RTVSPost2010PropOp50
 70
     1
102
RTVSPost2010Prop51ColorIndex
 90
      256
102
RTVSPost2010Prop51ColorRGB
 90
-16777216
102
RTVSPost2010PropOp51
 70
     0
102
RTVSPost2010Prop52
140
1.0
102
RTVSPost2010PropOp52
 70
     0
102
RTVSPost2010Prop53
 90
        2
102
RTVSPost2010PropOp53
 70
     1
102
RTVSPost2010Prop54
  1
strokes_ogs.tif
102
RTVSPost2010PropOp54
 70
     1
102
RTVSPost2010Prop55
280
     0
102
RTVSPost2010PropOp55
 70
     1
102
RTVSPost2010Prop56
140
1.0
102
RTVSPost2010PropOp56
 70
     1
102
RTVSPost2010Prop57
140
1.0
102
RTVSPost2010PropOp57
 70
     1
  0
XRECORD
  5
2AC
102
{ACAD_REACTORS
330
2AB
102
}
330
2AB
100
AcDbXrecord
280
     1
102
RTVSPropertyOp0
 70
     1
102
RTVSPropertyOp1
 70
     1
102
RTVSPropertyOp2
 70
     1
102
RTVSPropertyOp3
 70
     1
102
RTVSPropertyOp4
 70
     1
102
RTVSPropertyOp5
 70
     1
102
RTVSPropertyOp6
 70
     1
102
RTVSPropertyOp7
 70
     1
102
RTVSPropertyOp8
 70
     1
102
RTVSPropertyOp9
 70
     1
102
RTVSPropertyOp10
 70
     1
102
RTVSPropertyOp11
 70
     1
102
RTVSPropertyOp12
 70
     1
102
RTVSPropertyOp13
 70
     1
102
RTVSPropertyOp14
 70
     1
102
RTVSPropertyOp15
 70
     1
102
RTVSPropertyOp16
 70
     1
102
RTVSPropertyOp17
 70
     1
102
RTVSPropertyOp18
 70
     1
102
RTVSPropertyOp19
 70
     1
102
RTVSPropertyOp20
 70
     1
102
RTVSPropertyOp21
 70
     1
102
RTVSPropertyOp22
 70
     1
102
RTVSPropertyOp23
 70
     1
102
RTVSPropertyOp24
 70
     1
102
RTVSPropertyOp25
 70
     1
102
RTVSPropertyOp26
 70
     1
102
RTVSPropertyOp27
 70
     1
102
RTVSPropertyOp28
 70
     1
102
RTVSPropertyOp29
 70
     1
102
RTVSPropertyOp30
 70
     1
102
RTVSPropertyOp31
 70
     1
102
RTVSPropertyOp32
 70
     1
102
RTVSPropertyOp33
 70
     1
102
RTVSPropertyOp34
 70
     1
102
RTVSPropertyOp35
 70
     1
102
RTVSPropertyOp36
 70
     1
102
RTVSPropertyOp37
 70
     1
102
RTVSPropertyOp38
 70
     1
102
RTVSPropertyOp39
 70
     1
102
RTVSPropertyOp40
 70
     1
102
RTVSPropertyOp41
 70
     1
102
RTVSPropertyOp42
 70
     1
102
RTVSPropertyOp43
 70
     1
102
RTVSPropertyOp44
 70
     1
102
RTVSPropertyOp45
 70
     1
102
RTVSPropertyOp46
 70
     1
102
RTVSPropertyOp47
 70
     1
102
RTVSPropertyOp48
 70
     1
102
RTVSPropertyOp49
 70
     1
102
RTVSPropertyOp50
 70
     1
102
RTVSPropertyOp51
 70
     0
102
RTVSPropertyOp52
 70
     0
102
RTVSPropertyOp53
 70
     1
102
RTVSPropertyOp54
 70
     1
102
RTVSPropertyOp55
 70
     1
102
RTVSPropertyOp56
 70
     1
102
RTVSPropertyOp57
 70
     1
102
RTVSPost2010Prop28
280
     0
102
RTVSPost2010PropOp28
 70
     1
102
RTVSPost2010Prop29
280
     1
102
RTVSPost2010PropOp29
 70
     1
102
RTVSPost2010Prop30
280
     1
102
RTVSPost2010PropOp30
 70
     1
102
RTVSPost2010Prop31
280
     0
102
RTVSPost2010PropOp31
 70
     1
102
RTVSPost2010Prop32
280
     0
102
RTVSPost2010PropOp32
 70
     1
102
RTVSPost2010Prop33
280
     0
102
RTVSPost2010PropOp33
 70
     1
102
RTVSPost2010Prop34
280
     0
102
RTVSPost2010PropOp34
 70
     1
102
RTVSPost2010Prop35
280
     0
102
RTVSPost2010PropOp35
 70
     1
102
RTVSPost2010Prop36
280
     0
102
RTVSPost2010PropOp36
 70
     1
102
RTVSPost2010Prop37
 90
       50
102
RTVSPost2010PropOp37
 70
     1
102
RTVSPost2010Prop38
140
0.0
102
RTVSPost2010PropOp38
 70
     1
102
RTVSPost2010Prop39
140
1.0
102
RTVSPost2010PropOp39
 70
     1
102
RTVSPost2010Prop40
 90
        0
102
RTVSPost2010PropOp40
 70
     1
102
RTVSPost2010Prop41ColorIndex
 90
       18
102
RTVSPost2010Prop41ColorRGB
 90
        0
102
RTVSPost2010PropOp41
 70
     1
102
RTVSPost2010Prop42
 90
       50
102
RTVSPost2010PropOp42
 70
     1
102
RTVSPost2010Prop43
 90
        3
102
RTVSPost2010PropOp43
 70
     1
102
RTVSPost2010Prop44ColorIndex
 90
        5
102
RTVSPost2010Prop44ColorRGB
 90
      255
102
RTVSPost2010PropOp44
 70
     1
102
RTVSPost2010Prop45
280
     0
102
RTVSPost2010PropOp45
 70
     1
102
RTVSPost2010Prop46
 90
       50
102
RTVSPost2010PropOp46
 70
     1
102
RTVSPost2010Prop47
 90
       50
102
RTVSPost2010PropOp47
 70
     1
102
RTVSPost2010Prop48
 90
       50
102
RTVSPost2010PropOp48
 70
     1
102
RTVSPost2010Prop49
280
     0
102
RTVSPost2010PropOp49
 70
     1
102
RTVSPost2010Prop50
 90
       50
102
RTVSPost2010PropOp50
 70
     1
102
RTVSPost2010Prop51ColorIndex
 90
      256
102
RTVSPost2010Prop51ColorRGB
 90
-16777216
102
RTVSPost2010PropOp51
 70
     0
102
RTVSPost2010Prop52
140
1.0
102
RTVSPost2010PropOp52
 70
     0
102
RTVSPost2010Prop53
 90
        2
102
RTVSPost2010PropOp53
 70
     1
102
RTVSPost2010Prop54
  1
strokes_ogs.tif
102
RTVSPost2010PropOp54
 70
     1
102
RTVSPost2010Prop55
280
     0
102
RTVSPost2010PropOp55
 70
     1
102
RTVSPost2010Prop56
140
1.0
102
RTVSPost2010PropOp56
 70
     1
102
RTVSPost2010Prop57
140
1.0
102
RTVSPost2010PropOp57
 70
     1
  0
XRECORD
  5
29E
102
{ACAD_REACTORS
330
29D
102
}
330
29D
100
AcDbXrecord
280
     1
102
RTVSPropertyOp0
 70
     1
102
RTVSPropertyOp1
 70
     1
102
RTVSPropertyOp2
 70
     1
102
RTVSPropertyOp3
 70
     1
102
RTVSPropertyOp4
 70
     1
102
RTVSPropertyOp5
 70
     1
102
RTVSPropertyOp6
 70
     1
102
RTVSPropertyOp7
 70
     1
102
RTVSPropertyOp8
 70
     1
102
RTVSPropertyOp9
 70
     1
102
RTVSPropertyOp10
 70
     1
102
RTVSPropertyOp11
 70
     1
102
RTVSPropertyOp12
 70
     1
102
RTVSPropertyOp13
 70
     1
102
RTVSPropertyOp14
 70
     1
102
RTVSPropertyOp15
 70
     1
102
RTVSPropertyOp16
 70
     1
102
RTVSPropertyOp17
 70
     1
102
RTVSPropertyOp18
 70
     1
102
RTVSPropertyOp19
 70
     1
102
RTVSPropertyOp20
 70
     1
102
RTVSPropertyOp21
 70
     1
102
RTVSPropertyOp22
 70
     1
102
RTVSPropertyOp23
 70
     1
102
RTVSPropertyOp24
 70
     1
102
RTVSPropertyOp25
 70
     1
102
RTVSPropertyOp26
 70
     1
102
RTVSPropertyOp27
 70
     1
102
RTVSPropertyOp28
 70
     1
102
RTVSPropertyOp29
 70
     1
102
RTVSPropertyOp30
 70
     1
102
RTVSPropertyOp31
 70
     1
102
RTVSPropertyOp32
 70
     1
102
RTVSPropertyOp33
 70
     1
102
RTVSPropertyOp34
 70
     1
102
RTVSPropertyOp35
 70
     1
102
RTVSPropertyOp36
 70
     1
102
RTVSPropertyOp37
 70
     1
102
RTVSPropertyOp38
 70
     1
102
RTVSPropertyOp39
 70
     1
102
RTVSPropertyOp40
 70
     1
102
RTVSPropertyOp41
 70
     1
102
RTVSPropertyOp42
 70
     1
102
RTVSPropertyOp43
 70
     1
102
RTVSPropertyOp44
 70
     1
102
RTVSPropertyOp45
 70
     1
102
RTVSPropertyOp46
 70
     1
102
RTVSPropertyOp47
 70
     1
102
RTVSPropertyOp48
 70
     1
102
RTVSPropertyOp49
 70
     1
102
RTVSPropertyOp50
 70
     1
102
RTVSPropertyOp51
 70
     0
102
RTVSPropertyOp52
 70
     0
102
RTVSPropertyOp53
 70
     1
102
RTVSPropertyOp54
 70
     1
102
RTVSPropertyOp55
 70
     1
102
RTVSPropertyOp56
 70
     1
102
RTVSPropertyOp57
 70
     1
102
RTVSPost2010Prop28
280
     0
102
RTVSPost2010PropOp28
 70
     1
102
RTVSPost2010Prop29
280
     1
102
RTVSPost2010PropOp29
 70
     1
102
RTVSPost2010Prop30
280
     1
102
RTVSPost2010PropOp30
 70
     1
102
RTVSPost2010Prop31
280
     0
102
RTVSPost2010PropOp31
 70
     1
102
RTVSPost2010Prop32
280
     0
102
RTVSPost2010PropOp32
 70
     1
102
RTVSPost2010Prop33
280
     0
102
RTVSPost2010PropOp33
 70
     1
102
RTVSPost2010Prop34
280
     0
102
RTVSPost2010PropOp34
 70
     1
102
RTVSPost2010Prop35
280
     0
102
RTVSPost2010PropOp35
 70
     1
102
RTVSPost2010Prop36
280
     0
102
RTVSPost2010PropOp36
 70
     1
102
RTVSPost2010Prop37
 90
       50
102
RTVSPost2010PropOp37
 70
     1
102
RTVSPost2010Prop38
140
0.0
102
RTVSPost2010PropOp38
 70
     1
102
RTVSPost2010Prop39
140
1.0
102
RTVSPost2010PropOp39
 70
     1
102
RTVSPost2010Prop40
 90
        0
102
RTVSPost2010PropOp40
 70
     1
102
RTVSPost2010Prop41ColorIndex
 90
       18
102
RTVSPost2010Prop41ColorRGB
 90
        0
102
RTVSPost2010PropOp41
 70
     1
102
RTVSPost2010Prop42
 90
       50
102
RTVSPost2010PropOp42
 70
     1
102
RTVSPost2010Prop43
 90
        3
102
RTVSPost2010PropOp43
 70
     1
102
RTVSPost2010Prop44ColorIndex
 90
        5
102
RTVSPost2010Prop44ColorRGB
 90
      255
102
RTVSPost2010PropOp44
 70
     1
102
RTVSPost2010Prop45
280
     0
102
RTVSPost2010PropOp45
 70
     1
102
RTVSPost2010Prop46
 90
       50
102
RTVSPost2010PropOp46
 70
     1
102
RTVSPost2010Prop47
 90
       50
102
RTVSPost2010PropOp47
 70
     1
102
RTVSPost2010Prop48
 90
       50
102
RTVSPost2010PropOp48
 70
     1
102
RTVSPost2010Prop49
280
     0
102
RTVSPost2010PropOp49
 70
     1
102
RTVSPost2010Prop50
 90
       50
102
RTVSPost2010PropOp50
 70
     1
102
RTVSPost2010Prop51ColorIndex
 90
      256
102
RTVSPost2010Prop51ColorRGB
 90
-16777216
102
RTVSPost2010PropOp51
 70
     0
102
RTVSPost2010Prop52
140
1.0
102
RTVSPost2010PropOp52
 70
     0
102
RTVSPost2010Prop53
 90
        2
102
RTVSPost2010PropOp53
 70
     1
102
RTVSPost2010Prop54
  1
strokes_ogs.tif
102
RTVSPost2010PropOp54
 70
     1
102
RTVSPost2010Prop55
280
     0
102
RTVSPost2010PropOp55
 70
     1
102
RTVSPost2010Prop56
140
1.0
102
RTVSPost2010PropOp56
 70
     1
102
RTVSPost2010Prop57
140
1.0
102
RTVSPost2010PropOp57
 70
     1
  0
XRECORD
  5
2BE
102
{ACAD_REACTORS
330
2BD
102
}
330
2BD
100
AcDbXrecord
280
     1
102
RTVSPropertyOp0
 70
     1
102
RTVSPropertyOp1
 70
     1
102
RTVSPropertyOp2
 70
     1
102
RTVSPropertyOp3
 70
     1
102
RTVSPropertyOp4
 70
     1
102
RTVSPropertyOp5
 70
     1
102
RTVSPropertyOp6
 70
     1
102
RTVSPropertyOp7
 70
     1
102
RTVSPropertyOp8
 70
     1
102
RTVSPropertyOp9
 70
     1
102
RTVSPropertyOp10
 70
     1
102
RTVSPropertyOp11
 70
     1
102
RTVSPropertyOp12
 70
     1
102
RTVSPropertyOp13
 70
     1
102
RTVSPropertyOp14
 70
     1
102
RTVSPropertyOp15
 70
     1
102
RTVSPropertyOp16
 70
     1
102
RTVSPropertyOp17
 70
     1
102
RTVSPropertyOp18
 70
     1
102
RTVSPropertyOp19
 70
     1
102
RTVSPropertyOp20
 70
     1
102
RTVSPropertyOp21
 70
     1
102
RTVSPropertyOp22
 70
     1
102
RTVSPropertyOp23
 70
     1
102
RTVSPropertyOp24
 70
     1
102
RTVSPropertyOp25
 70
     1
102
RTVSPropertyOp26
 70
     1
102
RTVSPropertyOp27
 70
     1
102
RTVSPropertyOp28
 70
     1
102
RTVSPropertyOp29
 70
     1
102
RTVSPropertyOp30
 70
     1
102
RTVSPropertyOp31
 70
     1
102
RTVSPropertyOp32
 70
     1
102
RTVSPropertyOp33
 70
     1
102
RTVSPropertyOp34
 70
     1
102
RTVSPropertyOp35
 70
     1
102
RTVSPropertyOp36
 70
     1
102
RTVSPropertyOp37
 70
     1
102
RTVSPropertyOp38
 70
     1
102
RTVSPropertyOp39
 70
     1
102
RTVSPropertyOp40
 70
     1
102
RTVSPropertyOp41
 70
     1
102
RTVSPropertyOp42
 70
     1
102
RTVSPropertyOp43
 70
     1
102
RTVSPropertyOp44
 70
     1
102
RTVSPropertyOp45
 70
     1
102
RTVSPropertyOp46
 70
     1
102
RTVSPropertyOp47
 70
     1
102
RTVSPropertyOp48
 70
     1
102
RTVSPropertyOp49
 70
     1
102
RTVSPropertyOp50
 70
     1
102
RTVSPropertyOp51
 70
     0
102
RTVSPropertyOp52
 70
     0
102
RTVSPropertyOp53
 70
     1
102
RTVSPropertyOp54
 70
     1
102
RTVSPropertyOp55
 70
     1
102
RTVSPropertyOp56
 70
     1
102
RTVSPropertyOp57
 70
     1
102
RTVSPost2010Prop28
280
     0
102
RTVSPost2010PropOp28
 70
     1
102
RTVSPost2010Prop29
280
     1
102
RTVSPost2010PropOp29
 70
     1
102
RTVSPost2010Prop30
280
     1
102
RTVSPost2010PropOp30
 70
     1
102
RTVSPost2010Prop31
280
     0
102
RTVSPost2010PropOp31
 70
     1
102
RTVSPost2010Prop32
280
     0
102
RTVSPost2010PropOp32
 70
     1
102
RTVSPost2010Prop33
280
     0
102
RTVSPost2010PropOp33
 70
     1
102
RTVSPost2010Prop34
280
     0
102
RTVSPost2010PropOp34
 70
     1
102
RTVSPost2010Prop35
280
     0
102
RTVSPost2010PropOp35
 70
     1
102
RTVSPost2010Prop36
280
     0
102
RTVSPost2010PropOp36
 70
     1
102
RTVSPost2010Prop37
 90
       50
102
RTVSPost2010PropOp37
 70
     1
102
RTVSPost2010Prop38
140
0.0
102
RTVSPost2010PropOp38
 70
     1
102
RTVSPost2010Prop39
140
1.0
102
RTVSPost2010PropOp39
 70
     1
102
RTVSPost2010Prop40
 90
        0
102
RTVSPost2010PropOp40
 70
     1
102
RTVSPost2010Prop41ColorIndex
 90
       18
102
RTVSPost2010Prop41ColorRGB
 90
        0
102
RTVSPost2010PropOp41
 70
     1
102
RTVSPost2010Prop42
 90
       50
102
RTVSPost2010PropOp42
 70
     1
102
RTVSPost2010Prop43
 90
        3
102
RTVSPost2010PropOp43
 70
     1
102
RTVSPost2010Prop44ColorIndex
 90
        5
102
RTVSPost2010Prop44ColorRGB
 90
      255
102
RTVSPost2010PropOp44
 70
     1
102
RTVSPost2010Prop45
280
     0
102
RTVSPost2010PropOp45
 70
     1
102
RTVSPost2010Prop46
 90
       50
102
RTVSPost2010PropOp46
 70
     1
102
RTVSPost2010Prop47
 90
       50
102
RTVSPost2010PropOp47
 70
     1
102
RTVSPost2010Prop48
 90
       50
102
RTVSPost2010PropOp48
 70
     1
102
RTVSPost2010Prop49
280
     0
102
RTVSPost2010PropOp49
 70
     1
102
RTVSPost2010Prop50
 90
       50
102
RTVSPost2010PropOp50
 70
     1
102
RTVSPost2010Prop51ColorIndex
 90
      256
102
RTVSPost2010Prop51ColorRGB
 90
-16777216
102
RTVSPost2010PropOp51
 70
     0
102
RTVSPost2010Prop52
140
1.0
102
RTVSPost2010PropOp52
 70
     0
102
RTVSPost2010Prop53
 90
        2
102
RTVSPost2010PropOp53
 70
     1
102
RTVSPost2010Prop54
  1
strokes_ogs.tif
102
RTVSPost2010PropOp54
 70
     1
102
RTVSPost2010Prop55
280
     0
102
RTVSPost2010PropOp55
 70
     1
102
RTVSPost2010Prop56
140
1.0
102
RTVSPost2010PropOp56
 70
     1
102
RTVSPost2010Prop57
140
1.0
102
RTVSPost2010PropOp57
 70
     1
  0
ENDSEC
  0
EOF
