  0
SECTION
  2
HEADER
  9
$ACADVER
  1
AC1009
  9
$DWGCODEPAGE
  3
ansi_932
  9
$INSBASE
 10
0.0
 20
0.0
 30
0.0
  9
$EXTMIN
 10
-420.0
 20
-297.0
 30
0.0
  9
$EXTMAX
 10
420.0
 20
297.0
 30
0.0
  9
$LIMMIN
 10
-420.0
 20
-297.0
  9
$LIMMAX
 10
420.0
 20
297.0
  9
$ORTHOMODE
 70
     0
  9
$REGENMODE
 70
     1
  9
$FILLMODE
 70
     1
  9
$QTEXTMODE
 70
     0
  9
$MIRRTEXT
 70
     1
  9
$DRAGMODE
 70
     2
  9
$LTSCALE
 40
1.0
  9
$OSMODE
 70
    37
  9
$ATTMODE
 70
     1
  9
$TEXTSIZE
 40
1.0
  9
$TRACEWID
 40
0.05
  9
$TEXTSTYLE
  7
STANDARD
  9
$CLAYER
  8
0
  9
$CELTYPE
  6
BYBLOCK
  9
$CECOLOR
 62
   256
  9
$DIMSCALE
 40
2.0
  9
$DIMASZ
 40
2.0
  9
$DIMEXO
 40
0.5
  9
$DIMDLI
 40
0.38
  9
$DIMRND
 40
0.0
  9
$DIMDLE
 40
0.0
  9
$DIMEXE
 40
2.0
  9
$DIMTP
 40
0.0
  9
$DIMTM
 40
0.0
  9
$DIMTXT
 40
2.5
  9
$DIMCEN
 40
0.09
  9
$DIMTSZ
 40
0.0
  9
$DIMTOL
 70
     0
  9
$DIMLIM
 70
     0
  9
$DIMTIH
 70
     0
  9
$DIMTOH
 70
     0
  9
$DIMSE1
 70
     0
  9
$DIMSE2
 70
     0
  9
$DIMTAD
 70
     1
  9
$DIMZIN
 70
     0
  9
$DIMBLK
  1

  9
$DIMASO
 70
     1
  9
$DIMSHO
 70
     1
  9
$DIMPOST
  1

  9
$DIMAPOST
  1

  9
$DIMALT
 70
     0
  9
$DIMALTD
 70
     2
  9
$DIMALTF
 40
25.4
  9
$DIMLFAC
 40
1.0
  9
$DIMTOFL
 70
     0
  9
$DIMTVP
 40
0.0
  9
$DIMTIX
 70
     0
  9
$DIMSOXD
 70
     0
  9
$DIMSAH
 70
     0
  9
$DIMBLK1
  1

  9
$DIMBLK2
  1

  9
$DIMSTYLE
  2
STANDARD
  9
$DIMCLRD
 70
     0
  9
$DIMCLRE
 70
     0
  9
$DIMCLRT
 70
     0
  9
$DIMTFAC
 40
1.0
  9
$DIMGAP
 40
0.5
  9
$LUNITS
 70
     2
  9
$LUPREC
 70
     4
  9
$SKETCHINC
 40
0.1
  9
$FILLETRAD
 40
0.5
  9
$AUNITS
 70
     0
  9
$AUPREC
 70
     0
  9
$MENU
  1
.
  9
$ELEVATION
 40
0.0
  9
$PELEVATION
 40
0.0
  9
$THICKNESS
 40
0.0
  9
$LIMCHECK
 70
     0
  9
$CHAMFERA
 40
0.0
  9
$CHAMFERB
 40
0.0
  9
$SKPOLY
 70
     0
  9
$TDCREATE
 40
2457354.0
  9
$TDUPDATE
 40
2459494.727419144
  9
$TDINDWG
 40
0.0000000116
  9
$TDUSRTIMER
 40
0.0000000116
  9
$USRTIMER
 70
     1
  9
$ANGBASE
 50
0.0
  9
$ANGDIR
 70
     0
  9
$PDMODE
 70
     0
  9
$PDSIZE
 40
0.0
  9
$PLINEWID
 40
0.0
  9
$COORDS
 70
     1
  9
$SPLFRAME
 70
     0
  9
$SPLINETYPE
 70
     6
  9
$SPLINESEGS
 70
     8
  9
$ATTDIA
 70
     0
  9
$ATTREQ
 70
     1
  9
$HANDLING
 70
     1
  9
$HANDSEED
  5
A52
  9
$SURFTAB1
 70
     6
  9
$SURFTAB2
 70
     6
  9
$SURFTYPE
 70
     6
  9
$SURFU
 70
     6
  9
$SURFV
 70
     6
  9
$UCSNAME
  2

  9
$UCSORG
 10
0.0
 20
0.0
 30
0.0
  9
$UCSXDIR
 10
1.0
 20
0.0
 30
0.0
  9
$UCSYDIR
 10
0.0
 20
1.0
 30
0.0
  9
$PUCSNAME
  2

  9
$PUCSORG
 10
0.0
 20
0.0
 30
0.0
  9
$PUCSXDIR
 10
1.0
 20
0.0
 30
0.0
  9
$PUCSYDIR
 10
0.0
 20
1.0
 30
0.0
  9
$USERI1
 70
     0
  9
$USERI2
 70
     0
  9
$USERI3
 70
     0
  9
$USERI4
 70
     0
  9
$USERI5
 70
     0
  9
$USERR1
 40
0.0
  9
$USERR2
 40
0.0
  9
$USERR3
 40
0.0
  9
$USERR4
 40
0.0
  9
$USERR5
 40
0.0
  9
$WORLDVIEW
 70
     1
  9
$SHADEDGE
 70
     3
  9
$SHADEDIF
 70
    70
  9
$TILEMODE
 70
     1
  9
$MAXACTVP
 70
    64
  9
$PLIMCHECK
 70
     0
  9
$PEXTMIN
 10
1.000000000000000E+20
 20
1.000000000000000E+20
 30
1.000000000000000E+20
  9
$PEXTMAX
 10
-1.000000000000000E+20
 20
-1.000000000000000E+20
 30
-1.000000000000000E+20
  9
$PLIMMIN
 10
0.0
 20
0.0
  9
$PLIMMAX
 10
12.0
 20
9.0
  9
$UNITMODE
 70
     0
  9
$VISRETAIN
 70
     1
  9
$PLINEGEN
 70
     0
  9
$PSLTSCALE
 70
     1
  0
ENDSEC
  0
SECTION
  2
TABLES
  0
TABLE
  2
VPORT
 70
     1
  0
VPORT
  2
*ACTIVE
 70
     0
 10
0.0
 20
0.0
 11
1.0
 21
1.0
 12
0.0
 22
0.0
 13
0.0
 23
0.0
 14
1.0
 24
1.0
 15
0.0
 25
0.0
 16
0.0
 26
0.0
 36
1.0
 17
0.0
 27
0.0
 37
0.0
 40
594.0
 41
1.414141
 42
50.0
 43
0.0
 44
0.0
 50
0.0
 51
0.0
 71
     0
 72
   500
 73
     1
 74
     1
 75
     0
 76
     0
 77
     0
 78
     0
  0
ENDTAB
  0
TABLE
  2
LTYPE
 70
     7
  0
LTYPE
  2
CONTINUOUS
 70
     0
  3
Solid line
 72
    65
 73
     0
 40
0.0
  0
LTYPE
  2
DASHED
 70
     0
  3
__ __ __ __ __ __ __ __ __ __ __ __ __ __ __
 72
    65
 73
     2
 40
2.0
 49
1.2
 49
-0.8
  0
LTYPE
  2
CENTER
 70
     0
  3
____ _ ____ _ ____ _ ____ _ ____ _ ____ _ ____
 72
    65
 73
     4
 40
12.0
 49
9.0
 49
-1.0
 49
1.0
 49
-1.0
  0
LTYPE
  2
HIDDEN
 70
     0
  3
_ _ _ _ _ _ _ _ _ _ _ _ _ _ _ _ _ _ _ _ _ _ _
 72
    65
 73
     2
 40
3.2
 49
1.3
 49
-1.9
  0
LTYPE
  2
PHANTOM
 70
     0
  3
_____ _ _ _____ _ _ _____ _ _ _____ _ _ _____
 72
    65
 73
     6
 40
12.5
 49
9.0
 49
-1.0
 49
0.5
 49
-0.5
 49
0.5
 49
-1.0
  0
LTYPE
  2
DOT
 70
     0
  3
...............................................
 72
    65
 73
     2
 40
1.0
 49
0.5
 49
-0.5
  0
LTYPE
  2
DASHDOT
 70
     0
  3
__ . __ . __ . __ . __ . __ . __ . __ . __ . __
 72
    65
 73
     4
 40
8.0
 49
5.0
 49
-1.0
 49
1.0
 49
-1.0
  0
ENDTAB
  0
TABLE
  2
LAYER
 70
     4
  0
LAYER
  2
0
 70
     0
 62
     7
  6
CONTINUOUS
  0
LAYER
  2
1
 70
     0
 62
     7
  6
CONTINUOUS
  0
LAYER
  2
2
 70
     0
 62
     7
  6
CONTINUOUS
  0
LAYER
  2
3
 70
     0
 62
     7
  6
CONTINUOUS
  0
ENDTAB
  0
TABLE
  2
STYLE
 70
     1
  0
STYLE
  2
STANDARD
 70
     0
 40
0.0
 41
1.0
 50
0.0
 71
     0
 42
1.0
  3
txt
  4
BIGFONT
  0
ENDTAB
  0
TABLE
  2
VIEW
 70
     0
  0
ENDTAB
  0
TABLE
  2
UCS
 70
     0
  0
ENDTAB
  0
TABLE
  2
APPID
 70
     1
  0
APPID
  2
ACAD
 70
     0
  0
ENDTAB
  0
TABLE
  2
DIMSTYLE
 70
     1
  0
DIMSTYLE
  2
STANDARD
 70
     0
  3

  4

  5

  6

  7

 40
1.0
 41
0.18
 42
0.0625
 43
0.38
 44
0.18
 45
0.0
 46
0.0
 47
0.0
 48
0.0
140
0.18
141
0.09
142
0.0
143
25.4
144
1.0
145
0.0
146
1.0
147
0.09
 71
     0
 72
     0
 73
     1
 74
     1
 75
     0
 76
     0
 77
     0
 78
     0
170
     0
171
     2
172
     0
173
     0
174
     0
175
     0
176
     0
177
     0
178
     0
  0
ENDTAB
  0
ENDSEC
  0
SECTION
  2
BLOCKS
  0
BLOCK
  8
0
  2
$MODEL_SPACE
 70
     0
 10
0.0
 20
0.0
 30
0.0
  3
$MODEL_SPACE
  1

  0
ENDBLK
  5
9F5
  8
0
  0
BLOCK
 67
     1
  8
0
  2
$PAPER_SPACE
 70
     0
 10
0.0
 20
0.0
 30
0.0
  3
$PAPER_SPACE
  1

  0
ENDBLK
  5
9F7
 67
     1
  8
0
  0
BLOCK
  8
2
  2
*D0
 70
     1
 10
0.0
 20
0.0
 30
0.0
  3
*D0
  1

  0
TEXT
  5
34
  8
2
 62
     4
 10
225.118263
 20
-70.124163
 30
0.0
 40
5.0
  1
１３５
 72
     5
 11
239.118263
 21
-70.124163
 31
0.0
  0
LINE
  5
35
  8
2
 62
     2
 10
165.118263
 20
-37.0
 30
0.0
 11
165.118263
 21
-73.124163
 31
0.0
  0
LINE
  5
36
  8
2
 62
     2
 10
165.118263
 20
-71.124163
 30
0.0
 11
168.981967
 21
-72.15944
 31
0.0
  0
LINE
  5
37
  8
2
 62
     2
 10
165.118263
 20
-71.124163
 30
0.0
 11
168.981967
 21
-70.088887
 31
0.0
  0
LINE
  5
38
  8
2
 62
     2
 10
165.118263
 20
-71.124163
 30
0.0
 11
300.118263
 21
-71.124163
 31
0.0
  0
LINE
  5
39
  8
2
 62
     2
 10
300.118263
 20
-71.124163
 30
0.0
 11
296.25456
 21
-70.088887
 31
0.0
  0
LINE
  5
3A
  8
2
 62
     2
 10
300.118263
 20
-71.124163
 30
0.0
 11
296.25456
 21
-72.15944
 31
0.0
  0
LINE
  5
3B
  8
2
 62
     2
 10
300.118263
 20
-37.0
 30
0.0
 11
300.118263
 21
-73.124163
 31
0.0
  0
ENDBLK
  5
3C
  8
2
  0
BLOCK
  8
2
  2
*D1
 70
     1
 10
0.0
 20
0.0
 30
0.0
  3
*D1
  1

  0
TEXT
  5
3F
  8
2
 62
     2
 10
-20.75
 20
-99.0
 30
0.0
 40
5.0
  1
５８．５
 72
     5
 11
-1.75
 21
-99.0
 31
0.0
  0
LINE
  5
40
  8
2
 62
     2
 10
-40.0
 20
-60.0
 30
0.0
 11
-40.0
 21
-102.0
 31
0.0
  0
LINE
  5
41
  8
2
 62
     2
 10
-40.0
 20
-100.0
 30
0.0
 11
-36.136297
 21
-101.035276
 31
0.0
  0
LINE
  5
42
  8
2
 62
     2
 10
-40.0
 20
-100.0
 30
0.0
 11
-36.136297
 21
-98.964724
 31
0.0
  0
LINE
  5
43
  8
2
 62
     2
 10
-40.0
 20
-100.0
 30
0.0
 11
18.5
 21
-100.0
 31
0.0
  0
LINE
  5
44
  8
2
 62
     2
 10
18.5
 20
-100.0
 30
0.0
 11
14.636297
 21
-98.964724
 31
0.0
  0
LINE
  5
45
  8
2
 62
     2
 10
18.5
 20
-100.0
 30
0.0
 11
14.636297
 21
-101.035276
 31
0.0
  0
LINE
  5
46
  8
2
 62
     2
 10
18.5
 20
-37.0
 30
0.0
 11
18.5
 21
-102.0
 31
0.0
  0
ENDBLK
  5
47
  8
2
  0
BLOCK
  8
2
  2
*D2
 70
     1
 10
0.0
 20
0.0
 30
0.0
  3
*D2
  1

  0
TEXT
  5
4A
  8
2
 62
     2
 10
-119.25
 20
-99.0
 30
0.0
 40
5.0
  1
５８．５
 72
     5
 11
-100.25
 21
-99.0
 31
0.0
  0
LINE
  5
4B
  8
2
 62
     2
 10
-138.5
 20
-37.0
 30
0.0
 11
-138.5
 21
-102.0
 31
0.0
  0
LINE
  5
4C
  8
2
 62
     2
 10
-138.5
 20
-100.0
 30
0.0
 11
-134.636297
 21
-101.035276
 31
0.0
  0
LINE
  5
4D
  8
2
 62
     2
 10
-138.5
 20
-100.0
 30
0.0
 11
-134.636297
 21
-98.964724
 31
0.0
  0
LINE
  5
4E
  8
2
 62
     2
 10
-138.5
 20
-100.0
 30
0.0
 11
-80.0
 21
-100.0
 31
0.0
  0
LINE
  5
4F
  8
2
 62
     2
 10
-80.0
 20
-100.0
 30
0.0
 11
-83.863703
 21
-98.964724
 31
0.0
  0
LINE
  5
50
  8
2
 62
     2
 10
-80.0
 20
-100.0
 30
0.0
 11
-83.863703
 21
-101.035276
 31
0.0
  0
LINE
  5
51
  8
2
 62
     2
 10
-80.0
 20
-60.0
 30
0.0
 11
-80.0
 21
-102.0
 31
0.0
  0
ENDBLK
  5
52
  8
2
  0
BLOCK
  8
2
  2
*D3
 70
     1
 10
0.0
 20
0.0
 30
0.0
  3
*D3
  1

  0
TEXT
  5
55
  8
2
 62
     2
 10
93.618276
 20
-21.5
 30
0.0
 40
5.0
  1
%%c20
 50
90.0
 41
2.0
 72
     5
 11
93.618276
 21
-8.5
 31
0.0
  0
LINE
  5
56
  8
2
 62
     2
 10
127.153078
 20
-4.0
 30
0.0
 11
92.618276
 21
-4.0
 31
0.0
  0
LINE
  5
57
  8
2
 62
     2
 10
94.618276
 20
-4.0
 30
0.0
 11
93.583
 21
-7.863703
 31
0.0
  0
LINE
  5
58
  8
2
 62
     2
 10
94.618276
 20
-4.0
 30
0.0
 11
95.653552
 21
-7.863703
 31
0.0
  0
LINE
  5
59
  8
2
 62
     2
 10
94.618276
 20
-4.0
 30
0.0
 11
94.618276
 21
-24.0
 31
0.0
  0
LINE
  5
5A
  8
2
 62
     2
 10
94.618276
 20
-24.0
 30
0.0
 11
95.653552
 21
-20.136297
 31
0.0
  0
LINE
  5
5B
  8
2
 62
     2
 10
94.618276
 20
-24.0
 30
0.0
 11
93.583
 21
-20.136297
 31
0.0
  0
LINE
  5
5C
  8
2
 62
     2
 10
127.153078
 20
-24.0
 30
0.0
 11
92.618276
 21
-24.0
 31
0.0
  0
ENDBLK
  5
5D
  8
2
  0
BLOCK
  8
2
  2
*D4
 70
     1
 10
0.0
 20
0.0
 30
0.0
  3
*D4
  1

  0
TEXT
  5
60
  8
2
 62
     2
 10
103.618276
 20
-52.0
 30
0.0
 40
5.0
  1
66
 50
90.0
 41
2.0
 72
     5
 11
103.618276
 21
-44.0
 31
0.0
  0
LINE
  5
61
  8
2
 62
     2
 10
104.618276
 20
-80.0
 30
0.0
 11
105.653552
 21
-76.136297
 31
0.0
  0
LINE
  5
62
  8
2
 62
     2
 10
104.618276
 20
-80.0
 30
0.0
 11
103.583
 21
-76.136297
 31
0.0
  0
LINE
  5
63
  8
2
 62
     2
 10
104.618276
 20
-80.0
 30
0.0
 11
104.618276
 21
-14.0
 31
0.0
  0
LINE
  5
64
  8
2
 62
     2
 10
104.618276
 20
-14.0
 30
0.0
 11
103.583
 21
-17.863703
 31
0.0
  0
LINE
  5
65
  8
2
 62
     2
 10
104.618276
 20
-14.0
 30
0.0
 11
105.653552
 21
-17.863703
 31
0.0
  0
LINE
  5
66
  8
2
 62
     2
 10
119.983211
 20
-14.0
 30
0.0
 11
102.618276
 21
-14.0
 31
0.0
  0
ENDBLK
  5
67
  8
2
  0
BLOCK
  8
2
  2
*D5
 70
     1
 10
0.0
 20
0.0
 30
0.0
  3
*D5
  1

  0
TEXT
  5
6A
  8
2
 62
     2
 10
73.618276
 20
-22.5
 30
0.0
 40
5.0
  1
130
 50
90.0
 41
2.0
 72
     5
 11
73.618276
 21
-9.5
 31
0.0
  0
LINE
  5
6B
  8
2
 62
     2
 10
134.118263
 20
-80.0
 30
0.0
 11
72.618276
 21
-80.0
 31
0.0
  0
LINE
  5
6C
  8
2
 62
     2
 10
74.618276
 20
-80.0
 30
0.0
 11
75.653552
 21
-76.136297
 31
0.0
  0
LINE
  5
6D
  8
2
 62
     2
 10
74.618276
 20
-80.0
 30
0.0
 11
73.583
 21
-76.136297
 31
0.0
  0
LINE
  5
6E
  8
2
 62
     2
 10
74.618276
 20
-80.0
 30
0.0
 11
74.618276
 21
50.0
 31
0.0
  0
LINE
  5
6F
  8
2
 62
     2
 10
74.618276
 20
50.0
 30
0.0
 11
73.583
 21
46.136297
 31
0.0
  0
LINE
  5
70
  8
2
 62
     2
 10
74.618276
 20
50.0
 30
0.0
 11
75.653552
 21
46.136297
 31
0.0
  0
LINE
  5
71
  8
2
 62
     2
 10
134.118263
 20
50.0
 30
0.0
 11
72.618276
 21
50.0
 31
0.0
  0
ENDBLK
  5
72
  8
2
  0
BLOCK
  8
2
  2
*D6
 70
     1
 10
0.0
 20
0.0
 30
0.0
  3
*D6
  1

  0
TEXT
  5
75
  8
2
 62
     2
 10
83.618276
 20
-22.5
 30
0.0
 40
5.0
  1
114
 50
90.0
 41
2.0
 72
     5
 11
83.618276
 21
-9.5
 31
0.0
  0
LINE
  5
76
  8
2
 62
     2
 10
128.328007
 20
-72.0
 30
0.0
 11
82.618276
 21
-72.0
 31
0.0
  0
LINE
  5
77
  8
2
 62
     2
 10
84.618276
 20
-72.0
 30
0.0
 11
85.653552
 21
-68.136297
 31
0.0
  0
LINE
  5
78
  8
2
 62
     2
 10
84.618276
 20
-72.0
 30
0.0
 11
83.583
 21
-68.136297
 31
0.0
  0
LINE
  5
79
  8
2
 62
     2
 10
84.618276
 20
-72.0
 30
0.0
 11
84.618276
 21
42.0
 31
0.0
  0
LINE
  5
7A
  8
2
 62
     2
 10
84.618276
 20
42.0
 30
0.0
 11
83.583
 21
38.136297
 31
0.0
  0
LINE
  5
7B
  8
2
 62
     2
 10
84.618276
 20
42.0
 30
0.0
 11
85.653552
 21
38.136297
 31
0.0
  0
ENDBLK
  5
7C
  8
2
  0
BLOCK
  8
2
  2
*D7
 70
     1
 10
0.0
 20
0.0
 30
0.0
  3
*D7
  1

  0
TEXT
  5
7F
  8
2
 62
     2
 10
83.618276
 20
58.0
 30
0.0
 40
5.0
  1
8
 50
90.0
 41
2.0
 72
     5
 11
83.618276
 21
61.0
 31
0.0
  0
LINE
  5
80
  8
2
 62
     2
 10
128.328007
 20
42.0
 30
0.0
 11
82.618276
 21
42.0
 31
0.0
  0
LINE
  5
81
  8
2
 62
     2
 10
84.618276
 20
42.0
 30
0.0
 11
83.583
 21
38.136297
 31
0.0
  0
LINE
  5
82
  8
2
 62
     2
 10
84.618276
 20
42.0
 30
0.0
 11
85.653552
 21
38.136297
 31
0.0
  0
LINE
  5
83
  8
2
 62
     2
 10
84.618276
 20
32.0
 30
0.0
 11
84.618276
 21
65.0
 31
0.0
  0
LINE
  5
84
  8
2
 62
     2
 10
84.618276
 20
50.0
 30
0.0
 11
85.653552
 21
53.863703
 31
0.0
  0
LINE
  5
85
  8
2
 62
     2
 10
84.618276
 20
50.0
 30
0.0
 11
83.583
 21
53.863703
 31
0.0
  0
ENDBLK
  5
86
  8
2
  0
BLOCK
  8
2
  2
*D8
 70
     1
 10
0.0
 20
0.0
 30
0.0
  3
*D8
  1

  0
TEXT
  5
89
  8
2
 62
     2
 10
83.618276
 20
-93.0
 30
0.0
 40
5.0
  1
8
 50
90.0
 41
2.0
 72
     5
 11
83.618276
 21
-90.0
 31
0.0
  0
LINE
  5
8A
  8
2
 62
     2
 10
84.618276
 20
-80.0
 30
0.0
 11
83.583
 21
-83.863703
 31
0.0
  0
LINE
  5
8B
  8
2
 62
     2
 10
84.618276
 20
-80.0
 30
0.0
 11
85.653552
 21
-83.863703
 31
0.0
  0
LINE
  5
8C
  8
2
 62
     2
 10
84.618276
 20
-95.0
 30
0.0
 11
84.618276
 21
-62.0
 31
0.0
  0
LINE
  5
8D
  8
2
 62
     2
 10
84.618276
 20
-72.0
 30
0.0
 11
85.653552
 21
-68.136297
 31
0.0
  0
LINE
  5
8E
  8
2
 62
     2
 10
84.618276
 20
-72.0
 30
0.0
 11
83.583
 21
-68.136297
 31
0.0
  0
ENDBLK
  5
8F
  8
2
  0
BLOCK
  8
2
  2
*D9
 70
     1
 10
0.0
 20
0.0
 30
0.0
  3
*D9
  1

  0
TEXT
  5
92
  8
2
 62
     2
 10
122.118263
 20
75.207794
 30
0.0
 40
5.0
  1
4
 41
2.0
 72
     5
 11
125.118263
 21
75.207794
 31
0.0
  0
LINE
  5
93
  8
2
 62
     2
 10
135.118263
 20
51.0
 30
0.0
 11
135.118263
 21
76.207794
 31
0.0
  0
LINE
  5
94
  8
2
 62
     2
 10
135.118263
 20
74.207794
 30
0.0
 11
131.25456
 21
75.24307
 31
0.0
  0
LINE
  5
95
  8
2
 62
     2
 10
135.118263
 20
74.207794
 30
0.0
 11
131.25456
 21
73.172518
 31
0.0
  0
LINE
  5
96
  8
2
 62
     2
 10
120.118263
 20
74.207794
 30
0.0
 11
149.118263
 21
74.207794
 31
0.0
  0
LINE
  5
97
  8
2
 62
     2
 10
139.118263
 20
74.207794
 30
0.0
 11
142.981967
 21
73.172518
 31
0.0
  0
LINE
  5
98
  8
2
 62
     2
 10
139.118263
 20
74.207794
 30
0.0
 11
142.981967
 21
75.24307
 31
0.0
  0
LINE
  5
99
  8
2
 62
     2
 10
139.118263
 20
50.9
 30
0.0
 11
139.118263
 21
76.207794
 31
0.0
  0
ENDBLK
  5
9A
  8
2
  0
BLOCK
  8
2
  2
*D10
 70
     1
 10
0.0
 20
0.0
 30
0.0
  3
*D10
  1

  0
TEXT
  5
9D
  8
2
 62
     2
 10
324.0
 20
-49.0
 30
0.0
 40
5.0
  1
16
 50
90.0
 41
2.0
 72
     5
 11
324.0
 21
-41.0
 31
0.0
  0
LINE
  5
9E
  8
2
 62
     2
 10
325.0
 20
-52.0
 30
0.0
 11
326.035276
 21
-48.136297
 31
0.0
  0
LINE
  5
9F
  8
2
 62
     2
 10
325.0
 20
-52.0
 30
0.0
 11
323.964724
 21
-48.136297
 31
0.0
  0
LINE
  5
A0
  8
2
 62
     2
 10
325.0
 20
-52.0
 30
0.0
 11
325.0
 21
-36.0
 31
0.0
  0
LINE
  5
A1
  8
2
 62
     2
 10
325.0
 20
-36.0
 30
0.0
 11
323.964724
 21
-39.863703
 31
0.0
  0
LINE
  5
A2
  8
2
 62
     2
 10
325.0
 20
-36.0
 30
0.0
 11
326.035276
 21
-39.863703
 31
0.0
  0
LINE
  5
A3
  8
2
 62
     2
 10
216.118263
 20
-36.0
 30
0.0
 11
327.0
 21
-36.0
 31
0.0
  0
ENDBLK
  5
A4
  8
2
  0
BLOCK
  8
2
  2
*D11
 70
     1
 10
0.0
 20
0.0
 30
0.0
  3
*D11
  1

  0
TEXT
  5
A7
  8
2
 62
     2
 10
324.0
 20
-12.0
 30
0.0
 40
5.0
  1
58
 50
90.0
 41
2.0
 72
     5
 11
324.0
 21
-4.0
 31
0.0
  0
LINE
  5
A8
  8
2
 62
     2
 10
325.0
 20
-36.0
 30
0.0
 11
326.035276
 21
-32.136297
 31
0.0
  0
LINE
  5
A9
  8
2
 62
     2
 10
325.0
 20
-36.0
 30
0.0
 11
323.964724
 21
-32.136297
 31
0.0
  0
LINE
  5
AA
  8
2
 62
     2
 10
325.0
 20
-36.0
 30
0.0
 11
325.0
 21
22.0
 31
0.0
  0
LINE
  5
AB
  8
2
 62
     2
 10
325.0
 20
22.0
 30
0.0
 11
323.964724
 21
18.136297
 31
0.0
  0
LINE
  5
AC
  8
2
 62
     2
 10
325.0
 20
22.0
 30
0.0
 11
326.035276
 21
18.136297
 31
0.0
  0
ENDBLK
  5
AD
  8
2
  0
BLOCK
  8
2
  2
*D12
 70
     1
 10
0.0
 20
0.0
 30
0.0
  3
*D12
  1

  0
TEXT
  5
B0
  8
2
 62
     2
 10
334.0
 20
-70.95
 30
0.0
 40
5.0
  1
28
 50
90.0
 41
2.0
 72
     5
 11
334.0
 21
-62.95
 31
0.0
  0
LINE
  5
B1
  8
2
 62
     2
 10
140.118263
 20
-79.9
 30
0.0
 11
337.0
 21
-79.9
 31
0.0
  0
LINE
  5
B2
  8
2
 62
     2
 10
335.0
 20
-79.9
 30
0.0
 11
336.035276
 21
-76.036297
 31
0.0
  0
LINE
  5
B3
  8
2
 62
     2
 10
335.0
 20
-79.9
 30
0.0
 11
333.964724
 21
-76.036297
 31
0.0
  0
LINE
  5
B4
  8
2
 62
     2
 10
335.0
 20
-79.9
 30
0.0
 11
335.0
 21
-52.0
 31
0.0
  0
LINE
  5
B5
  8
2
 62
     2
 10
335.0
 20
-52.0
 30
0.0
 11
333.964724
 21
-55.863703
 31
0.0
  0
LINE
  5
B6
  8
2
 62
     2
 10
335.0
 20
-52.0
 30
0.0
 11
336.035276
 21
-55.863703
 31
0.0
  0
ENDBLK
  5
B7
  8
2
  0
BLOCK
  8
2
  2
*D13
 70
     1
 10
0.0
 20
0.0
 30
0.0
  3
*D13
  1

  0
TEXT
  5
BA
  8
2
 62
     2
 10
334.0
 20
-20.0
 30
0.0
 40
5.0
  1
74
 50
90.0
 41
2.0
 72
     5
 11
334.0
 21
-12.0
 31
0.0
  0
LINE
  5
BB
  8
2
 62
     2
 10
206.118263
 20
-52.0
 30
0.0
 11
337.0
 21
-52.0
 31
0.0
  0
LINE
  5
BC
  8
2
 62
     2
 10
335.0
 20
-52.0
 30
0.0
 11
336.035276
 21
-48.136297
 31
0.0
  0
LINE
  5
BD
  8
2
 62
     2
 10
335.0
 20
-52.0
 30
0.0
 11
333.964724
 21
-48.136297
 31
0.0
  0
LINE
  5
BE
  8
2
 62
     2
 10
335.0
 20
-52.0
 30
0.0
 11
335.0
 21
22.0
 31
0.0
  0
LINE
  5
BF
  8
2
 62
     2
 10
335.0
 20
22.0
 30
0.0
 11
333.964724
 21
18.136297
 31
0.0
  0
LINE
  5
C0
  8
2
 62
     2
 10
335.0
 20
22.0
 30
0.0
 11
336.035276
 21
18.136297
 31
0.0
  0
LINE
  5
C1
  8
2
 62
     2
 10
206.118263
 20
22.0
 30
0.0
 11
337.0
 21
22.0
 31
0.0
  0
ENDBLK
  5
C2
  8
2
  0
BLOCK
  8
2
  2
*D14
 70
     1
 10
0.0
 20
0.0
 30
0.0
  3
*D14
  1

  0
TEXT
  5
C5
  8
2
 62
     2
 10
96.618276
 20
17.0
 30
0.0
 40
5.0
  1
10.5
 41
2.0
 72
     5
 11
114.618276
 21
17.0
 31
0.0
  0
LINE
  5
C6
  8
2
 62
     2
 10
124.618276
 20
-4.448449
 30
0.0
 11
124.618276
 21
18.0
 31
0.0
  0
LINE
  5
C7
  8
2
 62
     2
 10
124.618276
 20
16.0
 30
0.0
 11
120.754573
 21
17.035276
 31
0.0
  0
LINE
  5
C8
  8
2
 62
     2
 10
124.618276
 20
16.0
 30
0.0
 11
120.754573
 21
14.964724
 31
0.0
  0
LINE
  5
C9
  8
2
 62
     2
 10
94.618276
 20
16.0
 30
0.0
 11
145.118263
 21
16.0
 31
0.0
  0
LINE
  5
CA
  8
2
 62
     2
 10
135.118263
 20
16.0
 30
0.0
 11
138.981967
 21
14.964724
 31
0.0
  0
LINE
  5
CB
  8
2
 62
     2
 10
135.118263
 20
16.0
 30
0.0
 11
138.981967
 21
17.035276
 31
0.0
  0
ENDBLK
  5
CC
  8
2
  0
BLOCK
  8
2
  2
*D15
 70
     1
 10
0.0
 20
0.0
 30
0.0
  3
*D15
  1

  0
TEXT
  5
CF
  8
2
 62
     2
 10
-189.312698
 20
-33.289001
 30
0.0
 40
5.0
  1
%%c46
 50
90.0
 41
2.0
 72
     5
 11
-189.312698
 21
-20.289001
 31
0.0
  0
LINE
  5
D0
  8
2
 62
     2
 10
-225.118263
 20
-13.0
 30
0.0
 11
-186.118263
 21
-13.0
 31
0.0
  0
LINE
  5
D1
  8
2
 62
     2
 10
-188.118263
 20
-13.0
 30
0.0
 11
-189.153539
 21
-16.863703
 31
0.0
  0
LINE
  5
D2
  8
2
 62
     2
 10
-188.118263
 20
-13.0
 30
0.0
 11
-187.082987
 21
-16.863703
 31
0.0
  0
LINE
  5
D3
  8
2
 62
     2
 10
-188.118263
 20
-13.0
 30
0.0
 11
-188.118263
 21
-59.0
 31
0.0
  0
LINE
  5
D4
  8
2
 62
     2
 10
-188.118263
 20
-59.0
 30
0.0
 11
-187.082987
 21
-55.136297
 31
0.0
  0
LINE
  5
D5
  8
2
 62
     2
 10
-188.118263
 20
-59.0
 30
0.0
 11
-189.153539
 21
-55.136297
 31
0.0
  0
LINE
  5
D6
  8
2
 62
     2
 10
-225.118263
 20
-59.0
 30
0.0
 11
-186.118263
 21
-59.0
 31
0.0
  0
ENDBLK
  5
D7
  8
2
  0
BLOCK
  8
2
  2
*D16
 70
     1
 10
0.0
 20
0.0
 30
0.0
  3
*D16
  1

  0
TEXT
  5
DA
  8
2
 62
     2
 10
-16.245086
 20
161.149401
 30
0.0
 40
5.0
  1
30
 50
90.0
 41
2.0
 72
     5
 11
-16.245086
 21
169.149401
 31
0.0
  0
LINE
  5
DB
  8
2
 62
     2
 10
-39.0
 20
123.149401
 30
0.0
 11
-13.245086
 21
123.149401
 31
0.0
  0
LINE
  5
DC
  8
2
 62
     2
 10
-15.245086
 20
123.149401
 30
0.0
 11
-16.280362
 21
119.285697
 31
0.0
  0
LINE
  5
DD
  8
2
 62
     2
 10
-15.245086
 20
123.149401
 30
0.0
 11
-14.20981
 21
119.285697
 31
0.0
  0
LINE
  5
DE
  8
2
 62
     2
 10
-15.245086
 20
113.149401
 30
0.0
 11
-15.245086
 21
173.149401
 31
0.0
  0
LINE
  5
DF
  8
2
 62
     2
 10
-15.245086
 20
153.149401
 30
0.0
 11
-14.20981
 21
157.013104
 31
0.0
  0
LINE
  5
E0
  8
2
 62
     2
 10
-15.245086
 20
153.149401
 30
0.0
 11
-16.280362
 21
157.013104
 31
0.0
  0
LINE
  5
E1
  8
2
 62
     2
 10
-39.0
 20
153.149401
 30
0.0
 11
-13.245086
 21
153.149401
 31
0.0
  0
ENDBLK
  5
E2
  8
2
  0
BLOCK
  8
2
  2
*D17
 70
     1
 10
0.0
 20
0.0
 30
0.0
  3
*D17
  1

  0
TEXT
  5
E5
  8
2
 62
     2
 10
-74.817291
 20
164.149401
 30
0.0
 40
5.0
  1
%%c6
 50
90.0
 41
2.0
 72
     5
 11
-74.817291
 21
172.149401
 31
0.0
  0
LINE
  5
E6
  8
2
 62
     2
 10
-73.817291
 20
156.149401
 30
0.0
 11
-72.782015
 21
160.013104
 31
0.0
  0
LINE
  5
E7
  8
2
 62
     2
 10
-73.817291
 20
156.149401
 30
0.0
 11
-74.852567
 21
160.013104
 31
0.0
  0
LINE
  5
E8
  8
2
 62
     2
 10
-73.817291
 20
176.149401
 30
0.0
 11
-73.817291
 21
140.149401
 31
0.0
  0
LINE
  5
E9
  8
2
 62
     2
 10
-73.817291
 20
150.149401
 30
0.0
 11
-74.852567
 21
146.285697
 31
0.0
  0
LINE
  5
EA
  8
2
 62
     2
 10
-73.817291
 20
150.149401
 30
0.0
 11
-72.782015
 21
146.285697
 31
0.0
  0
ENDBLK
  5
EB
  8
2
  0
BLOCK
  8
2
  2
*D18
 70
     1
 10
0.0
 20
0.0
 30
0.0
  3
*D18
  1

  0
TEXT
  5
EE
  8
2
 62
     2
 10
304.0
 20
27.5
 30
0.0
 40
5.0
  1
5.5
 50
90.0
 41
2.0
 72
     5
 11
304.0
 21
40.5
 31
0.0
  0
LINE
  5
EF
  8
2
 62
     2
 10
197.718263
 20
14.0
 30
0.0
 11
307.0
 21
14.0
 31
0.0
  0
LINE
  5
F0
  8
2
 62
     2
 10
305.0
 20
14.0
 30
0.0
 11
303.964724
 21
10.136297
 31
0.0
  0
LINE
  5
F1
  8
2
 62
     2
 10
305.0
 20
14.0
 30
0.0
 11
306.035276
 21
10.136297
 31
0.0
  0
LINE
  5
F2
  8
2
 62
     2
 10
305.0
 20
4.0
 30
0.0
 11
305.0
 21
44.5
 31
0.0
  0
LINE
  5
F3
  8
2
 62
     2
 10
305.0
 20
19.5
 30
0.0
 11
306.035276
 21
23.363703
 31
0.0
  0
LINE
  5
F4
  8
2
 62
     2
 10
305.0
 20
19.5
 30
0.0
 11
303.964724
 21
23.363703
 31
0.0
  0
ENDBLK
  5
F5
  8
2
  0
BLOCK
  8
2
  2
*D19
 70
     1
 10
0.0
 20
0.0
 30
0.0
  3
*D19
  1

  0
TEXT
  5
F8
  8
2
 62
     2
 10
314.0
 20
-18.25
 30
0.0
 40
5.0
  1
55.5
 50
90.0
 41
2.0
 72
     5
 11
314.0
 21
-0.25
 31
0.0
  0
LINE
  5
F9
  8
2
 62
     2
 10
315.0
 20
-36.0
 30
0.0
 11
316.035276
 21
-32.136297
 31
0.0
  0
LINE
  5
FA
  8
2
 62
     2
 10
315.0
 20
-36.0
 30
0.0
 11
313.964724
 21
-32.136297
 31
0.0
  0
LINE
  5
FB
  8
2
 62
     2
 10
315.0
 20
-36.0
 30
0.0
 11
315.0
 21
19.5
 31
0.0
  0
LINE
  5
FC
  8
2
 62
     2
 10
315.0
 20
19.5
 30
0.0
 11
313.964724
 21
15.636297
 31
0.0
  0
LINE
  5
FD
  8
2
 62
     2
 10
315.0
 20
19.5
 30
0.0
 11
316.035276
 21
15.636297
 31
0.0
  0
LINE
  5
FE
  8
2
 62
     2
 10
212.118263
 20
19.5
 30
0.0
 11
317.0
 21
19.5
 31
0.0
  0
ENDBLK
  5
FF
  8
2
  0
BLOCK
  8
2
  2
*D20
 70
     1
 10
0.0
 20
0.0
 30
0.0
  3
*D20
  1

  0
TEXT
  5
102
  8
2
 62
     2
 10
178.618263
 20
51.569912
 30
0.0
 40
5.0
  1
%%c38
 41
2.0
 72
     5
 11
191.618263
 21
51.569912
 31
0.0
  0
LINE
  5
103
  8
2
 62
     2
 10
205.118263
 20
20.5
 30
0.0
 11
205.118263
 21
52.569912
 31
0.0
  0
LINE
  5
104
  8
2
 62
     2
 10
205.118263
 20
50.569912
 30
0.0
 11
201.25456
 21
51.605188
 31
0.0
  0
LINE
  5
105
  8
2
 62
     2
 10
205.118263
 20
50.569912
 30
0.0
 11
201.25456
 21
49.534636
 31
0.0
  0
LINE
  5
106
  8
2
 62
     2
 10
205.118263
 20
50.569912
 30
0.0
 11
167.118263
 21
50.569912
 31
0.0
  0
LINE
  5
107
  8
2
 62
     2
 10
167.118263
 20
50.569912
 30
0.0
 11
170.981967
 21
49.534636
 31
0.0
  0
LINE
  5
108
  8
2
 62
     2
 10
167.118263
 20
50.569912
 30
0.0
 11
170.981967
 21
51.605188
 31
0.0
  0
LINE
  5
109
  8
2
 62
     2
 10
167.118263
 20
20.5
 30
0.0
 11
167.118263
 21
52.569912
 31
0.0
  0
ENDBLK
  5
10A
  8
2
  0
BLOCK
  8
2
  2
*D21
 70
     1
 10
0.0
 20
0.0
 30
0.0
  3
*D21
  1

  0
TEXT
  5
10D
  8
2
 62
     2
 10
-50.0
 20
61.0
 30
0.0
 40
5.0
  1
40
 41
2.0
 72
     5
 11
-42.0
 21
61.0
 31
0.0
  0
LINE
  5
10E
  8
2
 62
     2
 10
-80.0
 20
39.5
 30
0.0
 11
-80.0
 21
62.0
 31
0.0
  0
LINE
  5
10F
  8
2
 62
     2
 10
-80.0
 20
60.0
 30
0.0
 11
-76.136297
 21
58.964724
 31
0.0
  0
LINE
  5
110
  8
2
 62
     2
 10
-80.0
 20
60.0
 30
0.0
 11
-76.136297
 21
61.035276
 31
0.0
  0
LINE
  5
111
  8
2
 62
     2
 10
-80.0
 20
60.0
 30
0.0
 11
-40.0
 21
60.0
 31
0.0
  0
LINE
  5
112
  8
2
 62
     2
 10
-40.0
 20
60.0
 30
0.0
 11
-43.863703
 21
61.035276
 31
0.0
  0
LINE
  5
113
  8
2
 62
     2
 10
-40.0
 20
60.0
 30
0.0
 11
-43.863703
 21
58.964724
 31
0.0
  0
ENDBLK
  5
114
  8
2
  0
BLOCK
  8
2
  2
*D22
 70
     1
 10
0.0
 20
0.0
 30
0.0
  3
*D22
  1

  0
TEXT
  5
117
  8
2
 62
     2
 10
-70.0
 20
179.649401
 30
0.0
 40
5.0
  1
16.4
 41
2.0
 72
     5
 11
-52.0
 21
179.649401
 31
0.0
  0
LINE
  5
118
  8
2
 62
     2
 10
-68.2
 20
158.449401
 30
0.0
 11
-68.2
 21
180.649401
 31
0.0
  0
LINE
  5
119
  8
2
 62
     2
 10
-68.2
 20
178.649401
 30
0.0
 11
-64.336297
 21
177.614125
 31
0.0
  0
LINE
  5
11A
  8
2
 62
     2
 10
-68.2
 20
178.649401
 30
0.0
 11
-64.336297
 21
179.684677
 31
0.0
  0
LINE
  5
11B
  8
2
 62
     2
 10
-68.2
 20
178.649401
 30
0.0
 11
-51.8
 21
178.649401
 31
0.0
  0
LINE
  5
11C
  8
2
 62
     2
 10
-51.8
 20
178.649401
 30
0.0
 11
-55.663703
 21
179.684677
 31
0.0
  0
LINE
  5
11D
  8
2
 62
     2
 10
-51.8
 20
178.649401
 30
0.0
 11
-55.663703
 21
177.614125
 31
0.0
  0
LINE
  5
11E
  8
2
 62
     2
 10
-51.8
 20
158.449401
 30
0.0
 11
-51.8
 21
180.649401
 31
0.0
  0
ENDBLK
  5
11F
  8
2
  0
BLOCK
  8
2
  2
*D23
 70
     1
 10
0.0
 20
0.0
 30
0.0
  3
*D23
  1

  0
TEXT
  5
122
  8
2
 62
     2
 10
113.280769
 20
-54.0
 30
0.0
 40
5.0
  1
22
 50
90.0
 41
2.0
 72
     5
 11
113.280769
 21
-46.0
 31
0.0
  0
LINE
  5
123
  8
2
 62
     2
 10
156.118263
 20
-36.0
 30
0.0
 11
112.280769
 21
-36.0
 31
0.0
  0
LINE
  5
124
  8
2
 62
     2
 10
114.280769
 20
-36.0
 30
0.0
 11
113.245493
 21
-39.863703
 31
0.0
  0
LINE
  5
125
  8
2
 62
     2
 10
114.280769
 20
-36.0
 30
0.0
 11
115.316046
 21
-39.863703
 31
0.0
  0
LINE
  5
126
  8
2
 62
     2
 10
114.280769
 20
-56.0
 30
0.0
 11
114.280769
 21
-4.0
 31
0.0
  0
LINE
  5
127
  8
2
 62
     2
 10
114.280769
 20
-14.0
 30
0.0
 11
115.316046
 21
-10.136297
 31
0.0
  0
LINE
  5
128
  8
2
 62
     2
 10
114.280769
 20
-14.0
 30
0.0
 11
113.245493
 21
-10.136297
 31
0.0
  0
LINE
  5
129
  8
2
 62
     2
 10
119.983211
 20
-14.0
 30
0.0
 11
112.280769
 21
-14.0
 31
0.0
  0
ENDBLK
  5
12A
  8
2
  0
BLOCK
  8
2
  2
*D24
 70
     1
 10
0.0
 20
0.0
 30
0.0
  3
*D24
  1

  0
TEXT
  5
12D
  8
2
 62
     2
 10
-188.895721
 20
15.496408
 30
0.0
 40
5.0
  1
%%c38
 50
90.0
 41
2.0
 72
     5
 11
-188.895721
 21
28.496408
 31
0.0
  0
LINE
  5
12E
  8
2
 62
     2
 10
-225.118263
 20
38.5
 30
0.0
 11
-186.118263
 21
38.5
 31
0.0
  0
LINE
  5
12F
  8
2
 62
     2
 10
-188.118263
 20
38.5
 30
0.0
 11
-189.153539
 21
34.636297
 31
0.0
  0
LINE
  5
130
  8
2
 62
     2
 10
-188.118263
 20
38.5
 30
0.0
 11
-187.082987
 21
34.636297
 31
0.0
  0
LINE
  5
131
  8
2
 62
     2
 10
-188.118263
 20
38.5
 30
0.0
 11
-188.118263
 21
0.5
 31
0.0
  0
LINE
  5
132
  8
2
 62
     2
 10
-188.118263
 20
0.5
 30
0.0
 11
-187.082987
 21
4.363703
 31
0.0
  0
LINE
  5
133
  8
2
 62
     2
 10
-188.118263
 20
0.5
 30
0.0
 11
-189.153539
 21
4.363703
 31
0.0
  0
LINE
  5
134
  8
2
 62
     2
 10
-225.118263
 20
0.5
 30
0.0
 11
-186.118263
 21
0.5
 31
0.0
  0
ENDBLK
  5
135
  8
2
  0
BLOCK
  8
2
  2
*D25
 70
     1
 10
0.0
 20
0.0
 30
0.0
  3
*D25
  1

  0
TEXT
  5
138
  8
2
 62
     2
 10
-103.75
 20
69.831276
 30
0.0
 40
5.0
  1
27.5
 41
2.0
 72
     5
 11
-85.75
 21
69.831276
 31
0.0
  0
LINE
  5
139
  8
2
 62
     2
 10
-107.5
 20
20.0
 30
0.0
 11
-107.5
 21
70.831276
 31
0.0
  0
LINE
  5
13A
  8
2
 62
     2
 10
-107.5
 20
68.831276
 30
0.0
 11
-103.636297
 21
67.796
 31
0.0
  0
LINE
  5
13B
  8
2
 62
     2
 10
-107.5
 20
68.831276
 30
0.0
 11
-103.636297
 21
69.866552
 31
0.0
  0
LINE
  5
13C
  8
2
 62
     2
 10
-107.5
 20
68.831276
 30
0.0
 11
-80.0
 21
68.831276
 31
0.0
  0
LINE
  5
13D
  8
2
 62
     2
 10
-80.0
 20
68.831276
 30
0.0
 11
-83.863703
 21
69.866552
 31
0.0
  0
LINE
  5
13E
  8
2
 62
     2
 10
-80.0
 20
68.831276
 30
0.0
 11
-83.863703
 21
67.796
 31
0.0
  0
LINE
  5
13F
  8
2
 62
     2
 10
-80.0
 20
39.5
 30
0.0
 11
-80.0
 21
70.831276
 31
0.0
  0
ENDBLK
  5
140
  8
2
  0
BLOCK
  8
2
  2
*D26
 70
     1
 10
0.0
 20
0.0
 30
0.0
  3
*D26
  1

  0
TEXT
  5
143
  8
2
 62
     2
 10
-121.474533
 20
7.25
 30
0.0
 40
5.0
  1
25.5
 50
90.0
 41
2.0
 72
     5
 11
-121.474533
 21
25.25
 31
0.0
  0
LINE
  5
144
  8
2
 62
     2
 10
-93.0
 20
4.5
 30
0.0
 11
-122.474533
 21
4.5
 31
0.0
  0
LINE
  5
145
  8
2
 62
     2
 10
-120.474533
 20
4.5
 30
0.0
 11
-119.439257
 21
8.363703
 31
0.0
  0
LINE
  5
146
  8
2
 62
     2
 10
-120.474533
 20
4.5
 30
0.0
 11
-121.509809
 21
8.363703
 31
0.0
  0
LINE
  5
147
  8
2
 62
     2
 10
-120.474533
 20
4.5
 30
0.0
 11
-120.474533
 21
30.0
 31
0.0
  0
LINE
  5
148
  8
2
 62
     2
 10
-120.474533
 20
30.0
 30
0.0
 11
-121.509809
 21
26.136297
 31
0.0
  0
LINE
  5
149
  8
2
 62
     2
 10
-120.474533
 20
30.0
 30
0.0
 11
-119.439257
 21
26.136297
 31
0.0
  0
LINE
  5
14A
  8
2
 62
     2
 10
-94.5
 20
30.0
 30
0.0
 11
-122.474533
 21
30.0
 31
0.0
  0
ENDBLK
  5
14B
  8
2
  0
BLOCK
  8
2
  2
*D27
 70
     1
 10
0.0
 20
0.0
 30
0.0
  3
*D27
  1

  0
TEXT
  5
14E
  8
2
 62
     2
 10
-70.0
 20
187.593826
 30
0.0
 40
5.0
  1
18.4
 41
2.0
 72
     5
 11
-52.0
 21
187.593826
 31
0.0
  0
LINE
  5
14F
  8
2
 62
     2
 10
-69.2
 20
146.799401
 30
0.0
 11
-69.2
 21
188.593826
 31
0.0
  0
LINE
  5
150
  8
2
 62
     2
 10
-69.2
 20
186.593826
 30
0.0
 11
-65.336297
 21
185.55855
 31
0.0
  0
LINE
  5
151
  8
2
 62
     2
 10
-69.2
 20
186.593826
 30
0.0
 11
-65.336297
 21
187.629102
 31
0.0
  0
LINE
  5
152
  8
2
 62
     2
 10
-69.2
 20
186.593826
 30
0.0
 11
-50.8
 21
186.593826
 31
0.0
  0
LINE
  5
153
  8
2
 62
     2
 10
-50.8
 20
186.593826
 30
0.0
 11
-54.663703
 21
187.629102
 31
0.0
  0
LINE
  5
154
  8
2
 62
     2
 10
-50.8
 20
186.593826
 30
0.0
 11
-54.663703
 21
185.55855
 31
0.0
  0
LINE
  5
155
  8
2
 62
     2
 10
-50.8
 20
140.921901
 30
0.0
 11
-50.8
 21
188.593826
 31
0.0
  0
ENDBLK
  5
156
  8
2
  0
BLOCK
  8
2
  2
*D28
 70
     1
 10
0.0
 20
0.0
 30
0.0
  3
*D28
  1

  0
TEXT
  5
159
  8
2
 62
     2
 10
-102.0
 20
61.0
 30
0.0
 40
5.0
  1
9
 41
2.0
 72
     5
 11
-99.0
 21
61.0
 31
0.0
  0
LINE
  5
15A
  8
2
 62
     2
 10
-89.0
 20
38.0
 30
0.0
 11
-89.0
 21
62.0
 31
0.0
  0
LINE
  5
15B
  8
2
 62
     2
 10
-89.0
 20
60.0
 30
0.0
 11
-92.863703
 21
61.035276
 31
0.0
  0
LINE
  5
15C
  8
2
 62
     2
 10
-89.0
 20
60.0
 30
0.0
 11
-92.863703
 21
58.964724
 31
0.0
  0
LINE
  5
15D
  8
2
 62
     2
 10
-104.0
 20
60.0
 30
0.0
 11
-70.0
 21
60.0
 31
0.0
  0
LINE
  5
15E
  8
2
 62
     2
 10
-80.0
 20
60.0
 30
0.0
 11
-76.136297
 21
58.964724
 31
0.0
  0
LINE
  5
15F
  8
2
 62
     2
 10
-80.0
 20
60.0
 30
0.0
 11
-76.136297
 21
61.035276
 31
0.0
  0
LINE
  5
160
  8
2
 62
     2
 10
-80.0
 20
39.5
 30
0.0
 11
-80.0
 21
62.0
 31
0.0
  0
ENDBLK
  5
161
  8
2
  0
BLOCK
  8
2
  2
*D29
 70
     1
 10
0.0
 20
0.0
 30
0.0
  3
*D29
  1

  0
TEXT
  5
164
  8
2
 62
     2
 10
-65.0
 20
-99.0
 30
0.0
 40
5.0
  1
25
 41
2.0
 72
     5
 11
-57.0
 21
-99.0
 31
0.0
  0
LINE
  5
165
  8
2
 62
     2
 10
-72.5
 20
-81.0
 30
0.0
 11
-72.5
 21
-102.0
 31
0.0
  0
LINE
  5
166
  8
2
 62
     2
 10
-72.5
 20
-100.0
 30
0.0
 11
-68.636297
 21
-101.035276
 31
0.0
  0
LINE
  5
167
  8
2
 62
     2
 10
-72.5
 20
-100.0
 30
0.0
 11
-68.636297
 21
-98.964724
 31
0.0
  0
LINE
  5
168
  8
2
 62
     2
 10
-72.5
 20
-100.0
 30
0.0
 11
-47.5
 21
-100.0
 31
0.0
  0
LINE
  5
169
  8
2
 62
     2
 10
-47.5
 20
-100.0
 30
0.0
 11
-51.363703
 21
-98.964724
 31
0.0
  0
LINE
  5
16A
  8
2
 62
     2
 10
-47.5
 20
-100.0
 30
0.0
 11
-51.363703
 21
-101.035276
 31
0.0
  0
LINE
  5
16B
  8
2
 62
     2
 10
-47.5
 20
-81.0
 30
0.0
 11
-47.5
 21
-102.0
 31
0.0
  0
ENDBLK
  5
16C
  8
2
  0
BLOCK
  8
2
  2
*D30
 70
     1
 10
0.0
 20
0.0
 30
0.0
  3
*D30
  1

  0
TEXT
  5
16F
  8
2
 62
     2
 10
-64.999978
 20
-32.039808
 30
0.0
 40
5.0
  1
12
 41
2.0
 72
     5
 11
-56.999978
 21
-32.039808
 31
0.0
  0
LINE
  5
170
  8
2
 62
     2
 10
-65.999978
 20
-22.483317
 30
0.0
 11
-65.999978
 21
-35.039808
 31
0.0
  0
LINE
  5
171
  8
2
 62
     2
 10
-65.999978
 20
-33.039808
 30
0.0
 11
-62.136275
 21
-34.075084
 31
0.0
  0
LINE
  5
172
  8
2
 62
     2
 10
-65.999978
 20
-33.039808
 30
0.0
 11
-62.136275
 21
-32.004532
 31
0.0
  0
LINE
  5
173
  8
2
 62
     2
 10
-65.999978
 20
-33.039808
 30
0.0
 11
-53.999978
 21
-33.039808
 31
0.0
  0
LINE
  5
174
  8
2
 62
     2
 10
-53.999978
 20
-33.039808
 30
0.0
 11
-57.863682
 21
-32.004532
 31
0.0
  0
LINE
  5
175
  8
2
 62
     2
 10
-53.999978
 20
-33.039808
 30
0.0
 11
-57.863682
 21
-34.075084
 31
0.0
  0
LINE
  5
176
  8
2
 62
     2
 10
-53.999978
 20
-22.483317
 30
0.0
 11
-53.999978
 21
-35.039808
 31
0.0
  0
ENDBLK
  5
177
  8
2
  0
BLOCK
  8
2
  2
*D31
 70
     1
 10
0.0
 20
0.0
 30
0.0
  3
*D31
  1

  0
TEXT
  5
17A
  8
2
 62
     2
 10
170.618263
 20
-94.0
 30
0.0
 40
5.0
  1
51
 41
2.0
 72
     5
 11
178.618263
 21
-94.0
 31
0.0
  0
LINE
  5
17B
  8
2
 62
     2
 10
135.118263
 20
-81.0
 30
0.0
 11
135.118263
 21
-97.0
 31
0.0
  0
LINE
  5
17C
  8
2
 62
     2
 10
135.118263
 20
-95.0
 30
0.0
 11
138.981967
 21
-96.035276
 31
0.0
  0
LINE
  5
17D
  8
2
 62
     2
 10
135.118263
 20
-95.0
 30
0.0
 11
138.981967
 21
-93.964724
 31
0.0
  0
LINE
  5
17E
  8
2
 62
     2
 10
135.118263
 20
-95.0
 30
0.0
 11
186.118263
 21
-95.0
 31
0.0
  0
LINE
  5
17F
  8
2
 62
     2
 10
186.118263
 20
-95.0
 30
0.0
 11
182.25456
 21
-93.964724
 31
0.0
  0
LINE
  5
180
  8
2
 62
     2
 10
186.118263
 20
-95.0
 30
0.0
 11
182.25456
 21
-96.035276
 31
0.0
  0
LINE
  5
181
  8
2
 62
     2
 10
186.118263
 20
-66.0
 30
0.0
 11
186.118263
 21
-97.0
 31
0.0
  0
ENDBLK
  5
182
  8
2
  0
BLOCK
  8
2
  2
*D32
 70
     1
 10
0.0
 20
0.0
 30
0.0
  3
*D32
  1

  0
TEXT
  5
185
  8
2
 62
     2
 10
-177.774124
 20
-16.0
 30
0.0
 40
5.0
  1
50
 50
90.0
 41
2.0
 72
     5
 11
-177.774124
 21
-8.0
 31
0.0
  0
LINE
  5
186
  8
2
 62
     2
 10
-196.118263
 20
-36.0
 30
0.0
 11
-174.774124
 21
-36.0
 31
0.0
  0
LINE
  5
187
  8
2
 62
     2
 10
-176.774124
 20
-36.0
 30
0.0
 11
-175.738848
 21
-32.136297
 31
0.0
  0
LINE
  5
188
  8
2
 62
     2
 10
-176.774124
 20
-36.0
 30
0.0
 11
-177.8094
 21
-32.136297
 31
0.0
  0
LINE
  5
189
  8
2
 62
     2
 10
-176.774124
 20
-36.0
 30
0.0
 11
-176.774124
 21
14.0
 31
0.0
  0
LINE
  5
18A
  8
2
 62
     2
 10
-176.774124
 20
14.0
 30
0.0
 11
-177.8094
 21
10.136297
 31
0.0
  0
LINE
  5
18B
  8
2
 62
     2
 10
-176.774124
 20
14.0
 30
0.0
 11
-175.738848
 21
10.136297
 31
0.0
  0
LINE
  5
18C
  8
2
 62
     2
 10
-214.118263
 20
14.0
 30
0.0
 11
-174.774124
 21
14.0
 31
0.0
  0
ENDBLK
  5
18D
  8
2
  0
BLOCK
  8
2
  2
*D33
 70
     1
 10
0.0
 20
0.0
 30
0.0
  3
*D33
  1

  0
TEXT
  5
190
  8
2
 62
     2
 10
-259.329956
 20
-9.0
 30
0.0
 40
5.0
  1
5.5
 50
90.0
 41
2.0
 72
     5
 11
-259.329956
 21
4.0
 31
0.0
  0
LINE
  5
191
  8
2
 62
     2
 10
-238.118263
 20
14.0
 30
0.0
 11
-260.329956
 21
14.0
 31
0.0
  0
LINE
  5
192
  8
2
 62
     2
 10
-258.329956
 20
14.0
 30
0.0
 11
-259.365232
 21
10.136297
 31
0.0
  0
LINE
  5
193
  8
2
 62
     2
 10
-258.329956
 20
14.0
 30
0.0
 11
-257.29468
 21
10.136297
 31
0.0
  0
LINE
  5
194
  8
2
 62
     2
 10
-258.329956
 20
-11.0
 30
0.0
 11
-258.329956
 21
19.5
 31
0.0
  0
LINE
  5
195
  8
2
 62
     2
 10
-252.118263
 20
19.5
 30
0.0
 11
-260.329956
 21
19.5
 31
0.0
  0
CIRCLE
  5
196
  8
2
 62
     2
 10
-258.329956
 20
19.5
 30
0.0
 40
1.0
  0
CIRCLE
  5
197
  8
2
 62
     2
 10
-258.329956
 20
19.5
 30
0.0
 40
0.6
  0
ENDBLK
  5
198
  8
2
  0
BLOCK
  8
2
  2
*D34
 70
     1
 10
0.0
 20
0.0
 30
0.0
  3
*D34
  1

  0
TEXT
  5
19B
  8
2
 62
     2
 10
-231.118263
 20
49.786003
 30
0.0
 40
5.0
  1
15
 41
2.0
 72
     5
 11
-223.118263
 21
49.786003
 31
0.0
  0
LINE
  5
19C
  8
2
 62
     2
 10
-233.618263
 20
31.5
 30
0.0
 11
-233.618263
 21
50.786003
 31
0.0
  0
LINE
  5
19D
  8
2
 62
     2
 10
-233.618263
 20
48.786003
 30
0.0
 11
-229.75456
 21
47.750727
 31
0.0
  0
LINE
  5
19E
  8
2
 62
     2
 10
-233.618263
 20
48.786003
 30
0.0
 11
-229.75456
 21
49.821279
 31
0.0
  0
LINE
  5
19F
  8
2
 62
     2
 10
-233.618263
 20
48.786003
 30
0.0
 11
-218.618263
 21
48.786003
 31
0.0
  0
LINE
  5
1A0
  8
2
 62
     2
 10
-218.618263
 20
48.786003
 30
0.0
 11
-222.481967
 21
49.821279
 31
0.0
  0
LINE
  5
1A1
  8
2
 62
     2
 10
-218.618263
 20
48.786003
 30
0.0
 11
-222.481967
 21
47.750727
 31
0.0
  0
LINE
  5
1A2
  8
2
 62
     2
 10
-218.618263
 20
31.5
 30
0.0
 11
-218.618263
 21
50.786003
 31
0.0
  0
ENDBLK
  5
1A3
  8
2
  0
BLOCK
  8
2
  2
*D35
 70
     1
 10
0.0
 20
0.0
 30
0.0
  3
*D35
  1

  0
TEXT
  5
1A6
  8
2
 62
     2
 10
-259.329956
 20
34.0
 30
0.0
 40
5.0
  1
6.5
 50
90.0
 41
2.0
 72
     5
 11
-259.329956
 21
47.0
 31
0.0
  0
LINE
  5
1A7
  8
2
 62
     2
 10
-252.118263
 20
19.5
 30
0.0
 11
-260.329956
 21
19.5
 31
0.0
  0
LINE
  5
1A8
  8
2
 62
     2
 10
-258.329956
 20
19.5
 30
0.0
 11
-258.329956
 21
51.0
 31
0.0
  0
LINE
  5
1A9
  8
2
 62
     2
 10
-258.329956
 20
26.0
 30
0.0
 11
-257.29468
 21
29.863703
 31
0.0
  0
LINE
  5
1AA
  8
2
 62
     2
 10
-258.329956
 20
26.0
 30
0.0
 11
-259.365232
 21
29.863703
 31
0.0
  0
LINE
  5
1AB
  8
2
 62
     2
 10
-239.118263
 20
26.0
 30
0.0
 11
-260.329956
 21
26.0
 31
0.0
  0
CIRCLE
  5
1AC
  8
2
 62
     2
 10
-258.329956
 20
19.5
 30
0.0
 40
1.0
  0
CIRCLE
  5
1AD
  8
2
 62
     2
 10
-258.329956
 20
19.5
 30
0.0
 40
0.6
  0
ENDBLK
  5
1AE
  8
2
  0
BLOCK
  8
2
  2
*D36
 70
     1
 10
0.0
 20
0.0
 30
0.0
  3
*D36
  1

  0
TEXT
  5
1B1
  8
2
 62
     2
 10
-40.7
 20
61.0
 30
0.0
 40
5.0
  1
18.6
 41
2.0
 72
     5
 11
-22.7
 21
61.0
 31
0.0
  0
LINE
  5
1B2
  8
2
 62
     2
 10
-40.0
 20
39.5
 30
0.0
 11
-40.0
 21
62.0
 31
0.0
  0
LINE
  5
1B3
  8
2
 62
     2
 10
-40.0
 20
60.0
 30
0.0
 11
-36.136297
 21
58.964724
 31
0.0
  0
LINE
  5
1B4
  8
2
 62
     2
 10
-40.0
 20
60.0
 30
0.0
 11
-36.136297
 21
61.035276
 31
0.0
  0
LINE
  5
1B5
  8
2
 62
     2
 10
-40.0
 20
60.0
 30
0.0
 11
-21.4
 21
60.0
 31
0.0
  0
LINE
  5
1B6
  8
2
 62
     2
 10
-21.4
 20
60.0
 30
0.0
 11
-25.263703
 21
61.035276
 31
0.0
  0
LINE
  5
1B7
  8
2
 62
     2
 10
-21.4
 20
60.0
 30
0.0
 11
-25.263703
 21
58.964724
 31
0.0
  0
LINE
  5
1B8
  8
2
 62
     2
 10
-21.4
 20
20.5
 30
0.0
 11
-21.4
 21
62.0
 31
0.0
  0
ENDBLK
  5
1B9
  8
2
  0
BLOCK
  8
2
  2
*D37
 70
     1
 10
0.0
 20
0.0
 30
0.0
  3
*D37
  1

  0
TEXT
  5
1BC
  8
2
 62
     2
 10
-39.85
 20
69.831276
 30
0.0
 40
5.0
  1
20.3
 41
2.0
 72
     5
 11
-21.85
 21
69.831276
 31
0.0
  0
LINE
  5
1BD
  8
2
 62
     2
 10
-40.0
 20
39.5
 30
0.0
 11
-40.0
 21
70.831276
 31
0.0
  0
LINE
  5
1BE
  8
2
 62
     2
 10
-40.0
 20
68.831276
 30
0.0
 11
-36.136297
 21
67.796
 31
0.0
  0
LINE
  5
1BF
  8
2
 62
     2
 10
-40.0
 20
68.831276
 30
0.0
 11
-36.136297
 21
69.866552
 31
0.0
  0
LINE
  5
1C0
  8
2
 62
     2
 10
-40.0
 20
68.831276
 30
0.0
 11
-19.7
 21
68.831276
 31
0.0
  0
LINE
  5
1C1
  8
2
 62
     2
 10
-19.7
 20
68.831276
 30
0.0
 11
-23.563703
 21
69.866552
 31
0.0
  0
LINE
  5
1C2
  8
2
 62
     2
 10
-19.7
 20
68.831276
 30
0.0
 11
-23.563703
 21
67.796
 31
0.0
  0
LINE
  5
1C3
  8
2
 62
     2
 10
-19.7
 20
20.2
 30
0.0
 11
-19.7
 21
70.831276
 31
0.0
  0
ENDBLK
  5
1C4
  8
2
  0
BLOCK
  8
2
  2
*D38
 70
     1
 10
0.0
 20
0.0
 30
0.0
  3
*D38
  1

  0
TEXT
  5
1C7
  8
2
 62
     2
 10
161.268263
 20
-104.292931
 30
0.0
 40
5.0
  1
72.3
 41
2.0
 72
     5
 11
179.268263
 21
-104.292931
 31
0.0
  0
LINE
  5
1C8
  8
2
 62
     2
 10
135.118263
 20
-81.0
 30
0.0
 11
135.118263
 21
-107.292931
 31
0.0
  0
LINE
  5
1C9
  8
2
 62
     2
 10
135.118263
 20
-105.292931
 30
0.0
 11
138.981967
 21
-106.328207
 31
0.0
  0
LINE
  5
1CA
  8
2
 62
     2
 10
135.118263
 20
-105.292931
 30
0.0
 11
138.981967
 21
-104.257654
 31
0.0
  0
LINE
  5
1CB
  8
2
 62
     2
 10
135.118263
 20
-105.292931
 30
0.0
 11
207.418263
 21
-105.292931
 31
0.0
  0
LINE
  5
1CC
  8
2
 62
     2
 10
207.418263
 20
-105.292931
 30
0.0
 11
203.55456
 21
-104.257654
 31
0.0
  0
LINE
  5
1CD
  8
2
 62
     2
 10
207.418263
 20
-105.292931
 30
0.0
 11
203.55456
 21
-106.328207
 31
0.0
  0
LINE
  5
1CE
  8
2
 62
     2
 10
207.418263
 20
-46.129654
 30
0.0
 11
207.418263
 21
-107.292931
 31
0.0
  0
ENDBLK
  5
1CF
  8
2
  0
BLOCK
  8
2
  2
*D39
 70
     1
 10
0.0
 20
0.0
 30
0.0
  3
*D39
  1

  0
TEXT
  5
1D2
  8
2
 62
     2
 10
-22.0
 20
-88.909096
 30
0.0
 40
5.0
  1
10
 41
2.0
 72
     5
 11
-14.0
 21
-88.909096
 31
0.0
  0
LINE
  5
1D3
  8
2
 62
     2
 10
-40.0
 20
-60.0
 30
0.0
 11
-40.0
 21
-91.909096
 31
0.0
  0
LINE
  5
1D4
  8
2
 62
     2
 10
-40.0
 20
-89.909096
 30
0.0
 11
-43.863703
 21
-88.87382
 31
0.0
  0
LINE
  5
1D5
  8
2
 62
     2
 10
-40.0
 20
-89.909096
 30
0.0
 11
-43.863703
 21
-90.944372
 31
0.0
  0
LINE
  5
1D6
  8
2
 62
     2
 10
-50.0
 20
-89.909096
 30
0.0
 11
-10.0
 21
-89.909096
 31
0.0
  0
LINE
  5
1D7
  8
2
 62
     2
 10
-30.0
 20
-89.909096
 30
0.0
 11
-26.136297
 21
-90.944372
 31
0.0
  0
LINE
  5
1D8
  8
2
 62
     2
 10
-30.0
 20
-89.909096
 30
0.0
 11
-26.136297
 21
-88.87382
 31
0.0
  0
LINE
  5
1D9
  8
2
 62
     2
 10
-30.0
 20
-58.5
 30
0.0
 11
-30.0
 21
-91.909096
 31
0.0
  0
ENDBLK
  5
1DA
  8
2
  0
BLOCK
  8
2
  2
*D40
 70
     1
 10
0.0
 20
0.0
 30
0.0
  3
*D40
  1

  0
TEXT
  5
1DD
  8
2
 62
     2
 10
-108.0
 20
-88.909096
 30
0.0
 40
5.0
  1
10
 41
2.0
 72
     5
 11
-100.0
 21
-88.909096
 31
0.0
  0
LINE
  5
1DE
  8
2
 62
     2
 10
-90.0
 20
-58.5
 30
0.0
 11
-90.0
 21
-91.909096
 31
0.0
  0
LINE
  5
1DF
  8
2
 62
     2
 10
-90.0
 20
-89.909096
 30
0.0
 11
-93.863703
 21
-88.87382
 31
0.0
  0
LINE
  5
1E0
  8
2
 62
     2
 10
-90.0
 20
-89.909096
 30
0.0
 11
-93.863703
 21
-90.944372
 31
0.0
  0
LINE
  5
1E1
  8
2
 62
     2
 10
-110.0
 20
-89.909096
 30
0.0
 11
-70.0
 21
-89.909096
 31
0.0
  0
LINE
  5
1E2
  8
2
 62
     2
 10
-80.0
 20
-89.909096
 30
0.0
 11
-76.136297
 21
-90.944372
 31
0.0
  0
LINE
  5
1E3
  8
2
 62
     2
 10
-80.0
 20
-89.909096
 30
0.0
 11
-76.136297
 21
-88.87382
 31
0.0
  0
LINE
  5
1E4
  8
2
 62
     2
 10
-80.0
 20
-60.0
 30
0.0
 11
-80.0
 21
-91.909096
 31
0.0
  0
ENDBLK
  5
1E5
  8
2
  0
BLOCK
  8
2
  2
*D41
 70
     1
 10
0.0
 20
0.0
 30
0.0
  3
*D41
  1

  0
TEXT
  5
1E8
  8
2
 62
     2
 10
-262.047302
 20
202.736703
 30
0.0
 40
5.0
  1
2.2
 50
90.0
 41
2.0
 72
     5
 11
-262.047302
 21
215.736703
 31
0.0
  0
LINE
  5
1E9
  8
2
 62
     2
 10
-277.111005
 20
192.536703
 30
0.0
 11
-259.047302
 21
192.536703
 31
0.0
  0
LINE
  5
1EA
  8
2
 62
     2
 10
-261.047302
 20
192.536703
 30
0.0
 11
-262.082578
 21
188.672999
 31
0.0
  0
LINE
  5
1EB
  8
2
 62
     2
 10
-261.047302
 20
192.536703
 30
0.0
 11
-260.012026
 21
188.672999
 31
0.0
  0
LINE
  5
1EC
  8
2
 62
     2
 10
-261.047302
 20
182.536703
 30
0.0
 11
-261.047302
 21
219.736703
 31
0.0
  0
LINE
  5
1ED
  8
2
 62
     2
 10
-261.047302
 20
194.736703
 30
0.0
 11
-260.012026
 21
198.600406
 31
0.0
  0
LINE
  5
1EE
  8
2
 62
     2
 10
-261.047302
 20
194.736703
 30
0.0
 11
-262.082578
 21
198.600406
 31
0.0
  0
LINE
  5
1EF
  8
2
 62
     2
 10
-277.111005
 20
194.736703
 30
0.0
 11
-259.047302
 21
194.736703
 31
0.0
  0
ENDBLK
  5
1F0
  8
2
  0
BLOCK
  8
2
  2
*D42
 70
     1
 10
0.0
 20
0.0
 30
0.0
  3
*D42
  1

  0
TEXT
  5
1F3
  8
2
 62
     2
 10
-294.611005
 20
172.519623
 30
0.0
 40
5.0
  1
23
 41
2.0
 72
     5
 11
-286.611005
 21
172.519623
 31
0.0
  0
LINE
  5
1F4
  8
2
 62
     2
 10
-301.111005
 20
163.331902
 30
0.0
 11
-301.111005
 21
173.519623
 31
0.0
  0
LINE
  5
1F5
  8
2
 62
     2
 10
-301.111005
 20
171.519623
 30
0.0
 11
-297.247301
 21
170.484347
 31
0.0
  0
LINE
  5
1F6
  8
2
 62
     2
 10
-301.111005
 20
171.519623
 30
0.0
 11
-297.247301
 21
172.554899
 31
0.0
  0
LINE
  5
1F7
  8
2
 62
     2
 10
-301.111005
 20
171.519623
 30
0.0
 11
-278.111005
 21
171.519623
 31
0.0
  0
LINE
  5
1F8
  8
2
 62
     2
 10
-278.111005
 20
171.519623
 30
0.0
 11
-281.974708
 21
172.554899
 31
0.0
  0
LINE
  5
1F9
  8
2
 62
     2
 10
-278.111005
 20
171.519623
 30
0.0
 11
-281.974708
 21
170.484347
 31
0.0
  0
LINE
  5
1FA
  8
2
 62
     2
 10
-278.111005
 20
158.031888
 30
0.0
 11
-278.111005
 21
173.519623
 31
0.0
  0
ENDBLK
  5
1FB
  8
2
  0
BLOCK
  8
2
  2
*D43
 70
     1
 10
0.0
 20
0.0
 30
0.0
  3
*D43
  1

  0
TEXT
  5
1FE
  8
2
 62
     2
 10
-304.111005
 20
179.22847
 30
0.0
 40
5.0
  1
42
 41
2.0
 72
     5
 11
-296.111005
 21
179.22847
 31
0.0
  0
LINE
  5
1FF
  8
2
 62
     2
 10
-320.111005
 20
158.031888
 30
0.0
 11
-320.111005
 21
180.22847
 31
0.0
  0
LINE
  5
200
  8
2
 62
     2
 10
-320.111005
 20
178.22847
 30
0.0
 11
-316.247301
 21
177.193194
 31
0.0
  0
LINE
  5
201
  8
2
 62
     2
 10
-320.111005
 20
178.22847
 30
0.0
 11
-316.247301
 21
179.263746
 31
0.0
  0
LINE
  5
202
  8
2
 62
     2
 10
-320.111005
 20
178.22847
 30
0.0
 11
-278.111005
 21
178.22847
 31
0.0
  0
LINE
  5
203
  8
2
 62
     2
 10
-278.111005
 20
178.22847
 30
0.0
 11
-281.974708
 21
179.263746
 31
0.0
  0
LINE
  5
204
  8
2
 62
     2
 10
-278.111005
 20
178.22847
 30
0.0
 11
-281.974708
 21
177.193194
 31
0.0
  0
LINE
  5
205
  8
2
 62
     2
 10
-278.111005
 20
158.031888
 30
0.0
 11
-278.111005
 21
180.22847
 31
0.0
  0
ENDBLK
  5
206
  8
2
  0
BLOCK
  8
2
  2
*D44
 70
     1
 10
0.0
 20
0.0
 30
0.0
  3
*D44
  1

  0
TEXT
  5
209
  8
2
 62
     2
 10
-262.047302
 20
152.031902
 30
0.0
 40
5.0
  1
20
 50
90.0
 41
2.0
 72
     5
 11
-262.047302
 21
160.031902
 31
0.0
  0
LINE
  5
20A
  8
2
 62
     2
 10
-291.111005
 20
147.031902
 30
0.0
 11
-259.047302
 21
147.031902
 31
0.0
  0
LINE
  5
20B
  8
2
 62
     2
 10
-261.047302
 20
147.031902
 30
0.0
 11
-260.012026
 21
150.895605
 31
0.0
  0
LINE
  5
20C
  8
2
 62
     2
 10
-261.047302
 20
147.031902
 30
0.0
 11
-262.082578
 21
150.895605
 31
0.0
  0
LINE
  5
20D
  8
2
 62
     2
 10
-261.047302
 20
147.031902
 30
0.0
 11
-261.047302
 21
167.031902
 31
0.0
  0
LINE
  5
20E
  8
2
 62
     2
 10
-261.047302
 20
167.031902
 30
0.0
 11
-262.082578
 21
163.168199
 31
0.0
  0
LINE
  5
20F
  8
2
 62
     2
 10
-261.047302
 20
167.031902
 30
0.0
 11
-260.012026
 21
163.168199
 31
0.0
  0
LINE
  5
210
  8
2
 62
     2
 10
-291.111005
 20
167.031902
 30
0.0
 11
-259.047302
 21
167.031902
 31
0.0
  0
ENDBLK
  5
211
  8
2
  0
BLOCK
  8
2
  2
*D45
 70
     1
 10
0.0
 20
0.0
 30
0.0
  3
*D45
  1

  0
TEXT
  5
214
  8
2
 62
     2
 10
-329.98793
 20
168.331902
 30
0.0
 40
5.0
  1
6.6
 50
90.0
 41
2.0
 72
     5
 11
-329.98793
 21
181.331902
 31
0.0
  0
LINE
  5
215
  8
2
 62
     2
 10
-316.111005
 20
153.731902
 30
0.0
 11
-330.98793
 21
153.731902
 31
0.0
  0
LINE
  5
216
  8
2
 62
     2
 10
-328.98793
 20
153.731902
 30
0.0
 11
-330.023206
 21
149.868199
 31
0.0
  0
LINE
  5
217
  8
2
 62
     2
 10
-328.98793
 20
153.731902
 30
0.0
 11
-327.952654
 21
149.868199
 31
0.0
  0
LINE
  5
218
  8
2
 62
     2
 10
-328.98793
 20
143.731902
 30
0.0
 11
-328.98793
 21
185.331902
 31
0.0
  0
LINE
  5
219
  8
2
 62
     2
 10
-328.98793
 20
160.331902
 30
0.0
 11
-327.952654
 21
164.195605
 31
0.0
  0
LINE
  5
21A
  8
2
 62
     2
 10
-328.98793
 20
160.331902
 30
0.0
 11
-330.023206
 21
164.195605
 31
0.0
  0
LINE
  5
21B
  8
2
 62
     2
 10
-316.111005
 20
160.331902
 30
0.0
 11
-330.98793
 21
160.331902
 31
0.0
  0
ENDBLK
  5
21C
  8
2
  0
BLOCK
  8
2
  2
*D46
 70
     1
 10
0.0
 20
0.0
 30
0.0
  3
*D46
  1

  0
TEXT
  5
21F
  8
2
 62
     2
 10
-7.406671
 20
24.156458
 30
0.0
 40
5.0
  1
%%c12.4
 50
90.0
 41
2.0
 72
     5
 11
-7.406671
 21
47.156458
 31
0.0
  0
LINE
  5
220
  8
2
 62
     2
 10
-19.7
 20
20.2
 30
0.0
 11
-4.406671
 21
20.2
 31
0.0
  0
LINE
  5
221
  8
2
 62
     2
 10
-6.406671
 20
20.2
 30
0.0
 11
-5.371394
 21
24.063703
 31
0.0
  0
LINE
  5
222
  8
2
 62
     2
 10
-6.406671
 20
20.2
 30
0.0
 11
-7.441947
 21
24.063703
 31
0.0
  0
LINE
  5
223
  8
2
 62
     2
 10
-6.406671
 20
51.156458
 30
0.0
 11
-6.406671
 21
-2.2
 31
0.0
  0
LINE
  5
224
  8
2
 62
     2
 10
-6.406671
 20
7.8
 30
0.0
 11
-7.441947
 21
3.936297
 31
0.0
  0
LINE
  5
225
  8
2
 62
     2
 10
-6.406671
 20
7.8
 30
0.0
 11
-5.371394
 21
3.936297
 31
0.0
  0
LINE
  5
226
  8
2
 62
     2
 10
-19.7
 20
7.8
 30
0.0
 11
-4.406671
 21
7.8
 31
0.0
  0
ENDBLK
  5
227
  8
2
  0
BLOCK
  8
2
  2
*D47
 70
     1
 10
0.0
 20
0.0
 30
0.0
  3
*D47
  1

  0
TEXT
  5
22A
  8
2
 62
     2
 10
2.957599
 20
26.918703
 30
0.0
 40
5.0
  1
%%c20.5
 50
90.0
 41
2.0
 72
     5
 11
2.957599
 21
49.918703
 31
0.0
  0
LINE
  5
22B
  8
2
 62
     2
 10
-20.4
 20
24.25
 30
0.0
 11
5.957599
 21
24.25
 31
0.0
  0
LINE
  5
22C
  8
2
 62
     2
 10
3.957599
 20
24.25
 30
0.0
 11
4.992876
 21
28.113703
 31
0.0
  0
LINE
  5
22D
  8
2
 62
     2
 10
3.957599
 20
24.25
 30
0.0
 11
2.922323
 21
28.113703
 31
0.0
  0
LINE
  5
22E
  8
2
 62
     2
 10
3.957599
 20
53.918703
 30
0.0
 11
3.957599
 21
-6.25
 31
0.0
  0
LINE
  5
22F
  8
2
 62
     2
 10
3.957599
 20
3.75
 30
0.0
 11
2.922323
 21
-0.113703
 31
0.0
  0
LINE
  5
230
  8
2
 62
     2
 10
3.957599
 20
3.75
 30
0.0
 11
4.992876
 21
-0.113703
 31
0.0
  0
LINE
  5
231
  8
2
 62
     2
 10
-20.4
 20
3.75
 30
0.0
 11
5.957599
 21
3.75
 31
0.0
  0
ENDBLK
  5
232
  8
2
  0
BLOCK
  8
2
  2
*D48
 70
     1
 10
0.0
 20
0.0
 30
0.0
  3
*D48
  1

  0
TEXT
  5
235
  8
2
 62
     2
 10
277.359039
 20
182.406181
 30
0.0
 40
5.0
  1
27
 50
90.0
 41
2.0
 72
     5
 11
277.359039
 21
190.406181
 31
0.0
  0
LINE
  5
236
  8
2
 62
     2
 10
256.359039
 20
173.906181
 30
0.0
 11
280.359039
 21
173.906181
 31
0.0
  0
LINE
  5
237
  8
2
 62
     2
 10
278.359039
 20
173.906181
 30
0.0
 11
279.394315
 21
177.769885
 31
0.0
  0
LINE
  5
238
  8
2
 62
     2
 10
278.359039
 20
173.906181
 30
0.0
 11
277.323763
 21
177.769885
 31
0.0
  0
LINE
  5
239
  8
2
 62
     2
 10
278.359039
 20
173.906181
 30
0.0
 11
278.359039
 21
200.906181
 31
0.0
  0
LINE
  5
23A
  8
2
 62
     2
 10
278.359039
 20
200.906181
 30
0.0
 11
277.323763
 21
197.042478
 31
0.0
  0
LINE
  5
23B
  8
2
 62
     2
 10
278.359039
 20
200.906181
 30
0.0
 11
279.394315
 21
197.042478
 31
0.0
  0
LINE
  5
23C
  8
2
 62
     2
 10
256.359039
 20
200.906181
 30
0.0
 11
280.359039
 21
200.906181
 31
0.0
  0
ENDBLK
  5
23D
  8
2
  0
BLOCK
  8
2
  2
*D49
 70
     1
 10
0.0
 20
0.0
 30
0.0
  3
*D49
  1

  0
TEXT
  5
240
  8
2
 62
     2
 10
285.359039
 20
182.406181
 30
0.0
 40
5.0
  1
50
 50
90.0
 41
2.0
 72
     5
 11
285.359039
 21
190.406181
 31
0.0
  0
LINE
  5
241
  8
2
 62
     2
 10
257.883886
 20
162.406181
 30
0.0
 11
288.359039
 21
162.406181
 31
0.0
  0
LINE
  5
242
  8
2
 62
     2
 10
286.359039
 20
162.406181
 30
0.0
 11
287.394315
 21
166.269885
 31
0.0
  0
LINE
  5
243
  8
2
 62
     2
 10
286.359039
 20
162.406181
 30
0.0
 11
285.323763
 21
166.269885
 31
0.0
  0
LINE
  5
244
  8
2
 62
     2
 10
286.359039
 20
162.406181
 30
0.0
 11
286.359039
 21
212.406181
 31
0.0
  0
LINE
  5
245
  8
2
 62
     2
 10
286.359039
 20
212.406181
 30
0.0
 11
285.323763
 21
208.542478
 31
0.0
  0
LINE
  5
246
  8
2
 62
     2
 10
286.359039
 20
212.406181
 30
0.0
 11
287.394315
 21
208.542478
 31
0.0
  0
LINE
  5
247
  8
2
 62
     2
 10
257.883886
 20
212.406181
 30
0.0
 11
288.359039
 21
212.406181
 31
0.0
  0
ENDBLK
  5
248
  8
2
  0
BLOCK
  8
2
  2
*D50
 70
     1
 10
0.0
 20
0.0
 30
0.0
  3
*D50
  1

  0
TEXT
  5
24B
  8
2
 62
     2
 10
293.359039
 20
182.406181
 30
0.0
 40
5.0
  1
66
 50
90.0
 41
2.0
 72
     5
 11
293.359039
 21
190.406181
 31
0.0
  0
LINE
  5
24C
  8
2
 62
     2
 10
263.359039
 20
154.406181
 30
0.0
 11
296.359039
 21
154.406181
 31
0.0
  0
LINE
  5
24D
  8
2
 62
     2
 10
294.359039
 20
154.406181
 30
0.0
 11
295.394315
 21
158.269885
 31
0.0
  0
LINE
  5
24E
  8
2
 62
     2
 10
294.359039
 20
154.406181
 30
0.0
 11
293.323763
 21
158.269885
 31
0.0
  0
LINE
  5
24F
  8
2
 62
     2
 10
294.359039
 20
154.406181
 30
0.0
 11
294.359039
 21
220.406181
 31
0.0
  0
LINE
  5
250
  8
2
 62
     2
 10
294.359039
 20
220.406181
 30
0.0
 11
293.323763
 21
216.542478
 31
0.0
  0
LINE
  5
251
  8
2
 62
     2
 10
294.359039
 20
220.406181
 30
0.0
 11
295.394315
 21
216.542478
 31
0.0
  0
LINE
  5
252
  8
2
 62
     2
 10
263.359039
 20
220.406181
 30
0.0
 11
296.359039
 21
220.406181
 31
0.0
  0
ENDBLK
  5
253
  8
2
  0
BLOCK
  8
2
  2
*D51
 70
     1
 10
0.0
 20
0.0
 30
0.0
  3
*D51
  1

  0
TEXT
  5
256
  8
2
 62
     2
 10
344.330943
 20
177.40618
 30
0.0
 40
5.0
  1
30.2
 50
90.0
 41
2.0
 72
     5
 11
344.330943
 21
195.40618
 31
0.0
  0
LINE
  5
257
  8
2
 62
     2
 10
318.057732
 20
172.30618
 30
0.0
 11
347.330943
 21
172.30618
 31
0.0
  0
LINE
  5
258
  8
2
 62
     2
 10
345.330943
 20
172.30618
 30
0.0
 11
346.366219
 21
176.169883
 31
0.0
  0
LINE
  5
259
  8
2
 62
     2
 10
345.330943
 20
172.30618
 30
0.0
 11
344.295667
 21
176.169883
 31
0.0
  0
LINE
  5
25A
  8
2
 62
     2
 10
345.330943
 20
172.30618
 30
0.0
 11
345.330943
 21
202.50618
 31
0.0
  0
LINE
  5
25B
  8
2
 62
     2
 10
345.330943
 20
202.50618
 30
0.0
 11
344.295667
 21
198.642477
 31
0.0
  0
LINE
  5
25C
  8
2
 62
     2
 10
345.330943
 20
202.50618
 30
0.0
 11
346.366219
 21
198.642477
 31
0.0
  0
LINE
  5
25D
  8
2
 62
     2
 10
318.057732
 20
202.50618
 30
0.0
 11
347.330943
 21
202.50618
 31
0.0
  0
ENDBLK
  5
25E
  8
2
  0
BLOCK
  8
2
  2
*D52
 70
     1
 10
0.0
 20
0.0
 30
0.0
  3
*D52
  1

  0
TEXT
  5
261
  8
2
 62
     2
 10
352.330943
 20
177.40618
 30
0.0
 40
5.0
  1
65.6
 50
90.0
 41
2.0
 72
     5
 11
352.330943
 21
195.40618
 31
0.0
  0
LINE
  5
262
  8
2
 62
     2
 10
316.657047
 20
154.606059
 30
0.0
 11
355.330943
 21
154.606059
 31
0.0
  0
LINE
  5
263
  8
2
 62
     2
 10
353.330943
 20
154.606059
 30
0.0
 11
354.366219
 21
158.469762
 31
0.0
  0
LINE
  5
264
  8
2
 62
     2
 10
353.330943
 20
154.606059
 30
0.0
 11
352.295667
 21
158.469762
 31
0.0
  0
LINE
  5
265
  8
2
 62
     2
 10
353.330943
 20
154.606059
 30
0.0
 11
353.330943
 21
220.206301
 31
0.0
  0
LINE
  5
266
  8
2
 62
     2
 10
353.330943
 20
220.206301
 30
0.0
 11
352.295667
 21
216.342597
 31
0.0
  0
LINE
  5
267
  8
2
 62
     2
 10
353.330943
 20
220.206301
 30
0.0
 11
354.366219
 21
216.342597
 31
0.0
  0
LINE
  5
268
  8
2
 62
     2
 10
316.657047
 20
220.206301
 30
0.0
 11
355.330943
 21
220.206301
 31
0.0
  0
ENDBLK
  5
269
  8
2
  0
BLOCK
  8
2
  2
*D53
 70
     1
 10
0.0
 20
0.0
 30
0.0
  3
*D53
  1

  0
TEXT
  5
26C
  8
2
 62
     2
 10
257.859039
 20
249.406181
 30
0.0
 40
5.0
  1
7
 41
2.0
 72
     5
 11
260.859039
 21
249.406181
 31
0.0
  0
LINE
  5
26D
  8
2
 62
     2
 10
242.859039
 20
199.206181
 30
0.0
 11
242.859039
 21
250.406181
 31
0.0
  0
LINE
  5
26E
  8
2
 62
     2
 10
242.859039
 20
248.406181
 30
0.0
 11
238.995336
 21
249.441457
 31
0.0
  0
LINE
  5
26F
  8
2
 62
     2
 10
242.859039
 20
248.406181
 30
0.0
 11
238.995336
 21
247.370905
 31
0.0
  0
LINE
  5
270
  8
2
 62
     2
 10
232.859039
 20
248.406181
 30
0.0
 11
264.859039
 21
248.406181
 31
0.0
  0
LINE
  5
271
  8
2
 62
     2
 10
249.859039
 20
248.406181
 30
0.0
 11
253.722743
 21
247.370905
 31
0.0
  0
LINE
  5
272
  8
2
 62
     2
 10
249.859039
 20
248.406181
 30
0.0
 11
253.722743
 21
249.441457
 31
0.0
  0
LINE
  5
273
  8
2
 62
     2
 10
249.859039
 20
226.353597
 30
0.0
 11
249.859039
 21
250.406181
 31
0.0
  0
ENDBLK
  5
274
  8
2
  0
BLOCK
  8
2
  2
*D54
 70
     1
 10
0.0
 20
0.0
 30
0.0
  3
*D54
  1

  0
TEXT
  5
277
  8
2
 62
     2
 10
232.359039
 20
139.406181
 30
0.0
 40
5.0
  1
25
 41
2.0
 72
     5
 11
240.359039
 21
139.406181
 31
0.0
  0
LINE
  5
278
  8
2
 62
     2
 10
224.859039
 20
138.406181
 30
0.0
 11
228.722743
 21
137.370905
 31
0.0
  0
LINE
  5
279
  8
2
 62
     2
 10
224.859039
 20
138.406181
 30
0.0
 11
228.722743
 21
139.441457
 31
0.0
  0
LINE
  5
27A
  8
2
 62
     2
 10
224.859039
 20
138.406181
 30
0.0
 11
249.859039
 21
138.406181
 31
0.0
  0
LINE
  5
27B
  8
2
 62
     2
 10
249.859039
 20
138.406181
 30
0.0
 11
245.995336
 21
139.441457
 31
0.0
  0
LINE
  5
27C
  8
2
 62
     2
 10
249.859039
 20
138.406181
 30
0.0
 11
245.995336
 21
137.370905
 31
0.0
  0
LINE
  5
27D
  8
2
 62
     2
 10
249.859039
 20
151.072301
 30
0.0
 11
249.859039
 21
136.406181
 31
0.0
  0
ENDBLK
  5
27E
  8
2
  0
BLOCK
  8
2
  2
*D55
 70
     1
 10
0.0
 20
0.0
 30
0.0
  3
*D55
  1

  0
TEXT
  5
281
  8
2
 62
     2
 10
270.359039
 20
139.406181
 30
0.0
 40
5.0
  1
12.5
 41
2.0
 72
     5
 11
288.359039
 21
139.406181
 31
0.0
  0
LINE
  5
282
  8
2
 62
     2
 10
249.859039
 20
138.406181
 30
0.0
 11
245.995336
 21
139.441457
 31
0.0
  0
LINE
  5
283
  8
2
 62
     2
 10
249.859039
 20
138.406181
 30
0.0
 11
245.995336
 21
137.370905
 31
0.0
  0
LINE
  5
284
  8
2
 62
     2
 10
239.859039
 20
138.406181
 30
0.0
 11
292.359039
 21
138.406181
 31
0.0
  0
LINE
  5
285
  8
2
 62
     2
 10
262.359039
 20
138.406181
 30
0.0
 11
266.222743
 21
137.370905
 31
0.0
  0
LINE
  5
286
  8
2
 62
     2
 10
262.359039
 20
138.406181
 30
0.0
 11
266.222743
 21
139.441457
 31
0.0
  0
ENDBLK
  5
287
  8
2
  0
BLOCK
  8
2
  2
*D56
 70
     1
 10
0.0
 20
0.0
 30
0.0
  3
*D56
  1

  0
TEXT
  5
28A
  8
2
 62
     2
 10
233.609039
 20
129.406181
 30
0.0
 40
5.0
  1
37.5
 41
2.0
 72
     5
 11
251.609039
 21
129.406181
 31
0.0
  0
LINE
  5
28B
  8
2
 62
     2
 10
224.859039
 20
158.406181
 30
0.0
 11
224.859039
 21
126.406181
 31
0.0
  0
LINE
  5
28C
  8
2
 62
     2
 10
224.859039
 20
128.406181
 30
0.0
 11
228.722743
 21
127.370905
 31
0.0
  0
LINE
  5
28D
  8
2
 62
     2
 10
224.859039
 20
128.406181
 30
0.0
 11
228.722743
 21
129.441457
 31
0.0
  0
LINE
  5
28E
  8
2
 62
     2
 10
224.859039
 20
128.406181
 30
0.0
 11
262.359039
 21
128.406181
 31
0.0
  0
LINE
  5
28F
  8
2
 62
     2
 10
262.359039
 20
128.406181
 30
0.0
 11
258.495336
 21
129.441457
 31
0.0
  0
LINE
  5
290
  8
2
 62
     2
 10
262.359039
 20
128.406181
 30
0.0
 11
258.495336
 21
127.370905
 31
0.0
  0
LINE
  5
291
  8
2
 62
     2
 10
262.359039
 20
153.406181
 30
0.0
 11
262.359039
 21
126.406181
 31
0.0
  0
ENDBLK
  5
292
  8
2
  0
BLOCK
  8
2
  2
*D57
 70
     1
 10
0.0
 20
0.0
 30
0.0
  3
*D57
  1

  0
TEXT
  5
295
  8
2
 62
     2
 10
274.624752
 20
116.883154
 30
0.0
 40
5.0
  1
1
 50
90.0
 41
2.0
 72
     5
 11
274.624752
 21
119.883154
 31
0.0
  0
LINE
  5
296
  8
2
 62
     2
 10
263.359039
 20
111.883154
 30
0.0
 11
277.624752
 21
111.883154
 31
0.0
  0
LINE
  5
297
  8
2
 62
     2
 10
275.624752
 20
111.883154
 30
0.0
 11
275.624752
 21
123.883154
 31
0.0
  0
LINE
  5
298
  8
2
 62
     2
 10
275.624752
 20
112.883154
 30
0.0
 11
276.660028
 21
116.746857
 31
0.0
  0
LINE
  5
299
  8
2
 62
     2
 10
275.624752
 20
112.883154
 30
0.0
 11
274.589476
 21
116.746857
 31
0.0
  0
CIRCLE
  5
29A
  8
2
 62
     2
 10
275.624752
 20
111.883154
 30
0.0
 40
1.0
  0
CIRCLE
  5
29B
  8
2
 62
     2
 10
275.624752
 20
111.883154
 30
0.0
 40
0.6
  0
ENDBLK
  5
29C
  8
2
  0
BLOCK
  8
2
  2
*D58
 70
     1
 10
0.0
 20
0.0
 30
0.0
  3
*D58
  1

  0
TEXT
  5
29F
  8
2
 62
     2
 10
274.439999
 20
87.435422
 30
0.0
 40
5.0
  1
1.9
 50
90.0
 41
2.0
 72
     5
 11
274.439999
 21
100.435422
 31
0.0
  0
LINE
  5
2A0
  8
2
 62
     2
 10
260.692632
 20
109.983154
 30
0.0
 11
277.624752
 21
109.983154
 31
0.0
  0
LINE
  5
2A1
  8
2
 62
     2
 10
275.624752
 20
109.983154
 30
0.0
 11
274.589476
 21
106.11945
 31
0.0
  0
LINE
  5
2A2
  8
2
 62
     2
 10
275.624752
 20
109.983154
 30
0.0
 11
276.660028
 21
106.11945
 31
0.0
  0
LINE
  5
2A3
  8
2
 62
     2
 10
275.624752
 20
88.983154
 30
0.0
 11
275.624752
 21
111.883154
 31
0.0
  0
CIRCLE
  5
2A4
  8
2
 62
     2
 10
275.624752
 20
111.883154
 30
0.0
 40
1.0
  0
CIRCLE
  5
2A5
  8
2
 62
     2
 10
275.624752
 20
111.883154
 30
0.0
 40
0.6
  0
ENDBLK
  5
2A6
  8
2
  0
BLOCK
  8
2
  2
*D59
 70
     1
 10
0.0
 20
0.0
 30
0.0
  3
*D59
  1

  0
TEXT
  5
2A9
  8
2
 62
     2
 10
283.959713
 20
102.883154
 30
0.0
 40
5.0
  1
10
 50
90.0
 41
2.0
 72
     5
 11
283.959713
 21
110.883154
 31
0.0
  0
LINE
  5
2AA
  8
2
 62
     2
 10
257.979724
 20
102.883154
 30
0.0
 11
286.959713
 21
102.883154
 31
0.0
  0
LINE
  5
2AB
  8
2
 62
     2
 10
284.959713
 20
102.883154
 30
0.0
 11
285.994989
 21
106.746857
 31
0.0
  0
LINE
  5
2AC
  8
2
 62
     2
 10
284.959713
 20
102.883154
 30
0.0
 11
283.924437
 21
106.746857
 31
0.0
  0
LINE
  5
2AD
  8
2
 62
     2
 10
284.959713
 20
102.883154
 30
0.0
 11
284.959713
 21
112.883154
 31
0.0
  0
LINE
  5
2AE
  8
2
 62
     2
 10
284.959713
 20
112.883154
 30
0.0
 11
283.924437
 21
109.01945
 31
0.0
  0
LINE
  5
2AF
  8
2
 62
     2
 10
284.959713
 20
112.883154
 30
0.0
 11
285.994989
 21
109.01945
 31
0.0
  0
LINE
  5
2B0
  8
2
 62
     2
 10
263.359039
 20
112.883154
 30
0.0
 11
286.959713
 21
112.883154
 31
0.0
  0
ENDBLK
  5
2B1
  8
2
  0
BLOCK
  8
2
  2
*D60
 70
     1
 10
0.0
 20
0.0
 30
0.0
  3
*D60
  1

  0
TEXT
  5
2B4
  8
2
 62
     2
 10
240.109039
 20
82.275968
 30
0.0
 40
5.0
  1
18.1
 41
2.0
 72
     5
 11
258.109039
 21
82.275968
 31
0.0
  0
LINE
  5
2B5
  8
2
 62
     2
 10
241.059039
 20
108.983154
 30
0.0
 11
241.059039
 21
79.275968
 31
0.0
  0
LINE
  5
2B6
  8
2
 62
     2
 10
241.059039
 20
81.275968
 30
0.0
 11
244.922743
 21
80.240692
 31
0.0
  0
LINE
  5
2B7
  8
2
 62
     2
 10
241.059039
 20
81.275968
 30
0.0
 11
244.922743
 21
82.311244
 31
0.0
  0
LINE
  5
2B8
  8
2
 62
     2
 10
241.059039
 20
81.275968
 30
0.0
 11
259.159039
 21
81.275968
 31
0.0
  0
LINE
  5
2B9
  8
2
 62
     2
 10
259.159039
 20
81.275968
 30
0.0
 11
255.295336
 21
82.311244
 31
0.0
  0
LINE
  5
2BA
  8
2
 62
     2
 10
259.159039
 20
81.275968
 30
0.0
 11
255.295336
 21
80.240692
 31
0.0
  0
LINE
  5
2BB
  8
2
 62
     2
 10
259.159039
 20
108.983154
 30
0.0
 11
259.159039
 21
79.275968
 31
0.0
  0
ENDBLK
  5
2BC
  8
2
  0
BLOCK
  8
2
  2
*D61
 70
     1
 10
0.0
 20
0.0
 30
0.0
  3
*D61
  1

  0
TEXT
  5
2BF
  8
2
 62
     2
 10
257.859039
 20
241.406181
 30
0.0
 40
5.0
  1
2
 41
2.0
 72
     5
 11
260.859039
 21
241.406181
 31
0.0
  0
LINE
  5
2C0
  8
2
 62
     2
 10
242.859039
 20
240.406181
 30
0.0
 11
264.859039
 21
240.406181
 31
0.0
  0
LINE
  5
2C1
  8
2
 62
     2
 10
244.859039
 20
240.406181
 30
0.0
 11
248.722743
 21
239.370905
 31
0.0
  0
LINE
  5
2C2
  8
2
 62
     2
 10
244.859039
 20
240.406181
 30
0.0
 11
248.722743
 21
241.441457
 31
0.0
  0
LINE
  5
2C3
  8
2
 62
     2
 10
244.859039
 20
199.206181
 30
0.0
 11
244.859039
 21
242.406181
 31
0.0
  0
CIRCLE
  5
2C4
  8
2
 62
     2
 10
242.859039
 20
240.406181
 30
0.0
 40
1.0
  0
CIRCLE
  5
2C5
  8
2
 62
     2
 10
242.859039
 20
240.406181
 30
0.0
 40
0.6
  0
ENDBLK
  5
2C6
  8
2
  0
BLOCK
  8
2
  2
*D62
 70
     1
 10
0.0
 20
0.0
 30
0.0
  3
*D62
  1

  0
TEXT
  5
2C9
  8
2
 62
     2
 10
226.859039
 20
241.406181
 30
0.0
 40
5.0
  1
3
 41
2.0
 72
     5
 11
229.859039
 21
241.406181
 31
0.0
  0
LINE
  5
2CA
  8
2
 62
     2
 10
239.859039
 20
199.206181
 30
0.0
 11
239.859039
 21
242.406181
 31
0.0
  0
LINE
  5
2CB
  8
2
 62
     2
 10
239.859039
 20
240.406181
 30
0.0
 11
235.995336
 21
241.441457
 31
0.0
  0
LINE
  5
2CC
  8
2
 62
     2
 10
239.859039
 20
240.406181
 30
0.0
 11
235.995336
 21
239.370905
 31
0.0
  0
LINE
  5
2CD
  8
2
 62
     2
 10
219.859039
 20
240.406181
 30
0.0
 11
242.859039
 21
240.406181
 31
0.0
  0
CIRCLE
  5
2CE
  8
2
 62
     2
 10
242.859039
 20
240.406181
 30
0.0
 40
1.0
  0
CIRCLE
  5
2CF
  8
2
 62
     2
 10
242.859039
 20
240.406181
 30
0.0
 40
0.6
  0
ENDBLK
  5
2D0
  8
2
  0
ENDSEC
  0
SECTION
  2
ENTITIES
  0
ARC
  5
2D1
  8
1
 10
-30.0
 20
-25.500186
 30
0.0
 40
0.500186
 50
358.435894
 51
90.0
  0
LINE
  5
2D2
  8
1
  6
CENTER
 62
     4
 10
-100.0
 20
-31.424904
 30
0.0
 11
-100.0
 21
-40.823647
 31
0.0
  0
LINE
  5
2D3
  8
1
 62
     2
 10
-100.0
 20
-34.25
 30
0.0
 11
-99.6
 21
-34.25
 31
0.0
  0
ARC
  5
2D4
  8
1
 62
     2
 10
-98.25
 20
-34.25
 30
0.0
 40
1.35
 50
180.0
 51
270.0
  0
LINE
  5
2D5
  8
1
 62
     2
 10
-98.25
 20
-35.6
 30
0.0
 11
-98.25
 21
-36.0
 31
0.0
  0
LINE
  5
2D6
  8
1
 62
     2
 10
-100.0
 20
-37.75
 30
0.0
 11
-99.6
 21
-37.75
 31
0.0
  0
ARC
  5
2D7
  8
1
 62
     2
 10
-98.25
 20
-37.75
 30
0.0
 40
1.35
 50
90.0
 51
180.0
  0
LINE
  5
2D8
  8
1
 62
     2
 10
-98.25
 20
-36.4
 30
0.0
 11
-98.25
 21
-36.0
 31
0.0
  0
LINE
  5
2D9
  8
1
 62
     2
 10
-100.0
 20
-34.25
 30
0.0
 11
-100.4
 21
-34.25
 31
0.0
  0
ARC
  5
2DA
  8
1
 62
     2
 10
-101.75
 20
-34.25
 30
0.0
 40
1.35
 50
270.0
 51
0.0
  0
LINE
  5
2DB
  8
1
 62
     2
 10
-101.75
 20
-35.6
 30
0.0
 11
-101.75
 21
-36.0
 31
0.0
  0
LINE
  5
2DC
  8
1
 62
     2
 10
-100.0
 20
-37.75
 30
0.0
 11
-100.4
 21
-37.75
 31
0.0
  0
ARC
  5
2DD
  8
1
 62
     2
 10
-101.75
 20
-37.75
 30
0.0
 40
1.35
 50
0.0
 51
90.0
  0
LINE
  5
2DE
  8
1
 62
     2
 10
-101.75
 20
-36.4
 30
0.0
 11
-101.75
 21
-36.0
 31
0.0
  0
CIRCLE
  5
2DF
  8
1
 62
     2
 10
-100.0
 20
-36.0
 30
0.0
 40
3.0
  0
LINE
  5
2E0
  8
1
 10
166.343937
 20
-44.672892
 30
0.0
 11
299.0374
 21
-43.514893
 31
0.0
  0
LINE
  5
2E1
  8
1
 10
166.195586
 20
-27.673539
 30
0.0
 11
298.889049
 21
-26.515541
 31
0.0
  0
ARC
  5
2E2
  8
1
 10
215.117159
 20
-35.74693
 30
0.0
 40
50.0
 50
171.199284
 51
189.800716
  0
ARC
  5
2E3
  8
1
 10
166.339573
 20
-44.172911
 30
0.0
 40
0.5
 50
189.800716
 51
270.5000000000001
  0
ARC
  5
2E4
  8
1
 10
166.199949
 20
-28.17352
 30
0.0
 40
0.5
 50
90.5
 51
171.199284
  0
LINE
  5
2E5
  8
1
 10
165.916282
 20
-44.135111
 30
0.0
 11
165.775654
 21
-28.020726
 31
0.0
  0
ARC
  5
2E6
  8
1
 10
250.115826
 20
-35.441502
 30
0.0
 40
50.0
 50
351.199284
 51
9.800716
  0
LINE
  5
2E7
  8
1
 10
299.460329
 20
-43.511202
 30
0.0
 11
299.311978
 21
-26.51185
 31
0.0
  0
ARC
  5
2E8
  8
1
 10
299.033037
 20
-43.014912
 30
0.0
 40
0.5
 50
270.5000000000001
 51
351.199284
  0
ARC
  5
2E9
  8
1
 10
298.893412
 20
-27.015522
 30
0.0
 40
0.5
 50
9.800716
 51
90.5
  0
ARC
  5
2EA
  8
1
 10
186.118263
 20
-36.0
 30
0.0
 40
11.5
 50
228.157395
 51
312.842605
  0
ARC
  5
2EB
  8
1
 10
186.118263
 20
-36.0
 30
0.0
 40
11.5
 50
48.15739500000001
 51
132.842605
  0
LINE
  5
2EC
  8
1
 10
-206.343937
 20
-44.672892
 30
0.0
 11
-339.0374
 21
-43.514893
 31
0.0
  0
LINE
  5
2ED
  8
1
 10
-206.195586
 20
-27.673539
 30
0.0
 11
-338.889049
 21
-26.515541
 31
0.0
  0
ARC
  5
2EE
  8
1
 10
-255.117159
 20
-35.74693
 30
0.0
 40
50.0
 50
350.199284
 51
8.800716
  0
ARC
  5
2EF
  8
1
 10
-206.339573
 20
-44.172911
 30
0.0
 40
0.5
 50
269.5000000000001
 51
350.199284
  0
ARC
  5
2F0
  8
1
 10
-206.199949
 20
-28.17352
 30
0.0
 40
0.5
 50
8.800716
 51
89.5
  0
LINE
  5
2F1
  8
1
 10
-205.916282
 20
-44.135111
 30
0.0
 11
-205.775654
 21
-28.020726
 31
0.0
  0
ARC
  5
2F2
  8
1
 10
-290.115826
 20
-35.441502
 30
0.0
 40
50.0
 50
170.199284
 51
188.800716
  0
LINE
  5
2F3
  8
1
 10
-339.460329
 20
-43.511202
 30
0.0
 11
-339.311978
 21
-26.51185
 31
0.0
  0
ARC
  5
2F4
  8
1
 10
-339.033037
 20
-43.014912
 30
0.0
 40
0.5
 50
188.800716
 51
269.5000000000001
  0
ARC
  5
2F5
  8
1
 10
-338.893412
 20
-27.015522
 30
0.0
 40
0.5
 50
89.5
 51
170.199284
  0
LINE
  5
2F6
  8
1
 10
10.0
 20
-44.5
 30
0.0
 11
-24.2
 21
-44.5
 31
0.0
  0
LINE
  5
2F7
  8
1
 10
10.0
 20
-27.5
 30
0.0
 11
-24.2
 21
-27.5
 31
0.0
  0
CIRCLE
  5
2F8
  8
1
 10
10.0
 20
-36.0
 30
0.0
 40
8.5
  0
LINE
  5
2F9
  8
1
 10
-29.5
 20
-47.0
 30
0.0
 11
-29.5
 21
-25.0
 31
0.0
  0
LINE
  5
2FA
  8
1
 10
-24.8
 20
-47.5
 30
0.0
 11
-29.0
 21
-47.5
 31
0.0
  0
LINE
  5
2FB
  8
1
 10
-24.8
 20
-24.5
 30
0.0
 11
-29.0
 21
-24.5
 31
0.0
  0
ARC
  5
2FC
  8
1
 10
-29.0
 20
-47.0
 30
0.0
 40
0.5
 50
180.0
 51
270.0
  0
ARC
  5
2FD
  8
1
 10
-29.0
 20
-25.0
 30
0.0
 40
0.5
 50
90.0
 51
180.0
  0
LINE
  5
2FE
  8
1
 10
-24.5
 20
-24.8
 30
0.0
 11
-24.5
 21
-27.2
 31
0.0
  0
LINE
  5
2FF
  8
1
 10
-24.5
 20
-44.8
 30
0.0
 11
-24.5
 21
-47.2
 31
0.0
  0
ARC
  5
300
  8
1
 10
-24.2
 20
-44.8
 30
0.0
 40
0.3
 50
90.0
 51
180.0
  0
ARC
  5
301
  8
1
 10
-24.8
 20
-47.2
 30
0.0
 40
0.3
 50
270.0
 51
0.0
  0
ARC
  5
302
  8
1
 10
-24.8
 20
-24.8
 30
0.0
 40
0.3
 50
0.0
 51
90.0
  0
ARC
  5
303
  8
1
 10
-24.2
 20
-27.2
 30
0.0
 40
0.3
 50
180.0
 51
270.0
  0
LINE
  5
304
  8
1
 10
-130.0
 20
-44.5
 30
0.0
 11
-95.8
 21
-44.5
 31
0.0
  0
LINE
  5
305
  8
1
 10
-130.0
 20
-27.5
 30
0.0
 11
-95.8
 21
-27.5
 31
0.0
  0
CIRCLE
  5
306
  8
1
 10
-130.0
 20
-36.0
 30
0.0
 40
8.5
  0
LINE
  5
307
  8
1
 10
-90.5
 20
-47.0
 30
0.0
 11
-90.5
 21
-25.0
 31
0.0
  0
LINE
  5
308
  8
1
 10
-95.2
 20
-47.5
 30
0.0
 11
-91.0
 21
-47.5
 31
0.0
  0
LINE
  5
309
  8
1
 10
-95.2
 20
-24.5
 30
0.0
 11
-91.0
 21
-24.5
 31
0.0
  0
ARC
  5
30A
  8
1
 10
-91.0
 20
-47.0
 30
0.0
 40
0.5
 50
270.0
 51
0.0
  0
ARC
  5
30B
  8
1
 10
-91.0
 20
-25.0
 30
0.0
 40
0.5
 50
0.0
 51
90.0
  0
LINE
  5
30C
  8
1
 10
-95.5
 20
-24.8
 30
0.0
 11
-95.5
 21
-27.2
 31
0.0
  0
LINE
  5
30D
  8
1
 10
-95.5
 20
-44.8
 30
0.0
 11
-95.5
 21
-47.2
 31
0.0
  0
ARC
  5
30E
  8
1
 10
-95.8
 20
-44.8
 30
0.0
 40
0.3
 50
0.0
 51
90.0
  0
ARC
  5
30F
  8
1
 10
-95.2
 20
-47.2
 30
0.0
 40
0.3
 50
180.0
 51
270.0
  0
ARC
  5
310
  8
1
 10
-95.2
 20
-24.8
 30
0.0
 40
0.3
 50
90.0
 51
180.0
  0
ARC
  5
311
  8
1
 10
-95.8
 20
-27.2
 30
0.0
 40
0.3
 50
270.0
 51
0.0
  0
LINE
  5
312
  8
1
 10
-30.0
 20
-14.5
 30
0.0
 11
-30.0
 21
-57.5
 31
0.0
  0
LINE
  5
313
  8
1
  6
CENTER
 62
     4
 10
-144.78302
 20
-36.0
 30
0.0
 11
23.444599
 21
-36.0
 31
0.0
  0
LINE
  5
314
  8
1
 10
-40.0
 20
-59.0
 30
0.0
 11
-31.5
 21
-59.0
 31
0.0
  0
LINE
  5
315
  8
1
 10
-40.0
 20
-13.0
 30
0.0
 11
-31.5
 21
-13.0
 31
0.0
  0
ARC
  5
316
  8
1
 10
-30.0
 20
-25.500186
 30
0.0
 40
0.500186
 50
358.435894
 51
90.0
  0
ARC
  5
317
  8
1
 10
-30.0
 20
-46.486161
 30
0.0
 40
0.5
 50
268.415439
 51
0.0
  0
ARC
  5
318
  8
1
 10
-31.5
 20
-14.5
 30
0.0
 40
1.5
 50
0.0
 51
90.0
  0
ARC
  5
319
  8
1
 10
-31.5
 20
-57.5
 30
0.0
 40
1.5
 50
270.0
 51
0.0
  0
LINE
  5
31A
  8
1
 10
-38.5
 20
-34.0
 30
0.0
 11
-36.0
 21
-34.0
 31
0.0
  0
LINE
  5
31B
  8
1
 10
-38.5
 20
-38.0
 30
0.0
 11
-36.0
 21
-38.0
 31
0.0
  0
LINE
  5
31C
  8
1
 10
-36.0
 20
-34.0
 30
0.0
 11
-36.0
 21
-38.0
 31
0.0
  0
LINE
  5
31D
  8
1
 10
-37.0
 20
-34.0
 30
0.0
 11
-37.0
 21
-38.0
 31
0.0
  0
LINE
  5
31E
  8
1
 10
-38.5
 20
-34.0
 30
0.0
 11
-38.5
 21
-38.0
 31
0.0
  0
LINE
  5
31F
  8
1
 10
-39.0
 20
-33.0
 30
0.0
 11
-39.0
 21
-39.0
 31
0.0
  0
LINE
  5
320
  8
1
 10
-39.0
 20
-33.0
 30
0.0
 11
-40.0
 21
-33.0
 31
0.0
  0
LINE
  5
321
  8
1
 10
-39.0
 20
-39.0
 30
0.0
 11
-40.0
 21
-39.0
 31
0.0
  0
LINE
  5
322
  8
1
 10
-40.0
 20
-59.0
 30
0.0
 11
-40.0
 21
-13.0
 31
0.0
  0
LINE
  5
323
  8
1
 10
-90.0
 20
-14.5
 30
0.0
 11
-90.0
 21
-57.5
 31
0.0
  0
LINE
  5
324
  8
1
 10
-80.0
 20
-59.0
 30
0.0
 11
-88.5
 21
-59.0
 31
0.0
  0
LINE
  5
325
  8
1
 10
-80.0
 20
-13.0
 30
0.0
 11
-88.5
 21
-13.0
 31
0.0
  0
ARC
  5
326
  8
1
 10
-90.0
 20
-25.500186
 30
0.0
 40
0.500186
 50
90.0
 51
181.564106
  0
ARC
  5
327
  8
1
 10
-90.0
 20
-46.486161
 30
0.0
 40
0.5
 50
180.0
 51
271.584561
  0
ARC
  5
328
  8
1
 10
-88.5
 20
-14.5
 30
0.0
 40
1.5
 50
90.0
 51
180.0
  0
ARC
  5
329
  8
1
 10
-88.5
 20
-57.5
 30
0.0
 40
1.5
 50
180.0
 51
270.0
  0
LINE
  5
32A
  8
1
 10
-81.5
 20
-34.0
 30
0.0
 11
-84.0
 21
-34.0
 31
0.0
  0
LINE
  5
32B
  8
1
 10
-81.5
 20
-38.0
 30
0.0
 11
-84.0
 21
-38.0
 31
0.0
  0
LINE
  5
32C
  8
1
 10
-84.0
 20
-34.0
 30
0.0
 11
-84.0
 21
-38.0
 31
0.0
  0
LINE
  5
32D
  8
1
 10
-83.0
 20
-34.0
 30
0.0
 11
-83.0
 21
-38.0
 31
0.0
  0
LINE
  5
32E
  8
1
 10
-81.5
 20
-34.0
 30
0.0
 11
-81.5
 21
-38.0
 31
0.0
  0
LINE
  5
32F
  8
1
 10
-81.0
 20
-33.0
 30
0.0
 11
-81.0
 21
-39.0
 31
0.0
  0
LINE
  5
330
  8
1
 10
-81.0
 20
-33.0
 30
0.0
 11
-80.0
 21
-33.0
 31
0.0
  0
LINE
  5
331
  8
1
 10
-81.0
 20
-39.0
 30
0.0
 11
-80.0
 21
-39.0
 31
0.0
  0
LINE
  5
332
  8
1
 10
-80.0
 20
-59.0
 30
0.0
 11
-80.0
 21
-13.0
 31
0.0
  0
ARC
  5
333
  8
1
 10
186.118263
 20
-36.0
 30
0.0
 40
23.0
 50
22.188806
 51
338.811194
  0
LINE
  5
334
  8
1
 10
-72.5
 20
-33.0
 30
0.0
 11
-80.0
 21
-33.0
 31
0.0
  0
LINE
  5
335
  8
1
 10
-72.5
 20
-39.0
 30
0.0
 11
-80.0
 21
-39.0
 31
0.0
  0
LINE
  5
336
  8
1
 10
-40.0
 20
-34.0
 30
0.0
 11
-47.5
 21
-34.0
 31
0.0
  0
LINE
  5
337
  8
1
 10
-40.0
 20
-38.0
 30
0.0
 11
-47.5
 21
-38.0
 31
0.0
  0
LINE
  5
338
  8
1
 62
     2
 10
-40.0
 20
-37.5
 30
0.0
 11
-47.5
 21
-37.5
 31
0.0
  0
LINE
  5
339
  8
1
 62
     2
 10
-47.5
 20
-34.5
 30
0.0
 11
-40.0
 21
-34.5
 31
0.0
  0
LINE
  5
33A
  8
1
 10
-80.0
 20
-32.5
 30
0.0
 11
-72.5
 21
-32.5
 31
0.0
  0
LINE
  5
33B
  8
1
 10
-47.5
 20
-32.5
 30
0.0
 11
-40.0
 21
-32.5
 31
0.0
  0
LINE
  5
33C
  8
1
 10
-80.0
 20
-39.5
 30
0.0
 11
-72.5
 21
-39.5
 31
0.0
  0
LINE
  5
33D
  8
1
 10
-47.5
 20
-39.5
 30
0.0
 11
-40.0
 21
-39.5
 31
0.0
  0
LINE
  5
33E
  8
1
 10
-40.0
 20
161.149401
 30
0.0
 11
-40.0
 21
115.149401
 31
0.0
  0
LINE
  5
33F
  8
1
 10
-40.0
 20
161.149401
 30
0.0
 11
-31.5
 21
161.149401
 31
0.0
  0
ARC
  5
340
  8
1
 10
-31.5
 20
159.649401
 30
0.0
 40
1.5
 50
0.0
 51
90.0
  0
ARC
  5
341
  8
1
 10
-31.5
 20
116.649401
 30
0.0
 40
1.5
 50
270.0
 51
0.0
  0
LINE
  5
342
  8
1
 10
-40.0
 20
115.149401
 30
0.0
 11
-31.5
 21
115.149401
 31
0.0
  0
LINE
  5
343
  8
1
 10
-80.0
 20
161.149401
 30
0.0
 11
-88.5
 21
161.149401
 31
0.0
  0
ARC
  5
344
  8
1
 10
-88.5
 20
159.649401
 30
0.0
 40
1.5
 50
90.0
 51
180.0
  0
ARC
  5
345
  8
1
 10
-88.5
 20
116.649401
 30
0.0
 40
1.5
 50
180.0
 51
270.0
  0
LINE
  5
346
  8
1
 10
-80.0
 20
115.149401
 30
0.0
 11
-88.5
 21
115.149401
 31
0.0
  0
ARC
  5
347
  8
1
 10
-90.0
 20
127.649401
 30
0.0
 40
0.5
 50
180.0
 51
270.0
  0
ARC
  5
348
  8
1
 10
-90.0
 20
148.649401
 30
0.0
 40
0.5
 50
90.0
 51
180.0
  0
LINE
  5
349
  8
1
  6
CENTER
 62
     4
 10
-40.0
 20
123.149401
 30
0.0
 11
-80.0
 21
123.149401
 31
0.0
  0
LINE
  5
34A
  8
1
  6
CENTER
 62
     4
 10
-40.0
 20
153.149401
 30
0.0
 11
-80.0
 21
153.149401
 31
0.0
  0
LINE
  5
34B
  8
1
 10
-80.0
 20
156.149401
 30
0.0
 11
-68.2
 21
156.149401
 31
0.0
  0
LINE
  5
34C
  8
1
 10
-80.0
 20
150.149401
 30
0.0
 11
-68.2
 21
150.149401
 31
0.0
  0
LINE
  5
34D
  8
1
 10
-80.0
 20
126.149401
 30
0.0
 11
-68.2
 21
126.149401
 31
0.0
  0
LINE
  5
34E
  8
1
 10
-68.2
 20
120.149401
 30
0.0
 11
-80.0
 21
120.149401
 31
0.0
  0
LINE
  5
34F
  8
1
 10
-51.8
 20
125.149401
 30
0.0
 11
-40.0
 21
125.149401
 31
0.0
  0
LINE
  5
350
  8
1
 10
-51.8
 20
121.149401
 30
0.0
 11
-40.0
 21
121.149401
 31
0.0
  0
LINE
  5
351
  8
1
 62
     2
 10
-51.8
 20
121.549401
 30
0.0
 11
-40.0
 21
121.549401
 31
0.0
  0
LINE
  5
352
  8
1
 62
     2
 10
-40.0
 20
124.749401
 30
0.0
 11
-51.8
 21
124.749401
 31
0.0
  0
LINE
  5
353
  8
1
 10
-51.8
 20
155.149401
 30
0.0
 11
-40.0
 21
155.149401
 31
0.0
  0
LINE
  5
354
  8
1
 10
-51.8
 20
151.149401
 30
0.0
 11
-40.0
 21
151.149401
 31
0.0
  0
LINE
  5
355
  8
1
 62
     2
 10
-51.8
 20
151.549401
 30
0.0
 11
-40.0
 21
151.549401
 31
0.0
  0
LINE
  5
356
  8
1
 62
     2
 10
-40.0
 20
154.749401
 30
0.0
 11
-51.8
 21
154.749401
 31
0.0
  0
ARC
  5
357
  8
1
 10
-226.118263
 20
-36.0
 30
0.0
 40
23.0
 50
201.188806
 51
157.811194
  0
LINE
  5
358
  8
1
 10
-72.5
 20
50.0
 30
0.0
 11
-72.5
 21
-80.0
 31
0.0
  0
LINE
  5
359
  8
1
 10
-47.5
 20
50.0
 30
0.0
 11
-47.5
 21
-80.0
 31
0.0
  0
LINE
  5
35A
  8
1
 10
-72.5
 20
-80.0
 30
0.0
 11
-47.5
 21
-80.0
 31
0.0
  0
LINE
  5
35B
  8
1
 10
-72.5
 20
50.0
 30
0.0
 11
-47.5
 21
50.0
 31
0.0
  0
LINE
  5
35C
  8
1
  6
CENTER
 62
     4
 10
-66.69899
 20
42.0
 30
0.0
 11
-53.434334
 21
42.0
 31
0.0
  0
LINE
  5
35D
  8
1
  6
CENTER
 62
     4
 10
-66.69899
 20
-72.0
 30
0.0
 11
-53.434334
 21
-72.0
 31
0.0
  0
LINE
  5
35E
  8
1
 62
     2
 10
-59.999977
 20
44.199965
 30
0.0
 11
-59.499977
 21
44.199965
 31
0.0
  0
ARC
  5
35F
  8
1
 62
     2
 10
-57.799977
 20
44.199965
 30
0.0
 40
1.7
 50
180.0
 51
270.0
  0
LINE
  5
360
  8
1
 62
     2
 10
-57.799977
 20
42.499965
 30
0.0
 11
-57.799977
 21
41.999965
 31
0.0
  0
LINE
  5
361
  8
1
 62
     2
 10
-59.999977
 20
39.799965
 30
0.0
 11
-59.499977
 21
39.799965
 31
0.0
  0
ARC
  5
362
  8
1
 62
     2
 10
-57.799977
 20
39.799965
 30
0.0
 40
1.7
 50
90.0
 51
180.0
  0
LINE
  5
363
  8
1
 62
     2
 10
-57.799977
 20
41.499965
 30
0.0
 11
-57.799977
 21
41.999965
 31
0.0
  0
LINE
  5
364
  8
1
 62
     2
 10
-59.999977
 20
44.199965
 30
0.0
 11
-60.499977
 21
44.199965
 31
0.0
  0
ARC
  5
365
  8
1
 62
     2
 10
-62.199977
 20
44.199965
 30
0.0
 40
1.7
 50
270.0
 51
0.0
  0
LINE
  5
366
  8
1
 62
     2
 10
-62.199977
 20
42.499965
 30
0.0
 11
-62.199977
 21
41.999965
 31
0.0
  0
LINE
  5
367
  8
1
 62
     2
 10
-59.999977
 20
39.799965
 30
0.0
 11
-60.499977
 21
39.799965
 31
0.0
  0
ARC
  5
368
  8
1
 62
     2
 10
-62.199977
 20
39.799965
 30
0.0
 40
1.7
 50
0.0
 51
90.0
  0
LINE
  5
369
  8
1
 62
     2
 10
-62.199977
 20
41.499965
 30
0.0
 11
-62.199977
 21
41.999965
 31
0.0
  0
LINE
  5
36A
  8
1
 62
     2
 10
-59.999977
 20
-69.800035
 30
0.0
 11
-59.499977
 21
-69.800035
 31
0.0
  0
ARC
  5
36B
  8
1
 62
     2
 10
-57.799977
 20
-69.800035
 30
0.0
 40
1.7
 50
180.0
 51
270.0
  0
LINE
  5
36C
  8
1
 62
     2
 10
-57.799977
 20
-71.500035
 30
0.0
 11
-57.799977
 21
-72.000035
 31
0.0
  0
LINE
  5
36D
  8
1
 62
     2
 10
-59.999977
 20
-74.200035
 30
0.0
 11
-59.499977
 21
-74.200035
 31
0.0
  0
ARC
  5
36E
  8
1
 62
     2
 10
-57.799977
 20
-74.200035
 30
0.0
 40
1.7
 50
90.0
 51
180.0
  0
LINE
  5
36F
  8
1
 62
     2
 10
-57.799977
 20
-72.500035
 30
0.0
 11
-57.799977
 21
-72.000035
 31
0.0
  0
LINE
  5
370
  8
1
 62
     2
 10
-59.999977
 20
-69.800035
 30
0.0
 11
-60.499977
 21
-69.800035
 31
0.0
  0
ARC
  5
371
  8
1
 62
     2
 10
-62.199977
 20
-69.800035
 30
0.0
 40
1.7
 50
270.0
 51
0.0
  0
LINE
  5
372
  8
1
 62
     2
 10
-62.199977
 20
-71.500035
 30
0.0
 11
-62.199977
 21
-72.000035
 31
0.0
  0
LINE
  5
373
  8
1
 62
     2
 10
-59.999977
 20
-74.200035
 30
0.0
 11
-60.499977
 21
-74.200035
 31
0.0
  0
ARC
  5
374
  8
1
 62
     2
 10
-62.199977
 20
-74.200035
 30
0.0
 40
1.7
 50
0.0
 51
90.0
  0
LINE
  5
375
  8
1
 62
     2
 10
-62.199977
 20
-72.500035
 30
0.0
 11
-62.199977
 21
-72.000035
 31
0.0
  0
CIRCLE
  5
376
  8
1
 62
     2
 10
-60.0
 20
42.0
 30
0.0
 40
3.5
  0
CIRCLE
  5
377
  8
1
 62
     2
 10
-60.0
 20
-72.0
 30
0.0
 40
3.5
  0
LINE
  5
378
  8
1
 10
139.118263
 20
49.9
 30
0.0
 11
137.918263
 21
49.9
 31
0.0
  0
LINE
  5
379
  8
1
 10
137.918263
 20
-79.9
 30
0.0
 11
139.118263
 21
-79.9
 31
0.0
  0
LINE
  5
37A
  8
1
 10
137.518263
 20
-75.224636
 30
0.0
 11
138.718263
 21
-75.224636
 31
0.0
  0
LINE
  5
37B
  8
1
 10
137.518263
 20
45.224636
 30
0.0
 11
138.718263
 21
45.224636
 31
0.0
  0
LINE
  5
37C
  8
1
 10
137.518263
 20
22.5
 30
0.0
 11
138.718263
 21
22.5
 31
0.0
  0
LINE
  5
37D
  8
1
 10
137.518263
 20
-52.5
 30
0.0
 11
138.718263
 21
-52.5
 31
0.0
  0
LINE
  5
37E
  8
1
 10
137.518263
 20
22.5
 30
0.0
 11
137.518263
 21
24.5
 31
0.0
  0
LINE
  5
37F
  8
1
 62
     2
 10
141.118263
 20
-52.4
 30
0.0
 11
151.718263
 21
-52.4
 31
0.0
  0
ARC
  5
380
  8
1
 62
     2
 10
151.718263
 20
-52.0
 30
0.0
 40
0.4
 50
270.0
 51
0.0
  0
LINE
  5
381
  8
1
 62
     2
 10
141.118263
 20
22.4
 30
0.0
 11
151.718263
 21
22.4
 31
0.0
  0
ARC
  5
382
  8
1
 62
     2
 10
151.718263
 20
22.0
 30
0.0
 40
0.4
 50
0.0
 51
90.0
  0
ARC
  5
383
  8
1
 10
139.318263
 20
22.2
 30
0.0
 40
0.2
 50
180.0
 51
270.0
  0
ARC
  5
384
  8
1
 10
139.318263
 20
-52.2
 30
0.0
 40
0.2
 50
90.0
 51
180.0
  0
LINE
  5
385
  8
1
 10
139.118263
 20
-79.9
 30
0.0
 11
139.118263
 21
-52.2
 31
0.0
  0
ARC
  5
386
  8
1
 10
134.918263
 20
46.721299
 30
0.0
 40
3.0
 50
330.073565
 51
0.0
  0
ARC
  5
387
  8
1
 10
136.118263
 20
46.721299
 30
0.0
 40
3.0
 50
330.073565
 51
0.0
  0
LINE
  5
388
  8
1
 10
137.918263
 20
22.0
 30
0.0
 11
137.918263
 21
22.5
 31
0.0
  0
LINE
  5
389
  8
1
 10
137.918263
 20
46.721299
 30
0.0
 11
137.918263
 21
49.9
 31
0.0
  0
ARC
  5
38A
  8
1
 10
134.918263
 20
-76.721299
 30
0.0
 40
3.0
 50
0.0
 51
29.92643500000001
  0
ARC
  5
38B
  8
1
 10
136.118263
 20
-76.721299
 30
0.0
 40
3.0
 50
0.0
 51
29.92643500000001
  0
LINE
  5
38C
  8
1
 10
137.918263
 20
-79.9
 30
0.0
 11
137.918263
 21
-76.721299
 31
0.0
  0
LINE
  5
38D
  8
1
 10
137.918263
 20
-52.5
 30
0.0
 11
137.918263
 21
-52.0
 31
0.0
  0
LINE
  5
38E
  8
1
 62
     2
 10
141.118263
 20
22.0
 30
0.0
 11
141.118263
 21
22.4
 31
0.0
  0
LINE
  5
38F
  8
1
 62
     2
 10
141.118263
 20
-52.4
 30
0.0
 11
141.118263
 21
-52.0
 31
0.0
  0
LINE
  5
390
  8
1
 10
137.518263
 20
-54.5
 30
0.0
 11
137.518263
 21
-52.5
 31
0.0
  0
LINE
  5
391
  8
1
 10
157.618263
 20
22.0
 30
0.0
 11
167.283455
 21
22.0
 31
0.0
  0
LINE
  5
392
  8
1
 10
157.618263
 20
-52.0
 30
0.0
 11
168.618263
 21
-52.0
 31
0.0
  0
LINE
  5
393
  8
1
 10
206.618263
 20
4.0
 30
0.0
 11
206.618263
 21
6.5
 31
0.0
  0
LINE
  5
394
  8
1
 62
     2
 10
138.018263
 20
13.5
 30
0.0
 11
142.418263
 21
13.5
 31
0.0
  0
LINE
  5
395
  8
1
 62
     2
 10
138.018263
 20
9.0
 30
0.0
 11
142.418263
 21
9.0
 31
0.0
  0
LINE
  5
396
  8
1
 62
     2
 10
143.418263
 20
10.0
 30
0.0
 11
143.418263
 21
12.5
 31
0.0
  0
ARC
  5
397
  8
1
 62
     2
 10
142.418263
 20
12.5
 30
0.0
 40
1.0
 50
0.0
 51
90.0
  0
ARC
  5
398
  8
1
 62
     2
 10
142.418263
 20
10.0
 30
0.0
 40
1.0
 50
270.0
 51
0.0
  0
LINE
  5
399
  8
1
 62
     2
 10
138.018263
 20
-39.0
 30
0.0
 11
142.418263
 21
-39.0
 31
0.0
  0
LINE
  5
39A
  8
1
 62
     2
 10
138.018263
 20
-43.5
 30
0.0
 11
142.418263
 21
-43.5
 31
0.0
  0
LINE
  5
39B
  8
1
 62
     2
 10
143.418263
 20
-42.5
 30
0.0
 11
143.418263
 21
-40.0
 31
0.0
  0
ARC
  5
39C
  8
1
 62
     2
 10
142.418263
 20
-40.0
 30
0.0
 40
1.0
 50
0.0
 51
90.0
  0
ARC
  5
39D
  8
1
 62
     2
 10
142.418263
 20
-42.5
 30
0.0
 40
1.0
 50
270.0
 51
0.0
  0
LINE
  5
39E
  8
1
 10
139.218263
 20
-29.6
 30
0.0
 11
139.218263
 21
1.6
 31
0.0
  0
LINE
  5
39F
  8
1
 10
139.118263
 20
22.2
 30
0.0
 11
139.118263
 21
49.9
 31
0.0
  0
LINE
  5
3A0
  8
1
 10
138.018263
 20
-29.6
 30
0.0
 11
138.018263
 21
1.6
 31
0.0
  0
LINE
  5
3A1
  8
1
 10
137.918263
 20
49.9
 30
0.0
 11
136.718263
 21
49.9
 31
0.0
  0
LINE
  5
3A2
  8
1
 10
137.518263
 20
46.335723
 30
0.0
 11
137.518263
 21
24.5
 31
0.0
  0
LINE
  5
3A3
  8
1
 10
137.518263
 20
24.5
 30
0.0
 11
136.318263
 21
24.5
 31
0.0
  0
LINE
  5
3A4
  8
1
 10
136.318263
 20
46.335723
 30
0.0
 11
137.518263
 21
46.335723
 31
0.0
  0
LINE
  5
3A5
  8
1
 10
136.718263
 20
47.832386
 30
0.0
 11
136.718263
 21
49.9
 31
0.0
  0
ARC
  5
3A6
  8
1
 10
133.718263
 20
47.832386
 30
0.0
 40
3.0
 50
330.073565
 51
0.0
  0
ARC
  5
3A7
  8
1
 10
134.918263
 20
47.832386
 30
0.0
 40
3.0
 50
330.073565
 51
0.0
  0
LINE
  5
3A8
  8
1
 10
137.918263
 20
-79.9
 30
0.0
 11
136.718263
 21
-79.9
 31
0.0
  0
LINE
  5
3A9
  8
1
 10
137.518263
 20
-76.335723
 30
0.0
 11
137.518263
 21
-54.5
 31
0.0
  0
LINE
  5
3AA
  8
1
 10
137.518263
 20
-54.5
 30
0.0
 11
136.318263
 21
-54.5
 31
0.0
  0
LINE
  5
3AB
  8
1
 10
136.318263
 20
-76.335723
 30
0.0
 11
137.518263
 21
-76.335723
 31
0.0
  0
LINE
  5
3AC
  8
1
 10
136.718263
 20
-77.832386
 30
0.0
 11
136.718263
 21
-79.9
 31
0.0
  0
ARC
  5
3AD
  8
1
 10
133.718263
 20
-77.832386
 30
0.0
 40
3.0
 50
0.0
 51
29.92643500000001
  0
ARC
  5
3AE
  8
1
 10
134.918263
 20
-77.832386
 30
0.0
 40
3.0
 50
0.0
 51
29.92643500000001
  0
LINE
  5
3AF
  8
1
 10
157.618263
 20
-52.0
 30
0.0
 11
157.618263
 21
-51.0
 31
0.0
  0
LINE
  5
3B0
  8
1
 10
157.618263
 20
21.0
 30
0.0
 11
157.618263
 21
22.0
 31
0.0
  0
LINE
  5
3B1
  8
1
 10
168.618263
 20
-52.0
 30
0.0
 11
168.618263
 21
-51.0
 31
0.0
  0
LINE
  5
3B2
  8
1
 10
158.118263
 20
-50.5
 30
0.0
 11
168.118263
 21
-50.5
 31
0.0
  0
LINE
  5
3B3
  8
1
 10
158.118263
 20
20.5
 30
0.0
 11
167.144597
 21
20.5
 31
0.0
  0
LINE
  5
3B4
  8
1
 10
137.918263
 20
22.0
 30
0.0
 11
157.618263
 21
22.0
 31
0.0
  0
LINE
  5
3B5
  8
1
 10
204.953071
 20
22.0
 30
0.0
 11
205.118263
 21
22.0
 31
0.0
  0
LINE
  5
3B6
  8
1
 10
137.918263
 20
-52.0
 30
0.0
 11
157.618263
 21
-52.0
 31
0.0
  0
ARC
  5
3B7
  8
1
 10
206.368263
 20
5.25
 30
0.0
 40
1.25
 50
90.0
 51
270.0
  0
LINE
  5
3B8
  8
1
 10
206.368263
 20
6.5
 30
0.0
 11
206.618263
 21
6.5
 31
0.0
  0
LINE
  5
3B9
  8
1
 10
206.368263
 20
4.0
 30
0.0
 11
206.618263
 21
4.0
 31
0.0
  0
LINE
  5
3BA
  8
1
 10
206.618263
 20
6.5
 30
0.0
 11
206.618263
 21
20.5
 31
0.0
  0
LINE
  5
3BB
  8
1
 10
203.818263
 20
-17.2
 30
0.0
 11
203.818263
 21
-6.8
 31
0.0
  0
LINE
  5
3BC
  8
1
 10
206.618263
 20
-17.5
 30
0.0
 11
204.118263
 21
-17.5
 31
0.0
  0
LINE
  5
3BD
  8
1
 10
206.618263
 20
-6.5
 30
0.0
 11
204.118263
 21
-6.5
 31
0.0
  0
ARC
  5
3BE
  8
1
 10
204.118263
 20
-6.8
 30
0.0
 40
0.3
 50
90.0
 51
180.0
  0
ARC
  5
3BF
  8
1
 10
204.118263
 20
-17.2
 30
0.0
 40
0.3
 50
180.0
 51
270.0
  0
LINE
  5
3C0
  8
1
 10
205.418263
 20
-17.5
 30
0.0
 11
205.418263
 21
-6.5
 31
0.0
  0
ARC
  5
3C1
  8
1
 10
199.118263
 20
0.4
 30
0.0
 40
1.6
 50
0.0
 51
180.0
  0
LINE
  5
3C2
  8
1
 10
197.518263
 20
-16.024014
 30
0.0
 11
197.518263
 21
0.4
 31
0.0
  0
LINE
  5
3C3
  8
1
 10
200.718263
 20
-18.228112
 30
0.0
 11
200.718263
 21
0.4
 31
0.0
  0
ARC
  5
3C4
  8
1
 10
163.718263
 20
-45.45
 30
0.0
 40
1.6
 50
90.0
 51
270.0
  0
LINE
  5
3C5
  8
1
 10
163.718263
 20
-43.85
 30
0.0
 11
164.499348
 21
-43.85
 31
0.0
  0
LINE
  5
3C6
  8
1
 10
163.718263
 20
-47.05
 30
0.0
 11
165.946563
 21
-47.05
 31
0.0
  0
LINE
  5
3C7
  8
1
 10
175.118263
 20
-4.5
 30
0.0
 11
174.318263
 21
-4.5
 31
0.0
  0
LINE
  5
3C8
  8
1
 10
174.318263
 20
-10.5
 30
0.0
 11
175.118263
 21
-10.5
 31
0.0
  0
LINE
  5
3C9
  8
1
 10
175.618263
 20
-10.0
 30
0.0
 11
175.618263
 21
-5.0
 31
0.0
  0
LINE
  5
3CA
  8
1
 10
173.818263
 20
-10.0
 30
0.0
 11
173.818263
 21
-5.0
 31
0.0
  0
LINE
  5
3CB
  8
1
 10
160.618263
 20
-40.4
 30
0.0
 11
151.618263
 21
-40.4
 31
0.0
  0
LINE
  5
3CC
  8
1
 10
151.118263
 20
-39.9
 30
0.0
 11
151.118263
 21
-39.3
 31
0.0
  0
LINE
  5
3CD
  8
1
 10
161.118263
 20
-39.9
 30
0.0
 11
161.118263
 21
-39.3
 31
0.0
  0
LINE
  5
3CE
  8
1
 10
155.118263
 20
-38.3
 30
0.0
 11
155.118263
 21
-38.8
 31
0.0
  0
LINE
  5
3CF
  8
1
 10
157.118263
 20
-38.3
 30
0.0
 11
157.118263
 21
-38.8
 31
0.0
  0
ARC
  5
3D0
  8
1
 10
156.118263
 20
-38.3
 30
0.0
 40
1.0
 50
0.0
 51
180.0
  0
LINE
  5
3D1
  8
1
 10
151.618263
 20
-38.8
 30
0.0
 11
155.118263
 21
-38.8
 31
0.0
  0
LINE
  5
3D2
  8
1
 10
157.118263
 20
-38.8
 30
0.0
 11
160.618263
 21
-38.8
 31
0.0
  0
LINE
  5
3D3
  8
1
 10
164.618263
 20
0.3
 30
0.0
 11
161.618263
 21
0.3
 31
0.0
  0
LINE
  5
3D4
  8
1
 10
164.618263
 20
-1.9
 30
0.0
 11
161.618263
 21
-1.9
 31
0.0
  0
LINE
  5
3D5
  8
1
 10
161.118263
 20
-1.4
 30
0.0
 11
161.118263
 21
-0.2
 31
0.0
  0
LINE
  5
3D6
  8
1
 10
165.118263
 20
-1.4
 30
0.0
 11
165.118263
 21
-0.2
 31
0.0
  0
LINE
  5
3D7
  8
1
 10
147.118263
 20
-1.2
 30
0.0
 11
147.118263
 21
-0.4
 31
0.0
  0
LINE
  5
3D8
  8
1
 10
153.118263
 20
-1.2
 30
0.0
 11
153.118263
 21
-0.4
 31
0.0
  0
LINE
  5
3D9
  8
1
 10
152.618263
 20
0.1
 30
0.0
 11
147.618263
 21
0.1
 31
0.0
  0
LINE
  5
3DA
  8
1
 10
152.618263
 20
-1.7
 30
0.0
 11
147.618263
 21
-1.7
 31
0.0
  0
ARC
  5
3DB
  8
1
 10
161.618263
 20
-0.2
 30
0.0
 40
0.5
 50
90.0
 51
180.0
  0
ARC
  5
3DC
  8
1
 10
164.618263
 20
-0.2
 30
0.0
 40
0.5
 50
0.0
 51
90.0
  0
ARC
  5
3DD
  8
1
 10
161.618263
 20
-1.4
 30
0.0
 40
0.5
 50
180.0
 51
270.0
  0
ARC
  5
3DE
  8
1
 10
164.618263
 20
-1.4
 30
0.0
 40
0.5
 50
270.0
 51
0.0
  0
CIRCLE
  5
3DF
  8
1
 10
154.118263
 20
10.0
 30
0.0
 40
2.1
  0
LINE
  5
3E0
  8
1
 10
136.718263
 20
1.6
 30
0.0
 11
139.518263
 21
1.6
 31
0.0
  0
LINE
  5
3E1
  8
1
 10
136.718263
 20
-29.6
 30
0.0
 11
139.518263
 21
-29.6
 31
0.0
  0
LINE
  5
3E2
  8
1
 10
140.518263
 20
-5.0
 30
0.0
 11
142.118263
 21
-5.0
 31
0.0
  0
LINE
  5
3E3
  8
1
 10
140.518263
 20
-23.0
 30
0.0
 11
142.118263
 21
-23.0
 31
0.0
  0
LINE
  5
3E4
  8
1
 10
139.518263
 20
-29.6
 30
0.0
 11
139.518263
 21
-24.0
 31
0.0
  0
LINE
  5
3E5
  8
1
 10
139.518263
 20
-4.0
 30
0.0
 11
139.518263
 21
1.6
 31
0.0
  0
ARC
  5
3E6
  8
1
 10
140.518263
 20
-4.0
 30
0.0
 40
1.0
 50
180.0
 51
270.0
  0
ARC
  5
3E7
  8
1
 10
140.518263
 20
-24.0
 30
0.0
 40
1.0
 50
90.0
 51
180.0
  0
LINE
  5
3E8
  8
1
 10
145.018263
 20
-26.0
 30
0.0
 11
145.018263
 21
-7.0
 31
0.0
  0
ARC
  5
3E9
  8
1
 10
147.618263
 20
-7.0
 30
0.0
 40
2.6
 50
90.0
 51
180.0
  0
LINE
  5
3EA
  8
1
 10
151.702183
 20
-4.4
 30
0.0
 11
147.618263
 21
-4.4
 31
0.0
  0
ARC
  5
3EB
  8
1
 10
151.702183
 20
-7.0
 30
0.0
 40
2.6
 50
9.594068
 51
90.0
  0
ARC
  5
3EC
  8
1
 10
157.618263
 20
-6.0
 30
0.0
 40
3.4
 50
189.594068
 51
270.0
  0
LINE
  5
3ED
  8
1
 10
163.118263
 20
-9.4
 30
0.0
 11
157.618263
 21
-9.4
 31
0.0
  0
ARC
  5
3EE
  8
1
 10
163.118263
 20
-12.0
 30
0.0
 40
2.6
 50
0.0
 51
90.0
  0
LINE
  5
3EF
  8
1
 10
165.718263
 20
-16.0
 30
0.0
 11
165.718263
 21
-12.0
 31
0.0
  0
ARC
  5
3F0
  8
1
 10
163.118263
 20
-16.0
 30
0.0
 40
2.6
 50
270.0
 51
0.0
  0
LINE
  5
3F1
  8
1
 10
163.118263
 20
-18.6
 30
0.0
 11
157.618263
 21
-18.6
 31
0.0
  0
ARC
  5
3F2
  8
1
 10
157.618263
 20
-22.0
 30
0.0
 40
3.4
 50
90.0
 51
180.0
  0
LINE
  5
3F3
  8
1
 10
154.218263
 20
-26.0
 30
0.0
 11
154.218263
 21
-22.0
 31
0.0
  0
ARC
  5
3F4
  8
1
 10
151.618263
 20
-26.0
 30
0.0
 40
2.6
 50
270.0
 51
0.0
  0
LINE
  5
3F5
  8
1
 10
151.618263
 20
-28.6
 30
0.0
 11
147.618263
 21
-28.6
 31
0.0
  0
ARC
  5
3F6
  8
1
 10
147.618263
 20
-26.0
 30
0.0
 40
2.6
 50
180.0
 51
270.0
  0
LINE
  5
3F7
  8
1
 10
138.918263
 20
7.55
 30
0.0
 11
136.718263
 21
7.55
 31
0.0
  0
LINE
  5
3F8
  8
1
 10
138.918263
 20
14.95
 30
0.0
 11
136.718263
 21
14.95
 31
0.0
  0
LINE
  5
3F9
  8
1
 10
137.918263
 20
-44.95
 30
0.0
 11
137.918263
 21
-37.55
 31
0.0
  0
LINE
  5
3FA
  8
1
 10
137.918263
 20
7.55
 30
0.0
 11
137.918263
 21
14.95
 31
0.0
  0
LINE
  5
3FB
  8
1
 10
144.418263
 20
-43.25
 30
0.0
 11
144.418263
 21
-39.25
 31
0.0
  0
LINE
  5
3FC
  8
1
 10
139.918263
 20
13.75
 30
0.0
 11
143.918263
 21
13.75
 31
0.0
  0
LINE
  5
3FD
  8
1
 10
139.918263
 20
8.75
 30
0.0
 11
143.918263
 21
8.75
 31
0.0
  0
LINE
  5
3FE
  8
1
 10
144.418263
 20
9.25
 30
0.0
 11
144.418263
 21
13.25
 31
0.0
  0
ARC
  5
3FF
  8
1
 10
138.918263
 20
13.95
 30
0.0
 40
1.0
 50
0.0
 51
90.0
  0
ARC
  5
400
  8
1
 10
138.918263
 20
8.55
 30
0.0
 40
1.0
 50
270.0
 51
0.0
  0
ARC
  5
401
  8
1
 10
143.918263
 20
13.25
 30
0.0
 40
0.5
 50
0.0
 51
90.0
  0
ARC
  5
402
  8
1
 10
143.918263
 20
9.25
 30
0.0
 40
0.5
 50
270.0
 51
0.0
  0
LINE
  5
403
  8
1
 10
143.918263
 20
-38.75
 30
0.0
 11
139.918263
 21
-38.75
 31
0.0
  0
LINE
  5
404
  8
1
 10
139.918263
 20
-43.75
 30
0.0
 11
143.918263
 21
-43.75
 31
0.0
  0
ARC
  5
405
  8
1
 10
138.918263
 20
-38.55
 30
0.0
 40
1.0
 50
0.0
 51
90.0
  0
ARC
  5
406
  8
1
 10
138.918263
 20
-43.95
 30
0.0
 40
1.0
 50
270.0
 51
0.0
  0
ARC
  5
407
  8
1
 10
143.918263
 20
-39.25
 30
0.0
 40
0.5
 50
0.0
 51
90.0
  0
ARC
  5
408
  8
1
 10
143.918263
 20
-43.25
 30
0.0
 40
0.5
 50
270.0
 51
0.0
  0
LINE
  5
409
  8
1
 10
138.918263
 20
-37.55
 30
0.0
 11
136.718263
 21
-37.55
 31
0.0
  0
LINE
  5
40A
  8
1
 10
138.918263
 20
-44.95
 30
0.0
 11
136.718263
 21
-44.95
 31
0.0
  0
LINE
  5
40B
  8
1
 10
142.618263
 20
-22.5
 30
0.0
 11
142.618263
 21
-5.5
 31
0.0
  0
ARC
  5
40C
  8
1
 10
205.118263
 20
20.5
 30
0.0
 40
1.5
 50
0.0
 51
90.0
  0
ARC
  5
40D
  8
1
 10
205.118263
 20
-50.5
 30
0.0
 40
1.5
 50
270.0
 51
0.0
  0
LINE
  5
40E
  8
1
 10
137.918263
 20
22.0
 30
0.0
 11
137.918263
 21
22.5
 31
0.0
  0
LINE
  5
40F
  8
1
 10
137.918263
 20
-52.5
 30
0.0
 11
137.918263
 21
-52.0
 31
0.0
  0
LINE
  5
410
  8
1
 10
139.918263
 20
-43.95
 30
0.0
 11
139.918263
 21
-43.5
 31
0.0
  0
LINE
  5
411
  8
1
 10
139.918263
 20
-39.0
 30
0.0
 11
139.918263
 21
-38.55
 31
0.0
  0
LINE
  5
412
  8
1
 10
139.918263
 20
8.55
 30
0.0
 11
139.918263
 21
9.0
 31
0.0
  0
LINE
  5
413
  8
1
 10
139.918263
 20
13.5
 30
0.0
 11
139.918263
 21
13.95
 31
0.0
  0
LINE
  5
414
  8
1
 10
136.718263
 20
-54.5
 30
0.0
 11
136.718263
 21
-25.241935
 31
0.0
  0
LINE
  5
415
  8
1
 10
136.718263
 20
-2.758065
 30
0.0
 11
136.718263
 21
24.5
 31
0.0
  0
ARC
  5
416
  8
1
 10
147.618263
 20
-0.4
 30
0.0
 40
0.5
 50
90.0
 51
180.0
  0
ARC
  5
417
  8
1
 10
147.618263
 20
-1.2
 30
0.0
 40
0.5
 50
180.0
 51
270.0
  0
ARC
  5
418
  8
1
 10
152.618263
 20
-0.4
 30
0.0
 40
0.5
 50
0.0
 51
90.0
  0
ARC
  5
419
  8
1
 10
152.618263
 20
-1.2
 30
0.0
 40
0.5
 50
270.0
 51
0.0
  0
ARC
  5
41A
  8
1
 10
174.318263
 20
-5.0
 30
0.0
 40
0.5
 50
90.0
 51
180.0
  0
ARC
  5
41B
  8
1
 10
175.118263
 20
-5.0
 30
0.0
 40
0.5
 50
0.0
 51
90.0
  0
ARC
  5
41C
  8
1
 10
174.318263
 20
-10.0
 30
0.0
 40
0.5
 50
180.0
 51
270.0
  0
ARC
  5
41D
  8
1
 10
175.118263
 20
-10.0
 30
0.0
 40
0.5
 50
270.0
 51
0.0
  0
ARC
  5
41E
  8
1
 10
151.618263
 20
-39.3
 30
0.0
 40
0.5
 50
90.0
 51
180.0
  0
ARC
  5
41F
  8
1
 10
151.618263
 20
-39.9
 30
0.0
 40
0.5
 50
180.0
 51
270.0
  0
ARC
  5
420
  8
1
 10
160.618263
 20
-39.3
 30
0.0
 40
0.5
 50
0.0
 51
90.0
  0
ARC
  5
421
  8
1
 10
160.618263
 20
-39.9
 30
0.0
 40
0.5
 50
270.0
 51
0.0
  0
ARC
  5
422
  8
1
 10
142.118263
 20
-5.5
 30
0.0
 40
0.5
 50
0.0
 51
90.0
  0
ARC
  5
423
  8
1
 10
142.118263
 20
-22.5
 30
0.0
 40
0.5
 50
270.0
 51
0.0
  0
ARC
  5
424
  8
1
 10
158.118263
 20
-51.0
 30
0.0
 40
0.5
 50
90.0
 51
180.0
  0
ARC
  5
425
  8
1
 10
158.118263
 20
21.0
 30
0.0
 40
0.5
 50
180.0
 51
270.0
  0
LINE
  5
426
  8
1
 10
135.118263
 20
50.0
 30
0.0
 11
136.318263
 21
50.0
 31
0.0
  0
LINE
  5
427
  8
1
 10
135.118263
 20
-80.0
 30
0.0
 11
136.318263
 21
-80.0
 31
0.0
  0
LINE
  5
428
  8
1
 10
136.318263
 20
-80.0
 30
0.0
 11
136.318263
 21
50.0
 31
0.0
  0
LINE
  5
429
  8
1
  6
CENTER
 62
     4
 10
129.328007
 20
42.0
 30
0.0
 11
158.422732
 21
42.0
 31
0.0
  0
LINE
  5
42A
  8
1
  6
CENTER
 62
     4
 10
129.328007
 20
-72.0
 30
0.0
 11
158.422732
 21
-72.0
 31
0.0
  0
LINE
  5
42B
  8
1
 10
135.118263
 20
-2.4
 30
0.0
 11
135.118263
 21
50.0
 31
0.0
  0
LINE
  5
42C
  8
1
 10
135.118263
 20
-80.0
 30
0.0
 11
135.118263
 21
-25.6
 31
0.0
  0
LINE
  5
42D
  8
1
 10
135.118263
 20
-24.0
 30
0.0
 11
135.118263
 21
-4.0
 31
0.0
  0
ARC
  5
42E
  8
1
 62
     2
 10
199.118263
 20
-0.0792
 30
0.0
 40
1.5
 50
0.0
 51
180.0
  0
ARC
  5
42F
  8
1
 62
     2
 10
199.118263
 20
-10.0792
 30
0.0
 40
1.5
 50
180.0
 51
0.0
  0
LINE
  5
430
  8
1
 62
     2
 10
197.618263
 20
-10.0792
 30
0.0
 11
197.618263
 21
-0.0792
 31
0.0
  0
LINE
  5
431
  8
1
 62
     2
 10
200.618263
 20
-10.0792
 30
0.0
 11
200.618263
 21
-0.0792
 31
0.0
  0
LINE
  5
432
  8
1
 10
134.618263
 20
-2.6
 30
0.0
 11
134.618263
 21
-25.4
 31
0.0
  0
LINE
  5
433
  8
1
 62
     2
 10
134.618263
 20
-4.1861
 30
0.0
 11
135.118263
 21
-4.1861
 31
0.0
  0
LINE
  5
434
  8
1
 62
     2
 10
134.618263
 20
-3.6435
 30
0.0
 11
135.118263
 21
-3.6435
 31
0.0
  0
LINE
  5
435
  8
1
 62
     2
 10
134.618263
 20
-24.3565
 30
0.0
 11
135.118263
 21
-24.3565
 31
0.0
  0
LINE
  5
436
  8
1
 62
     2
 10
134.618263
 20
-23.8139
 30
0.0
 11
135.118263
 21
-23.8139
 31
0.0
  0
LINE
  5
437
  8
1
 10
135.118263
 20
-25.6
 30
0.0
 11
135.118263
 21
-23.8139
 31
0.0
  0
LINE
  5
438
  8
1
 10
135.118263
 20
-4.1861
 30
0.0
 11
135.118263
 21
-2.4
 31
0.0
  0
LINE
  5
439
  8
1
 62
     2
 10
134.618263
 20
-5.3996
 30
0.0
 11
135.118263
 21
-5.3996
 31
0.0
  0
LINE
  5
43A
  8
1
 62
     2
 10
134.618263
 20
-22.6004
 30
0.0
 11
135.118263
 21
-22.6004
 31
0.0
  0
LINE
  5
43B
  8
1
 62
     2
 10
140.803663
 20
-10.200329
 30
0.0
 11
142.418263
 21
-10.200329
 31
0.0
  0
LINE
  5
43C
  8
1
 62
     2
 10
140.803663
 20
-17.799671
 30
0.0
 11
142.418263
 21
-17.799671
 31
0.0
  0
LINE
  5
43D
  8
1
 10
135.118263
 20
-25.6
 30
0.0
 11
134.818263
 21
-25.6
 31
0.0
  0
LINE
  5
43E
  8
1
 10
135.118263
 20
-2.4
 30
0.0
 11
134.818263
 21
-2.4
 31
0.0
  0
ARC
  5
43F
  8
1
 10
134.818263
 20
-2.6
 30
0.0
 40
0.2
 50
90.0
 51
180.0
  0
ARC
  5
440
  8
1
 10
134.818263
 20
-25.4
 30
0.0
 40
0.2
 50
180.0
 51
270.0
  0
LINE
  5
441
  8
1
 10
136.318263
 20
-2.751613
 30
0.0
 11
138.018263
 21
-2.779032
 31
0.0
  0
LINE
  5
442
  8
1
 10
139.218263
 20
-2.798387
 30
0.0
 11
139.518263
 21
-2.803226
 31
0.0
  0
LINE
  5
443
  8
1
 62
     2
 10
136.318263
 20
-5.5264
 30
0.0
 11
138.018263
 21
-5.5264
 31
0.0
  0
LINE
  5
444
  8
1
 62
     2
 10
139.218263
 20
-5.5264
 30
0.0
 11
142.418263
 21
-5.5264
 31
0.0
  0
LINE
  5
445
  8
1
 62
     2
 10
136.318263
 20
-7.273931
 30
0.0
 11
138.018263
 21
-7.273931
 31
0.0
  0
LINE
  5
446
  8
1
 62
     2
 10
139.218263
 20
-7.273931
 30
0.0
 11
142.418263
 21
-7.273931
 31
0.0
  0
LINE
  5
447
  8
1
 62
     2
 10
136.318263
 20
-20.726069
 30
0.0
 11
138.018263
 21
-20.726069
 31
0.0
  0
LINE
  5
448
  8
1
 62
     2
 10
139.218263
 20
-20.726069
 30
0.0
 11
142.418263
 21
-20.726069
 31
0.0
  0
LINE
  5
449
  8
1
 62
     2
 10
136.318263
 20
-22.4736
 30
0.0
 11
138.018263
 21
-22.4736
 31
0.0
  0
LINE
  5
44A
  8
1
 62
     2
 10
139.218263
 20
-22.4736
 30
0.0
 11
142.418263
 21
-22.4736
 31
0.0
  0
LINE
  5
44B
  8
1
 10
136.318263
 20
-25.248387
 30
0.0
 11
138.018263
 21
-25.220968
 31
0.0
  0
LINE
  5
44C
  8
1
 10
139.218263
 20
-25.201613
 30
0.0
 11
139.518263
 21
-25.196774
 31
0.0
  0
ARC
  5
44D
  8
1
 62
     2
 10
143.954175
 20
-14.0
 30
0.0
 40
4.935912
 50
129.663953
 51
163.633855
  0
ARC
  5
44E
  8
1
 62
     2
 10
143.954175
 20
-14.0
 30
0.0
 40
4.935912
 50
196.366145
 51
230.336047
  0
LINE
  5
44F
  8
1
 62
     2
 10
141.118263
 20
43.75
 30
0.0
 11
139.118263
 21
43.75
 31
0.0
  0
LINE
  5
450
  8
1
 62
     2
 10
139.118263
 20
40.25
 30
0.0
 11
142.19006
 21
40.25
 31
0.0
  0
LINE
  5
451
  8
1
 62
     2
 10
141.252238
 20
43.25
 30
0.0
 11
151.520187
 21
43.25
 31
0.0
  0
LINE
  5
452
  8
1
 62
     2
 10
142.056085
 20
40.75
 30
0.0
 11
151.520187
 21
40.75
 31
0.0
  0
LINE
  5
453
  8
1
 62
     2
 10
157.118263
 20
42.0
 30
0.0
 11
151.520187
 21
40.75
 31
0.0
  0
LINE
  5
454
  8
1
 62
     2
 10
157.118263
 20
42.0
 30
0.0
 11
151.520187
 21
43.25
 31
0.0
  0
LINE
  5
455
  8
1
 62
     2
 10
141.118263
 20
43.75
 30
0.0
 11
142.19006
 21
40.25
 31
0.0
  0
LINE
  5
456
  8
1
 62
     2
 10
145.118263
 20
43.75
 30
0.0
 11
146.19006
 21
40.25
 31
0.0
  0
LINE
  5
457
  8
1
 62
     2
 10
147.118263
 20
43.75
 30
0.0
 11
148.19006
 21
40.25
 31
0.0
  0
LINE
  5
458
  8
1
 62
     2
 10
149.118263
 20
43.75
 30
0.0
 11
150.19006
 21
40.25
 31
0.0
  0
LINE
  5
459
  8
1
 62
     2
 10
151.118263
 20
43.75
 30
0.0
 11
152.149597
 21
40.401012
 31
0.0
  0
LINE
  5
45A
  8
1
 62
     2
 10
153.236783
 20
43.307678
 30
0.0
 11
154.015622
 21
40.901012
 31
0.0
  0
LINE
  5
45B
  8
1
 62
     2
 10
155.391484
 20
42.730327
 30
0.0
 11
155.881647
 21
41.401012
 31
0.0
  0
LINE
  5
45C
  8
1
 62
     2
 10
143.118309
 20
43.75
 30
0.0
 11
144.190106
 21
40.25
 31
0.0
  0
LINE
  5
45D
  8
1
 62
     2
 10
141.118263
 20
-70.25
 30
0.0
 11
139.118263
 21
-70.25
 31
0.0
  0
LINE
  5
45E
  8
1
 62
     2
 10
139.118263
 20
-73.75
 30
0.0
 11
142.19006
 21
-73.75
 31
0.0
  0
LINE
  5
45F
  8
1
 62
     2
 10
141.252238
 20
-70.75
 30
0.0
 11
151.520187
 21
-70.75
 31
0.0
  0
LINE
  5
460
  8
1
 62
     2
 10
142.056085
 20
-73.25
 30
0.0
 11
151.520187
 21
-73.25
 31
0.0
  0
LINE
  5
461
  8
1
 62
     2
 10
157.118263
 20
-72.0
 30
0.0
 11
151.520187
 21
-73.25
 31
0.0
  0
LINE
  5
462
  8
1
 62
     2
 10
157.118263
 20
-72.0
 30
0.0
 11
151.520187
 21
-70.75
 31
0.0
  0
LINE
  5
463
  8
1
 62
     2
 10
141.118263
 20
-70.25
 30
0.0
 11
142.19006
 21
-73.75
 31
0.0
  0
LINE
  5
464
  8
1
 62
     2
 10
145.118263
 20
-70.25
 30
0.0
 11
146.19006
 21
-73.75
 31
0.0
  0
LINE
  5
465
  8
1
 62
     2
 10
147.118263
 20
-70.25
 30
0.0
 11
148.19006
 21
-73.75
 31
0.0
  0
LINE
  5
466
  8
1
 62
     2
 10
149.118263
 20
-70.25
 30
0.0
 11
150.19006
 21
-73.75
 31
0.0
  0
LINE
  5
467
  8
1
 62
     2
 10
151.118263
 20
-70.25
 30
0.0
 11
152.149597
 21
-73.598988
 31
0.0
  0
LINE
  5
468
  8
1
 62
     2
 10
153.236783
 20
-70.692322
 30
0.0
 11
154.015622
 21
-73.098988
 31
0.0
  0
LINE
  5
469
  8
1
 62
     2
 10
155.391484
 20
-71.269673
 30
0.0
 11
155.881647
 21
-72.598988
 31
0.0
  0
LINE
  5
46A
  8
1
 62
     2
 10
143.118309
 20
-70.25
 30
0.0
 11
144.190106
 21
-73.75
 31
0.0
  0
LINE
  5
46B
  8
1
 10
168.618263
 20
-52.0
 30
0.0
 11
169.595552
 21
-52.0
 31
0.0
  0
LINE
  5
46C
  8
1
 10
202.640975
 20
-52.0
 30
0.0
 11
205.118263
 21
-52.0
 31
0.0
  0
ARC
  5
46D
  8
1
 10
168.118263
 20
-51.0
 30
0.0
 40
0.5
 50
0.0
 51
9.602625
  0
ARC
  5
46E
  8
1
 10
168.118263
 20
-51.0
 30
0.0
 40
0.5
 50
70.008517
 51
90.0
  0
LINE
  5
46F
  8
1
 10
-67.0
 20
158.649401
 30
0.0
 11
-53.0
 21
158.649401
 31
0.0
  0
LINE
  5
470
  8
1
  6
CENTER
 62
     4
 10
-60.0
 20
73.014321
 30
0.0
 11
-60.0
 21
164.260804
 31
0.0
  0
LINE
  5
471
  8
1
 10
-47.600003
 20
89.549401
 30
0.0
 11
-47.600003
 21
90.749401
 31
0.0
  0
LINE
  5
472
  8
1
 10
-72.400003
 20
89.549401
 30
0.0
 11
-72.400003
 21
90.749401
 31
0.0
  0
LINE
  5
473
  8
1
 10
-70.200003
 20
91.149401
 30
0.0
 11
-49.800003
 21
91.149401
 31
0.0
  0
LINE
  5
474
  8
1
 10
-72.400003
 20
90.749401
 30
0.0
 11
-70.600003
 21
90.749401
 31
0.0
  0
LINE
  5
475
  8
1
 10
-49.400003
 20
90.749401
 30
0.0
 11
-47.600003
 21
90.749401
 31
0.0
  0
ARC
  5
476
  8
1
 10
-70.100003
 20
89.949401
 30
0.0
 40
0.4
 50
270.0
 51
0.0
  0
ARC
  5
477
  8
1
 10
-70.200003
 20
90.749401
 30
0.0
 40
0.4
 50
90.0
 51
180.0
  0
ARC
  5
478
  8
1
 10
-49.900003
 20
89.949401
 30
0.0
 40
0.4
 50
180.0
 51
270.0
  0
ARC
  5
479
  8
1
 10
-49.800003
 20
90.749401
 30
0.0
 40
0.4
 50
0.0
 51
90.0
  0
LINE
  5
47A
  8
1
 10
-51.3
 20
110.649401
 30
0.0
 11
-51.3
 21
119.649401
 31
0.0
  0
LINE
  5
47B
  8
1
 10
-53.0
 20
120.149401
 30
0.0
 11
-51.8
 21
120.149401
 31
0.0
  0
LINE
  5
47C
  8
1
 10
-53.0
 20
110.149401
 30
0.0
 11
-51.8
 21
110.149401
 31
0.0
  0
LINE
  5
47D
  8
1
 10
-51.3
 20
155.149401
 30
0.0
 11
-51.3
 21
156.749401
 31
0.0
  0
LINE
  5
47E
  8
1
 10
-51.8
 20
157.249401
 30
0.0
 11
-51.3
 21
156.749401
 31
0.0
  0
LINE
  5
47F
  8
1
 10
-66.8
 20
157.449401
 30
0.0
 11
-53.0
 21
157.449401
 31
0.0
  0
LINE
  5
480
  8
1
 10
-67.0
 20
156.249401
 30
0.0
 11
-67.0
 21
157.249401
 31
0.0
  0
LINE
  5
481
  8
1
 10
-68.2
 20
156.249401
 30
0.0
 11
-67.0
 21
156.249401
 31
0.0
  0
ARC
  5
482
  8
1
 10
-67.0
 20
157.449401
 30
0.0
 40
1.2
 50
90.0
 51
180.0
  0
ARC
  5
483
  8
1
 10
-66.8
 20
157.249401
 30
0.0
 40
0.2
 50
90.0
 51
180.0
  0
LINE
  5
484
  8
1
 10
-54.5
 20
93.649401
 30
0.0
 11
-54.5
 21
100.149401
 31
0.0
  0
LINE
  5
485
  8
1
 10
-65.5
 20
93.649401
 30
0.0
 11
-65.5
 21
100.149401
 31
0.0
  0
LINE
  5
486
  8
1
 10
-68.2
 20
93.149401
 30
0.0
 11
-66.0
 21
93.149401
 31
0.0
  0
LINE
  5
487
  8
1
 10
-54.0
 20
93.149401
 30
0.0
 11
-53.0
 21
93.149401
 31
0.0
  0
ARC
  5
488
  8
1
 10
-58.5
 20
100.149401
 30
0.0
 40
4.0
 50
0.0
 51
90.0
  0
ARC
  5
489
  8
1
 10
-61.5
 20
100.149401
 30
0.0
 40
4.0
 50
90.0
 51
180.0
  0
ARC
  5
48A
  8
1
 10
-54.0
 20
93.649401
 30
0.0
 40
0.5
 50
180.0
 51
270.0
  0
ARC
  5
48B
  8
1
 10
-66.0
 20
93.649401
 30
0.0
 40
0.5
 50
270.0
 51
0.0
  0
LINE
  5
48C
  8
1
 10
-53.0
 20
157.249401
 30
0.0
 11
-53.0
 21
159.449401
 31
0.0
  0
ARC
  5
48D
  8
1
 10
-51.8
 20
110.649401
 30
0.0
 40
0.5
 50
270.0
 51
0.0
  0
ARC
  5
48E
  8
1
 10
-51.8
 20
119.649401
 30
0.0
 40
0.5
 50
0.0
 51
90.0
  0
LINE
  5
48F
  8
1
 10
-69.700003
 20
89.949401
 30
0.0
 11
-69.4
 21
89.949401
 31
0.0
  0
LINE
  5
490
  8
1
 10
-50.6
 20
89.949401
 30
0.0
 11
-50.300003
 21
89.949401
 31
0.0
  0
LINE
  5
491
  8
1
 10
-61.5
 20
104.149401
 30
0.0
 11
-61.116455
 21
104.149401
 31
0.0
  0
LINE
  5
492
  8
1
 10
-58.883545
 20
104.149401
 30
0.0
 11
-58.5
 21
104.149401
 31
0.0
  0
LINE
  5
493
  8
1
 10
-47.6
 20
88.349401
 30
0.0
 11
-47.6
 21
89.549401
 31
0.0
  0
LINE
  5
494
  8
1
 10
-72.4
 20
88.349401
 30
0.0
 11
-72.4
 21
89.549401
 31
0.0
  0
LINE
  5
495
  8
1
 10
-68.5
 20
88.749401
 30
0.0
 11
-51.5
 21
88.749401
 31
0.0
  0
LINE
  5
496
  8
1
 10
-72.4
 20
89.549401
 30
0.0
 11
-69.8
 21
89.549401
 31
0.0
  0
LINE
  5
497
  8
1
 10
-50.2
 20
89.549401
 30
0.0
 11
-47.6
 21
89.549401
 31
0.0
  0
LINE
  5
498
  8
1
 10
-51.8
 20
91.149401
 30
0.0
 11
-51.8
 21
110.149401
 31
0.0
  0
LINE
  5
499
  8
1
 10
-53.0
 20
91.149401
 30
0.0
 11
-53.0
 21
110.149401
 31
0.0
  0
ARC
  5
49A
  8
1
 10
-53.0
 20
157.449401
 30
0.0
 40
1.2
 50
0.0
 51
90.0
  0
ARC
  5
49B
  8
1
 10
-68.9
 20
88.549401
 30
0.0
 40
0.2
 50
270.0
 51
0.0
  0
ARC
  5
49C
  8
1
 10
-69.8
 20
89.749401
 30
0.0
 40
0.2
 50
270.0
 51
0.0
  0
ARC
  5
49D
  8
1
 10
-69.4
 20
89.749401
 30
0.0
 40
0.2
 50
90.0
 51
180.0
  0
ARC
  5
49E
  8
1
 10
-50.2
 20
89.749401
 30
0.0
 40
0.2
 50
180.0
 51
270.0
  0
ARC
  5
49F
  8
1
 10
-50.6
 20
89.749401
 30
0.0
 40
0.2
 50
0.0
 51
90.0
  0
ARC
  5
4A0
  8
1
 10
-51.1
 20
88.549401
 30
0.0
 40
0.2
 50
180.0
 51
270.0
  0
ARC
  5
4A1
  8
1
 10
-51.5
 20
88.549401
 30
0.0
 40
0.2
 50
0.0
 51
90.0
  0
ARC
  5
4A2
  8
1
 10
-68.5
 20
88.549401
 30
0.0
 40
0.2
 50
90.0
 51
180.0
  0
LINE
  5
4A3
  8
1
 10
-69.4
 20
89.949401
 30
0.0
 11
-50.6
 21
89.949401
 31
0.0
  0
LINE
  5
4A4
  8
1
 10
-72.5
 20
87.149401
 30
0.0
 11
-47.5
 21
87.149401
 31
0.0
  0
LINE
  5
4A5
  8
1
 10
-72.5
 20
88.349401
 30
0.0
 11
-47.5
 21
88.349401
 31
0.0
  0
LINE
  5
4A6
  8
1
 10
-47.5
 20
87.149401
 30
0.0
 11
-47.5
 21
88.349401
 31
0.0
  0
LINE
  5
4A7
  8
1
 10
-72.5
 20
87.149401
 30
0.0
 11
-72.5
 21
88.349401
 31
0.0
  0
LINE
  5
4A8
  8
1
 10
-51.2
 20
103.899401
 30
0.0
 11
-51.2
 21
112.399401
 31
0.0
  0
LINE
  5
4A9
  8
1
 10
-51.8
 20
103.399401
 30
0.0
 11
-51.7
 21
103.399401
 31
0.0
  0
ARC
  5
4AA
  8
1
 10
-51.7
 20
103.899401
 30
0.0
 40
0.5
 50
270.0
 51
0.0
  0
ARC
  5
4AB
  8
1
 10
-51.7
 20
112.399401
 30
0.0
 40
0.5
 50
0.0
 51
36.86989799999999
  0
LINE
  5
4AC
  8
1
 10
-68.2
 20
103.399401
 30
0.0
 11
-68.4
 21
103.399401
 31
0.0
  0
LINE
  5
4AD
  8
1
 10
-68.2
 20
112.899401
 30
0.0
 11
-68.4
 21
112.899401
 31
0.0
  0
LINE
  5
4AE
  8
1
 10
-68.9
 20
103.899401
 30
0.0
 11
-68.9
 21
112.399401
 31
0.0
  0
ARC
  5
4AF
  8
1
 10
-68.4
 20
103.899401
 30
0.0
 40
0.5
 50
180.0
 51
270.0
  0
ARC
  5
4B0
  8
1
 10
-68.4
 20
112.399401
 30
0.0
 40
0.5
 50
90.0
 51
180.0
  0
LINE
  5
4B1
  8
1
 10
-68.3
 20
117.899401
 30
0.0
 11
-68.2
 21
117.899401
 31
0.0
  0
LINE
  5
4B2
  8
1
 10
-68.3
 20
99.399401
 30
0.0
 11
-68.2
 21
99.399401
 31
0.0
  0
ARC
  5
4B3
  8
1
 10
-68.3
 20
117.399401
 30
0.0
 40
0.5
 50
90.0
 51
180.0
  0
ARC
  5
4B4
  8
1
 10
-68.3
 20
99.899401
 30
0.0
 40
0.5
 50
180.0
 51
270.0
  0
ARC
  5
4B5
  8
1
 10
-68.3
 20
112.899401
 30
0.0
 40
0.5
 50
180.0
 51
199.347367
  0
LINE
  5
4B6
  8
1
 10
-68.8
 20
99.899401
 30
0.0
 11
-68.8
 21
103.599401
 31
0.0
  0
LINE
  5
4B7
  8
1
 10
-68.8
 20
112.899401
 30
0.0
 11
-68.8
 21
117.399401
 31
0.0
  0
LINE
  5
4B8
  8
1
 10
-51.3
 20
103.599401
 30
0.0
 11
-51.3
 21
99.899401
 31
0.0
  0
ARC
  5
4B9
  8
1
 10
-51.8
 20
99.899401
 30
0.0
 40
0.5
 50
270.0
 51
0.0
  0
LINE
  5
4BA
  8
1
 10
-54.0
 20
78.149401
 30
0.0
 11
-54.0
 21
86.649401
 31
0.0
  0
LINE
  5
4BB
  8
1
 10
-54.0
 20
78.149401
 30
0.0
 11
-54.302624
 21
77.019991
 31
0.0
  0
ARC
  5
4BC
  8
1
 10
-37.549981
 20
107.035583
 30
0.0
 40
35.0
 50
216.724911
 51
240.027598
  0
ARC
  5
4BD
  8
1
 10
-54.785587
 20
77.149401
 30
0.0
 40
0.5
 50
240.027598
 51
345.0
  0
ARC
  5
4BE
  8
1
 10
-64.0
 20
87.302451
 30
0.0
 40
2.0
 50
199.057997
 51
216.724911
  0
LINE
  5
4BF
  8
1
 10
-51.2
 20
125.149401
 30
0.0
 11
-51.2
 21
127.132575
 31
0.0
  0
LINE
  5
4C0
  8
1
 10
-68.8
 20
128.149449
 30
0.0
 11
-68.2
 21
128.149449
 31
0.0
  0
ARC
  5
4C1
  8
1
 10
-37.409589
 20
107.238708
 30
0.0
 40
35.5
 50
217.883021
 51
239.055008
  0
ARC
  5
4C2
  8
1
 10
-63.850003
 20
86.667989
 30
0.0
 40
2.0
 50
183.921027
 51
217.883021
  0
ARC
  5
4C3
  8
1
 10
-55.150003
 20
77.649391
 30
0.0
 40
1.0
 50
239.055008
 51
281.355733
  0
LINE
  5
4C4
  8
1
 10
-67.25
 20
87.149401
 30
0.0
 11
-67.25
 21
86.849401
 31
0.0
  0
LINE
  5
4C5
  8
1
 10
-52.75
 20
87.149401
 30
0.0
 11
-52.75
 21
86.849401
 31
0.0
  0
LINE
  5
4C6
  8
1
 10
-67.05
 20
86.649401
 30
0.0
 11
-52.95
 21
86.649401
 31
0.0
  0
ARC
  5
4C7
  8
1
 10
-52.95
 20
86.849401
 30
0.0
 40
0.2
 50
270.0
 51
0.0
  0
ARC
  5
4C8
  8
1
 10
-67.05
 20
86.849401
 30
0.0
 40
0.2
 50
180.0
 51
270.0
  0
ARC
  5
4C9
  8
1
 10
-68.6
 20
148.049401
 30
0.0
 40
0.4
 50
180.0
 51
0.0
  0
ARC
  5
4CA
  8
1
 10
-68.6
 20
102.549401
 30
0.0
 40
0.4
 50
180.0
 51
240.0
  0
ARC
  5
4CB
  8
1
 10
-68.6
 20
109.749401
 30
0.0
 40
0.4
 50
138.590378
 51
180.0
  0
LINE
  5
4CC
  8
1
 10
-69.0
 20
102.549401
 30
0.0
 11
-69.0
 21
109.749401
 31
0.0
  0
LINE
  5
4CD
  8
1
 10
-50.6
 20
104.549401
 30
0.0
 11
-50.6
 21
107.749401
 31
0.0
  0
LINE
  5
4CE
  8
1
 10
-50.6
 20
150.049401
 30
0.0
 11
-50.6
 21
151.149401
 31
0.0
  0
LINE
  5
4CF
  8
1
 10
-51.2
 20
104.149401
 30
0.0
 11
-51.0
 21
104.149401
 31
0.0
  0
LINE
  5
4D0
  8
1
 10
-51.2
 20
108.149401
 30
0.0
 11
-51.0
 21
108.149401
 31
0.0
  0
LINE
  5
4D1
  8
1
 10
-51.8
 20
149.649401
 30
0.0
 11
-51.0
 21
149.649401
 31
0.0
  0
ARC
  5
4D2
  8
1
 10
-51.0
 20
150.049401
 30
0.0
 40
0.4
 50
270.0
 51
0.0
  0
ARC
  5
4D3
  8
1
 10
-51.0
 20
104.549401
 30
0.0
 40
0.4
 50
270.0
 51
0.0
  0
ARC
  5
4D4
  8
1
 10
-51.0
 20
107.749401
 30
0.0
 40
0.4
 50
0.0
 51
90.0
  0
LINE
  5
4D5
  8
1
 62
     2
 10
-61.75
 20
93.149401
 30
0.0
 11
-61.75
 21
91.149401
 31
0.0
  0
LINE
  5
4D6
  8
1
 62
     2
 10
-58.25
 20
91.149401
 30
0.0
 11
-58.25
 21
94.221197
 31
0.0
  0
LINE
  5
4D7
  8
1
 62
     2
 10
-61.25
 20
93.283375
 30
0.0
 11
-61.25
 21
103.551325
 31
0.0
  0
LINE
  5
4D8
  8
1
 62
     2
 10
-58.75
 20
94.087223
 30
0.0
 11
-58.75
 21
103.551325
 31
0.0
  0
LINE
  5
4D9
  8
1
 62
     2
 10
-60.0
 20
109.149401
 30
0.0
 11
-58.75
 21
103.551325
 31
0.0
  0
LINE
  5
4DA
  8
1
 62
     2
 10
-60.0
 20
109.149401
 30
0.0
 11
-61.25
 21
103.551325
 31
0.0
  0
LINE
  5
4DB
  8
1
 62
     2
 10
-61.75
 20
93.149401
 30
0.0
 11
-58.25
 21
94.221197
 31
0.0
  0
LINE
  5
4DC
  8
1
 62
     2
 10
-61.75
 20
97.149401
 30
0.0
 11
-58.25
 21
98.221197
 31
0.0
  0
LINE
  5
4DD
  8
1
 62
     2
 10
-61.75
 20
99.149401
 30
0.0
 11
-58.25
 21
100.221197
 31
0.0
  0
LINE
  5
4DE
  8
1
 62
     2
 10
-61.75
 20
101.149401
 30
0.0
 11
-58.25
 21
102.221197
 31
0.0
  0
LINE
  5
4DF
  8
1
 62
     2
 10
-61.75
 20
103.149401
 30
0.0
 11
-58.401012
 21
104.180734
 31
0.0
  0
LINE
  5
4E0
  8
1
 62
     2
 10
-61.307678
 20
105.267921
 30
0.0
 11
-58.901012
 21
106.046759
 31
0.0
  0
LINE
  5
4E1
  8
1
 62
     2
 10
-60.730327
 20
107.422621
 30
0.0
 11
-59.401012
 21
107.912785
 31
0.0
  0
LINE
  5
4E2
  8
1
 62
     2
 10
-61.75
 20
95.149446
 30
0.0
 11
-58.25
 21
96.221243
 31
0.0
  0
LINE
  5
4E3
  8
1
 10
-69.0
 20
148.049401
 30
0.0
 11
-69.0
 21
150.149401
 31
0.0
  0
LINE
  5
4E4
  8
1
 10
-68.8
 20
126.149401
 30
0.0
 11
-68.8
 21
128.149449
 31
0.0
  0
LINE
  5
4E5
  8
1
  6
CENTER
 62
     4
 10
-255.118263
 20
-36.0
 30
0.0
 11
-197.118263
 21
-36.0
 31
0.0
  0
LINE
  5
4E6
  8
1
  6
CENTER
 62
     4
 10
-226.118263
 20
-65.0
 30
0.0
 11
-226.118263
 21
44.5
 31
0.0
  0
LINE
  5
4E7
  8
1
  6
CENTER
 62
     4
 10
157.118263
 20
-36.0
 30
0.0
 11
215.118263
 21
-36.0
 31
0.0
  0
LINE
  5
4E8
  8
1
  6
CENTER
 62
     4
 10
-251.118263
 20
19.5
 30
0.0
 11
-201.118263
 21
19.5
 31
0.0
  0
LINE
  5
4E9
  8
1
  6
CENTER
 62
     4
 10
-100.325361
 20
14.0
 30
0.0
 11
-17.601595
 21
14.0
 31
0.0
  0
LINE
  5
4EA
  8
1
  6
CENTER
 62
     4
 10
161.118263
 20
19.5
 30
0.0
 11
211.118263
 21
19.5
 31
0.0
  0
LINE
  5
4EB
  8
1
  6
CENTER
 62
     4
 10
186.118263
 20
44.5
 30
0.0
 11
186.118263
 21
-65.0
 31
0.0
  0
LINE
  5
4EC
  8
1
 10
-90.0
 20
116.649401
 30
0.0
 11
-90.0
 21
130.149401
 31
0.0
  0
LINE
  5
4ED
  8
1
 10
-90.0
 20
146.149401
 30
0.0
 11
-90.0
 21
159.649401
 31
0.0
  0
LINE
  5
4EE
  8
1
 10
-30.0
 20
116.649401
 30
0.0
 11
-30.0
 21
119.69288
 31
0.0
  0
LINE
  5
4EF
  8
1
 10
-30.0
 20
156.605922
 30
0.0
 11
-30.0
 21
159.649401
 31
0.0
  0
LINE
  5
4F0
  8
1
 10
-51.8
 20
149.145274
 30
0.0
 11
-51.8
 21
157.449401
 31
0.0
  0
LINE
  5
4F1
  8
1
  6
CENTER
 62
     4
 10
-18.182722
 20
138.149401
 30
0.0
 11
-111.622917
 21
138.149401
 31
0.0
  0
LINE
  5
4F2
  8
1
  6
CENTER
 62
     4
 10
-60.0
 20
56.381966
 30
0.0
 11
-60.0
 21
-86.74741
 31
0.0
  0
LINE
  5
4F3
  8
1
  6
CENTER
 62
     4
 10
120.983211
 20
-14.0
 30
0.0
 11
152.337051
 21
-14.0
 31
0.0
  0
LINE
  5
4F4
  8
1
 10
206.618263
 20
-50.5
 30
0.0
 11
206.618263
 21
-46.428327
 31
0.0
  0
LINE
  5
4F5
  8
1
 10
206.618263
 20
-25.571673
 30
0.0
 11
206.618263
 21
4.0
 31
0.0
  0
LINE
  5
4F6
  8
1
  6
DASHED
 62
     2
 10
-40.0
 20
-34.0
 30
0.0
 11
-34.0
 21
-34.0
 31
0.0
  0
LINE
  5
4F7
  8
1
  6
DASHED
 62
     2
 10
-40.0
 20
-38.0
 30
0.0
 11
-34.0
 21
-38.0
 31
0.0
  0
LINE
  5
4F8
  8
1
  6
DASHED
 62
     2
 10
-34.0
 20
-31.85
 30
0.0
 11
-34.0
 21
-40.15
 31
0.0
  0
LINE
  5
4F9
  8
1
  6
DASHED
 62
     2
 10
-34.0
 20
-31.85
 30
0.0
 11
-32.0
 21
-32.024977
 31
0.0
  0
ARC
  5
4FA
  8
1
  6
DASHED
 62
     2
 10
-47.550805
 20
-36.0
 30
0.0
 40
16.050805
 50
345.661355
 51
14.338645
  0
LINE
  5
4FB
  8
1
  6
DASHED
 62
     2
 10
-34.0
 20
-40.15
 30
0.0
 11
-32.0
 21
-39.975023
 31
0.0
  0
LINE
  5
4FC
  8
1
 10
-76.0
 20
134.649401
 30
0.0
 11
-69.2
 21
134.649401
 31
0.0
  0
LINE
  5
4FD
  8
1
 10
-67.4
 20
-22.671791
 30
0.0
 11
-67.4
 21
-5.328205
 31
0.0
  0
LINE
  5
4FE
  8
1
 10
-52.6
 20
-22.671791
 30
0.0
 11
-52.6
 21
-5.328205
 31
0.0
  0
ARC
  5
4FF
  8
1
 10
-60.0
 20
-13.999998
 30
0.0
 40
11.4
 50
49.524502
 51
61.18994
  0
ARC
  5
500
  8
1
 10
-60.0
 20
-13.999998
 30
0.0
 40
11.4
 50
118.81006
 51
130.475498
  0
ARC
  5
501
  8
1
 10
-60.0
 20
-13.999998
 30
0.0
 40
11.4
 50
229.524502
 51
241.18994
  0
ARC
  5
502
  8
1
 10
-60.0
 20
-13.999998
 30
0.0
 40
11.4
 50
298.81006
 51
310.4754980000001
  0
ARC
  5
503
  8
1
 10
-59.999978
 20
-14.000002
 30
0.0
 40
10.0
 50
56.251011
 51
123.748989
  0
ARC
  5
504
  8
1
 10
-59.999978
 20
-14.000002
 30
0.0
 40
10.0
 50
236.251011
 51
303.748989
  0
LINE
  5
505
  8
1
 62
     2
 10
-54.401878
 20
-6.000002
 30
0.0
 11
-54.401878
 21
-9.540716
 31
0.0
  0
LINE
  5
506
  8
1
 62
     2
 10
-54.401878
 20
-18.459284
 30
0.0
 11
-54.401878
 21
-22.000002
 31
0.0
  0
ARC
  5
507
  8
1
 10
-54.999978
 20
-6.516687
 30
0.0
 40
1.0
 50
0.0
 51
56.251011
  0
ARC
  5
508
  8
1
 10
-64.999978
 20
-6.516687
 30
0.0
 40
1.0
 50
123.748989
 51
180.0
  0
ARC
  5
509
  8
1
 10
-54.999978
 20
-21.483317
 30
0.0
 40
1.0
 50
303.748989
 51
0.0
  0
ARC
  5
50A
  8
1
 10
-64.999978
 20
-21.483317
 30
0.0
 40
1.0
 50
180.0
 51
236.251011
  0
LINE
  5
50B
  8
1
 10
-65.999978
 20
-11.985296
 30
0.0
 11
-65.999978
 21
-6.516687
 31
0.0
  0
LINE
  5
50C
  8
1
 10
-65.999978
 20
-21.483317
 30
0.0
 11
-65.999978
 21
-16.014745
 31
0.0
  0
LINE
  5
50D
  8
1
 10
-53.999978
 20
-11.985295
 30
0.0
 11
-53.999978
 21
-6.516687
 31
0.0
  0
LINE
  5
50E
  8
1
 10
-53.999978
 20
-21.483317
 30
0.0
 11
-53.999978
 21
-16.014746
 31
0.0
  0
LINE
  5
50F
  8
1
 10
-65.999978
 20
-16.014745
 30
0.0
 11
-65.999978
 21
-11.985296
 31
0.0
  0
LINE
  5
510
  8
1
 10
-53.999978
 20
-16.014746
 30
0.0
 11
-53.999978
 21
-11.985295
 31
0.0
  0
ARC
  5
511
  8
1
 10
-60.0
 20
-13.999998
 30
0.0
 40
11.6
 50
243.227412
 51
296.772588
  0
ARC
  5
512
  8
1
 10
-60.0
 20
-13.999998
 30
0.0
 40
11.6
 50
63.22741199999999
 51
116.772588
  0
LINE
  5
513
  8
1
 10
-65.5
 20
-23.910094
 30
0.0
 11
-65.5
 21
-23.813891
 31
0.0
  0
LINE
  5
514
  8
1
 10
-65.5
 20
-4.186105
 30
0.0
 11
-65.5
 21
-4.089902
 31
0.0
  0
LINE
  5
515
  8
1
 10
-54.5
 20
-23.910094
 30
0.0
 11
-54.5
 21
-23.813891
 31
0.0
  0
LINE
  5
516
  8
1
 10
-54.5
 20
-4.186105
 30
0.0
 11
-54.5
 21
-4.089902
 31
0.0
  0
LINE
  5
517
  8
1
 10
-52.75
 20
-22.366598
 30
0.0
 11
-52.75
 21
-5.633398
 31
0.0
  0
ARC
  5
518
  8
1
 10
-60.0
 20
-13.999998
 30
0.0
 40
11.25
 50
119.267578
 51
129.93069
  0
ARC
  5
519
  8
1
 10
-60.0
 20
-13.999998
 30
0.0
 40
11.25
 50
50.06931
 51
60.732422
  0
ARC
  5
51A
  8
1
 10
-60.0
 20
-13.999998
 30
0.0
 40
11.25
 50
230.06931
 51
240.732422
  0
ARC
  5
51B
  8
1
 10
-60.0
 20
-13.999998
 30
0.0
 40
11.25
 50
299.267578
 51
309.93069
  0
ARC
  5
51C
  8
1
 10
-53.1
 20
-22.243328
 30
0.0
 40
0.5
 50
309.93069
 51
0.0
  0
ARC
  5
51D
  8
1
 10
-53.25
 20
-22.366598
 30
0.0
 40
0.5
 50
308.895871
 51
0.0
  0
ARC
  5
51E
  8
1
 10
-53.1
 20
-5.756667
 30
0.0
 40
0.5
 50
0.0
 51
50.06931
  0
ARC
  5
51F
  8
1
 10
-66.9
 20
-5.756667
 30
0.0
 40
0.5
 50
129.93069
 51
180.0
  0
ARC
  5
520
  8
1
 10
-66.9
 20
-22.243328
 30
0.0
 40
0.5
 50
180.0
 51
230.06931
  0
ARC
  5
521
  8
1
 10
-66.75
 20
-22.366598
 30
0.0
 40
0.5
 50
180.0
 51
231.104129
  0
ARC
  5
522
  8
1
 10
-66.75
 20
-5.633398
 30
0.0
 40
0.5
 50
128.895871
 51
180.0
  0
ARC
  5
523
  8
1
 10
-53.25
 20
-5.633398
 30
0.0
 40
0.5
 50
0.0
 51
51.104129
  0
ARC
  5
524
  8
1
 10
-55.0
 20
-4.089902
 30
0.0
 40
0.5
 50
0.0
 51
63.22741199999999
  0
ARC
  5
525
  8
1
 10
-65.0
 20
-4.089902
 30
0.0
 40
0.5
 50
116.772588
 51
180.0
  0
ARC
  5
526
  8
1
 10
-65.0
 20
-23.910094
 30
0.0
 40
0.5
 50
180.0
 51
243.227412
  0
ARC
  5
527
  8
1
 10
-55.0
 20
-23.910094
 30
0.0
 40
0.5
 50
296.772588
 51
0.0
  0
LINE
  5
528
  8
1
 10
-67.25
 20
-22.366598
 30
0.0
 11
-67.25
 21
-5.633398
 31
0.0
  0
LINE
  5
529
  8
1
  6
CENTER
 62
     2
 10
-49.527019
 20
-14.0
 30
0.0
 11
-70.0992
 21
-14.0
 31
0.0
  0
LINE
  5
52A
  8
1
  6
CENTER
 62
     4
 10
120.983211
 20
-14.0
 30
0.0
 11
152.337051
 21
-14.0
 31
0.0
  0
LINE
  5
52B
  8
1
 62
     2
 10
126.118276
 20
-6.0
 30
0.0
 11
134.618263
 21
-6.0
 31
0.0
  0
LINE
  5
52C
  8
1
 62
     2
 10
126.118276
 20
-22.0
 30
0.0
 11
134.618263
 21
-22.0
 31
0.0
  0
LINE
  5
52D
  8
1
 62
     2
 10
126.118276
 20
-6.0
 30
0.0
 11
124.618276
 21
-5.71379
 31
0.0
  0
LINE
  5
52E
  8
1
 62
     2
 10
126.118276
 20
-22.0
 30
0.0
 11
124.618276
 21
-22.28621
 31
0.0
  0
LINE
  5
52F
  8
1
 10
124.618276
 20
-22.551551
 30
0.0
 11
124.618276
 21
-18.4
 31
0.0
  0
LINE
  5
530
  8
1
 62
     2
 10
126.118276
 20
-22.0
 30
0.0
 11
126.118276
 21
-18.4
 31
0.0
  0
LINE
  5
531
  8
1
 62
     2
 10
126.118276
 20
-9.6
 30
0.0
 11
126.118276
 21
-6.0
 31
0.0
  0
ARC
  5
532
  8
1
 10
128.153078
 20
-17.504746
 30
0.0
 40
6.495254
 50
262.877226
 51
270.0
  0
ARC
  5
533
  8
1
 10
127.968745
 20
-18.979875
 30
0.0
 40
5.008652
 50
254.144152
 51
262.877226
  0
ARC
  5
534
  8
1
 10
127.866764
 20
-19.338932
 30
0.0
 40
4.635394
 50
244.981479
 51
254.144152
  0
ARC
  5
535
  8
1
 10
127.665149
 20
-19.770931
 30
0.0
 40
4.158664
 50
234.704258
 51
244.981479
  0
ARC
  5
536
  8
1
 10
127.857094
 20
-19.499795
 30
0.0
 40
4.490864
 50
224.728879
 51
234.704258
  0
ARC
  5
537
  8
1
 10
124.785744
 20
-22.542215
 30
0.0
 40
0.167727
 50
183.190791
 51
224.728879
  0
LINE
  5
538
  8
1
 10
128.153078
 20
-4.0
 30
0.0
 11
134.618263
 21
-4.0
 31
0.0
  0
LINE
  5
539
  8
1
 10
124.618276
 20
-5.448449
 30
0.0
 11
124.618276
 21
-9.6
 31
0.0
  0
ARC
  5
53A
  8
1
 10
128.153078
 20
-10.495254
 30
0.0
 40
6.495254
 50
90.0
 51
97.122774
  0
ARC
  5
53B
  8
1
 10
127.968745
 20
-9.020125
 30
0.0
 40
5.008652
 50
97.122774
 51
105.855848
  0
ARC
  5
53C
  8
1
 10
127.866764
 20
-8.661068
 30
0.0
 40
4.635394
 50
105.855848
 51
115.018521
  0
ARC
  5
53D
  8
1
 10
127.665149
 20
-8.229069
 30
0.0
 40
4.158664
 50
115.018521
 51
125.295742
  0
ARC
  5
53E
  8
1
 10
127.857094
 20
-8.500205
 30
0.0
 40
4.490864
 50
125.295742
 51
135.271121
  0
ARC
  5
53F
  8
1
 10
124.785744
 20
-5.457785
 30
0.0
 40
0.167727
 50
135.271121
 51
176.809209
  0
LINE
  5
540
  8
1
 10
128.153078
 20
-24.0
 30
0.0
 11
134.618263
 21
-24.0
 31
0.0
  0
LINE
  5
541
  8
1
 10
-69.2
 20
132.649401
 30
0.0
 11
-69.2
 21
135.250263
 31
0.0
  0
LINE
  5
542
  8
1
 10
-69.2
 20
141.048538
 30
0.0
 11
-69.2
 21
143.649401
 31
0.0
  0
LINE
  5
543
  8
1
 10
-53.0
 20
149.103369
 30
0.0
 11
-53.0
 21
157.249401
 31
0.0
  0
LINE
  5
544
  8
1
 10
-53.0
 20
120.149401
 30
0.0
 11
-53.0
 21
127.195433
 31
0.0
  0
LINE
  5
545
  8
1
 10
-53.0
 20
134.103373
 30
0.0
 11
-53.0
 21
142.195429
 31
0.0
  0
LINE
  5
546
  8
1
 10
-44.5
 20
134.649401
 30
0.0
 11
-50.8
 21
134.649401
 31
0.0
  0
LINE
  5
547
  8
1
 10
-50.8
 20
134.180199
 30
0.0
 11
-50.8
 21
135.250263
 31
0.0
  0
LINE
  5
548
  8
1
 10
-50.8
 20
141.048538
 30
0.0
 11
-50.8
 21
142.118603
 31
0.0
  0
LINE
  5
549
  8
1
 10
-68.2
 20
147.649401
 30
0.0
 11
-68.2
 21
157.449401
 31
0.0
  0
LINE
  5
54A
  8
1
 10
-68.2
 20
91.149401
 30
0.0
 11
-68.2
 21
128.649401
 31
0.0
  0
LINE
  5
54B
  8
1
 10
-68.2
 20
132.649401
 30
0.0
 11
-68.2
 21
143.649401
 31
0.0
  0
LINE
  5
54C
  8
1
 10
-51.8
 20
120.149401
 30
0.0
 11
-51.8
 21
127.153528
 31
0.0
  0
LINE
  5
54D
  8
1
 10
-51.8
 20
134.145278
 30
0.0
 11
-51.8
 21
142.153524
 31
0.0
  0
LINE
  5
54E
  8
1
 10
-66.5
 20
159.449401
 30
0.0
 11
-53.0
 21
159.449401
 31
0.0
  0
LINE
  5
54F
  8
1
 10
-66.5
 20
158.649401
 30
0.0
 11
-66.5
 21
159.449401
 31
0.0
  0
LINE
  5
550
  8
1
 10
-284.011005
 20
154.048649
 30
0.0
 11
-284.011005
 21
136.948649
 31
0.0
  0
LINE
  5
551
  8
1
 10
-284.911005
 20
145.498649
 30
0.0
 11
-284.911005
 21
136.948649
 31
0.0
  0
LINE
  5
552
  8
1
 10
-283.111005
 20
154.048649
 30
0.0
 11
-283.111005
 21
136.948649
 31
0.0
  0
LINE
  5
553
  8
1
 10
-282.211005
 20
154.048649
 30
0.0
 11
-282.211005
 21
145.498649
 31
0.0
  0
ARC
  5
554
  8
1
 10
-283.561005
 20
136.948649
 30
0.0
 40
0.45
 50
180.0
 51
0.0
  0
ARC
  5
555
  8
1
 10
-284.461005
 20
136.948649
 30
0.0
 40
0.45
 50
180.0
 51
0.0
  0
LINE
  5
556
  8
1
 10
-282.660382
 20
145.498649
 30
0.0
 11
-282.929682
 21
140.381941
 31
0.0
  0
LINE
  5
557
  8
1
 10
-284.461627
 20
145.498649
 30
0.0
 11
-284.345172
 21
147.711311
 31
0.0
  0
LINE
  5
558
  8
1
 10
-282.211005
 20
145.498649
 30
0.0
 11
-283.111005
 21
145.498649
 31
0.0
  0
LINE
  5
559
  8
1
 10
-284.911005
 20
145.498649
 30
0.0
 11
-284.011005
 21
145.498649
 31
0.0
  0
LINE
  5
55A
  8
1
 10
-317.111005
 20
192.536703
 30
0.0
 11
-278.111005
 21
192.536703
 31
0.0
  0
LINE
  5
55B
  8
1
 10
-317.111005
 20
194.736703
 30
0.0
 11
-278.111005
 21
194.736703
 31
0.0
  0
LINE
  5
55C
  8
1
 10
-278.111005
 20
192.536703
 30
0.0
 11
-278.111005
 21
194.736703
 31
0.0
  0
LINE
  5
55D
  8
1
 10
-320.111005
 20
193.386703
 30
0.0
 11
-320.111005
 21
193.886703
 31
0.0
  0
LINE
  5
55E
  8
1
 10
-301.111005
 20
192.536703
 30
0.0
 11
-301.111005
 21
194.736703
 31
0.0
  0
ARC
  5
55F
  8
1
 10
-291.011005
 20
124.398649
 30
0.0
 40
3.0
 50
180.0
 51
270.0
  0
ARC
  5
560
  8
1
 10
-291.011005
 20
119.898649
 30
0.0
 40
1.5
 50
0.0
 51
90.0
  0
ARC
  5
561
  8
1
 10
-287.311005
 20
117.398649
 30
0.0
 40
0.5
 50
270.0
 51
180.0
  0
LINE
  5
562
  8
1
 10
-289.311005
 20
117.398649
 30
0.0
 11
-287.811005
 21
117.398649
 31
0.0
  0
LINE
  5
563
  8
1
 10
-289.311005
 20
117.398649
 30
0.0
 11
-289.511005
 21
117.598649
 31
0.0
  0
LINE
  5
564
  8
1
 10
-289.511005
 20
117.598649
 30
0.0
 11
-289.511005
 21
119.898649
 31
0.0
  0
ARC
  5
565
  8
1
 10
-277.011005
 20
124.398649
 30
0.0
 40
3.0
 50
270.0
 51
0.0
  0
ARC
  5
566
  8
1
 10
-277.011005
 20
119.898649
 30
0.0
 40
1.5
 50
90.0
 51
180.0
  0
ARC
  5
567
  8
1
 10
-280.711005
 20
117.398649
 30
0.0
 40
0.5
 50
0.0
 51
270.0
  0
LINE
  5
568
  8
1
 10
-274.011005
 20
126.398649
 30
0.0
 11
-275.010259
 21
137.820176
 31
0.0
  0
LINE
  5
569
  8
1
 10
-278.711005
 20
117.398649
 30
0.0
 11
-280.211005
 21
117.398649
 31
0.0
  0
LINE
  5
56A
  8
1
 10
-278.711005
 20
117.398649
 30
0.0
 11
-278.511005
 21
117.598649
 31
0.0
  0
LINE
  5
56B
  8
1
 10
-278.511005
 20
117.598649
 30
0.0
 11
-278.511005
 21
119.898649
 31
0.0
  0
LINE
  5
56C
  8
1
 10
-287.311005
 20
116.898649
 30
0.0
 11
-287.311005
 21
103.398649
 31
0.0
  0
LINE
  5
56D
  8
1
 10
-286.596515
 20
99.346578
 30
0.0
 11
-287.311005
 21
103.398649
 31
0.0
  0
LINE
  5
56E
  8
1
 10
-281.425494
 20
99.346578
 30
0.0
 11
-280.711005
 21
103.398649
 31
0.0
  0
LINE
  5
56F
  8
1
 10
-280.711005
 20
116.898649
 30
0.0
 11
-280.711005
 21
103.398649
 31
0.0
  0
ARC
  5
570
  8
1
 10
-284.011005
 20
102.398649
 30
0.0
 40
4.0
 50
229.730954
 51
310.269046
  0
LINE
  5
571
  8
1
 10
-286.958351
 20
101.398649
 30
0.0
 11
-281.063659
 21
101.398649
 31
0.0
  0
LINE
  5
572
  8
1
 10
-294.011005
 20
126.398649
 30
0.0
 11
-294.011005
 21
124.398649
 31
0.0
  0
LINE
  5
573
  8
1
 10
-294.011005
 20
126.398649
 30
0.0
 11
-293.01175
 21
137.820176
 31
0.0
  0
ARC
  5
574
  8
1
 10
-277.002648
 20
137.645865
 30
0.0
 40
2.0
 50
5.0
 51
77.73846300000001
  0
ARC
  5
575
  8
1
 10
-285.511005
 20
135.398649
 30
0.0
 40
2.0
 50
90.0
 51
270.0
  0
ARC
  5
576
  8
1
 10
-282.511005
 20
135.398649
 30
0.0
 40
2.0
 50
270.0
 51
90.0
  0
LINE
  5
577
  8
1
 10
-282.511005
 20
133.398649
 30
0.0
 11
-285.511005
 21
133.398649
 31
0.0
  0
ARC
  5
578
  8
1
 10
-291.019361
 20
137.645865
 30
0.0
 40
2.0
 50
102.261537
 51
175.0
  0
LINE
  5
579
  8
1
 62
     2
 10
-276.011005
 20
127.398649
 30
0.0
 11
-276.011005
 21
131.398649
 31
0.0
  0
LINE
  5
57A
  8
1
 62
     2
 10
-292.011005
 20
131.398649
 30
0.0
 11
-276.011005
 21
131.398649
 31
0.0
  0
LINE
  5
57B
  8
1
 62
     2
 10
-292.011005
 20
127.398649
 30
0.0
 11
-292.011005
 21
131.398649
 31
0.0
  0
LINE
  5
57C
  8
1
 62
     2
 10
-292.011005
 20
127.398649
 30
0.0
 11
-276.011005
 21
127.398649
 31
0.0
  0
LINE
  5
57D
  8
1
 62
     2
 10
-293.011005
 20
126.354988
 30
0.0
 11
-292.015556
 21
137.73302
 31
0.0
  0
ARC
  5
57E
  8
1
 62
     2
 10
-291.019361
 20
137.645865
 30
0.0
 40
1.0
 50
102.261537
 51
175.0
  0
ARC
  5
57F
  8
1
 62
     2
 10
-277.002648
 20
137.645865
 30
0.0
 40
1.0
 50
5.0
 51
77.73846300000001
  0
LINE
  5
580
  8
1
 62
     2
 10
-275.011005
 20
126.354988
 30
0.0
 11
-276.006454
 21
137.73302
 31
0.0
  0
LINE
  5
581
  8
1
 62
     2
 10
-275.011005
 20
126.354988
 30
0.0
 11
-275.011005
 21
124.398649
 31
0.0
  0
ARC
  5
582
  8
1
 62
     2
 10
-277.011005
 20
124.398649
 30
0.0
 40
2.0
 50
270.0
 51
0.0
  0
LINE
  5
583
  8
1
 62
     2
 10
-293.011005
 20
126.354988
 30
0.0
 11
-293.011005
 21
124.398649
 31
0.0
  0
ARC
  5
584
  8
1
 62
     2
 10
-291.011005
 20
124.398649
 30
0.0
 40
2.0
 50
180.0
 51
270.0
  0
LINE
  5
585
  8
1
 62
     2
 10
-291.011005
 20
122.398649
 30
0.0
 11
-277.011005
 21
122.398649
 31
0.0
  0
LINE
  5
586
  8
1
 10
-320.111005
 20
193.386703
 30
0.0
 11
-317.111005
 21
192.536703
 31
0.0
  0
LINE
  5
587
  8
1
 10
-320.111005
 20
193.886703
 30
0.0
 11
-317.111005
 21
194.736703
 31
0.0
  0
LINE
  5
588
  8
1
 62
     2
 10
-319.163075
 20
194.155283
 30
0.0
 11
-319.163075
 21
193.118123
 31
0.0
  0
LINE
  5
589
  8
1
 10
-274.011005
 20
126.398649
 30
0.0
 11
-274.011005
 21
124.398649
 31
0.0
  0
CIRCLE
  5
58A
  8
1
 62
     2
 10
-282.311005
 20
112.398649
 30
0.0
 40
1.0
  0
CIRCLE
  5
58B
  8
1
 62
     2
 10
-282.311005
 20
109.798649
 30
0.0
 40
1.0
  0
CIRCLE
  5
58C
  8
1
 62
     2
 10
-282.311005
 20
107.198649
 30
0.0
 40
1.0
  0
CIRCLE
  5
58D
  8
1
 62
     2
 10
-282.311005
 20
104.598649
 30
0.0
 40
0.5
  0
CIRCLE
  5
58E
  8
1
 62
     2
 10
-285.711005
 20
108.498649
 30
0.0
 40
1.0
  0
CIRCLE
  5
58F
  8
1
 62
     2
 10
-285.711005
 20
111.098649
 30
0.0
 40
0.5
  0
LINE
  5
590
  8
1
 62
     2
 10
-284.962673
 20
104.598649
 30
0.0
 11
-286.459336
 21
104.598649
 31
0.0
  0
ARC
  5
591
  8
1
 62
     2
 10
-285.711005
 20
105.898649
 30
0.0
 40
1.5
 50
299.926435
 51
240.073565
  0
ARC
  5
592
  8
1
 62
     2
 10
-285.711005
 20
103.298649
 30
0.0
 40
1.5
 50
119.926435
 51
60.073565
  0
TEXT
  5
593
  8
1
 62
     4
 10
-291.511005
 20
128.298649
 30
0.0
 40
2.5
  1
ＦＳ０００１
 72
     5
 11
-277.011005
 21
128.298649
 31
0.0
  0
ARC
  5
594
  8
1
 10
-282.661005
 20
154.048649
 30
0.0
 40
0.45
 50
0.0
 51
180.0
  0
ARC
  5
595
  8
1
 10
-283.561005
 20
154.048649
 30
0.0
 40
0.45
 50
0.0
 51
176.987212
  0
ARC
  5
596
  8
1
 10
-284.011005
 20
105.398649
 30
0.0
 40
35.0
 50
77.73846300000001
 51
88.526518
  0
ARC
  5
597
  8
1
 10
-284.011005
 20
105.398649
 30
0.0
 40
35.0
 50
91.473482
 51
102.261537
  0
ARC
  5
598
  8
1
 62
     2
 10
-284.011005
 20
105.398649
 30
0.0
 40
34.0
 50
77.73846300000001
 51
88.48317000000002
  0
ARC
  5
599
  8
1
 62
     2
 10
-284.011005
 20
105.398649
 30
0.0
 40
34.0
 50
91.51683000000001
 51
102.261537
  0
LINE
  5
59A
  8
1
 10
-285.511005
 20
137.398649
 30
0.0
 11
-284.911005
 21
137.398649
 31
0.0
  0
LINE
  5
59B
  8
1
 10
-283.111005
 20
137.398649
 30
0.0
 11
-282.511005
 21
137.398649
 31
0.0
  0
LINE
  5
59C
  8
1
 62
     2
 10
-275.894763
 20
136.456392
 30
0.0
 11
-278.814852
 21
131.398649
 31
0.0
  0
LINE
  5
59D
  8
1
 62
     2
 10
-281.124253
 20
127.398649
 30
0.0
 11
-284.011005
 21
122.398649
 31
0.0
  0
LINE
  5
59E
  8
1
 62
     2
 10
-275.59086
 20
132.982767
 30
0.0
 11
-276.505451
 21
131.398649
 31
0.0
  0
LINE
  5
59F
  8
1
 62
     2
 10
-278.814852
 20
127.398649
 30
0.0
 11
-281.701604
 21
122.398649
 31
0.0
  0
LINE
  5
5A0
  8
1
 62
     2
 10
-275.286957
 20
129.509142
 30
0.0
 11
-276.011005
 21
128.255055
 31
0.0
  0
LINE
  5
5A1
  8
1
 62
     2
 10
-276.505451
 20
127.398649
 30
0.0
 11
-279.392202
 21
122.398649
 31
0.0
  0
LINE
  5
5A2
  8
1
 62
     2
 10
-275.011005
 20
125.987106
 30
0.0
 11
-277.082801
 21
122.398649
 31
0.0
  0
LINE
  5
5A3
  8
1
 62
     2
 10
-276.935242
 20
138.654229
 30
0.0
 11
-281.124253
 21
131.398649
 31
0.0
  0
LINE
  5
5A4
  8
1
 62
     2
 10
-283.433654
 20
127.398649
 30
0.0
 11
-286.320406
 21
122.398649
 31
0.0
  0
LINE
  5
5A5
  8
1
 62
     2
 10
-279.02691
 20
139.031353
 30
0.0
 11
-280.671302
 21
136.183183
 31
0.0
  0
LINE
  5
5A6
  8
1
 62
     2
 10
-282.27058
 20
133.413152
 30
0.0
 11
-283.433654
 21
131.398649
 31
0.0
  0
LINE
  5
5A7
  8
1
 62
     2
 10
-285.743055
 20
127.398649
 30
0.0
 11
-288.629807
 21
122.398649
 31
0.0
  0
LINE
  5
5A8
  8
1
 62
     2
 10
-281.191849
 20
139.28157
 30
0.0
 11
-282.286267
 21
137.385982
 31
0.0
  0
LINE
  5
5A9
  8
1
 62
     2
 10
-284.588355
 20
133.398649
 30
0.0
 11
-285.743055
 21
131.398649
 31
0.0
  0
LINE
  5
5AA
  8
1
 62
     2
 10
-288.052457
 20
127.398649
 30
0.0
 11
-290.939208
 21
122.398649
 31
0.0
  0
LINE
  5
5AB
  8
1
 62
     2
 10
-292.706428
 20
123.337734
 30
0.0
 11
-290.361858
 21
127.398649
 31
0.0
  0
LINE
  5
5AC
  8
1
 62
     2
 10
-288.052457
 20
131.398649
 30
0.0
 11
-286.679982
 21
133.775845
 31
0.0
  0
LINE
  5
5AD
  8
1
 62
     2
 10
-292.964067
 20
126.89149
 30
0.0
 11
-292.011005
 21
128.542242
 31
0.0
  0
LINE
  5
5AE
  8
1
 62
     2
 10
-290.361858
 20
131.398649
 30
0.0
 11
-285.769323
 21
139.353152
 31
0.0
  0
LINE
  5
5AF
  8
1
 62
     2
 10
-292.551611
 20
131.605885
 30
0.0
 11
-288.202169
 21
139.139338
 31
0.0
  0
LINE
  5
5B0
  8
1
 62
     2
 10
-292.139155
 20
136.32028
 30
0.0
 11
-290.751479
 21
138.723804
 31
0.0
  0
LINE
  5
5B1
  8
1
 62
     2
 10
-292.127246
 20
136.456392
 30
0.0
 11
-289.207157
 21
131.398649
 31
0.0
  0
LINE
  5
5B2
  8
1
 62
     2
 10
-286.897756
 20
127.398649
 30
0.0
 11
-284.011005
 21
122.398649
 31
0.0
  0
LINE
  5
5B3
  8
1
 62
     2
 10
-292.431149
 20
132.982767
 30
0.0
 11
-291.516558
 21
131.398649
 31
0.0
  0
LINE
  5
5B4
  8
1
 62
     2
 10
-289.207157
 20
127.398649
 30
0.0
 11
-286.320406
 21
122.398649
 31
0.0
  0
LINE
  5
5B5
  8
1
 62
     2
 10
-292.735052
 20
129.509142
 30
0.0
 11
-292.011005
 21
128.255055
 31
0.0
  0
LINE
  5
5B6
  8
1
 62
     2
 10
-291.516558
 20
127.398649
 30
0.0
 11
-288.629807
 21
122.398649
 31
0.0
  0
LINE
  5
5B7
  8
1
 62
     2
 10
-293.011005
 20
125.987106
 30
0.0
 11
-290.939208
 21
122.398649
 31
0.0
  0
LINE
  5
5B8
  8
1
 62
     2
 10
-291.086767
 20
138.654229
 30
0.0
 11
-286.897756
 21
131.398649
 31
0.0
  0
LINE
  5
5B9
  8
1
 62
     2
 10
-284.588355
 20
127.398649
 30
0.0
 11
-281.701604
 21
122.398649
 31
0.0
  0
LINE
  5
5BA
  8
1
 62
     2
 10
-288.995099
 20
139.031353
 30
0.0
 11
-287.350707
 21
136.183183
 31
0.0
  0
LINE
  5
5BB
  8
1
 62
     2
 10
-285.751429
 20
133.413152
 30
0.0
 11
-284.588355
 21
131.398649
 31
0.0
  0
LINE
  5
5BC
  8
1
 62
     2
 10
-282.278954
 20
127.398649
 30
0.0
 11
-279.392202
 21
122.398649
 31
0.0
  0
LINE
  5
5BD
  8
1
 62
     2
 10
-286.830161
 20
139.28157
 30
0.0
 11
-285.735742
 21
137.385982
 31
0.0
  0
LINE
  5
5BE
  8
1
 62
     2
 10
-283.433654
 20
133.398649
 30
0.0
 11
-282.278954
 21
131.398649
 31
0.0
  0
LINE
  5
5BF
  8
1
 62
     2
 10
-279.969553
 20
127.398649
 30
0.0
 11
-277.082801
 21
122.398649
 31
0.0
  0
LINE
  5
5C0
  8
1
 62
     2
 10
-281.342028
 20
133.775845
 30
0.0
 11
-279.969553
 21
131.398649
 31
0.0
  0
LINE
  5
5C1
  8
1
 62
     2
 10
-277.660152
 20
127.398649
 30
0.0
 11
-275.315581
 21
123.337734
 31
0.0
  0
LINE
  5
5C2
  8
1
 62
     2
 10
-282.252686
 20
139.353152
 30
0.0
 11
-277.660152
 21
131.398649
 31
0.0
  0
LINE
  5
5C3
  8
1
 62
     2
 10
-276.011005
 20
128.542242
 30
0.0
 11
-275.057943
 21
126.89149
 31
0.0
  0
LINE
  5
5C4
  8
1
 62
     2
 10
-279.81984
 20
139.139338
 30
0.0
 11
-275.470399
 21
131.605885
 31
0.0
  0
LINE
  5
5C5
  8
1
 62
     2
 10
-277.27053
 20
138.723804
 30
0.0
 11
-275.882855
 21
136.32028
 31
0.0
  0
LINE
  5
5C6
  8
1
 10
18.5
 20
118.300143
 30
0.0
 11
18.5
 21
250.998659
 31
0.0
  0
ARC
  5
5C7
  8
1
 10
10.0
 20
167.149401
 30
0.0
 40
50.0
 50
260.699284
 51
279.300716
  0
ARC
  5
5C8
  8
1
 10
2.0
 20
118.300143
 30
0.0
 40
0.5
 50
180.0
 51
260.699284
  0
ARC
  5
5C9
  8
1
 10
18.0
 20
118.300143
 30
0.0
 40
0.5
 50
279.300716
 51
0.0
  0
LINE
  5
5CA
  8
1
 62
     4
 10
1.919192
 20
117.877198
 30
0.0
 11
18.15649
 21
117.877198
 31
0.0
  0
ARC
  5
5CB
  8
1
 10
10.0
 20
202.149401
 30
0.0
 40
50.0
 50
80.69928400000002
 51
99.30071599999998
  0
LINE
  5
5CC
  8
1
 62
     4
 10
1.919192
 20
251.421604
 30
0.0
 11
18.080808
 21
251.421604
 31
0.0
  0
ARC
  5
5CD
  8
1
 10
2.0
 20
250.998659
 30
0.0
 40
0.5
 50
99.30071599999998
 51
180.0
  0
ARC
  5
5CE
  8
1
 10
18.0
 20
250.998659
 30
0.0
 40
0.5
 50
0.0
 51
80.69928400000002
  0
LINE
  5
5CF
  8
1
 10
1.0
 20
126.649401
 30
0.0
 11
-21.48164
 21
126.649401
 31
0.0
  0
LINE
  5
5D0
  8
1
 10
1.0
 20
149.649401
 30
0.0
 11
-21.48164
 21
149.649401
 31
0.0
  0
LINE
  5
5D1
  8
1
 62
     4
 10
10.0
 20
145.895367
 30
0.0
 11
-20.7
 21
145.895367
 31
0.0
  0
LINE
  5
5D2
  8
1
 62
     4
 10
10.0
 20
130.403434
 30
0.0
 11
-20.7
 21
130.403434
 31
0.0
  0
LINE
  5
5D3
  8
1
 10
1.5
 20
118.300143
 30
0.0
 11
1.5
 21
126.149401
 31
0.0
  0
LINE
  5
5D4
  8
1
 10
1.5
 20
150.149401
 30
0.0
 11
1.5
 21
250.998659
 31
0.0
  0
ARC
  5
5D5
  8
1
 62
     4
 10
10.0
 20
157.395367
 30
0.0
 40
11.5
 50
222.342605
 51
270.0
  0
ARC
  5
5D6
  8
1
 62
     4
 10
10.0
 20
118.903434
 30
0.0
 40
11.5
 50
90.0
 51
137.657395
  0
ARC
  5
5D7
  8
1
 10
1.0
 20
150.149401
 30
0.0
 40
0.5
 50
270.0
 51
0.0
  0
ARC
  5
5D8
  8
1
 10
1.0
 20
126.149401
 30
0.0
 40
0.5
 50
0.0
 51
90.0
  0
LINE
  5
5D9
  8
1
 10
-138.5
 20
118.300143
 30
0.0
 11
-138.5
 21
250.998659
 31
0.0
  0
ARC
  5
5DA
  8
1
 10
-130.0
 20
167.149401
 30
0.0
 40
50.0
 50
260.699284
 51
279.300716
  0
ARC
  5
5DB
  8
1
 10
-122.0
 20
118.300143
 30
0.0
 40
0.5
 50
279.300716
 51
0.0
  0
ARC
  5
5DC
  8
1
 10
-138.0
 20
118.300143
 30
0.0
 40
0.5
 50
180.0
 51
260.699284
  0
LINE
  5
5DD
  8
1
 62
     4
 10
-121.919192
 20
117.877198
 30
0.0
 11
-138.15649
 21
117.877198
 31
0.0
  0
ARC
  5
5DE
  8
1
 10
-130.0
 20
202.149401
 30
0.0
 40
50.0
 50
80.69928400000002
 51
99.30071599999998
  0
LINE
  5
5DF
  8
1
 62
     4
 10
-121.919192
 20
251.421604
 30
0.0
 11
-138.080808
 21
251.421604
 31
0.0
  0
ARC
  5
5E0
  8
1
 10
-122.0
 20
250.998659
 30
0.0
 40
0.5
 50
0.0
 51
80.69928400000002
  0
ARC
  5
5E1
  8
1
 10
-138.0
 20
250.998659
 30
0.0
 40
0.5
 50
99.30071599999998
 51
180.0
  0
LINE
  5
5E2
  8
1
 10
-121.0
 20
126.649401
 30
0.0
 11
-91.0
 21
126.649401
 31
0.0
  0
LINE
  5
5E3
  8
1
 10
-121.0
 20
149.649401
 30
0.0
 11
-91.0
 21
149.649401
 31
0.0
  0
LINE
  5
5E4
  8
1
 62
     4
 10
-130.0
 20
145.895367
 30
0.0
 11
-95.5
 21
145.895367
 31
0.0
  0
LINE
  5
5E5
  8
1
 62
     4
 10
-130.0
 20
130.403434
 30
0.0
 11
-95.5
 21
130.403434
 31
0.0
  0
LINE
  5
5E6
  8
1
 10
-121.5
 20
118.300143
 30
0.0
 11
-121.5
 21
126.149401
 31
0.0
  0
LINE
  5
5E7
  8
1
 10
-121.5
 20
150.149401
 30
0.0
 11
-121.5
 21
250.998659
 31
0.0
  0
ARC
  5
5E8
  8
1
 62
     4
 10
-130.0
 20
157.395367
 30
0.0
 40
11.5
 50
270.0
 51
317.657395
  0
ARC
  5
5E9
  8
1
 62
     4
 10
-130.0
 20
118.903434
 30
0.0
 40
11.5
 50
42.342605
 51
90.0
  0
ARC
  5
5EA
  8
1
 10
-121.0
 20
150.149401
 30
0.0
 40
0.5
 50
180.0
 51
270.0
  0
ARC
  5
5EB
  8
1
 10
-121.0
 20
126.149401
 30
0.0
 40
0.5
 50
90.0
 51
180.0
  0
ARC
  5
5EC
  8
1
 10
-91.0
 20
149.149401
 30
0.0
 40
0.5
 50
0.0
 51
90.0
  0
ARC
  5
5ED
  8
1
 10
-91.0
 20
127.149401
 30
0.0
 40
0.5
 50
270.0
 51
0.0
  0
LINE
  5
5EE
  8
1
 62
     4
 10
-95.5
 20
130.403434
 30
0.0
 11
-95.5
 21
133.856429
 31
0.0
  0
LINE
  5
5EF
  8
1
 62
     4
 10
-95.5
 20
142.442373
 30
0.0
 11
-95.5
 21
145.895367
 31
0.0
  0
LINE
  5
5F0
  8
1
 10
-90.5
 20
127.149401
 30
0.0
 11
-90.5
 21
130.149401
 31
0.0
  0
LINE
  5
5F1
  8
1
 10
-90.5
 20
146.149401
 30
0.0
 11
-90.5
 21
149.149401
 31
0.0
  0
LINE
  5
5F2
  8
1
 10
236.559039
 20
190.656181
 30
0.0
 11
236.559039
 21
184.156181
 31
0.0
  0
ARC
  5
5F3
  8
1
 10
245.859039
 20
198.206181
 30
0.0
 40
3.0
 50
115.841933
 51
180.0
  0
LINE
  5
5F4
  8
1
 10
242.859039
 20
190.956181
 30
0.0
 11
236.859039
 21
190.956181
 31
0.0
  0
LINE
  5
5F5
  8
1
 10
242.859039
 20
198.206181
 30
0.0
 11
242.859039
 21
176.606181
 31
0.0
  0
ARC
  5
5F6
  8
1
 10
236.859039
 20
190.656181
 30
0.0
 40
0.3
 50
90.0
 51
180.0
  0
LINE
  5
5F7
  8
1
 10
240.559039
 20
190.956181
 30
0.0
 11
240.559039
 21
195.406181
 31
0.0
  0
LINE
  5
5F8
  8
1
 10
241.559039
 20
190.956181
 30
0.0
 11
241.559039
 21
195.406181
 31
0.0
  0
LINE
  5
5F9
  8
1
 10
239.559039
 20
190.956181
 30
0.0
 11
239.559039
 21
197.406181
 31
0.0
  0
ARC
  5
5FA
  8
1
 10
245.859039
 20
176.606181
 30
0.0
 40
3.0
 50
180.0
 51
244.158067
  0
LINE
  5
5FB
  8
1
 10
242.859039
 20
183.856181
 30
0.0
 11
236.859039
 21
183.856181
 31
0.0
  0
ARC
  5
5FC
  8
1
 10
236.859039
 20
184.156181
 30
0.0
 40
0.3
 50
180.0
 51
270.0
  0
LINE
  5
5FD
  8
1
 10
240.559039
 20
183.856181
 30
0.0
 11
240.559039
 21
179.406181
 31
0.0
  0
LINE
  5
5FE
  8
1
 10
241.559039
 20
183.856181
 30
0.0
 11
241.559039
 21
179.406181
 31
0.0
  0
LINE
  5
5FF
  8
1
 10
239.559039
 20
183.856181
 30
0.0
 11
239.559039
 21
177.406181
 31
0.0
  0
LINE
  5
600
  8
1
 10
259.159039
 20
109.983154
 30
0.0
 11
258.978506
 21
104.813355
 31
0.0
  0
ARC
  5
601
  8
1
 10
256.979724
 20
104.883154
 30
0.0
 40
2.0
 50
270.0
 51
358.0
  0
LINE
  5
602
  8
1
 10
241.059039
 20
109.983154
 30
0.0
 11
241.239573
 21
104.813355
 31
0.0
  0
ARC
  5
603
  8
1
 10
243.238354
 20
104.883154
 30
0.0
 40
2.0
 50
182.0
 51
270.0
  0
LINE
  5
604
  8
1
 10
243.238354
 20
102.883154
 30
0.0
 11
248.609039
 21
102.883154
 31
0.0
  0
LINE
  5
605
  8
1
 10
251.109039
 20
102.883154
 30
0.0
 11
256.979724
 21
102.883154
 31
0.0
  0
LINE
  5
606
  8
1
 10
313.957732
 20
184.064914
 30
0.0
 11
313.957732
 21
190.747445
 31
0.0
  0
LINE
  5
607
  8
1
 10
324.157732
 20
174.485495
 30
0.0
 11
324.157732
 21
200.326865
 31
0.0
  0
LINE
  5
608
  8
1
 10
314.157732
 20
183.864907
 30
0.0
 11
314.155987
 21
183.864922
 31
0.0
  0
ARC
  5
609
  8
1
 10
314.157732
 20
184.064914
 30
0.0
 40
0.2
 50
180.0
 51
269.5000000000001
  0
LINE
  5
60A
  8
1
 10
317.057732
 20
172.30618
 30
0.0
 11
322.227531
 21
172.486713
 31
0.0
  0
ARC
  5
60B
  8
1
 10
322.157732
 20
174.485495
 30
0.0
 40
2.0
 50
272.0000000000001
 51
0.0
  0
LINE
  5
60C
  8
1
 10
315.657047
 20
154.606059
 30
0.0
 11
316.644556
 21
154.780184
 31
0.0
  0
ARC
  5
60D
  8
1
 10
316.557732
 20
155.272587
 30
0.0
 40
0.5
 50
280.0
 51
0.0
  0
LINE
  5
60E
  8
1
 10
315.657047
 20
154.606059
 30
0.0
 11
315.157732
 21
154.632227
 31
0.0
  0
LINE
  5
60F
  8
1
 10
317.057732
 20
155.272587
 30
0.0
 11
317.057732
 21
219.539772
 31
0.0
  0
LINE
  5
610
  8
1
 10
317.507732
 20
157.464253
 30
0.0
 11
317.507732
 21
167.348105
 31
0.0
  0
LINE
  5
611
  8
1
 10
317.507732
 20
157.464253
 30
0.0
 11
317.057732
 21
157.440669
 31
0.0
  0
LINE
  5
612
  8
1
 10
317.507732
 20
167.348105
 30
0.0
 11
317.057732
 21
167.371689
 31
0.0
  0
LINE
  5
613
  8
1
 10
315.157732
 20
154.632227
 30
0.0
 11
315.157732
 21
220.180133
 31
0.0
  0
LINE
  5
614
  8
1
 10
236.767774
 20
113.083154
 30
0.0
 11
241.867728
 21
113.083154
 31
0.0
  0
ARC
  5
615
  8
1
 10
241.867728
 20
112.083154
 30
0.0
 40
1.0
 50
53.130102
 51
90.0
  0
LINE
  5
616
  8
1
 10
236.567781
 20
112.884899
 30
0.0
 11
236.567766
 21
112.883154
 31
0.0
  0
ARC
  5
617
  8
1
 10
236.767774
 20
112.883154
 30
0.0
 40
0.2
 50
90.0
 51
179.5
  0
LINE
  5
618
  8
1
 10
260.359039
 20
111.383154
 30
0.0
 11
260.185036
 21
110.396329
 31
0.0
  0
LINE
  5
619
  8
1
 10
259.692632
 20
109.983154
 30
0.0
 11
231.725447
 21
109.983154
 31
0.0
  0
LINE
  5
61A
  8
1
 10
231.059039
 20
111.383154
 30
0.0
 11
231.559039
 21
111.883154
 31
0.0
  0
LINE
  5
61B
  8
1
 10
231.059039
 20
111.383154
 30
0.0
 11
231.233043
 21
110.396329
 31
0.0
  0
ARC
  5
61C
  8
1
 10
231.725447
 20
110.483154
 30
0.0
 40
0.5
 50
190.0
 51
270.0
  0
ARC
  5
61D
  8
1
 10
259.692632
 20
110.483154
 30
0.0
 40
0.5
 50
270.0
 51
349.9999999999999
  0
LINE
  5
61E
  8
1
 10
260.359039
 20
111.383154
 30
0.0
 11
260.332835
 21
111.883154
 31
0.0
  0
LINE
  5
61F
  8
1
 62
     2
 10
257.904805
 20
109.606394
 30
0.0
 11
257.92455
 21
109.983154
 31
0.0
  0
LINE
  5
620
  8
1
 62
     2
 10
242.812528
 20
109.620627
 30
0.0
 11
242.793529
 21
109.983154
 31
0.0
  0
LINE
  5
621
  8
1
 10
246.609039
 20
109.983154
 30
0.0
 11
246.638684
 21
109.947579
 31
0.0
  0
LINE
  5
622
  8
1
 10
247.609039
 20
109.983154
 30
0.0
 11
247.638684
 21
109.947579
 31
0.0
  0
LINE
  5
623
  8
1
 10
245.609039
 20
109.983154
 30
0.0
 11
245.638686
 21
109.947577
 31
0.0
  0
LINE
  5
624
  8
1
 62
     2
 10
246.859037
 20
109.533155
 30
0.0
 11
246.638684
 21
109.947579
 31
0.0
  0
LINE
  5
625
  8
1
 62
     2
 10
246.859037
 20
109.533155
 30
0.0
 11
247.140228
 21
109.983154
 31
0.0
  0
LINE
  5
626
  8
1
 62
     2
 10
245.859038
 20
109.533155
 30
0.0
 11
245.638686
 21
109.947577
 31
0.0
  0
LINE
  5
627
  8
1
 62
     2
 10
245.859038
 20
109.533155
 30
0.0
 11
246.140228
 21
109.983154
 31
0.0
  0
LINE
  5
628
  8
1
 62
     2
 10
247.859037
 20
109.533155
 30
0.0
 11
247.638684
 21
109.947579
 31
0.0
  0
LINE
  5
629
  8
1
 62
     2
 10
247.859037
 20
109.533155
 30
0.0
 11
248.109039
 21
109.933242
 31
0.0
  0
LINE
  5
62A
  8
1
 10
243.609039
 20
109.983154
 30
0.0
 11
243.638684
 21
109.947579
 31
0.0
  0
LINE
  5
62B
  8
1
 10
244.609039
 20
109.983154
 30
0.0
 11
244.638684
 21
109.947579
 31
0.0
  0
LINE
  5
62C
  8
1
 62
     2
 10
243.859037
 20
109.533155
 30
0.0
 11
243.638684
 21
109.947579
 31
0.0
  0
LINE
  5
62D
  8
1
 62
     2
 10
243.859037
 20
109.533155
 30
0.0
 11
244.140228
 21
109.983154
 31
0.0
  0
LINE
  5
62E
  8
1
 62
     2
 10
242.859038
 20
109.533155
 30
0.0
 11
242.812528
 21
109.620627
 31
0.0
  0
LINE
  5
62F
  8
1
 62
     2
 10
242.859038
 20
109.533155
 30
0.0
 11
243.140228
 21
109.983154
 31
0.0
  0
LINE
  5
630
  8
1
 62
     2
 10
244.859037
 20
109.533155
 30
0.0
 11
244.638684
 21
109.947579
 31
0.0
  0
LINE
  5
631
  8
1
 62
     2
 10
244.859037
 20
109.533155
 30
0.0
 11
245.140228
 21
109.983154
 31
0.0
  0
LINE
  5
632
  8
1
 10
255.609039
 20
109.983154
 30
0.0
 11
255.638684
 21
109.947579
 31
0.0
  0
LINE
  5
633
  8
1
 10
256.609039
 20
109.983154
 30
0.0
 11
256.638684
 21
109.947579
 31
0.0
  0
LINE
  5
634
  8
1
 62
     2
 10
255.859037
 20
109.533155
 30
0.0
 11
255.638684
 21
109.947579
 31
0.0
  0
LINE
  5
635
  8
1
 62
     2
 10
255.859037
 20
109.533155
 30
0.0
 11
256.140228
 21
109.983154
 31
0.0
  0
LINE
  5
636
  8
1
 62
     2
 10
256.859037
 20
109.533155
 30
0.0
 11
256.638684
 21
109.947579
 31
0.0
  0
LINE
  5
637
  8
1
 62
     2
 10
256.859037
 20
109.533155
 30
0.0
 11
257.140228
 21
109.983154
 31
0.0
  0
LINE
  5
638
  8
1
 10
257.609039
 20
109.983154
 30
0.0
 11
257.638686
 21
109.947577
 31
0.0
  0
LINE
  5
639
  8
1
 62
     2
 10
257.859038
 20
109.533155
 30
0.0
 11
257.638686
 21
109.947577
 31
0.0
  0
LINE
  5
63A
  8
1
 62
     2
 10
257.859039
 20
109.533155
 30
0.0
 11
257.904805
 21
109.606394
 31
0.0
  0
LINE
  5
63B
  8
1
 10
254.609039
 20
109.983154
 30
0.0
 11
254.638684
 21
109.947579
 31
0.0
  0
LINE
  5
63C
  8
1
 62
     2
 10
254.859037
 20
109.533155
 30
0.0
 11
254.638684
 21
109.947579
 31
0.0
  0
LINE
  5
63D
  8
1
 62
     2
 10
254.859037
 20
109.533155
 30
0.0
 11
255.140228
 21
109.983154
 31
0.0
  0
LINE
  5
63E
  8
1
 10
253.609039
 20
109.983154
 30
0.0
 11
253.638684
 21
109.947579
 31
0.0
  0
LINE
  5
63F
  8
1
 62
     2
 10
253.859037
 20
109.533155
 30
0.0
 11
253.638684
 21
109.947579
 31
0.0
  0
LINE
  5
640
  8
1
 62
     2
 10
253.859037
 20
109.533155
 30
0.0
 11
254.140228
 21
109.983154
 31
0.0
  0
LINE
  5
641
  8
1
 10
252.609039
 20
109.983154
 30
0.0
 11
252.638684
 21
109.947579
 31
0.0
  0
LINE
  5
642
  8
1
 62
     2
 10
252.859037
 20
109.533155
 30
0.0
 11
252.638684
 21
109.947579
 31
0.0
  0
LINE
  5
643
  8
1
 62
     2
 10
252.859037
 20
109.533155
 30
0.0
 11
253.140228
 21
109.983154
 31
0.0
  0
LINE
  5
644
  8
1
 10
251.609039
 20
109.983153
 30
0.0
 11
251.638684
 21
109.947579
 31
0.0
  0
LINE
  5
645
  8
1
 62
     2
 10
251.859037
 20
109.533155
 30
0.0
 11
251.638684
 21
109.947579
 31
0.0
  0
LINE
  5
646
  8
1
 62
     2
 10
251.859037
 20
109.533155
 30
0.0
 11
252.140228
 21
109.983154
 31
0.0
  0
LINE
  5
647
  8
1
 10
314.157732
 20
190.947453
 30
0.0
 11
314.155987
 21
190.947438
 31
0.0
  0
ARC
  5
648
  8
1
 10
314.157732
 20
190.747445
 30
0.0
 40
0.2
 50
90.5
 51
180.0
  0
LINE
  5
649
  8
1
 10
317.057732
 20
202.50618
 30
0.0
 11
322.227531
 21
202.325646
 31
0.0
  0
ARC
  5
64A
  8
1
 10
322.157732
 20
200.326865
 30
0.0
 40
2.0
 50
0.0
 51
88.0
  0
LINE
  5
64B
  8
1
 10
315.657047
 20
220.206301
 30
0.0
 11
316.644556
 21
220.032176
 31
0.0
  0
ARC
  5
64C
  8
1
 10
316.557732
 20
219.539772
 30
0.0
 40
0.5
 50
0.0
 51
80.0
  0
LINE
  5
64D
  8
1
 10
315.657047
 20
220.206301
 30
0.0
 11
315.157732
 21
220.180133
 31
0.0
  0
LINE
  5
64E
  8
1
 10
317.507732
 20
217.348107
 30
0.0
 11
317.507732
 21
207.464254
 31
0.0
  0
LINE
  5
64F
  8
1
 10
317.507732
 20
217.348107
 30
0.0
 11
317.057732
 21
217.37169
 31
0.0
  0
LINE
  5
650
  8
1
 10
317.507732
 20
207.464254
 30
0.0
 11
317.057732
 21
207.440671
 31
0.0
  0
LINE
  5
651
  8
1
 10
248.609039
 20
109.983154
 30
0.0
 11
248.638684
 21
109.947579
 31
0.0
  0
LINE
  5
652
  8
1
 62
     2
 10
248.859037
 20
109.533155
 30
0.0
 11
248.638684
 21
109.947579
 31
0.0
  0
LINE
  5
653
  8
1
 62
     2
 10
248.859037
 20
109.533155
 30
0.0
 11
249.109039
 21
109.933242
 31
0.0
  0
LINE
  5
654
  8
1
 10
249.609039
 20
109.983154
 30
0.0
 11
249.638684
 21
109.947579
 31
0.0
  0
LINE
  5
655
  8
1
 62
     2
 10
249.859037
 20
109.533155
 30
0.0
 11
249.638684
 21
109.947579
 31
0.0
  0
LINE
  5
656
  8
1
 62
     2
 10
249.859037
 20
109.533155
 30
0.0
 11
250.109039
 21
109.933242
 31
0.0
  0
LINE
  5
657
  8
1
 10
250.609039
 20
109.983154
 30
0.0
 11
250.638684
 21
109.947579
 31
0.0
  0
LINE
  5
658
  8
1
 62
     2
 10
250.859037
 20
109.533155
 30
0.0
 11
250.638684
 21
109.947579
 31
0.0
  0
LINE
  5
659
  8
1
 62
     2
 10
250.859037
 20
109.533155
 30
0.0
 11
251.109039
 21
109.933242
 31
0.0
  0
LINE
  5
65A
  8
1
 10
262.359039
 20
220.406181
 30
0.0
 11
229.859039
 21
220.406181
 31
0.0
  0
LINE
  5
65B
  8
1
 10
262.359039
 20
220.406181
 30
0.0
 11
262.359039
 21
154.406181
 31
0.0
  0
LINE
  5
65C
  8
1
 10
224.859039
 20
215.406181
 30
0.0
 11
224.859039
 21
159.406181
 31
0.0
  0
ARC
  5
65D
  8
1
 10
229.859039
 20
215.406181
 30
0.0
 40
5.0
 50
90.0
 51
180.0
  0
LINE
  5
65E
  8
1
 10
257.359039
 20
198.906181
 30
0.0
 11
257.359039
 21
175.906181
 31
0.0
  0
LINE
  5
65F
  8
1
 10
255.359039
 20
200.906181
 30
0.0
 11
241.559039
 21
200.906181
 31
0.0
  0
ARC
  5
660
  8
1
 10
255.359039
 20
198.906181
 30
0.0
 40
2.0
 50
0.0
 51
90.0
  0
LINE
  5
661
  8
1
 10
239.259039
 20
191.006181
 30
0.0
 11
233.859039
 21
191.006181
 31
0.0
  0
ARC
  5
662
  8
1
 10
241.559039
 20
198.906181
 30
0.0
 40
2.0
 50
90.0
 51
180.0
  0
LINE
  5
663
  8
1
 10
239.559039
 20
197.406181
 30
0.0
 11
239.559039
 21
198.906181
 31
0.0
  0
ARC
  5
664
  8
1
 10
239.259039
 20
191.306181
 30
0.0
 40
0.3
 50
270.0
 51
0.0
  0
LINE
  5
665
  8
1
 10
233.559039
 20
190.706181
 30
0.0
 11
233.559039
 21
184.106181
 31
0.0
  0
ARC
  5
666
  8
1
 10
233.859039
 20
190.706181
 30
0.0
 40
0.3
 50
90.0
 51
180.0
  0
LINE
  5
667
  8
1
 10
262.359039
 20
154.406181
 30
0.0
 11
229.859039
 21
154.406181
 31
0.0
  0
ARC
  5
668
  8
1
 10
229.859039
 20
159.406181
 30
0.0
 40
5.0
 50
180.0
 51
270.0
  0
LINE
  5
669
  8
1
 10
255.359039
 20
173.906181
 30
0.0
 11
241.559039
 21
173.906181
 31
0.0
  0
ARC
  5
66A
  8
1
 10
255.359039
 20
175.906181
 30
0.0
 40
2.0
 50
270.0
 51
0.0
  0
LINE
  5
66B
  8
1
 10
239.259039
 20
183.806181
 30
0.0
 11
233.859039
 21
183.806181
 31
0.0
  0
ARC
  5
66C
  8
1
 10
241.559039
 20
175.906181
 30
0.0
 40
2.0
 50
180.0
 51
270.0
  0
LINE
  5
66D
  8
1
 10
239.559039
 20
177.406181
 30
0.0
 11
239.559039
 21
175.906181
 31
0.0
  0
ARC
  5
66E
  8
1
 10
239.259039
 20
183.506181
 30
0.0
 40
0.3
 50
0.0
 51
90.0
  0
ARC
  5
66F
  8
1
 10
233.859039
 20
184.106181
 30
0.0
 40
0.3
 50
180.0
 51
270.0
  0
LINE
  5
670
  8
1
 10
314.157732
 20
154.40618
 30
0.0
 11
315.157732
 21
154.40618
 31
0.0
  0
ARC
  5
671
  8
1
 10
309.907732
 20
159.40618
 30
0.0
 40
7.25
 50
316.397181
 51
318.707567
  0
LINE
  5
672
  8
1
 10
315.157732
 20
154.40618
 30
0.0
 11
315.157732
 21
154.632227
 31
0.0
  0
LINE
  5
673
  8
1
 10
314.157732
 20
154.40618
 30
0.0
 11
314.157732
 21
220.40618
 31
0.0
  0
LINE
  5
674
  8
1
  6
CENTER
 62
     2
 10
249.859039
 20
225.353597
 30
0.0
 11
249.859039
 21
152.072301
 31
0.0
  0
LINE
  5
675
  8
1
 10
227.731832
 20
112.883154
 30
0.0
 11
262.359039
 21
112.883154
 31
0.0
  0
LINE
  5
676
  8
1
 10
262.359039
 20
111.883154
 30
0.0
 11
262.359039
 21
112.883154
 31
0.0
  0
LINE
  5
677
  8
1
 10
224.917618
 20
110.607418
 30
0.0
 11
226.812593
 21
112.502392
 31
0.0
  0
LINE
  5
678
  8
1
 10
225.695435
 20
109.971022
 30
0.0
 11
227.519699
 21
111.795286
 31
0.0
  0
LINE
  5
679
  8
1
 10
225.271171
 20
109.971022
 30
0.0
 11
224.917618
 21
110.324575
 31
0.0
  0
ARC
  5
67A
  8
1
 10
225.483303
 20
110.183154
 30
0.0
 40
0.3
 50
225.0
 51
315.0
  0
ARC
  5
67B
  8
1
 10
225.059039
 20
110.465996
 30
0.0
 40
0.2
 50
135.0
 51
225.0
  0
ARC
  5
67C
  8
1
 10
227.731832
 20
111.583154
 30
0.0
 40
1.3
 50
90.0
 51
135.0
  0
ARC
  5
67D
  8
1
 10
227.731832
 20
111.583154
 30
0.0
 40
0.3
 50
90.0
 51
135.0
  0
LINE
  5
67E
  8
1
 10
262.359039
 20
111.883154
 30
0.0
 11
227.731832
 21
111.883154
 31
0.0
  0
LINE
  5
67F
  8
1
 10
317.157732
 20
167.366448
 30
0.0
 11
317.157732
 21
172.309672
 31
0.0
  0
LINE
  5
680
  8
1
 10
314.157732
 20
220.40618
 30
0.0
 11
315.157732
 21
220.40618
 31
0.0
  0
ARC
  5
681
  8
1
 10
309.907732
 20
215.40618
 30
0.0
 40
7.25
 50
41.292433
 51
43.60281899999999
  0
LINE
  5
682
  8
1
 10
315.157732
 20
220.40618
 30
0.0
 11
315.157732
 21
220.180133
 31
0.0
  0
LINE
  5
683
  8
1
 10
317.157732
 20
207.445912
 30
0.0
 11
317.157732
 21
202.502688
 31
0.0
  0
CIRCLE
  5
684
  8
1
 10
249.859039
 20
212.406181
 30
0.0
 40
3.5
  0
ARC
  5
685
  8
1
 62
     2
 10
252.009039
 20
214.556181
 30
0.0
 40
1.658571
 50
180.0
 51
270.0
  0
ARC
  5
686
  8
1
 62
     2
 10
247.709039
 20
214.556181
 30
0.0
 40
1.658571
 50
270.0
 51
0.0
  0
ARC
  5
687
  8
1
 62
     2
 10
247.709039
 20
210.256181
 30
0.0
 40
1.658571
 50
0.0
 51
90.0
  0
ARC
  5
688
  8
1
 62
     2
 10
252.009039
 20
210.256181
 30
0.0
 40
1.658571
 50
90.0
 51
180.0
  0
LINE
  5
689
  8
1
 62
     2
 10
249.859039
 20
210.256181
 30
0.0
 11
250.350468
 21
210.256181
 31
0.0
  0
LINE
  5
68A
  8
1
 62
     2
 10
249.859039
 20
210.256181
 30
0.0
 11
249.367611
 21
210.256181
 31
0.0
  0
LINE
  5
68B
  8
1
 62
     2
 10
247.709039
 20
211.914753
 30
0.0
 11
247.709039
 21
212.406181
 31
0.0
  0
LINE
  5
68C
  8
1
 62
     2
 10
247.709039
 20
212.89761
 30
0.0
 11
247.709039
 21
212.406181
 31
0.0
  0
LINE
  5
68D
  8
1
 62
     2
 10
249.859039
 20
214.556181
 30
0.0
 11
249.367611
 21
214.556181
 31
0.0
  0
LINE
  5
68E
  8
1
 62
     2
 10
249.859039
 20
214.556181
 30
0.0
 11
250.350468
 21
214.556181
 31
0.0
  0
LINE
  5
68F
  8
1
 62
     2
 10
252.009039
 20
212.89761
 30
0.0
 11
252.009039
 21
212.406181
 31
0.0
  0
LINE
  5
690
  8
1
 62
     2
 10
252.009039
 20
211.914753
 30
0.0
 11
252.009039
 21
212.406181
 31
0.0
  0
CIRCLE
  5
691
  8
1
 10
249.859039
 20
162.406181
 30
0.0
 40
3.5
  0
ARC
  5
692
  8
1
 62
     2
 10
252.009039
 20
164.556181
 30
0.0
 40
1.658571
 50
180.0
 51
270.0
  0
ARC
  5
693
  8
1
 62
     2
 10
247.709039
 20
164.556181
 30
0.0
 40
1.658571
 50
270.0
 51
0.0
  0
ARC
  5
694
  8
1
 62
     2
 10
247.709039
 20
160.256181
 30
0.0
 40
1.658571
 50
0.0
 51
90.0
  0
ARC
  5
695
  8
1
 62
     2
 10
252.009039
 20
160.256181
 30
0.0
 40
1.658571
 50
90.0
 51
180.0
  0
LINE
  5
696
  8
1
 62
     2
 10
249.859039
 20
160.256181
 30
0.0
 11
250.350468
 21
160.256181
 31
0.0
  0
LINE
  5
697
  8
1
 62
     2
 10
249.859039
 20
160.256181
 30
0.0
 11
249.367611
 21
160.256181
 31
0.0
  0
LINE
  5
698
  8
1
 62
     2
 10
247.709039
 20
161.914753
 30
0.0
 11
247.709039
 21
162.406181
 31
0.0
  0
LINE
  5
699
  8
1
 62
     2
 10
247.709039
 20
162.89761
 30
0.0
 11
247.709039
 21
162.406181
 31
0.0
  0
LINE
  5
69A
  8
1
 62
     2
 10
249.859039
 20
164.556181
 30
0.0
 11
249.367611
 21
164.556181
 31
0.0
  0
LINE
  5
69B
  8
1
 62
     2
 10
249.859039
 20
164.556181
 30
0.0
 11
250.350468
 21
164.556181
 31
0.0
  0
LINE
  5
69C
  8
1
 62
     2
 10
252.009039
 20
162.89761
 30
0.0
 11
252.009039
 21
162.406181
 31
0.0
  0
LINE
  5
69D
  8
1
 62
     2
 10
252.009039
 20
161.914753
 30
0.0
 11
252.009039
 21
162.406181
 31
0.0
  0
LINE
  5
69E
  8
1
  6
CENTER
 62
     2
 10
242.834192
 20
162.406181
 30
0.0
 11
256.883886
 21
162.406181
 31
0.0
  0
LINE
  5
69F
  8
1
  6
CENTER
 62
     2
 10
256.883886
 20
212.406181
 30
0.0
 11
242.834192
 21
212.406181
 31
0.0
  0
LINE
  5
6A0
  8
1
 10
321.926643
 20
210.656178
 30
0.0
 11
317.657732
 21
210.656178
 31
0.0
  0
LINE
  5
6A1
  8
1
 10
320.988821
 20
214.156178
 30
0.0
 11
317.657732
 21
214.156178
 31
0.0
  0
LINE
  5
6A2
  8
1
 10
336.157732
 20
212.406178
 30
0.0
 11
331.492669
 21
213.656178
 31
0.0
  0
LINE
  5
6A3
  8
1
 10
336.157732
 20
212.406178
 30
0.0
 11
331.492669
 21
211.156178
 31
0.0
  0
LINE
  5
6A4
  8
1
 10
331.492669
 20
211.156178
 30
0.0
 11
321.792669
 21
211.156178
 31
0.0
  0
LINE
  5
6A5
  8
1
 10
331.492669
 20
213.656178
 30
0.0
 11
321.122796
 21
213.656178
 31
0.0
  0
LINE
  5
6A6
  8
1
 10
321.926643
 20
210.656178
 30
0.0
 11
320.988821
 21
214.156178
 31
0.0
  0
LINE
  5
6A7
  8
1
 62
     2
 10
323.326643
 20
210.656178
 30
0.0
 11
322.388821
 21
214.156178
 31
0.0
  0
LINE
  5
6A8
  8
1
 62
     2
 10
324.726643
 20
210.656178
 30
0.0
 11
323.788821
 21
214.156178
 31
0.0
  0
LINE
  5
6A9
  8
1
 62
     2
 10
326.126643
 20
210.656178
 30
0.0
 11
325.188821
 21
214.156178
 31
0.0
  0
LINE
  5
6AA
  8
1
 62
     2
 10
327.526643
 20
210.656178
 30
0.0
 11
326.588821
 21
214.156178
 31
0.0
  0
LINE
  5
6AB
  8
1
 62
     2
 10
328.926643
 20
210.656178
 30
0.0
 11
327.988821
 21
214.156178
 31
0.0
  0
LINE
  5
6AC
  8
1
 62
     2
 10
330.326643
 20
210.656178
 30
0.0
 11
329.388821
 21
214.156178
 31
0.0
  0
LINE
  5
6AD
  8
1
 62
     2
 10
331.715379
 20
210.698215
 30
0.0
 11
330.788821
 21
214.156178
 31
0.0
  0
LINE
  5
6AE
  8
1
 62
     2
 10
333.021597
 20
211.048215
 30
0.0
 11
332.237577
 21
213.974218
 31
0.0
  0
LINE
  5
6AF
  8
1
 62
     2
 10
334.327815
 20
211.398215
 30
0.0
 11
333.745867
 21
213.570073
 31
0.0
  0
LINE
  5
6B0
  8
1
 10
321.926643
 20
160.656182
 30
0.0
 11
317.657732
 21
160.656182
 31
0.0
  0
LINE
  5
6B1
  8
1
 10
320.988821
 20
164.156182
 30
0.0
 11
317.657732
 21
164.156182
 31
0.0
  0
LINE
  5
6B2
  8
1
 10
336.157732
 20
162.406182
 30
0.0
 11
331.492669
 21
163.656182
 31
0.0
  0
LINE
  5
6B3
  8
1
 10
336.157732
 20
162.406182
 30
0.0
 11
331.492669
 21
161.156182
 31
0.0
  0
LINE
  5
6B4
  8
1
 10
331.492669
 20
161.156182
 30
0.0
 11
321.792669
 21
161.156182
 31
0.0
  0
LINE
  5
6B5
  8
1
 10
331.492669
 20
163.656182
 30
0.0
 11
321.122796
 21
163.656182
 31
0.0
  0
LINE
  5
6B6
  8
1
 10
321.926643
 20
160.656182
 30
0.0
 11
320.988821
 21
164.156182
 31
0.0
  0
LINE
  5
6B7
  8
1
 62
     2
 10
323.326643
 20
160.656182
 30
0.0
 11
322.388821
 21
164.156182
 31
0.0
  0
LINE
  5
6B8
  8
1
 62
     2
 10
324.726643
 20
160.656182
 30
0.0
 11
323.788821
 21
164.156182
 31
0.0
  0
LINE
  5
6B9
  8
1
 62
     2
 10
326.126643
 20
160.656182
 30
0.0
 11
325.188821
 21
164.156182
 31
0.0
  0
LINE
  5
6BA
  8
1
 62
     2
 10
327.526643
 20
160.656182
 30
0.0
 11
326.588821
 21
164.156182
 31
0.0
  0
LINE
  5
6BB
  8
1
 62
     2
 10
328.926643
 20
160.656182
 30
0.0
 11
327.988821
 21
164.156182
 31
0.0
  0
LINE
  5
6BC
  8
1
 62
     2
 10
330.326643
 20
160.656182
 30
0.0
 11
329.388821
 21
164.156182
 31
0.0
  0
LINE
  5
6BD
  8
1
 62
     2
 10
331.715379
 20
160.698219
 30
0.0
 11
330.788821
 21
164.156182
 31
0.0
  0
LINE
  5
6BE
  8
1
 62
     2
 10
333.021597
 20
161.048219
 30
0.0
 11
332.237577
 21
163.974222
 31
0.0
  0
LINE
  5
6BF
  8
1
 62
     2
 10
334.327815
 20
161.398219
 30
0.0
 11
333.745867
 21
163.570077
 31
0.0
  0
LINE
  5
6C0
  8
1
 10
248.109039
 20
105.114242
 30
0.0
 11
248.109039
 21
109.383154
 31
0.0
  0
LINE
  5
6C1
  8
1
 10
251.609039
 20
106.052065
 30
0.0
 11
251.609039
 21
109.383154
 31
0.0
  0
LINE
  5
6C2
  8
1
 10
249.859039
 20
90.883154
 30
0.0
 11
251.109039
 21
95.548217
 31
0.0
  0
LINE
  5
6C3
  8
1
 10
249.859039
 20
90.883154
 30
0.0
 11
248.609039
 21
95.548217
 31
0.0
  0
LINE
  5
6C4
  8
1
 10
248.609039
 20
95.548217
 30
0.0
 11
248.609039
 21
105.248217
 31
0.0
  0
LINE
  5
6C5
  8
1
 10
251.109039
 20
95.548217
 30
0.0
 11
251.109039
 21
105.91809
 31
0.0
  0
LINE
  5
6C6
  8
1
 10
248.109039
 20
105.114242
 30
0.0
 11
251.609039
 21
106.052065
 31
0.0
  0
LINE
  5
6C7
  8
1
 62
     2
 10
248.109039
 20
103.714242
 30
0.0
 11
251.609039
 21
104.652065
 31
0.0
  0
LINE
  5
6C8
  8
1
 62
     2
 10
248.109039
 20
102.314242
 30
0.0
 11
251.609039
 21
103.252065
 31
0.0
  0
LINE
  5
6C9
  8
1
 62
     2
 10
248.109039
 20
100.914242
 30
0.0
 11
251.609039
 21
101.852065
 31
0.0
  0
LINE
  5
6CA
  8
1
 62
     2
 10
248.109039
 20
99.514242
 30
0.0
 11
251.609039
 21
100.452065
 31
0.0
  0
LINE
  5
6CB
  8
1
 62
     2
 10
248.109039
 20
98.114242
 30
0.0
 11
251.609039
 21
99.052065
 31
0.0
  0
LINE
  5
6CC
  8
1
 62
     2
 10
248.109039
 20
96.714242
 30
0.0
 11
251.609039
 21
97.652065
 31
0.0
  0
LINE
  5
6CD
  8
1
 62
     2
 10
248.151076
 20
95.325506
 30
0.0
 11
251.609039
 21
96.252065
 31
0.0
  0
LINE
  5
6CE
  8
1
 62
     2
 10
248.501076
 20
94.019288
 30
0.0
 11
251.42708
 21
94.803309
 31
0.0
  0
LINE
  5
6CF
  8
1
 62
     2
 10
248.851076
 20
92.713071
 30
0.0
 11
251.022935
 21
93.295018
 31
0.0
  0
LINE
  5
6D0
  8
1
  6
CENTER
 62
     2
 10
221.461975
 20
187.406187
 30
0.0
 11
264.853851
 21
187.406187
 31
0.0
  0
LINE
  5
6D1
  8
1
  6
CENTER
 62
     2
 10
310.693451
 20
187.406188
 30
0.0
 11
328.050171
 21
187.406188
 31
0.0
  0
LINE
  5
6D2
  8
1
  6
CENTER
 62
     2
 10
249.859039
 20
114.152182
 30
0.0
 11
249.859039
 21
89.847128
 31
0.0
  0
LINE
  5
6D3
  8
1
  6
CENTER
 62
     2
 10
312.013774
 20
212.406176
 30
0.0
 11
337.35498
 21
212.406176
 31
0.0
  0
LINE
  5
6D4
  8
1
  6
CENTER
 62
     2
 10
312.013774
 20
162.406199
 30
0.0
 11
337.35498
 21
162.406199
 31
0.0
  0
ARC
  5
6D5
  8
1
 10
-294.111005
 20
164.031902
 30
0.0
 40
3.0
 50
90.0
 51
180.0
  0
ARC
  5
6D6
  8
1
 10
-298.611005
 20
164.031902
 30
0.0
 40
1.5
 50
270.0
 51
0.0
  0
ARC
  5
6D7
  8
1
 10
-301.111005
 20
160.331902
 30
0.0
 40
0.5
 50
180.0
 51
90.0
  0
LINE
  5
6D8
  8
1
 10
-301.111005
 20
162.331902
 30
0.0
 11
-301.111005
 21
160.831902
 31
0.0
  0
LINE
  5
6D9
  8
1
 10
-301.111005
 20
162.331902
 30
0.0
 11
-300.911005
 21
162.531902
 31
0.0
  0
LINE
  5
6DA
  8
1
 10
-300.911005
 20
162.531902
 30
0.0
 11
-298.611005
 21
162.531902
 31
0.0
  0
ARC
  5
6DB
  8
1
 10
-294.111005
 20
150.031902
 30
0.0
 40
3.0
 50
180.0
 51
270.0
  0
LINE
  5
6DC
  8
1
 10
-292.111005
 20
147.031902
 30
0.0
 11
-294.111005
 21
147.031902
 31
0.0
  0
ARC
  5
6DD
  8
1
 10
-298.611005
 20
150.031902
 30
0.0
 40
1.5
 50
0.0
 51
90.0
  0
ARC
  5
6DE
  8
1
 10
-301.111005
 20
153.731902
 30
0.0
 40
0.5
 50
270.0
 51
180.0
  0
LINE
  5
6DF
  8
1
 10
-292.111005
 20
167.031888
 30
0.0
 11
-280.689477
 21
166.032634
 31
0.0
  0
LINE
  5
6E0
  8
1
 10
-301.111005
 20
151.731902
 30
0.0
 11
-301.111005
 21
153.231902
 31
0.0
  0
LINE
  5
6E1
  8
1
 10
-301.111005
 20
151.731902
 30
0.0
 11
-300.911005
 21
151.531902
 31
0.0
  0
LINE
  5
6E2
  8
1
 10
-300.911005
 20
151.531902
 30
0.0
 11
-298.611005
 21
151.531902
 31
0.0
  0
LINE
  5
6E3
  8
1
 10
-301.611005
 20
160.331902
 30
0.0
 11
-315.111005
 21
160.331902
 31
0.0
  0
LINE
  5
6E4
  8
1
 10
-319.163075
 20
159.617413
 30
0.0
 11
-315.111005
 21
160.331902
 31
0.0
  0
LINE
  5
6E5
  8
1
 10
-319.163075
 20
154.446391
 30
0.0
 11
-315.111005
 21
153.731902
 31
0.0
  0
LINE
  5
6E6
  8
1
 10
-301.611005
 20
153.731902
 30
0.0
 11
-315.111005
 21
153.731902
 31
0.0
  0
ARC
  5
6E7
  8
1
 10
-316.111005
 20
157.031902
 30
0.0
 40
4.0
 50
139.730954
 51
220.269046
  0
LINE
  5
6E8
  8
1
 10
-317.111005
 20
159.979248
 30
0.0
 11
-317.111005
 21
154.084556
 31
0.0
  0
LINE
  5
6E9
  8
1
 10
-292.111005
 20
167.031902
 30
0.0
 11
-294.111005
 21
167.031902
 31
0.0
  0
ARC
  5
6EA
  8
1
 10
-280.863789
 20
164.040245
 30
0.0
 40
2.0
 50
12.261537
 51
85.00000000000001
  0
ARC
  5
6EB
  8
1
 10
-313.111005
 20
157.031888
 30
0.0
 40
35.0
 50
347.738463
 51
12.261537
  0
ARC
  5
6EC
  8
1
 10
-283.111005
 20
158.531888
 30
0.0
 40
2.0
 50
0.0
 51
180.0
  0
LINE
  5
6ED
  8
1
 10
-285.111005
 20
158.531888
 30
0.0
 11
-285.111005
 21
155.531888
 31
0.0
  0
LINE
  5
6EE
  8
1
 10
-281.111005
 20
155.531888
 30
0.0
 11
-281.111005
 21
158.531888
 31
0.0
  0
ARC
  5
6EF
  8
1
 10
-280.863789
 20
150.023532
 30
0.0
 40
2.0
 50
275.0
 51
347.738463
  0
LINE
  5
6F0
  8
1
 62
     2
 10
-286.611005
 20
164.331902
 30
0.0
 11
-286.611005
 21
149.731902
 31
0.0
  0
LINE
  5
6F1
  8
1
 62
     2
 10
-294.611005
 20
164.331902
 30
0.0
 11
-286.611005
 21
164.331902
 31
0.0
  0
LINE
  5
6F2
  8
1
 62
     2
 10
-294.611005
 20
149.731902
 30
0.0
 11
-286.611005
 21
149.731902
 31
0.0
  0
ARC
  5
6F3
  8
1
 62
     2
 10
-280.863789
 20
150.023532
 30
0.0
 40
1.0
 50
275.0
 51
347.738463
  0
ARC
  5
6F4
  8
1
 62
     2
 10
-313.111005
 20
157.031888
 30
0.0
 40
34.0
 50
347.738463
 51
12.261537
  0
ARC
  5
6F5
  8
1
 62
     2
 10
-280.863789
 20
164.040245
 30
0.0
 40
1.0
 50
12.261537
 51
85.00000000000001
  0
LINE
  5
6F6
  8
1
 62
     2
 10
-292.154666
 20
166.031888
 30
0.0
 11
-280.776633
 21
165.03644
 31
0.0
  0
LINE
  5
6F7
  8
1
 62
     2
 10
-292.154666
 20
148.031902
 30
0.0
 11
-294.111005
 21
148.031902
 31
0.0
  0
ARC
  5
6F8
  8
1
 62
     2
 10
-294.111005
 20
150.031902
 30
0.0
 40
2.0
 50
180.0
 51
270.0
  0
LINE
  5
6F9
  8
1
 62
     2
 10
-292.154666
 20
166.031902
 30
0.0
 11
-294.111005
 21
166.031902
 31
0.0
  0
ARC
  5
6FA
  8
1
 62
     2
 10
-294.111005
 20
164.031902
 30
0.0
 40
2.0
 50
90.0
 51
180.0
  0
LINE
  5
6FB
  8
1
 62
     2
 10
-296.111005
 20
164.031902
 30
0.0
 11
-296.111005
 21
150.031902
 31
0.0
  0
LINE
  5
6FC
  8
1
 62
     2
 10
-294.611005
 20
164.331902
 30
0.0
 11
-294.611005
 21
149.731902
 31
0.0
  0
LINE
  5
6FD
  8
1
 62
     2
 10
-288.651005
 20
161.551902
 30
0.0
 11
-288.651005
 21
160.951902
 31
0.0
  0
LINE
  5
6FE
  8
1
 62
     2
 10
-289.811005
 20
158.311902
 30
0.0
 11
-287.411005
 21
158.311902
 31
0.0
  0
LINE
  5
6FF
  8
1
 62
     2
 10
-289.651005
 20
155.511902
 30
0.0
 11
-287.571005
 21
155.511902
 31
0.0
  0
LINE
  5
700
  8
1
 62
     2
 10
-288.571005
 20
155.351902
 30
0.0
 11
-288.571005
 21
154.591902
 31
0.0
  0
LINE
  5
701
  8
1
 62
     2
 10
-287.571005
 20
152.711902
 30
0.0
 11
-289.811005
 21
152.711902
 31
0.0
  0
LINE
  5
702
  8
1
 62
     2
 10
-287.411005
 20
151.031902
 30
0.0
 11
-289.651005
 21
151.031902
 31
0.0
  0
LINE
  5
703
  8
1
 62
     2
 10
-287.411005
 20
159.591902
 30
0.0
 11
-289.811005
 21
159.591902
 31
0.0
  0
ARC
  5
704
  8
1
 62
     2
 10
-288.611005
 20
161.831902
 30
0.0
 40
1.2
 50
0.0
 51
180.0
  0
ARC
  5
705
  8
1
 62
     2
 10
-287.411005
 20
161.831902
 30
0.0
 40
2.4
 50
180.0
 51
203.132396
  0
LINE
  5
706
  8
1
 62
     2
 10
-289.470908
 20
160.791902
 30
0.0
 11
-288.811005
 21
160.791902
 31
0.0
  0
LINE
  5
707
  8
1
 62
     2
 10
-288.570817
 20
157.752543
 30
0.0
 11
-289.811005
 21
156.711902
 31
0.0
  0
LINE
  5
708
  8
1
 62
     2
 10
-287.411005
 20
156.711902
 30
0.0
 11
-288.803985
 21
158.258963
 31
0.0
  0
LINE
  5
709
  8
1
 62
     2
 10
-287.411005
 20
155.351902
 30
0.0
 11
-287.411005
 21
153.911902
 31
0.0
  0
LINE
  5
70A
  8
1
 62
     2
 10
-287.411005
 20
161.831902
 30
0.0
 11
-287.411005
 21
160.871902
 31
0.0
  0
LINE
  5
70B
  8
1
 62
     2
 10
-289.811005
 20
155.351902
 30
0.0
 11
-289.811005
 21
153.911902
 31
0.0
  0
ARC
  5
70C
  8
1
 62
     2
 10
-288.811005
 20
160.951902
 30
0.0
 40
0.16
 50
270.0
 51
0.0
  0
ARC
  5
70D
  8
1
 62
     2
 10
-289.470908
 20
160.951902
 30
0.0
 40
0.16
 50
203.132396
 51
270.0
  0
ARC
  5
70E
  8
1
 62
     2
 10
-287.571005
 20
155.351902
 30
0.0
 40
0.16
 50
0.0
 51
90.0
  0
ARC
  5
70F
  8
1
 62
     2
 10
-289.651005
 20
155.351902
 30
0.0
 40
0.16
 50
90.0
 51
180.0
  0
LINE
  5
710
  8
1
 62
     2
 10
-287.501417
 20
152.407827
 30
0.0
 11
-289.720592
 21
151.335977
 31
0.0
  0
ARC
  5
711
  8
1
 62
     2
 10
-287.571005
 20
152.551902
 30
0.0
 40
0.16
 50
295.780305
 51
90.0
  0
ARC
  5
712
  8
1
 62
     2
 10
-289.651005
 20
151.191902
 30
0.0
 40
0.16
 50
115.780305
 51
270.0
  0
ARC
  5
713
  8
1
 62
     2
 10
-288.411005
 20
155.351902
 30
0.0
 40
0.16
 50
90.0
 51
180.0
  0
ARC
  5
714
  8
1
 62
     2
 10
-288.731005
 20
155.351902
 30
0.0
 40
0.16
 50
0.0
 51
90.0
  0
ARC
  5
715
  8
1
 62
     2
 10
-288.492285
 20
158.151902
 30
0.0
 40
0.16
 50
90.0
 51
222.0
  0
ARC
  5
716
  8
1
 62
     2
 10
-288.922888
 20
158.151902
 30
0.0
 40
0.16
 50
42.0
 51
90.0
  0
ARC
  5
717
  8
1
 62
     2
 10
-288.459411
 20
157.637159
 30
0.0
 40
0.16
 50
42.0
 51
130.0
  0
ARC
  5
718
  8
1
 62
     2
 10
-288.673663
 20
157.87511
 30
0.0
 40
0.16
 50
310.0
 51
42.0
  0
LINE
  5
719
  8
1
 62
     2
 10
-292.650996
 20
158.071902
 30
0.0
 11
-292.650996
 21
157.471902
 31
0.0
  0
LINE
  5
71A
  8
1
 62
     2
 10
-293.810996
 20
156.111902
 30
0.0
 11
-291.570996
 21
156.111902
 31
0.0
  0
LINE
  5
71B
  8
1
 62
     2
 10
-292.570996
 20
155.951902
 30
0.0
 11
-292.570996
 21
155.191902
 31
0.0
  0
ARC
  5
71C
  8
1
 62
     2
 10
-292.610996
 20
158.351902
 30
0.0
 40
1.2
 50
0.0
 51
180.0
  0
ARC
  5
71D
  8
1
 62
     2
 10
-291.410996
 20
158.351902
 30
0.0
 40
2.4
 50
180.0
 51
203.132396
  0
LINE
  5
71E
  8
1
 62
     2
 10
-293.470899
 20
157.311902
 30
0.0
 11
-292.810996
 21
157.311902
 31
0.0
  0
LINE
  5
71F
  8
1
 62
     2
 10
-291.410996
 20
155.951902
 30
0.0
 11
-291.410996
 21
154.511902
 31
0.0
  0
LINE
  5
720
  8
1
 62
     2
 10
-291.410996
 20
158.351902
 30
0.0
 11
-291.410996
 21
157.391902
 31
0.0
  0
ARC
  5
721
  8
1
 62
     2
 10
-292.810996
 20
157.471902
 30
0.0
 40
0.16
 50
270.0
 51
0.0
  0
ARC
  5
722
  8
1
 62
     2
 10
-293.470899
 20
157.471902
 30
0.0
 40
0.16
 50
203.132396
 51
270.0
  0
ARC
  5
723
  8
1
 62
     2
 10
-291.570996
 20
155.951902
 30
0.0
 40
0.16
 50
0.0
 51
90.0
  0
ARC
  5
724
  8
1
 62
     2
 10
-292.410996
 20
155.951902
 30
0.0
 40
0.16
 50
90.0
 51
180.0
  0
ARC
  5
725
  8
1
 62
     2
 10
-292.730996
 20
155.951902
 30
0.0
 40
0.16
 50
0.0
 51
90.0
  0
ARC
  5
726
  8
1
 10
-283.111005
 20
155.531888
 30
0.0
 40
2.0
 50
297.262252
 51
0.0
  0
ARC
  5
727
  8
1
 10
-283.111005
 20
155.531888
 30
0.0
 40
2.0
 50
180.0
 51
243.256316
  0
LINE
  5
728
  8
1
 62
     2
 10
-280.776633
 20
149.027337
 30
0.0
 11
-282.211005
 21
148.901846
 31
0.0
  0
LINE
  5
729
  8
1
 62
     2
 10
-284.011005
 20
148.744366
 30
0.0
 11
-292.154666
 21
148.031888
 31
0.0
  0
LINE
  5
72A
  8
1
 10
-280.689477
 20
148.031143
 30
0.0
 11
-282.211005
 21
147.898026
 31
0.0
  0
LINE
  5
72B
  8
1
 10
-284.011005
 20
147.740547
 30
0.0
 11
-292.111005
 21
147.031888
 31
0.0
  0
LINE
  5
72C
  8
1
 62
     2
 10
-282.053262
 20
165.14813
 30
0.0
 11
-286.611005
 21
162.516716
 31
0.0
  0
LINE
  5
72D
  8
1
 62
     2
 10
-294.611005
 20
157.897914
 30
0.0
 11
-296.111005
 21
157.031888
 31
0.0
  0
LINE
  5
72E
  8
1
 62
     2
 10
-279.855425
 20
164.107651
 30
0.0
 11
-286.611005
 21
160.207315
 31
0.0
  0
LINE
  5
72F
  8
1
 62
     2
 10
-294.611005
 20
155.588513
 30
0.0
 11
-296.111005
 21
154.722487
 31
0.0
  0
LINE
  5
730
  8
1
 62
     2
 10
-279.4783
 20
162.015983
 30
0.0
 11
-282.32647
 21
160.371591
 31
0.0
  0
LINE
  5
731
  8
1
 62
     2
 10
-285.096501
 20
158.772313
 30
0.0
 11
-286.611005
 21
157.897914
 31
0.0
  0
LINE
  5
732
  8
1
 62
     2
 10
-294.611005
 20
153.279112
 30
0.0
 11
-296.111005
 21
152.413086
 31
0.0
  0
LINE
  5
733
  8
1
 62
     2
 10
-279.228083
 20
159.851044
 30
0.0
 11
-281.123671
 21
158.756626
 31
0.0
  0
LINE
  5
734
  8
1
 62
     2
 10
-285.111005
 20
156.454538
 30
0.0
 11
-286.611005
 21
155.588513
 31
0.0
  0
LINE
  5
735
  8
1
 62
     2
 10
-294.611005
 20
150.969711
 30
0.0
 11
-296.111005
 21
150.103685
 31
0.0
  0
LINE
  5
736
  8
1
 62
     2
 10
-279.115859
 20
157.606436
 30
0.0
 11
-281.111005
 21
156.454538
 31
0.0
  0
LINE
  5
737
  8
1
 62
     2
 10
-284.733809
 20
154.362911
 30
0.0
 11
-286.611005
 21
153.279112
 31
0.0
  0
LINE
  5
738
  8
1
 62
     2
 10
-292.754976
 20
149.731888
 30
0.0
 11
-295.171919
 21
148.336465
 31
0.0
  0
LINE
  5
739
  8
1
 62
     2
 10
-279.156501
 20
155.27357
 30
0.0
 11
-282.182889
 21
153.526284
 31
0.0
  0
LINE
  5
73A
  8
1
 62
     2
 10
-284.011005
 20
152.470821
 30
0.0
 11
-286.611005
 21
150.969711
 31
0.0
  0
LINE
  5
73B
  8
1
 62
     2
 10
-288.754976
 20
149.731888
 30
0.0
 11
-291.618163
 21
148.078826
 31
0.0
  0
LINE
  5
73C
  8
1
 62
     2
 10
-279.370315
 20
152.840724
 30
0.0
 11
-282.064926
 21
151.284989
 31
0.0
  0
LINE
  5
73D
  8
1
 62
     2
 10
-284.011005
 20
150.16142
 30
0.0
 11
-286.903768
 21
148.491282
 31
0.0
  0
LINE
  5
73E
  8
1
 62
     2
 10
-279.785849
 20
150.291414
 30
0.0
 11
-281.946963
 21
149.043694
 31
0.0
  0
LINE
  5
73F
  8
1
 62
     2
 10
-285.526887
 20
165.452033
 30
0.0
 11
-287.467034
 21
164.331888
 31
0.0
  0
LINE
  5
740
  8
1
 62
     2
 10
-294.611005
 20
160.207315
 30
0.0
 11
-296.111005
 21
159.341289
 31
0.0
  0
LINE
  5
741
  8
1
 62
     2
 10
-289.000512
 20
165.755936
 30
0.0
 11
-291.467034
 21
164.331888
 31
0.0
  0
LINE
  5
742
  8
1
 62
     2
 10
-294.611005
 20
162.516716
 30
0.0
 11
-296.111005
 21
161.650691
 31
0.0
  0
LINE
  5
743
  8
1
 62
     2
 10
-292.522547
 20
166.031888
 30
0.0
 11
-296.111005
 21
163.960092
 31
0.0
  0
LINE
  5
744
  8
1
 62
     2
 10
-284.011005
 20
150.04595
 30
0.0
 11
-286.611005
 21
151.547061
 31
0.0
  0
LINE
  5
745
  8
1
 62
     2
 10
-294.611005
 20
156.165863
 30
0.0
 11
-296.111005
 21
157.031888
 31
0.0
  0
LINE
  5
746
  8
1
 62
     2
 10
-285.526887
 20
148.611744
 30
0.0
 11
-287.467034
 21
149.731888
 31
0.0
  0
LINE
  5
747
  8
1
 62
     2
 10
-294.611005
 20
153.856462
 30
0.0
 11
-296.111005
 21
154.722487
 31
0.0
  0
LINE
  5
748
  8
1
 62
     2
 10
-289.000512
 20
148.307841
 30
0.0
 11
-291.467034
 21
149.731888
 31
0.0
  0
LINE
  5
749
  8
1
 62
     2
 10
-294.611005
 20
151.547061
 30
0.0
 11
-296.111005
 21
152.413086
 31
0.0
  0
LINE
  5
74A
  8
1
 62
     2
 10
-292.522547
 20
148.031888
 30
0.0
 11
-296.111005
 21
150.103685
 31
0.0
  0
LINE
  5
74B
  8
1
 62
     2
 10
-279.855425
 20
149.956126
 30
0.0
 11
-282.062038
 21
151.230115
 31
0.0
  0
LINE
  5
74C
  8
1
 62
     2
 10
-284.011005
 20
152.355351
 30
0.0
 11
-286.611005
 21
153.856462
 31
0.0
  0
LINE
  5
74D
  8
1
 62
     2
 10
-294.611005
 20
158.475264
 30
0.0
 11
-296.111005
 21
159.341289
 31
0.0
  0
LINE
  5
74E
  8
1
 62
     2
 10
-279.4783
 20
152.047794
 30
0.0
 11
-282.187395
 21
153.611891
 31
0.0
  0
LINE
  5
74F
  8
1
 62
     2
 10
-285.096501
 20
155.291464
 30
0.0
 11
-286.611005
 21
156.165863
 31
0.0
  0
LINE
  5
750
  8
1
 62
     2
 10
-294.611005
 20
160.784665
 30
0.0
 11
-296.111005
 21
161.650691
 31
0.0
  0
LINE
  5
751
  8
1
 62
     2
 10
-279.228083
 20
154.212732
 30
0.0
 11
-281.123671
 21
155.307151
 31
0.0
  0
LINE
  5
752
  8
1
 62
     2
 10
-285.111005
 20
157.609239
 30
0.0
 11
-286.611005
 21
158.475264
 31
0.0
  0
LINE
  5
753
  8
1
 62
     2
 10
-294.611005
 20
163.094066
 30
0.0
 11
-296.111005
 21
163.960092
 31
0.0
  0
LINE
  5
754
  8
1
 62
     2
 10
-279.115859
 20
156.457341
 30
0.0
 11
-281.111005
 21
157.609239
 31
0.0
  0
LINE
  5
755
  8
1
 62
     2
 10
-284.733809
 20
159.700865
 30
0.0
 11
-286.611005
 21
160.784665
 31
0.0
  0
LINE
  5
756
  8
1
 62
     2
 10
-292.754976
 20
164.331888
 30
0.0
 11
-295.171919
 21
165.727312
 31
0.0
  0
LINE
  5
757
  8
1
 62
     2
 10
-291.618163
 20
165.984951
 30
0.0
 11
-288.754976
 21
164.331888
 31
0.0
  0
LINE
  5
758
  8
1
 62
     2
 10
-286.611005
 20
163.094066
 30
0.0
 11
-279.156501
 21
158.790207
 31
0.0
  0
LINE
  5
759
  8
1
 62
     2
 10
-286.903768
 20
165.572494
 30
0.0
 11
-279.370315
 21
161.223053
 31
0.0
  0
LINE
  5
75A
  8
1
 62
     2
 10
-282.189373
 20
165.160038
 30
0.0
 11
-279.785849
 21
163.772363
 31
0.0
  0
CIRCLE
  5
75B
  8
1
 62
     2
 10
-306.111005
 20
155.331902
 30
0.0
 40
1.0
  0
CIRCLE
  5
75C
  8
1
 62
     2
 10
-308.711005
 20
155.331902
 30
0.0
 40
1.0
  0
CIRCLE
  5
75D
  8
1
 62
     2
 10
-311.311005
 20
155.331902
 30
0.0
 40
1.0
  0
CIRCLE
  5
75E
  8
1
 62
     2
 10
-313.911005
 20
155.331902
 30
0.0
 40
0.5
  0
CIRCLE
  5
75F
  8
1
 62
     2
 10
-310.011005
 20
158.731902
 30
0.0
 40
1.0
  0
CIRCLE
  5
760
  8
1
 62
     2
 10
-307.411005
 20
158.731902
 30
0.0
 40
0.5
  0
LINE
  5
761
  8
1
 62
     2
 10
-313.911005
 20
157.983571
 30
0.0
 11
-313.911005
 21
159.480234
 31
0.0
  0
ARC
  5
762
  8
1
 62
     2
 10
-312.611005
 20
158.731902
 30
0.0
 40
1.5
 50
209.926435
 51
150.073565
  0
ARC
  5
763
  8
1
 62
     2
 10
-315.211005
 20
158.731902
 30
0.0
 40
1.5
 50
29.92643500000001
 51
330.073565
  0
LINE
  5
764
  8
1
 10
-233.618263
 20
28.2
 30
0.0
 11
-233.118263
 21
28.2
 31
0.0
  0
ARC
  5
765
  8
1
 10
-231.418263
 20
28.2
 30
0.0
 40
1.7
 50
180.0
 51
270.0
  0
LINE
  5
766
  8
1
 10
-231.418263
 20
26.5
 30
0.0
 11
-231.418263
 21
26.0
 31
0.0
  0
LINE
  5
767
  8
1
 10
-233.618263
 20
23.8
 30
0.0
 11
-233.118263
 21
23.8
 31
0.0
  0
ARC
  5
768
  8
1
 10
-231.418263
 20
23.8
 30
0.0
 40
1.7
 50
90.0
 51
180.0
  0
LINE
  5
769
  8
1
 10
-231.418263
 20
25.5
 30
0.0
 11
-231.418263
 21
26.0
 31
0.0
  0
LINE
  5
76A
  8
1
 10
-233.618263
 20
28.2
 30
0.0
 11
-234.118263
 21
28.2
 31
0.0
  0
ARC
  5
76B
  8
1
 10
-235.818263
 20
28.2
 30
0.0
 40
1.7
 50
270.0
 51
0.0
  0
LINE
  5
76C
  8
1
 10
-235.818263
 20
26.5
 30
0.0
 11
-235.818263
 21
26.0
 31
0.0
  0
LINE
  5
76D
  8
1
 10
-233.618263
 20
23.8
 30
0.0
 11
-234.118263
 21
23.8
 31
0.0
  0
ARC
  5
76E
  8
1
 10
-235.818263
 20
23.8
 30
0.0
 40
1.7
 50
0.0
 51
90.0
  0
LINE
  5
76F
  8
1
 10
-235.818263
 20
25.5
 30
0.0
 11
-235.818263
 21
26.0
 31
0.0
  0
CIRCLE
  5
770
  8
1
 10
-233.618263
 20
26.0
 30
0.0
 40
3.0
  0
LINE
  5
771
  8
1
  6
CENTER
 62
     2
 10
-238.118263
 20
26.0
 30
0.0
 11
-229.118263
 21
26.0
 31
0.0
  0
LINE
  5
772
  8
1
  6
CENTER
 62
     2
 10
-233.618263
 20
21.5
 30
0.0
 11
-233.618263
 21
30.5
 31
0.0
  0
LINE
  5
773
  8
1
 10
-218.618263
 20
28.2
 30
0.0
 11
-218.118263
 21
28.2
 31
0.0
  0
ARC
  5
774
  8
1
 10
-216.418263
 20
28.2
 30
0.0
 40
1.7
 50
180.0
 51
270.0
  0
LINE
  5
775
  8
1
 10
-216.418263
 20
26.5
 30
0.0
 11
-216.418263
 21
26.0
 31
0.0
  0
LINE
  5
776
  8
1
 10
-218.618263
 20
23.8
 30
0.0
 11
-218.118263
 21
23.8
 31
0.0
  0
ARC
  5
777
  8
1
 10
-216.418263
 20
23.8
 30
0.0
 40
1.7
 50
90.0
 51
180.0
  0
LINE
  5
778
  8
1
 10
-216.418263
 20
25.5
 30
0.0
 11
-216.418263
 21
26.0
 31
0.0
  0
LINE
  5
779
  8
1
 10
-218.618263
 20
28.2
 30
0.0
 11
-219.118263
 21
28.2
 31
0.0
  0
ARC
  5
77A
  8
1
 10
-220.818263
 20
28.2
 30
0.0
 40
1.7
 50
270.0
 51
0.0
  0
LINE
  5
77B
  8
1
 10
-220.818263
 20
26.5
 30
0.0
 11
-220.818263
 21
26.0
 31
0.0
  0
LINE
  5
77C
  8
1
 10
-218.618263
 20
23.8
 30
0.0
 11
-219.118263
 21
23.8
 31
0.0
  0
ARC
  5
77D
  8
1
 10
-220.818263
 20
23.8
 30
0.0
 40
1.7
 50
0.0
 51
90.0
  0
LINE
  5
77E
  8
1
 10
-220.818263
 20
25.5
 30
0.0
 11
-220.818263
 21
26.0
 31
0.0
  0
CIRCLE
  5
77F
  8
1
 10
-218.618263
 20
26.0
 30
0.0
 40
3.0
  0
LINE
  5
780
  8
1
  6
CENTER
 62
     2
 10
-223.118263
 20
26.0
 30
0.0
 11
-214.118263
 21
26.0
 31
0.0
  0
LINE
  5
781
  8
1
  6
CENTER
 62
     2
 10
-218.618263
 20
21.5
 30
0.0
 11
-218.618263
 21
30.5
 31
0.0
  0
CIRCLE
  5
782
  8
1
 10
-226.118263
 20
19.5
 30
0.0
 40
19.0
  0
LINE
  5
783
  8
1
  6
CENTER
 62
     2
 10
-90.395872
 20
19.5
 30
0.0
 11
-77.908142
 21
19.5
 31
0.0
  0
LINE
  5
784
  8
1
 10
-80.0
 20
38.5
 30
0.0
 11
-88.054847
 21
38.218719
 31
0.0
  0
LINE
  5
785
  8
1
 10
-80.0
 20
0.5
 30
0.0
 11
-88.054847
 21
0.781281
 31
0.0
  0
ARC
  5
786
  8
1
 10
-88.019948
 20
37.219328
 30
0.0
 40
1.0
 50
92.0
 51
178.835637
  0
ARC
  5
787
  8
1
 10
-88.019948
 20
1.780672
 30
0.0
 40
1.0
 50
181.164363
 51
267.9999999999999
  0
ARC
  5
788
  8
1
 10
783.789683
 20
19.5
 30
0.0
 40
872.989683
 50
178.835637
 51
181.164363
  0
LINE
  5
789
  8
1
 10
-80.0
 20
0.5
 30
0.0
 11
-80.0
 21
38.5
 31
0.0
  0
LINE
  5
78A
  8
1
 62
     3
 10
-47.5
 20
21.838551
 30
0.0
 11
-42.2
 21
21.792299
 31
0.0
  0
LINE
  5
78B
  8
1
 62
     3
 10
-47.5
 20
29.646032
 30
0.0
 11
-40.0
 21
29.907938
 31
0.0
  0
LINE
  5
78C
  8
1
 62
     3
 10
-41.0
 20
12.251398
 30
0.0
 11
-41.0
 21
6.000009
 31
0.0
  0
LINE
  5
78D
  8
1
 62
     3
 10
-44.5
 20
19.940837
 30
0.0
 11
-44.5
 21
8.059159
 31
0.0
  0
LINE
  5
78E
  8
1
  6
CENTER
 62
     2
 10
-46.9252
 20
13.999998
 30
0.0
 11
-39.695652
 21
13.999998
 31
0.0
  0
LINE
  5
78F
  8
1
 62
     3
 10
-42.2
 20
24.115309
 30
0.0
 11
-42.2
 21
6.347588
 31
0.0
  0
LINE
  5
790
  8
1
 62
     3
 10
-41.915701
 20
24.414898
 30
0.0
 11
-40.0
 21
24.515295
 31
0.0
  0
LINE
  5
791
  8
1
 62
     3
 10
-43.741869
 20
20.739741
 30
0.0
 11
-42.2
 21
20.820547
 31
0.0
  0
LINE
  5
792
  8
1
 62
     3
 10
-43.741869
 20
7.260256
 30
0.0
 11
-42.2
 21
7.17945
 31
0.0
  0
ARC
  5
793
  8
1
 62
     3
 10
-43.7
 20
19.940837
 30
0.0
 40
0.8
 50
92.99999999999999
 51
180.0
  0
ARC
  5
794
  8
1
 62
     3
 10
-43.7
 20
8.059159
 30
0.0
 40
0.8
 50
180.0
 51
266.9999999999999
  0
ARC
  5
795
  8
1
 62
     3
 10
-41.9
 20
24.115309
 30
0.0
 40
0.3
 50
92.99999999999999
 51
180.0
  0
LINE
  5
796
  8
1
 62
     3
 10
-41.0
 20
6.000009
 30
0.0
 11
-41.915701
 21
6.047999
 31
0.0
  0
ARC
  5
797
  8
1
 62
     3
 10
-41.9
 20
6.347588
 30
0.0
 40
0.3
 50
180.0
 51
266.9999999999999
  0
LINE
  5
798
  8
1
 62
     3
 10
-40.0
 20
12.190081
 30
0.0
 11
-42.2
 21
12.324979
 31
0.0
  0
LINE
  5
799
  8
1
 62
     3
 10
-40.0
 20
18.969664
 30
0.0
 11
-42.2
 21
18.943428
 31
0.0
  0
LINE
  5
79A
  8
1
  6
CENTER
 62
     2
 10
-81.395172
 20
145.649399
 30
0.0
 11
-36.74869
 21
145.649399
 31
0.0
  0
LINE
  5
79B
  8
1
 62
     3
 10
-66.0
 20
143.132243
 30
0.0
 11
-66.0
 21
148.166554
 31
0.0
  0
LINE
  5
79C
  8
1
 62
     3
 10
-65.51745
 20
148.66625
 30
0.0
 11
-40.0
 21
149.557339
 31
0.0
  0
LINE
  5
79D
  8
1
 62
     3
 10
-65.51745
 20
142.632548
 30
0.0
 11
-40.0
 21
141.741459
 31
0.0
  0
LINE
  5
79E
  8
1
 62
     3
 10
-44.5
 20
141.898602
 30
0.0
 11
-44.5
 21
134.400195
 31
0.0
  0
ARC
  5
79F
  8
1
 62
     3
 10
-65.5
 20
148.166554
 30
0.0
 40
0.5
 50
92.0
 51
180.0
  0
ARC
  5
7A0
  8
1
 62
     3
 10
-65.5
 20
143.132243
 30
0.0
 40
0.5
 50
180.0
 51
267.9999999999999
  0
LINE
  5
7A1
  8
1
 62
     3
 10
-42.2
 20
134.480513
 30
0.0
 11
-42.2
 21
141.818284
 31
0.0
  0
LINE
  5
7A2
  8
1
  6
CENTER
 62
     2
 10
-81.395172
 20
130.649403
 30
0.0
 11
-36.74869
 21
130.649403
 31
0.0
  0
LINE
  5
7A3
  8
1
 62
     3
 10
-66.0
 20
133.166558
 30
0.0
 11
-66.0
 21
128.132247
 31
0.0
  0
LINE
  5
7A4
  8
1
 62
     3
 10
-65.51745
 20
127.632552
 30
0.0
 11
-40.0
 21
126.741463
 31
0.0
  0
LINE
  5
7A5
  8
1
 62
     3
 10
-65.51745
 20
133.666254
 30
0.0
 11
-40.0
 21
134.557343
 31
0.0
  0
ARC
  5
7A6
  8
1
 62
     3
 10
-65.5
 20
128.132247
 30
0.0
 40
0.5
 50
180.0
 51
267.9999999999999
  0
ARC
  5
7A7
  8
1
 62
     3
 10
-65.5
 20
133.166558
 30
0.0
 40
0.5
 50
92.0
 51
180.0
  0
LINE
  5
7A8
  8
1
 10
-80.0
 20
119.149401
 30
0.0
 11
-88.054847
 21
119.430682
 31
0.0
  0
LINE
  5
7A9
  8
1
 10
-80.0
 20
157.149401
 30
0.0
 11
-88.054847
 21
156.868119
 31
0.0
  0
ARC
  5
7AA
  8
1
 10
-88.019948
 20
120.430073
 30
0.0
 40
1.0
 50
181.164363
 51
267.9999999999999
  0
ARC
  5
7AB
  8
1
 10
-88.019948
 20
155.868728
 30
0.0
 40
1.0
 50
92.0
 51
178.835637
  0
ARC
  5
7AC
  8
1
 10
783.789683
 20
138.149401
 30
0.0
 40
872.989683
 50
178.835637
 51
181.164363
  0
LINE
  5
7AD
  8
1
 10
-80.0
 20
115.149401
 30
0.0
 11
-80.0
 21
161.149401
 31
0.0
  0
CIRCLE
  5
7AE
  8
1
 10
186.118263
 20
19.5
 30
0.0
 40
19.0
  0
CIRCLE
  5
7AF
  8
1
 10
186.118263
 20
19.5
 30
0.0
 40
18.0
  0
LINE
  5
7B0
  8
1
  6
CENTER
 62
     2
 10
-19.326831
 20
19.5
 30
0.0
 11
-43.442773
 21
19.5
 31
0.0
  0
LINE
  5
7B1
  8
1
  6
CENTER
 62
     2
 10
-237.118263
 20
14.0
 30
0.0
 11
-215.118263
 21
14.0
 31
0.0
  0
LINE
  5
7B2
  8
1
 10
-223.868263
 20
4.5
 30
0.0
 11
-228.368263
 21
4.5
 31
0.0
  0
LINE
  5
7B3
  8
1
 10
-223.868263
 20
30.0
 30
0.0
 11
-228.368263
 21
30.0
 31
0.0
  0
LINE
  5
7B4
  8
1
 10
-229.118263
 20
29.25
 30
0.0
 11
-229.118263
 21
5.25
 31
0.0
  0
LINE
  5
7B5
  8
1
 10
-223.118263
 20
5.25
 30
0.0
 11
-223.118263
 21
29.25
 31
0.0
  0
ARC
  5
7B6
  8
1
 10
-223.868263
 20
5.25
 30
0.0
 40
0.75
 50
270.0
 51
0.0
  0
ARC
  5
7B7
  8
1
 10
-228.368263
 20
5.25
 30
0.0
 40
0.75
 50
180.0
 51
270.0
  0
ARC
  5
7B8
  8
1
 10
-223.868263
 20
29.25
 30
0.0
 40
0.75
 50
0.0
 51
90.0
  0
ARC
  5
7B9
  8
1
 10
-228.368263
 20
29.25
 30
0.0
 40
0.75
 50
90.0
 51
180.0
  0
ARC
  5
7BA
  8
1
 10
-226.118263
 20
14.0
 30
0.0
 40
8.0
 50
302.855803
 51
47.373498
  0
ARC
  5
7BB
  8
1
 10
-226.118263
 20
14.0
 30
0.0
 40
8.0
 50
132.626502
 51
237.144197
  0
ARC
  5
7BC
  8
1
 62
     2
 10
-268.480028
 20
14.0
 30
0.0
 40
46.211765
 50
351.594058
 51
0.0
  0
ARC
  5
7BD
  8
1
 62
     2
 10
-183.756499
 20
14.0
 30
0.0
 40
46.211765
 50
180.0
 51
188.059863
  0
ARC
  5
7BE
  8
1
 10
-360.244734
 20
14.0
 30
0.0
 40
137.976471
 50
4.102803
 51
6.380468999999999
  0
ARC
  5
7BF
  8
1
 62
     2
 10
-360.244734
 20
14.0
 30
0.0
 40
137.976471
 50
0.0
 51
2.993919
  0
ARC
  5
7C0
  8
1
 62
     2
 10
-91.991793
 20
14.0
 30
0.0
 40
137.976471
 50
176.986842
 51
180.0
  0
ARC
  5
7C1
  8
1
 10
-91.991793
 20
14.0
 30
0.0
 40
137.976471
 50
173.619531
 51
175.897197
  0
ARC
  5
7C2
  8
1
 10
-220.15047
 20
4.759575
 30
0.0
 40
3.0
 50
122.855803
 51
172.485337
  0
ARC
  5
7C3
  8
1
 10
-232.086056
 20
4.759575
 30
0.0
 40
3.0
 50
7.514662999999999
 51
57.14419700000001
  0
ARC
  5
7C4
  8
1
 10
-235.599292
 20
24.300975
 30
0.0
 40
6.0
 50
312.626502
 51
355.8971969999999
  0
ARC
  5
7C5
  8
1
 10
-216.637234
 20
24.300975
 30
0.0
 40
6.0
 50
184.102803
 51
227.373498
  0
LINE
  5
7C6
  8
1
  6
CENTER
 62
     2
 10
-19.326831
 20
19.5
 30
0.0
 11
-43.442773
 21
19.5
 31
0.0
  0
LINE
  5
7C7
  8
1
 10
-40.0
 20
38.5
 30
0.0
 11
-22.526255
 21
37.560551
 31
0.0
  0
LINE
  5
7C8
  8
1
 10
-40.0
 20
0.5
 30
0.0
 11
-22.526255
 21
1.439449
 31
0.0
  0
ARC
  5
7C9
  8
1
 10
-22.579941
 20
36.561993
 30
0.0
 40
1.0
 50
1.208471
 51
86.92254500000001
  0
ARC
  5
7CA
  8
1
 10
-22.579941
 20
2.438007
 30
0.0
 40
1.0
 50
273.077455
 51
358.791529
  0
ARC
  5
7CB
  8
1
 10
-831.4
 20
19.5
 30
0.0
 40
810.0
 50
358.791529
 51
1.208471
  0
LINE
  5
7CC
  8
1
 10
-40.0
 20
38.5
 30
0.0
 11
-40.0
 21
0.5
 31
0.0
  0
LINE
  5
7CD
  8
1
 10
-76.0
 20
18.35
 30
0.0
 11
-76.0
 21
9.65
 31
0.0
  0
LINE
  5
7CE
  8
1
 10
-76.499984
 20
18.85
 30
0.0
 11
-76.499984
 21
9.15
 31
0.0
  0
LINE
  5
7CF
  8
1
 10
-80.0
 20
18.85
 30
0.0
 11
-76.5
 21
18.85
 31
0.0
  0
LINE
  5
7D0
  8
1
 10
-80.0
 20
9.15
 30
0.0
 11
-76.5
 21
9.15
 31
0.0
  0
LINE
  5
7D1
  8
1
 10
-76.5
 20
18.85
 30
0.0
 11
-76.0
 21
18.35
 31
0.0
  0
LINE
  5
7D2
  8
1
 10
-76.5
 20
9.15
 30
0.0
 11
-76.0
 21
9.65
 31
0.0
  0
ARC
  5
7D3
  8
1
 10
-93.5
 20
26.5
 30
0.0
 40
3.5
 50
0.0
 51
90.0
  0
ARC
  5
7D4
  8
1
 10
-92.0
 20
6.5
 30
0.0
 40
2.0
 50
270.0
 51
0.0
  0
ARC
  5
7D5
  8
1
 10
-77.5
 20
19.0
 30
0.0
 40
30.0
 50
172.646527
 51
194.657697
  0
ARC
  5
7D6
  8
1
 10
-93.5
 20
-70.0
 30
0.0
 40
100.0
 50
90.0
 51
93.626416
  0
ARC
  5
7D7
  8
1
 10
-99.319059
 20
21.815786
 30
0.0
 40
8.0
 50
93.626416
 51
172.646527
  0
ARC
  5
7D8
  8
1
 10
-92.0
 20
104.5
 30
0.0
 40
100.0
 50
266.335261
 51
270.0
  0
ARC
  5
7D9
  8
1
 10
-97.816552
 20
13.686082
 30
0.0
 40
9.0
 50
194.657697
 51
266.335261
  0
LINE
  5
7DA
  8
1
 10
-89.5
 20
6.5
 30
0.0
 11
-89.5
 21
21.5
 31
0.0
  0
LINE
  5
7DB
  8
1
 10
-90.0
 20
6.5
 30
0.0
 11
-90.0
 21
7.584682
 31
0.0
  0
LINE
  5
7DC
  8
1
 10
-90.0
 20
19.741581
 30
0.0
 11
-90.0
 21
26.5
 31
0.0
  0
LINE
  5
7DD
  8
1
 62
     2
 10
-93.999729
 20
20.971667
 30
0.0
 11
-90.595669
 21
20.971667
 31
0.0
  0
POLYLINE
  5
7DE
  8
1
 62
     2
 66
     1
 10
0.0
 20
0.0
 30
0.0
  0
VERTEX
  5
A1D
  8
1
 62
     2
 10
-95.101668
 20
7.119221
 30
0.0
  0
VERTEX
  5
A1E
  8
1
 62
     2
 10
-94.597122
 20
7.517488
 30
0.0
  0
VERTEX
  5
A1F
  8
1
 62
     2
 10
-93.998082
 20
8.3416
 30
0.0
  0
VERTEX
  5
A20
  8
1
 62
     2
 10
-93.399042
 20
9.7562
 30
0.0
  0
VERTEX
  5
A21
  8
1
 62
     2
 10
-92.800002
 20
14.0
 30
0.0
  0
VERTEX
  5
A22
  8
1
 62
     2
 10
-93.399042
 20
18.2438
 30
0.0
  0
VERTEX
  5
A23
  8
1
 62
     2
 10
-93.998082
 20
19.6584
 30
0.0
  0
VERTEX
  5
A24
  8
1
 62
     2
 10
-94.597122
 20
20.482512
 30
0.0
  0
VERTEX
  5
A25
  8
1
 62
     2
 10
-94.874224
 20
20.730334
 30
0.0
  0
SEQEND
  5
A43
  8
1
 62
     2
  0
LINE
  5
7E9
  8
1
 62
     2
 10
-90.642944
 20
6.825707
 30
0.0
 11
-94.377949
 21
6.825707
 31
0.0
  0
ARC
  5
7EA
  8
1
 10
-90.0
 20
21.5
 30
0.0
 40
0.5
 50
0.0
 51
90.0
  0
ARC
  5
7EB
  8
1
 10
-90.0
 20
6.5
 30
0.0
 40
0.5
 50
270.0
 51
0.0
  0
LINE
  5
7EC
  8
1
 10
-89.5
 20
20.5
 30
0.0
 11
-89.199427
 21
20.5
 31
0.0
  0
LINE
  5
7ED
  8
1
 10
-89.5
 20
7.5
 30
0.0
 11
-89.117521
 21
7.5
 31
0.0
  0
LINE
  5
7EE
  8
1
 10
-40.0
 20
119.149401
 30
0.0
 11
-22.525457
 21
120.099105
 31
0.0
  0
LINE
  5
7EF
  8
1
 10
-22.525457
 20
156.199696
 30
0.0
 11
-40.0
 21
157.149401
 31
0.0
  0
ARC
  5
7F0
  8
1
 10
-22.579725
 20
121.097632
 30
0.0
 40
1.0
 50
273.110845
 51
358.792254
  0
ARC
  5
7F1
  8
1
 10
-22.579725
 20
155.20117
 30
0.0
 40
1.0
 50
1.207746
 51
86.889155
  0
ARC
  5
7F2
  8
1
 10
-831.4
 20
138.149401
 30
0.0
 40
810.0
 50
358.792254
 51
1.207746
  0
LINE
  5
7F3
  8
1
 10
-40.0
 20
157.149401
 30
0.0
 11
-40.0
 21
119.149401
 31
0.0
  0
LINE
  5
7F4
  8
1
 10
-90.130989
 20
130.149401
 30
0.0
 11
-92.377501
 21
130.149401
 31
0.0
  0
LINE
  5
7F5
  8
1
 10
-90.0
 20
146.149401
 30
0.0
 11
-92.377501
 21
146.149401
 31
0.0
  0
LINE
  5
7F6
  8
1
 10
-90.789388
 20
135.149401
 30
0.0
 11
-102.904301
 21
135.149401
 31
0.0
  0
LINE
  5
7F7
  8
1
 10
-102.904301
 20
141.149401
 30
0.0
 11
-90.789388
 21
141.149401
 31
0.0
  0
ARC
  5
7F8
  8
1
 10
-97.5
 20
129.562955
 30
0.0
 40
4.736446
 50
11.97458
 51
90.0
  0
ARC
  5
7F9
  8
1
 10
-97.5
 20
146.735846
 30
0.0
 40
4.736446
 50
270.0
 51
348.02542
  0
ARC
  5
7FA
  8
1
 10
-92.377501
 20
130.649401
 30
0.0
 40
0.5
 50
191.97458
 51
270.0
  0
ARC
  5
7FB
  8
1
 10
-92.377501
 20
145.649401
 30
0.0
 40
0.5
 50
90.0
 51
168.02542
  0
LINE
  5
7FC
  8
1
 10
-76.0
 20
142.649401
 30
0.0
 11
-76.0
 21
133.649401
 31
0.0
  0
LINE
  5
7FD
  8
1
 10
-76.5
 20
133.149401
 30
0.0
 11
-76.0
 21
133.649401
 31
0.0
  0
LINE
  5
7FE
  8
1
 10
-76.0
 20
142.649401
 30
0.0
 11
-76.5
 21
143.149401
 31
0.0
  0
LINE
  5
7FF
  8
1
 10
-76.5
 20
133.149401
 30
0.0
 11
-76.5
 21
143.149401
 31
0.0
  0
LINE
  5
800
  8
1
 10
-80.0
 20
136.846487
 30
0.0
 11
-76.5
 21
136.846487
 31
0.0
  0
LINE
  5
801
  8
1
 10
-80.0
 20
139.452315
 30
0.0
 11
-76.5
 21
139.452315
 31
0.0
  0
LINE
  5
802
  8
1
 10
-80.0
 20
133.149401
 30
0.0
 11
-76.5
 21
133.149401
 31
0.0
  0
LINE
  5
803
  8
1
 10
-80.0
 20
143.149401
 30
0.0
 11
-76.5
 21
143.149401
 31
0.0
  0
LINE
  5
804
  8
1
 10
-89.5
 20
138.149401
 30
0.0
 11
-89.631065
 21
130.640675
 31
0.0
  0
LINE
  5
805
  8
1
 10
-107.5
 20
138.149401
 30
0.0
 11
-107.458528
 21
135.773496
 31
0.0
  0
LINE
  5
806
  8
1
 10
-90.0
 20
138.149401
 30
0.0
 11
-90.039502
 21
135.886311
 31
0.0
  0
ARC
  5
807
  8
1
 10
-90.130989
 20
130.649401
 30
0.0
 40
0.5
 50
270.0
 51
358.9999999999999
  0
LINE
  5
808
  8
1
 10
-107.5
 20
138.149401
 30
0.0
 11
-107.458528
 21
140.525305
 31
0.0
  0
LINE
  5
809
  8
1
 10
-90.0
 20
138.149401
 30
0.0
 11
-90.039502
 21
140.41249
 31
0.0
  0
LINE
  5
80A
  8
1
 10
-89.5
 20
138.149401
 30
0.0
 11
-89.631065
 21
145.658127
 31
0.0
  0
ARC
  5
80B
  8
1
 10
-90.130989
 20
145.649401
 30
0.0
 40
0.5
 50
1.0
 51
90.0
  0
ARC
  5
80C
  8
1
 10
-90.789388
 20
135.899401
 30
0.0
 40
0.75
 50
270.0
 51
358.9999999999999
  0
ARC
  5
80D
  8
1
 10
-90.789388
 20
140.399401
 30
0.0
 40
0.75
 50
1.0
 51
90.0
  0
ARC
  5
80E
  8
1
 10
-106.708643
 20
135.786586
 30
0.0
 40
0.75
 50
181.0
 51
260.8460559999999
  0
ARC
  5
80F
  8
1
 10
-97.5
 20
192.933482
 30
0.0
 40
58.634081
 50
260.8460559999999
 51
270.0
  0
ARC
  5
810
  8
1
 10
-106.708643
 20
140.512216
 30
0.0
 40
0.75
 50
99.153944
 51
179.0
  0
ARC
  5
811
  8
1
 10
-97.5
 20
83.365319
 30
0.0
 40
58.634081
 50
90.0
 51
99.153944
  0
LINE
  5
812
  8
1
 10
-89.613458
 20
131.649401
 30
0.0
 11
-89.175801
 21
131.649401
 31
0.0
  0
LINE
  5
813
  8
1
 10
-89.613458
 20
144.649401
 30
0.0
 11
-89.175801
 21
144.649401
 31
0.0
  0
LINE
  5
814
  8
1
 10
-80.0
 20
28.0
 30
0.0
 11
-72.5
 21
28.0
 31
0.0
  0
LINE
  5
815
  8
1
 10
-80.0
 20
24.0
 30
0.0
 11
-72.5
 21
24.0
 31
0.0
  0
LINE
  5
816
  8
1
 62
     4
 10
-80.0
 20
27.7725
 30
0.0
 11
-72.5
 21
27.7725
 31
0.0
  0
LINE
  5
817
  8
1
 62
     4
 10
-80.0
 20
24.2275
 30
0.0
 11
-72.5
 21
24.2275
 31
0.0
  0
LINE
  5
818
  8
1
  6
CENTER
 62
     2
 10
-85.816925
 20
26.0
 30
0.0
 11
-45.336414
 21
26.0
 31
0.0
  0
LINE
  5
819
  8
1
 62
     4
 10
-231.418263
 20
26.5
 30
0.0
 11
-231.418263
 21
26.0
 31
0.0
  0
LINE
  5
81A
  8
1
 62
     4
 10
-231.418263
 20
25.5
 30
0.0
 11
-231.418263
 21
26.0
 31
0.0
  0
LINE
  5
81B
  8
1
 62
     2
 10
-77.55
 20
28.0
 30
0.0
 11
-77.55
 21
24.0
 31
0.0
  0
LINE
  5
81C
  8
1
 10
-80.0
 20
132.649401
 30
0.0
 11
-66.0
 21
132.649401
 31
0.0
  0
LINE
  5
81D
  8
1
 10
-80.0
 20
128.649401
 30
0.0
 11
-66.0
 21
128.649401
 31
0.0
  0
LINE
  5
81E
  8
1
 62
     4
 10
-80.0
 20
132.421901
 30
0.0
 11
-66.0
 21
132.421901
 31
0.0
  0
LINE
  5
81F
  8
1
 62
     4
 10
-80.0
 20
128.876901
 30
0.0
 11
-66.0
 21
128.876901
 31
0.0
  0
LINE
  5
820
  8
1
 10
-80.0
 20
143.649401
 30
0.0
 11
-66.0
 21
143.649401
 31
0.0
  0
LINE
  5
821
  8
1
 10
-80.0
 20
147.649401
 30
0.0
 11
-66.0
 21
147.649401
 31
0.0
  0
LINE
  5
822
  8
1
 62
     4
 10
-80.0
 20
143.876901
 30
0.0
 11
-66.0
 21
143.876901
 31
0.0
  0
LINE
  5
823
  8
1
 62
     4
 10
-80.0
 20
147.421901
 30
0.0
 11
-66.0
 21
147.421901
 31
0.0
  0
LINE
  5
824
  8
1
 62
     2
 10
-77.55
 20
128.649401
 30
0.0
 11
-77.55
 21
132.649401
 31
0.0
  0
LINE
  5
825
  8
1
 62
     2
 10
-77.55
 20
143.649401
 30
0.0
 11
-77.55
 21
147.649401
 31
0.0
  0
CIRCLE
  5
826
  8
1
 10
186.118263
 20
14.0
 30
0.0
 40
6.3
  0
LINE
  5
827
  8
1
 10
184.393263
 20
15.125
 30
0.0
 11
184.393263
 21
12.875
 31
0.0
  0
LINE
  5
828
  8
1
 10
180.035501
 20
15.2
 30
0.0
 11
192.201026
 21
15.2
 31
0.0
  0
LINE
  5
829
  8
1
 10
180.035501
 20
12.8
 30
0.0
 11
192.201026
 21
12.8
 31
0.0
  0
ARC
  5
82A
  8
1
 10
186.118263
 20
14.0
 30
0.0
 40
5.2
 50
13.342364
 51
166.657636
  0
ARC
  5
82B
  8
1
 10
186.118263
 20
14.0
 30
0.0
 40
5.2
 50
193.342364
 51
346.657636
  0
CIRCLE
  5
82C
  8
1
 10
186.118263
 20
14.0
 30
0.0
 40
10.25
  0
CIRCLE
  5
82D
  8
1
 10
186.118263
 20
14.0
 30
0.0
 40
9.25
  0
LINE
  5
82E
  8
1
  6
CENTER
 62
     2
 10
199.368263
 20
14.0
 30
0.0
 11
172.868263
 21
14.0
 31
0.0
  0
LINE
  5
82F
  8
1
 10
-21.4
 20
24.25
 30
0.0
 11
-20.7
 21
23.25
 31
0.0
  0
LINE
  5
830
  8
1
 10
-20.7
 20
23.25
 30
0.0
 11
-20.7
 21
14.0
 31
0.0
  0
LINE
  5
831
  8
1
 10
-21.4
 20
24.25
 30
0.0
 11
-21.4
 21
14.0
 31
0.0
  0
LINE
  5
832
  8
1
 10
-21.553139
 20
3.75
 30
0.0
 11
-21.4
 21
3.75
 31
0.0
  0
LINE
  5
833
  8
1
 10
-21.4
 20
3.75
 30
0.0
 11
-20.7
 21
4.75
 31
0.0
  0
LINE
  5
834
  8
1
 10
-20.7
 20
4.75
 30
0.0
 11
-20.7
 21
14.0
 31
0.0
  0
LINE
  5
835
  8
1
 10
-21.4
 20
3.75
 30
0.0
 11
-21.4
 21
14.0
 31
0.0
  0
LINE
  5
836
  8
1
 10
-20.7
 20
20.2
 30
0.0
 11
-19.7
 21
19.2
 31
0.0
  0
LINE
  5
837
  8
1
 10
-19.7
 20
15.2
 30
0.0
 11
-19.7
 21
19.2
 31
0.0
  0
LINE
  5
838
  8
1
 10
-20.7
 20
7.8
 30
0.0
 11
-19.7
 21
8.8
 31
0.0
  0
LINE
  5
839
  8
1
 10
-19.7
 20
12.8
 30
0.0
 11
-19.7
 21
8.8
 31
0.0
  0
LINE
  5
83A
  8
1
 10
-19.7
 20
12.8
 30
0.0
 11
-20.7
 21
12.8
 31
0.0
  0
LINE
  5
83B
  8
1
 10
-20.5
 20
12.8
 30
0.0
 11
-20.5
 21
15.2
 31
0.0
  0
LINE
  5
83C
  8
1
 10
-19.7
 20
15.2
 30
0.0
 11
-20.7
 21
15.2
 31
0.0
  0
LINE
  5
83D
  8
1
 10
-40.5
 20
5.75
 30
0.0
 11
-40.0
 21
5.75
 31
0.0
  0
LINE
  5
83E
  8
1
 10
-40.5
 20
11.312529
 30
0.0
 11
-40.0
 21
11.312529
 31
0.0
  0
LINE
  5
83F
  8
1
 10
-40.7
 20
5.95
 30
0.0
 11
-40.7
 21
12.233003
 31
0.0
  0
LINE
  5
840
  8
1
 10
-40.7
 20
5.95
 30
0.0
 11
-40.5
 21
5.75
 31
0.0
  0
LINE
  5
841
  8
1
 10
-40.5
 20
11.312529
 30
0.0
 11
-40.7
 21
11.512529
 31
0.0
  0
LINE
  5
842
  8
1
 10
-40.5
 20
11.312529
 30
0.0
 11
-40.5
 21
5.75
 31
0.0
  0
LINE
  5
843
  8
1
 10
-41.0
 20
9.05
 30
0.0
 11
-40.7
 21
9.05
 31
0.0
  0
LINE
  5
844
  8
1
 10
-41.0
 20
9.794173
 30
0.0
 11
-40.7
 21
9.794173
 31
0.0
  0
LINE
  5
845
  8
1
 10
-21.4
 20
148.399401
 30
0.0
 11
-20.7
 21
147.399401
 31
0.0
  0
LINE
  5
846
  8
1
 10
-20.7
 20
147.399401
 30
0.0
 11
-20.7
 21
138.149401
 31
0.0
  0
LINE
  5
847
  8
1
 10
-21.4
 20
148.399401
 30
0.0
 11
-21.4
 21
138.149401
 31
0.0
  0
LINE
  5
848
  8
1
 10
-21.4
 20
127.899401
 30
0.0
 11
-20.7
 21
128.899401
 31
0.0
  0
LINE
  5
849
  8
1
 10
-20.7
 20
128.899401
 30
0.0
 11
-20.7
 21
138.149401
 31
0.0
  0
LINE
  5
84A
  8
1
 10
-21.4
 20
127.899401
 30
0.0
 11
-21.4
 21
138.149401
 31
0.0
  0
LINE
  5
84B
  8
1
 10
-20.7
 20
144.349401
 30
0.0
 11
-19.7
 21
143.349401
 31
0.0
  0
LINE
  5
84C
  8
1
 10
-19.7
 20
143.349401
 30
0.0
 11
-19.7
 21
132.949401
 31
0.0
  0
LINE
  5
84D
  8
1
 10
-20.7
 20
131.949401
 30
0.0
 11
-19.7
 21
132.949401
 31
0.0
  0
LINE
  5
84E
  8
1
 62
     3
 10
-76.0
 20
141.048538
 30
0.0
 11
-68.2
 21
141.048538
 31
0.0
  0
LINE
  5
84F
  8
1
 62
     3
 10
-51.8
 20
141.048538
 30
0.0
 11
-44.5
 21
141.048538
 31
0.0
  0
LINE
  5
850
  8
1
 62
     3
 10
-76.0
 20
136.664476
 30
0.0
 11
-68.2
 21
136.664476
 31
0.0
  0
LINE
  5
851
  8
1
 62
     3
 10
-51.8
 20
136.664476
 30
0.0
 11
-44.5
 21
136.664476
 31
0.0
  0
LINE
  5
852
  8
1
 62
     3
 10
-76.0
 20
135.250263
 30
0.0
 11
-68.2
 21
135.250263
 31
0.0
  0
LINE
  5
853
  8
1
 62
     3
 10
-51.8
 20
135.250263
 30
0.0
 11
-44.5
 21
135.250263
 31
0.0
  0
LINE
  5
854
  8
1
 10
-76.0
 20
16.899138
 30
0.0
 11
-72.5
 21
16.899138
 31
0.0
  0
LINE
  5
855
  8
1
 10
-47.5
 20
16.899138
 30
0.0
 11
-44.5
 21
16.899138
 31
0.0
  0
LINE
  5
856
  8
1
 10
-76.0
 20
15.484924
 30
0.0
 11
-72.5
 21
15.484924
 31
0.0
  0
LINE
  5
857
  8
1
 10
-47.5
 20
15.484924
 30
0.0
 11
-44.5
 21
15.484924
 31
0.0
  0
LINE
  5
858
  8
1
 10
-76.0
 20
11.100862
 30
0.0
 11
-72.5
 21
11.100862
 31
0.0
  0
LINE
  5
859
  8
1
 10
-47.5
 20
11.100862
 30
0.0
 11
-44.5
 21
11.100862
 31
0.0
  0
LINE
  5
85A
  8
1
 10
-55.85
 20
-9.599981
 30
0.0
 11
-60.0
 21
-9.599981
 31
0.0
  0
LINE
  5
85B
  8
1
 10
-55.85
 20
-18.400019
 30
0.0
 11
-60.0
 21
-18.400019
 31
0.0
  0
LINE
  5
85C
  8
1
 10
-53.999978
 20
-9.63528
 30
0.0
 11
-55.604192
 21
-9.257818
 31
0.0
  0
LINE
  5
85D
  8
1
 10
-55.85
 20
-9.452502
 30
0.0
 11
-55.85
 21
-9.599981
 31
0.0
  0
ARC
  5
85E
  8
1
 10
-55.65
 20
-9.452502
 30
0.0
 40
0.2
 50
76.75948
 51
180.0
  0
LINE
  5
85F
  8
1
 10
-53.999978
 20
-18.36472
 30
0.0
 11
-55.604192
 21
-18.742182
 31
0.0
  0
LINE
  5
860
  8
1
 10
-55.85
 20
-18.547498
 30
0.0
 11
-55.85
 21
-18.400019
 31
0.0
  0
ARC
  5
861
  8
1
 10
-55.65
 20
-18.547498
 30
0.0
 40
0.2
 50
180.0
 51
283.24052
  0
LINE
  5
862
  8
1
 10
-64.15
 20
-9.599981
 30
0.0
 11
-60.0
 21
-9.599981
 31
0.0
  0
LINE
  5
863
  8
1
 10
-64.15
 20
-18.400019
 30
0.0
 11
-60.0
 21
-18.400019
 31
0.0
  0
LINE
  5
864
  8
1
 10
-65.999978
 20
-9.63527
 30
0.0
 11
-64.395808
 21
-9.257818
 31
0.0
  0
LINE
  5
865
  8
1
 10
-64.15
 20
-9.452502
 30
0.0
 11
-64.15
 21
-9.599981
 31
0.0
  0
ARC
  5
866
  8
1
 10
-64.35
 20
-9.452502
 30
0.0
 40
0.2
 50
0.0
 51
103.24052
  0
LINE
  5
867
  8
1
 10
-65.999978
 20
-18.36473
 30
0.0
 11
-64.395808
 21
-18.742182
 31
0.0
  0
LINE
  5
868
  8
1
 10
-64.15
 20
-18.547498
 30
0.0
 11
-64.15
 21
-18.400019
 31
0.0
  0
ARC
  5
869
  8
1
 10
-64.35
 20
-18.547498
 30
0.0
 40
0.2
 50
256.75948
 51
0.0
  0
LINE
  5
86A
  8
1
 10
124.282201
 20
-18.8
 30
0.0
 11
124.282201
 21
-9.2
 31
0.0
  0
LINE
  5
86B
  8
1
 10
124.282201
 20
-18.4
 30
0.0
 11
134.618263
 21
-18.4
 31
0.0
  0
LINE
  5
86C
  8
1
 10
124.282201
 20
-9.6
 30
0.0
 11
134.618263
 21
-9.6
 31
0.0
  0
LINE
  5
86D
  8
1
 10
124.282201
 20
-9.2
 30
0.0
 11
124.618276
 21
-9.2
 31
0.0
  0
LINE
  5
86E
  8
1
 10
124.282201
 20
-18.8
 30
0.0
 11
124.618276
 21
-18.8
 31
0.0
  0
LINE
  5
86F
  8
1
 62
     2
 10
-65.65
 20
20.7
 30
0.0
 11
-64.7
 21
20.7
 31
0.0
  0
LINE
  5
870
  8
1
 62
     2
 10
-61.562291
 20
19.25
 30
0.0
 11
-61.562291
 21
22.25
 31
0.0
  0
LINE
  5
871
  8
1
 62
     2
 10
-58.151291
 20
19.25
 30
0.0
 11
-58.151291
 21
22.25
 31
0.0
  0
LINE
  5
872
  8
1
 62
     2
 10
-58.151291
 20
20.8
 30
0.0
 11
-57.001291
 21
20.8
 31
0.0
  0
LINE
  5
873
  8
1
 62
     2
 10
-54.95
 20
22.25
 30
0.0
 11
-54.95
 21
19.25
 31
0.0
  0
LINE
  5
874
  8
1
 62
     2
 10
-52.85
 20
22.25
 30
0.0
 11
-52.85
 21
19.25
 31
0.0
  0
LINE
  5
875
  8
1
 62
     2
 10
-63.223291
 20
22.25
 30
0.0
 11
-63.223291
 21
19.25
 31
0.0
  0
ARC
  5
876
  8
1
 62
     2
 10
-66.0
 20
20.75
 30
0.0
 40
1.5
 50
90.0
 51
270.0
  0
ARC
  5
877
  8
1
 62
     2
 10
-66.0
 20
22.25
 30
0.0
 40
3.0
 50
270.0
 51
295.679289
  0
LINE
  5
878
  8
1
 62
     2
 10
-64.7
 20
19.546299
 30
0.0
 11
-64.7
 21
20.7
 31
0.0
  0
LINE
  5
879
  8
1
 62
     2
 10
-60.996218
 20
20.958887
 30
0.0
 11
-59.562291
 21
19.25
 31
0.0
  0
LINE
  5
87A
  8
1
 62
     2
 10
-59.562291
 20
22.25
 30
0.0
 11
-61.562291
 21
20.449192
 31
0.0
  0
LINE
  5
87B
  8
1
 62
     2
 10
-58.151291
 20
22.25
 30
0.0
 11
-56.151291
 21
22.25
 31
0.0
  0
LINE
  5
87C
  8
1
 62
     2
 10
-66.0
 20
22.25
 30
0.0
 11
-64.8
 21
22.25
 31
0.0
  0
LINE
  5
87D
  8
1
 62
     2
 10
-58.151291
 20
19.25
 30
0.0
 11
-56.151291
 21
19.25
 31
0.0
  0
LINE
  5
87E
  8
1
 62
     2
 10
-54.95
 20
22.25
 30
0.0
 11
-52.85
 21
19.25
 31
0.0
  0
LINE
  5
87F
  8
1
 62
     2
 10
-64.061
 20
5.75
 30
0.0
 11
-61.811
 21
5.75
 31
0.0
  0
ARC
  5
880
  8
1
 62
     2
 10
-56.698709
 20
6.9
 30
0.0
 40
1.85
 50
53.516263
 51
90.0
  0
LINE
  5
881
  8
1
 62
     2
 10
-56.698709
 20
8.75
 30
0.0
 11
-57.082476
 21
8.75
 31
0.0
  0
ARC
  5
882
  8
1
 62
     2
 10
-57.082476
 20
8.033768
 30
0.0
 40
0.716232
 50
90.0
 51
261.246106
  0
ARC
  5
883
  8
1
 62
     2
 10
-56.314941
 20
6.466232
 30
0.0
 40
0.716232
 50
270.0
 51
81.246106
  0
LINE
  5
884
  8
1
 62
     2
 10
-57.19148
 20
7.325879
 30
0.0
 11
-56.205937
 21
7.174121
 31
0.0
  0
LINE
  5
885
  8
1
 62
     2
 10
-56.698709
 20
5.75
 30
0.0
 11
-56.314941
 21
5.75
 31
0.0
  0
ARC
  5
886
  8
1
 62
     2
 10
-56.698709
 20
7.6
 30
0.0
 40
1.85
 50
233.516263
 51
270.0
  0
LINE
  5
887
  8
1
 62
     2
 10
-64.061
 20
8.75
 30
0.0
 11
-64.061
 21
5.75
 31
0.0
  0
LINE
  5
888
  8
1
 62
     2
 10
-60.0
 20
5.75
 30
0.0
 11
-58.9
 21
8.75
 31
0.0
  0
LINE
  5
889
  8
1
 62
     2
 10
-60.0
 20
5.75
 30
0.0
 11
-61.1
 21
8.75
 31
0.0
  0
POLYLINE
  5
88A
  8
2
 62
     2
 66
     1
 10
0.0
 20
0.0
 30
0.0
  0
VERTEX
  5
A26
  8
2
 62
     2
 10
-101.452782
 20
-37.597979
 30
0.0
  0
VERTEX
  5
A27
  8
2
 62
     2
 10
-119.1514
 20
-61.337067
 30
0.0
  0
SEQEND
  5
A44
  8
2
 62
     2
  0
LINE
  5
88E
  8
2
 62
     2
 10
-101.107692
 20
-37.135111
 30
0.0
 11
-101.909402
 21
-36.537398
 31
0.0
  0
LINE
  5
88F
  8
2
 62
     2
 10
-101.909402
 20
-36.537398
 30
0.0
 11
-102.142961
 21
-38.523714
 31
0.0
  0
LINE
  5
890
  8
2
 62
     2
 10
-102.142961
 20
-38.523714
 30
0.0
 11
-100.305982
 21
-37.732824
 31
0.0
  0
LINE
  5
891
  8
2
 62
     2
 10
-100.305982
 20
-37.732824
 30
0.0
 11
-101.107692
 21
-37.135111
 31
0.0
  0
CIRCLE
  5
892
  8
2
 62
     2
 10
-122.150645
 20
-65.359943
 30
0.0
 40
5.0
  0
TEXT
  5
893
  8
2
 62
     2
 10
-124.650645
 20
-67.859943
 30
0.0
 40
5.0
  1
3
 72
     5
 11
-120.650645
 21
-67.859943
 31
0.0
  0
DIMENSION
  5
894
  8
2
 62
     2
  2
*D0
 10
300.118263
 20
-71.124163
 30
0.0
 11
232.618263
 21
-70.124163
 31
0.0
 70
    33
  3
STANDARD
 13
165.118263
 23
-36.0
 33
0.0
 14
300.118263
 24
-36.0
 34
0.0
  0
DIMENSION
  5
895
  8
2
 62
     2
  2
*D1
 10
18.5
 20
-100.0
 30
0.0
 11
-10.75
 21
-96.5
 31
0.0
 70
    32
  3
STANDARD
 13
-40.0
 23
-59.0
 33
0.0
 14
18.5
 24
-36.0
 34
0.0
  0
DIMENSION
  5
896
  8
2
 62
     2
  2
*D2
 10
-80.0
 20
-100.0
 30
0.0
 11
-109.25
 21
-96.5
 31
0.0
 70
    32
  3
STANDARD
 13
-138.5
 23
-36.0
 33
0.0
 14
-80.0
 24
-59.0
 34
0.0
  0
POLYLINE
  5
897
  8
2
 62
     2
 66
     1
 10
0.0
 20
0.0
 30
0.0
  0
VERTEX
  5
A28
  8
2
 62
     2
 10
193.055649
 20
-7.64878
 30
0.0
  0
VERTEX
  5
A29
  8
2
 62
     2
 10
235.122897
 20
-0.006369
 30
0.0
  0
SEQEND
  5
A45
  8
2
 62
     2
  0
LINE
  5
89B
  8
2
 62
     2
 10
192.487597
 20
-7.751979
 30
0.0
 11
192.666342
 21
-8.735874
 31
0.0
  0
LINE
  5
89C
  8
2
 62
     2
 10
192.666342
 20
-8.735874
 30
0.0
 11
194.191753
 21
-7.442382
 31
0.0
  0
LINE
  5
89D
  8
2
 62
     2
 10
194.191753
 20
-7.442382
 30
0.0
 11
192.308851
 21
-6.768083
 31
0.0
  0
LINE
  5
89E
  8
2
 62
     2
 10
192.308851
 20
-6.768083
 30
0.0
 11
192.487597
 21
-7.751979
 31
0.0
  0
CIRCLE
  5
89F
  8
2
 62
     2
 10
100.710449
 20
87.43635
 30
0.0
 40
5.0
  0
CIRCLE
  5
8A0
  8
2
 62
     2
 10
161.206406
 20
87.43635
 30
0.0
 40
5.0
  0
CIRCLE
  5
8A1
  8
2
 62
     2
 10
240.043655
 20
0.887591
 30
0.0
 40
5.0
  0
DIMENSION
  5
8A2
  8
2
 62
     2
  2
*D3
 10
94.618276
 20
-24.0
 30
0.0
 11
86.118276
 21
-16.5
 31
0.0
 70
    33
  3
STANDARD
 13
128.153078
 23
-4.0
 33
0.0
 14
128.153078
 24
-24.0
 34
0.0
  0
DIMENSION
  5
8A3
  8
2
 62
     2
  2
*D4
 10
104.618276
 20
-14.0
 30
0.0
 11
98.618276
 21
-47.0
 31
0.0
 70
    32
  3
STANDARD
 13
104.618276
 23
-80.0
 33
0.0
 14
120.983211
 24
-14.0
 34
0.0
 50
90.0
  0
DIMENSION
  5
8A4
  8
2
 62
     2
  2
*D5
 10
74.618276
 20
50.0
 30
0.0
 11
66.118276
 21
-17.5
 31
0.0
 70
    32
  3
STANDARD
 13
135.118263
 23
-80.0
 33
0.0
 14
135.118263
 24
50.0
 34
0.0
 50
90.0
  0
DIMENSION
  5
8A5
  8
2
 62
     2
  2
*D6
 10
84.618276
 20
42.0
 30
0.0
 11
76.118276
 21
-17.5
 31
0.0
 70
    32
  3
STANDARD
 13
129.328007
 23
-72.0
 33
0.0
 14
84.618276
 24
42.0
 34
0.0
 50
90.0
  0
DIMENSION
  5
8A6
  8
2
 62
     2
  2
*D7
 10
84.618276
 20
50.0
 30
0.0
 11
81.118276
 21
63.0
 31
0.0
 70
    32
  3
STANDARD
 13
129.328007
 23
42.0
 33
0.0
 14
84.618276
 24
50.0
 34
0.0
 50
90.0
  0
DIMENSION
  5
8A7
  8
2
 62
     2
  2
*D8
 10
84.618276
 20
-72.0
 30
0.0
 11
81.118276
 21
-88.0
 31
0.0
 70
    32
  3
STANDARD
 13
84.618276
 23
-80.0
 33
0.0
 14
84.618276
 24
-72.0
 34
0.0
 50
90.0
  0
DIMENSION
  5
8A8
  8
2
 62
     2
  2
*D9
 10
139.118263
 20
74.207794
 30
0.0
 11
124.618263
 21
77.707794
 31
0.0
 70
    32
  3
STANDARD
 13
135.118263
 23
50.0
 33
0.0
 14
139.118263
 24
49.9
 34
0.0
  0
DIMENSION
  5
8A9
  8
2
 62
     2
  2
*D10
 10
325.0
 20
-36.0
 30
0.0
 11
319.0
 21
-44.0
 31
0.0
 70
    32
  3
STANDARD
 13
325.0
 23
-52.0
 33
0.0
 14
215.118263
 24
-36.0
 34
0.0
 50
90.0
  0
DIMENSION
  5
8AA
  8
2
 62
     2
  2
*D11
 10
325.0
 20
22.0
 30
0.0
 11
319.0
 21
-7.0
 31
0.0
 70
    32
  3
STANDARD
 13
325.0
 23
-36.0
 33
0.0
 14
325.0
 24
22.0
 34
0.0
 50
90.0
  0
DIMENSION
  5
8AB
  8
2
 62
     2
  2
*D12
 10
335.0
 20
-52.0
 30
0.0
 11
329.0
 21
-65.95
 31
0.0
 70
    32
  3
STANDARD
 13
139.118263
 23
-79.9
 33
0.0
 14
335.0
 24
-52.0
 34
0.0
 50
90.0
  0
DIMENSION
  5
8AC
  8
2
 62
     2
  2
*D13
 10
335.0
 20
22.0
 30
0.0
 11
329.0
 21
-15.0
 31
0.0
 70
    32
  3
STANDARD
 13
205.118263
 23
-52.0
 33
0.0
 14
205.118263
 24
22.0
 34
0.0
 50
90.0
  0
DIMENSION
  5
8AD
  8
2
 62
     2
  2
*D14
 10
135.118263
 20
16.0
 30
0.0
 11
106.618276
 21
19.5
 31
0.0
 70
    32
  3
STANDARD
 13
124.618276
 23
-5.448449
 33
0.0
 14
135.118263
 24
16.0
 34
0.0
  0
DIMENSION
  5
8AE
  8
2
 62
     2
  2
*D15
 10
-188.118263
 20
-59.0
 30
0.0
 11
-196.812698
 21
-28.289001
 31
0.0
 70
    33
  3
STANDARD
 13
-226.118263
 23
-13.0
 33
0.0
 14
-226.118263
 24
-59.0
 34
0.0
  0
DIMENSION
  5
8AF
  8
2
 62
     2
  2
*D16
 10
-15.245086
 20
153.149401
 30
0.0
 11
-21.245086
 21
166.149401
 31
0.0
 70
    32
  3
STANDARD
 13
-40.0
 23
123.149401
 33
0.0
 14
-40.0
 24
153.149401
 34
0.0
 50
90.0
  0
DIMENSION
  5
8B0
  8
2
 62
     2
  2
*D17
 10
-73.817291
 20
150.149401
 30
0.0
 11
-79.817291
 21
169.149401
 31
0.0
 70
    33
 51
270.0
  3
STANDARD
 13
-73.817291
 23
156.149401
 33
0.0
 14
-73.817291
 24
150.149401
 34
0.0
  0
DIMENSION
  5
8B1
  8
2
 62
     2
  2
*D18
 10
305.0
 20
19.5
 30
0.0
 11
296.5
 21
32.5
 31
0.0
 70
    32
  3
STANDARD
 13
196.718263
 23
14.0
 33
0.0
 14
305.0
 24
19.5
 34
0.0
 50
90.0
  0
DIMENSION
  5
8B2
  8
2
 62
     2
  2
*D19
 10
315.0
 20
19.5
 30
0.0
 11
304.0
 21
-13.25
 31
0.0
 70
    32
  3
STANDARD
 13
315.0
 23
-36.0
 33
0.0
 14
211.118263
 24
19.5
 34
0.0
 50
90.0
  0
DIMENSION
  5
8B3
  8
2
 62
     2
  2
*D20
 10
167.118263
 20
50.569912
 30
0.0
 11
186.118263
 21
54.069912
 31
0.0
 70
    33
  3
STANDARD
 13
205.118263
 23
19.5
 33
0.0
 14
167.118263
 24
19.5
 34
0.0
  0
TEXT
  5
8B4
  8
2
 62
     2
 10
-80.0
 20
61.0
 30
0.0
 40
5.0
  1
ドア厚２８～
 72
     5
 11
-51.0
 21
61.0
 31
0.0
  0
DIMENSION
  5
8B5
  8
2
 62
     2
  2
*D21
 10
-40.0
 20
60.0
 30
0.0
 11
-45.0
 21
63.5
 31
0.0
 70
    32
  3
STANDARD
 13
-80.0
 23
38.5
 33
0.0
 14
-40.0
 24
60.0
 34
0.0
  0
CIRCLE
  5
8B6
  8
2
 62
     2
 10
-3.15051
 20
66.844854
 30
0.0
 40
5.0
  0
CIRCLE
  5
8B7
  8
2
 62
     2
 10
-127.454235
 20
48.436693
 30
0.0
 40
5.0
  0
TEXT
  5
8B8
  8
2
 62
     2
 10
157.206406
 20
84.93635
 30
0.0
 40
5.0
  1
1
 72
     5
 11
161.206406
 21
84.93635
 31
0.0
  0
DIMENSION
  5
8B9
  8
2
 62
     2
  2
*D22
 10
-51.8
 20
178.649401
 30
0.0
 11
-60.0
 21
182.149401
 31
0.0
 70
    32
  3
STANDARD
 13
-68.2
 23
157.449401
 33
0.0
 14
-51.8
 24
157.449401
 34
0.0
  0
CIRCLE
  5
8BA
  8
2
 62
     2
 10
7.453214
 20
-78.169744
 30
0.0
 40
5.0
  0
TEXT
  5
8BB
  8
2
 62
     2
 10
4.953214
 20
-80.669744
 30
0.0
 40
5.0
  1
2
 72
     5
 11
8.953214
 21
-80.669744
 31
0.0
  0
POLYLINE
  5
8BC
  8
2
 62
     2
 66
     1
 10
0.0
 20
0.0
 30
0.0
  0
VERTEX
  5
A2A
  8
2
 62
     2
 10
-33.53418
 20
-55.172386
 30
0.0
  0
VERTEX
  5
A2B
  8
2
 62
     2
 10
3.063238
 20
-75.776664
 30
0.0
  0
SEQEND
  5
A46
  8
2
 62
     2
  0
LINE
  5
8C0
  8
2
 62
     2
 10
-34.037277
 20
-54.889143
 30
0.0
 11
-34.527868
 21
-55.760533
 31
0.0
  0
LINE
  5
8C1
  8
2
 62
     2
 10
-34.527868
 20
-55.760533
 30
0.0
 11
-32.527985
 21
-55.738872
 31
0.0
  0
LINE
  5
8C2
  8
2
 62
     2
 10
-32.527985
 20
-55.738872
 30
0.0
 11
-33.546686
 21
-54.017753
 31
0.0
  0
LINE
  5
8C3
  8
2
 62
     2
 10
-33.546686
 20
-54.017753
 30
0.0
 11
-34.037277
 21
-54.889143
 31
0.0
  0
DIMENSION
  5
8C4
  8
2
 62
     2
  2
*D23
 10
114.280769
 20
-14.0
 30
0.0
 11
108.280769
 21
-49.0
 31
0.0
 70
    32
  3
STANDARD
 13
157.118263
 23
-36.0
 33
0.0
 14
120.983211
 24
-14.0
 34
0.0
 50
90.0
  0
POLYLINE
  5
8C5
  8
2
 62
     2
 66
     1
 10
0.0
 20
0.0
 30
0.0
  0
VERTEX
  5
A2C
  8
2
 62
     2
 10
-32.814976
 20
-38.36895
 30
0.0
  0
VERTEX
  5
A2D
  8
2
 62
     2
 10
3.474312
 20
-63.079589
 30
0.0
  0
SEQEND
  5
A47
  8
2
 62
     2
  0
LINE
  5
8C9
  8
2
 62
     2
 10
-33.292194
 20
-38.043995
 30
0.0
 11
-33.855033
 21
-38.870562
 31
0.0
  0
LINE
  5
8CA
  8
2
 62
     2
 10
-33.855033
 20
-38.870562
 30
0.0
 11
-31.860538
 21
-39.01886
 31
0.0
  0
LINE
  5
8CB
  8
2
 62
     2
 10
-31.860538
 20
-39.01886
 30
0.0
 11
-32.729356
 21
-37.217428
 31
0.0
  0
LINE
  5
8CC
  8
2
 62
     2
 10
-32.729356
 20
-37.217428
 30
0.0
 11
-33.292194
 21
-38.043995
 31
0.0
  0
CIRCLE
  5
8CD
  8
2
 62
     2
 10
7.454235
 20
-66.106726
 30
0.0
 40
5.0
  0
TEXT
  5
8CE
  8
2
 62
     2
 10
4.954235
 20
-68.606726
 30
0.0
 40
5.0
  1
４
 72
     5
 11
8.954235
 21
-68.606726
 31
0.0
  0
CIRCLE
  5
8CF
  8
2
 62
     2
 10
33.653214
 20
-5.893274
 30
0.0
 40
5.0
  0
TEXT
  5
8D0
  8
2
 62
     2
 10
31.153214
 20
-8.393274
 30
0.0
 40
5.0
  1
1
 72
     5
 11
35.153214
 21
-8.393274
 31
0.0
  0
DIMENSION
  5
8D1
  8
2
 62
     2
  2
*D24
 10
-188.118263
 20
0.5
 30
0.0
 11
-196.395721
 21
20.496408
 31
0.0
 70
    33
  3
STANDARD
 13
-226.118263
 23
38.5
 33
0.0
 14
-226.118263
 24
0.5
 34
0.0
  0
DIMENSION
  5
8D2
  8
2
 62
     2
  2
*D25
 10
-80.0
 20
68.831276
 30
0.0
 11
-93.75
 21
72.331276
 31
0.0
 70
    32
  3
STANDARD
 13
-107.5
 23
19.0
 33
0.0
 14
-80.0
 24
38.5
 34
0.0
  0
DIMENSION
  5
8D3
  8
2
 62
     2
  2
*D26
 10
-120.474533
 20
30.0
 30
0.0
 11
-131.474533
 21
12.25
 31
0.0
 70
    32
  3
STANDARD
 13
-92.0
 23
4.5
 33
0.0
 14
-93.5
 24
30.0
 34
0.0
 50
90.0
  0
DIMENSION
  5
8D4
  8
2
 62
     2
  2
*D27
 10
-50.8
 20
186.593826
 30
0.0
 11
-60.0
 21
190.093826
 31
0.0
 70
    32
  3
STANDARD
 13
-69.2
 23
145.799401
 33
0.0
 14
-50.8
 24
139.921901
 34
0.0
  0
DIMENSION
  5
8D5
  8
2
 62
     2
  2
*D28
 10
-80.0
 20
60.0
 30
0.0
 11
-99.5
 21
63.5
 31
0.0
 70
    32
  3
STANDARD
 13
-89.0
 23
37.0
 33
0.0
 14
-80.0
 24
38.5
 34
0.0
  0
DIMENSION
  5
8D6
  8
2
 62
     2
  2
*D29
 10
-47.5
 20
-100.0
 30
0.0
 11
-60.0
 21
-96.5
 31
0.0
 70
    32
  3
STANDARD
 13
-72.5
 23
-80.0
 33
0.0
 14
-47.5
 24
-80.0
 34
0.0
  0
POLYLINE
  5
8D7
  8
2
 62
     2
 66
     1
 10
0.0
 20
0.0
 30
0.0
  0
VERTEX
  5
A2E
  8
2
 62
     2
 10
11.871511
 20
-33.154221
 30
0.0
  0
VERTEX
  5
A2F
  8
2
 62
     2
 10
17.481565
 20
-12.743605
 30
0.0
  0
VERTEX
  5
A30
  8
2
 62
     2
 10
29.049161
 20
-7.843557
 30
0.0
  0
SEQEND
  5
A48
  8
2
 62
     2
  0
LINE
  5
8DC
  8
2
 62
     2
 10
11.718495
 20
-33.710925
 30
0.0
 11
12.682735
 21
-33.975955
 31
0.0
  0
LINE
  5
8DD
  8
2
 62
     2
 10
12.682735
 20
-33.975955
 30
0.0
 11
12.177542
 21
-32.040812
 31
0.0
  0
LINE
  5
8DE
  8
2
 62
     2
 10
12.177542
 20
-32.040812
 30
0.0
 11
10.754255
 21
-33.445894
 31
0.0
  0
LINE
  5
8DF
  8
2
 62
     2
 10
10.754255
 20
-33.445894
 30
0.0
 11
11.718495
 21
-33.710925
 31
0.0
  0
DIMENSION
  5
8E0
  8
2
 62
     2
  2
*D30
 10
-53.999978
 20
-33.039808
 30
0.0
 11
-59.999978
 21
-29.539808
 31
0.0
 70
    32
  3
STANDARD
 13
-65.999978
 23
-21.483317
 33
0.0
 14
-53.999978
 24
-21.483317
 34
0.0
  0
TEXT
  5
8E1
  8
2
 62
     2
 10
140.618263
 20
-94.0
 30
0.0
 40
5.0
  1
バックセット
 72
     5
 11
169.618263
 21
-94.0
 31
0.0
  0
DIMENSION
  5
8E2
  8
2
 62
     2
  2
*D31
 10
186.118263
 20
-95.0
 30
0.0
 11
175.618263
 21
-91.5
 31
0.0
 70
    32
  3
STANDARD
 13
135.118263
 23
-80.0
 33
0.0
 14
186.118263
 24
-65.0
 34
0.0
  0
DIMENSION
  5
8E3
  8
2
 62
     2
  2
*D32
 10
-176.774124
 20
14.0
 30
0.0
 11
-182.774124
 21
-11.0
 31
0.0
 70
    32
  3
STANDARD
 13
-197.118263
 23
-36.0
 33
0.0
 14
-215.118263
 24
14.0
 34
0.0
 50
90.0
  0
DIMENSION
  5
8E4
  8
2
 62
     2
  2
*D33
 10
-258.329956
 20
19.5
 30
0.0
 11
-266.829956
 21
-4.0
 31
0.0
 70
    32
  3
STANDARD
 13
-237.118263
 23
14.0
 33
0.0
 14
-251.118263
 24
19.5
 34
0.0
 50
90.0
  0
DIMENSION
  5
8E5
  8
2
 62
     2
  2
*D34
 10
-218.618263
 20
48.786003
 30
0.0
 11
-226.118263
 21
52.286003
 31
0.0
 70
    32
  3
STANDARD
 13
-233.618263
 23
30.5
 33
0.0
 14
-218.618263
 24
30.5
 34
0.0
  0
DIMENSION
  5
8E6
  8
2
 62
     2
  2
*D35
 10
-258.329956
 20
26.0
 30
0.0
 11
-266.829956
 21
39.0
 31
0.0
 70
    32
  3
STANDARD
 13
-251.118263
 23
19.5
 33
0.0
 14
-238.118263
 24
26.0
 34
0.0
 50
90.0
  0
DIMENSION
  5
8E7
  8
2
 62
     2
  2
*D36
 10
-21.4
 20
60.0
 30
0.0
 11
-30.7
 21
63.5
 31
0.0
 70
    32
  3
STANDARD
 13
-40.0
 23
38.5
 33
0.0
 14
-21.4
 24
19.5
 34
0.0
  0
DIMENSION
  5
8E8
  8
2
 62
     2
  2
*D37
 10
-19.7
 20
68.831276
 30
0.0
 11
-29.85
 21
72.331276
 31
0.0
 70
    32
  3
STANDARD
 13
-40.0
 23
38.5
 33
0.0
 14
-19.7
 24
19.2
 34
0.0
  0
DIMENSION
  5
8E9
  8
2
 62
     2
  2
*D38
 10
207.418263
 20
-105.292931
 30
0.0
 11
171.268263
 21
-101.792931
 31
0.0
 70
    32
  3
STANDARD
 13
135.118263
 23
-80.0
 33
0.0
 14
207.418263
 24
-45.129654
 34
0.0
  0
CIRCLE
  5
8EA
  8
2
 62
     2
 10
-204.182068
 20
48.436693
 30
0.0
 40
5.0
  0
POLYLINE
  5
8EB
  8
2
 62
     2
 66
     1
 10
0.0
 20
0.0
 30
0.0
  0
VERTEX
  5
A31
  8
2
 62
     2
 10
-216.733078
 20
27.790636
 30
0.0
  0
VERTEX
  5
A32
  8
2
 62
     2
 10
-206.824833
 20
44.089419
 30
0.0
  0
SEQEND
  5
A49
  8
2
 62
     2
  0
LINE
  5
8EF
  8
2
 62
     2
 10
-217.032988
 20
27.297293
 30
0.0
 11
-216.178492
 21
26.777834
 31
0.0
  0
LINE
  5
8F0
  8
2
 62
     2
 10
-216.178492
 20
26.777834
 30
0.0
 11
-216.133258
 21
28.777322
 31
0.0
  0
LINE
  5
8F1
  8
2
 62
     2
 10
-216.133258
 20
28.777322
 30
0.0
 11
-217.887483
 21
27.816752
 31
0.0
  0
LINE
  5
8F2
  8
2
 62
     2
 10
-217.887483
 20
27.816752
 30
0.0
 11
-217.032988
 21
27.297293
 31
0.0
  0
DIMENSION
  5
8F3
  8
2
 62
     2
  2
*D39
 10
-30.0
 20
-89.909096
 30
0.0
 11
-17.0
 21
-86.409096
 31
0.0
 70
    32
  3
STANDARD
 13
-40.0
 23
-59.0
 33
0.0
 14
-30.0
 24
-57.5
 34
0.0
  0
DIMENSION
  5
8F4
  8
2
 62
     2
  2
*D40
 10
-80.0
 20
-89.909096
 30
0.0
 11
-103.0
 21
-86.409096
 31
0.0
 70
    32
  3
STANDARD
 13
-90.0
 23
-57.5
 33
0.0
 14
-80.0
 24
-59.0
 34
0.0
  0
POLYLINE
  5
8F5
  8
2
 62
     2
 66
     1
 10
0.0
 20
0.0
 30
0.0
  0
VERTEX
  5
A33
  8
2
 62
     2
 10
147.626633
 20
41.959942
 30
0.0
  0
VERTEX
  5
A34
  8
2
 62
     2
 10
159.75765
 20
82.584708
 30
0.0
  0
SEQEND
  5
A4A
  8
2
 62
     2
  0
LINE
  5
8F9
  8
2
 62
     2
 10
147.461437
 20
41.40673
 30
0.0
 11
148.419629
 21
41.120603
 31
0.0
  0
LINE
  5
8FA
  8
2
 62
     2
 10
148.419629
 20
41.120603
 30
0.0
 11
147.957024
 21
43.066366
 31
0.0
  0
LINE
  5
8FB
  8
2
 62
     2
 10
147.957024
 20
43.066366
 30
0.0
 11
146.503246
 21
41.692857
 31
0.0
  0
LINE
  5
8FC
  8
2
 62
     2
 10
146.503246
 20
41.692857
 30
0.0
 11
147.461437
 21
41.40673
 31
0.0
  0
POLYLINE
  5
8FD
  8
2
 62
     2
 66
     1
 10
0.0
 20
0.0
 30
0.0
  0
VERTEX
  5
A35
  8
2
 62
     2
 10
135.118263
 20
44.567318
 30
0.0
  0
VERTEX
  5
A36
  8
2
 62
     2
 10
103.841819
 20
83.534945
 30
0.0
  0
SEQEND
  5
A4B
  8
2
 62
     2
  0
LINE
  5
901
  8
2
 62
     2
 10
135.479652
 20
44.117061
 30
0.0
 11
136.25952
 21
44.743004
 31
0.0
  0
LINE
  5
902
  8
2
 62
     2
 10
136.25952
 20
44.743004
 30
0.0
 11
134.395486
 21
45.467833
 31
0.0
  0
LINE
  5
903
  8
2
 62
     2
 10
134.395486
 20
45.467833
 30
0.0
 11
134.699783
 21
43.491117
 31
0.0
  0
LINE
  5
904
  8
2
 62
     2
 10
134.699783
 20
43.491117
 30
0.0
 11
135.479652
 21
44.117061
 31
0.0
  0
DIMENSION
  5
905
  8
2
 62
     2
  2
*D41
 10
-261.047302
 20
194.736703
 30
0.0
 11
-269.547302
 21
207.736703
 31
0.0
 70
    32
  3
STANDARD
 13
-278.111005
 23
192.536703
 33
0.0
 14
-278.111005
 24
194.736703
 34
0.0
 50
90.0
  0
DIMENSION
  5
906
  8
2
 62
     2
  2
*D42
 10
-278.111005
 20
171.519623
 30
0.0
 11
-289.611005
 21
175.019623
 31
0.0
 70
    32
  3
STANDARD
 13
-301.111005
 23
162.331902
 33
0.0
 14
-278.111005
 24
157.031888
 34
0.0
  0
DIMENSION
  5
907
  8
2
 62
     2
  2
*D43
 10
-278.111005
 20
178.22847
 30
0.0
 11
-299.111005
 21
181.72847
 31
0.0
 70
    32
  3
STANDARD
 13
-320.111005
 23
157.031888
 33
0.0
 14
-278.111005
 24
157.031888
 34
0.0
  0
DIMENSION
  5
908
  8
2
 62
     2
  2
*D44
 10
-261.047302
 20
167.031902
 30
0.0
 11
-267.047302
 21
157.031902
 31
0.0
 70
    32
  3
STANDARD
 13
-292.111005
 23
147.031902
 33
0.0
 14
-292.111005
 24
167.031902
 34
0.0
 50
90.0
  0
DIMENSION
  5
909
  8
2
 62
     2
  2
*D45
 10
-328.98793
 20
160.331902
 30
0.0
 11
-337.48793
 21
173.331902
 31
0.0
 70
    32
  3
STANDARD
 13
-315.111005
 23
153.731902
 33
0.0
 14
-315.111005
 24
160.331902
 34
0.0
 50
90.0
  0
DIMENSION
  5
90A
  8
2
 62
     2
  2
*D46
 10
-6.406671
 20
7.8
 30
0.0
 11
-19.906671
 21
29.156458
 31
0.0
 70
    33
  3
STANDARD
 13
-20.7
 23
20.2
 33
0.0
 14
-20.7
 24
7.8
 34
0.0
  0
DIMENSION
  5
90B
  8
2
 62
     2
  2
*D47
 10
3.957599
 20
3.75
 30
0.0
 11
-9.542401
 21
31.918703
 31
0.0
 70
    33
  3
STANDARD
 13
-21.4
 23
24.25
 33
0.0
 14
-21.4
 24
3.75
 34
0.0
  0
POLYLINE
  5
90C
  8
2
 62
     2
 66
     1
 10
0.0
 20
0.0
 30
0.0
  0
VERTEX
  5
A37
  8
2
 62
     2
 10
-28.709936
 20
32.523338
 30
0.0
  0
VERTEX
  5
A38
  8
2
 62
     2
 10
-6.094033
 20
62.892256
 30
0.0
  0
SEQEND
  5
A4C
  8
2
 62
     2
  0
LINE
  5
910
  8
2
 62
     2
 10
-29.054775
 20
32.060284
 30
0.0
 11
-28.252742
 21
31.463005
 31
0.0
  0
LINE
  5
911
  8
2
 62
     2
 10
-28.252742
 20
31.463005
 30
0.0
 11
-28.020258
 21
33.449447
 31
0.0
  0
LINE
  5
912
  8
2
 62
     2
 10
-28.020258
 20
33.449447
 30
0.0
 11
-29.856809
 21
32.657563
 31
0.0
  0
LINE
  5
913
  8
2
 62
     2
 10
-29.856809
 20
32.657563
 30
0.0
 11
-29.054775
 21
32.060284
 31
0.0
  0
POLYLINE
  5
914
  8
2
 62
     2
 66
     1
 10
0.0
 20
0.0
 30
0.0
  0
VERTEX
  5
A39
  8
2
 62
     2
 10
-85.997894
 20
32.523338
 30
0.0
  0
VERTEX
  5
A3A
  8
2
 62
     2
 10
-122.7082
 20
46.614889
 30
0.0
  0
SEQEND
  5
A4D
  8
2
 62
     2
  0
LINE
  5
918
  8
2
 62
     2
 10
-85.45889
 20
32.316437
 30
0.0
 11
-85.100527
 21
33.25002
 31
0.0
  0
LINE
  5
919
  8
2
 62
     2
 10
-85.100527
 20
33.25002
 30
0.0
 11
-87.075902
 21
32.93714
 31
0.0
  0
LINE
  5
91A
  8
2
 62
     2
 10
-87.075902
 20
32.93714
 30
0.0
 11
-85.817253
 21
31.382855
 31
0.0
  0
LINE
  5
91B
  8
2
 62
     2
 10
-85.817253
 20
31.382855
 30
0.0
 11
-85.45889
 21
32.316437
 31
0.0
  0
CIRCLE
  5
91C
  8
2
 62
     2
 10
-309.663757
 20
128.915358
 30
0.0
 40
5.0
  0
POLYLINE
  5
91D
  8
2
 62
     2
 66
     1
 10
0.0
 20
0.0
 30
0.0
  0
VERTEX
  5
A3B
  8
2
 62
     2
 10
-298.595444
 20
155.431259
 30
0.0
  0
VERTEX
  5
A3C
  8
2
 62
     2
 10
-307.807802
 20
133.361593
 30
0.0
  0
SEQEND
  5
A4E
  8
2
 62
     2
  0
LINE
  5
921
  8
2
 62
     2
 10
-298.373043
 20
155.964055
 30
0.0
 11
-299.295873
 21
156.349264
 31
0.0
  0
LINE
  5
922
  8
2
 62
     2
 10
-299.295873
 20
156.349264
 30
0.0
 11
-299.040245
 21
154.365668
 31
0.0
  0
LINE
  5
923
  8
2
 62
     2
 10
-299.040245
 20
154.365668
 30
0.0
 11
-297.450214
 21
155.578846
 31
0.0
  0
LINE
  5
924
  8
2
 62
     2
 10
-297.450214
 20
155.578846
 30
0.0
 11
-298.373043
 21
155.964055
 31
0.0
  0
TEXT
  5
925
  8
2
 62
     2
 10
-5.65051
 20
64.344854
 30
0.0
 40
5.0
  1
５
 72
     5
 11
-1.65051
 21
64.344854
 31
0.0
  0
TEXT
  5
926
  8
2
 62
     2
 10
-312.163757
 20
126.415358
 30
0.0
 40
5.0
  1
６
 72
     5
 11
-308.163757
 21
126.415358
 31
0.0
  0
TEXT
  5
927
  8
2
 62
     2
 10
-129.954235
 20
45.936693
 30
0.0
 40
5.0
  1
７
 72
     5
 11
-125.954235
 21
45.936693
 31
0.0
  0
TEXT
  5
928
  8
2
 62
     2
 10
-206.682068
 20
45.936693
 30
0.0
 40
5.0
  1
８
 72
     5
 11
-202.682068
 21
45.936693
 31
0.0
  0
TEXT
  5
929
  8
2
 62
     2
 10
237.543655
 20
-1.612409
 30
0.0
 40
5.0
  1
９
 72
     5
 11
241.543655
 21
-1.612409
 31
0.0
  0
TEXT
  5
92A
  8
2
 62
     2
 10
96.710449
 20
84.93635
 30
0.0
 40
5.0
  1
1
 72
     5
 11
100.710449
 21
84.93635
 31
0.0
  0
TEXT
  5
92B
  8
2
 62
     2
 10
100.210449
 20
84.93635
 30
0.0
 40
5.0
  1
０
 72
     5
 11
104.210449
 21
84.93635
 31
0.0
  0
TEXT
  5
92C
  8
2
 62
     2
 10
160.706406
 20
84.93635
 30
0.0
 40
5.0
  1
１
 72
     5
 11
164.706406
 21
84.93635
 31
0.0
  0
TEXT
  5
92D
  8
2
 62
     2
 10
335.843614
 20
255.075667
 30
0.0
 40
5.0
  1
1
 72
     5
 11
339.843614
 21
255.075667
 31
0.0
  0
DIMENSION
  5
92E
  8
2
 62
     2
  2
*D48
 10
278.359039
 20
200.906181
 30
0.0
 11
272.359039
 21
187.406181
 31
0.0
 70
    32
  3
STANDARD
 13
255.359039
 23
173.906181
 33
0.0
 14
255.359039
 24
200.906181
 34
0.0
 50
90.0
  0
DIMENSION
  5
92F
  8
2
 62
     2
  2
*D49
 10
286.359039
 20
212.406181
 30
0.0
 11
280.359039
 21
187.406181
 31
0.0
 70
    32
  3
STANDARD
 13
256.883886
 23
162.406181
 33
0.0
 14
256.883886
 24
212.406181
 34
0.0
 50
90.0
  0
DIMENSION
  5
930
  8
2
 62
     2
  2
*D50
 10
294.359039
 20
220.406181
 30
0.0
 11
288.359039
 21
187.406181
 31
0.0
 70
    32
  3
STANDARD
 13
262.359039
 23
154.406181
 33
0.0
 14
262.359039
 24
220.406181
 34
0.0
 50
90.0
  0
DIMENSION
  5
931
  8
2
 62
     2
  2
*D51
 10
345.330943
 20
202.50618
 30
0.0
 11
334.330943
 21
182.40618
 31
0.0
 70
    32
  3
STANDARD
 13
317.057732
 23
172.30618
 33
0.0
 14
317.057732
 24
202.50618
 34
0.0
 50
90.0
  0
DIMENSION
  5
932
  8
2
 62
     2
  2
*D52
 10
353.330943
 20
220.206301
 30
0.0
 11
342.330943
 21
182.40618
 31
0.0
 70
    32
  3
STANDARD
 13
315.657047
 23
154.606059
 33
0.0
 14
315.657047
 24
220.206301
 34
0.0
 50
90.0
  0
POLYLINE
  5
933
  8
2
 62
     2
 66
     1
 10
0.0
 20
0.0
 30
0.0
  0
VERTEX
  5
A3D
  8
2
 62
     2
 10
228.770316
 20
214.26731
 30
0.0
  0
VERTEX
  5
A3E
  8
2
 62
     2
 10
209.732652
 20
253.08646
 30
0.0
  0
SEQEND
  5
A4F
  8
2
 62
     2
  0
LINE
  5
937
  8
2
 62
     2
 10
229.024534
 20
213.748941
 30
0.0
 11
229.922375
 21
214.18926
 31
0.0
  0
LINE
  5
938
  8
2
 62
     2
 10
229.922375
 20
214.18926
 30
0.0
 11
228.261879
 21
215.304048
 31
0.0
  0
LINE
  5
939
  8
2
 62
     2
 10
228.261879
 20
215.304048
 30
0.0
 11
228.126692
 21
213.308622
 31
0.0
  0
LINE
  5
93A
  8
2
 62
     2
 10
228.126692
 20
213.308622
 30
0.0
 11
229.024534
 21
213.748941
 31
0.0
  0
POLYLINE
  5
93B
  8
2
 62
     2
 66
     1
 10
0.0
 20
0.0
 30
0.0
  0
VERTEX
  5
A3F
  8
2
 62
     2
 10
321.594412
 20
196.986701
 30
0.0
  0
VERTEX
  5
A40
  8
2
 62
     2
 10
324.749226
 20
252.583697
 30
0.0
  0
SEQEND
  5
A50
  8
2
 62
     2
  0
LINE
  5
93F
  8
2
 62
     2
 10
321.561704
 20
196.410278
 30
0.0
 11
322.560098
 21
196.353624
 31
0.0
  0
LINE
  5
940
  8
2
 62
     2
 10
322.560098
 20
196.353624
 30
0.0
 11
321.65983
 21
198.139547
 31
0.0
  0
LINE
  5
941
  8
2
 62
     2
 10
321.65983
 20
198.139547
 30
0.0
 11
320.56331
 21
196.466931
 31
0.0
  0
LINE
  5
942
  8
2
 62
     2
 10
320.56331
 20
196.466931
 30
0.0
 11
321.561704
 21
196.410278
 31
0.0
  0
POLYLINE
  5
943
  8
2
 62
     2
 66
     1
 10
0.0
 20
0.0
 30
0.0
  0
VERTEX
  5
A41
  8
2
 62
     2
 10
331.02202
 20
213.905699
 30
0.0
  0
VERTEX
  5
A42
  8
2
 62
     2
 10
338.853582
 20
252.674663
 30
0.0
  0
SEQEND
  5
A51
  8
2
 62
     2
  0
LINE
  5
947
  8
2
 62
     2
 10
330.907701
 20
213.339779
 30
0.0
 11
331.887901
 21
213.141773
 31
0.0
  0
LINE
  5
948
  8
2
 62
     2
 10
331.887901
 20
213.141773
 30
0.0
 11
331.250658
 21
215.037537
 31
0.0
  0
LINE
  5
949
  8
2
 62
     2
 10
331.250658
 20
215.037537
 30
0.0
 11
329.9275
 21
213.537786
 31
0.0
  0
LINE
  5
94A
  8
2
 62
     2
 10
329.9275
 20
213.537786
 30
0.0
 11
330.907701
 21
213.339779
 31
0.0
  0
CIRCLE
  5
94B
  8
2
 62
     2
 10
207.531058
 20
257.575667
 30
0.0
 40
5.0
  0
DIMENSION
  5
94C
  8
2
 62
     2
  2
*D53
 10
249.859039
 20
248.406181
 30
0.0
 11
260.359039
 21
251.906181
 31
0.0
 70
    32
  3
STANDARD
 13
242.859039
 23
198.206181
 33
0.0
 14
249.859039
 24
225.353597
 34
0.0
  0
DIMENSION
  5
94D
  8
2
 62
     2
  2
*D54
 10
249.859039
 20
138.406181
 30
0.0
 11
237.359039
 21
141.906181
 31
0.0
 70
    32
  3
STANDARD
 13
224.859039
 23
138.406181
 33
0.0
 14
249.859039
 24
152.072301
 34
0.0
  0
DIMENSION
  5
94E
  8
2
 62
     2
  2
*D55
 10
262.359039
 20
138.406181
 30
0.0
 11
280.359039
 21
141.906181
 31
0.0
 70
    32
  3
STANDARD
 13
249.859039
 23
138.406181
 33
0.0
 14
262.359039
 24
138.406181
 34
0.0
  0
DIMENSION
  5
94F
  8
2
 62
     2
  2
*D56
 10
262.359039
 20
128.406181
 30
0.0
 11
243.609039
 21
131.906181
 31
0.0
 70
    32
  3
STANDARD
 13
224.859039
 23
159.406181
 33
0.0
 14
262.359039
 24
154.406181
 34
0.0
  0
DIMENSION
  5
950
  8
2
 62
     2
  2
*D57
 10
275.624752
 20
112.883154
 30
0.0
 11
272.124752
 21
121.883154
 31
0.0
 70
    32
  3
STANDARD
 13
262.359039
 23
111.883154
 33
0.0
 14
275.624752
 24
112.883154
 34
0.0
 50
90.0
  0
DIMENSION
  5
951
  8
2
 62
     2
  2
*D58
 10
275.624752
 20
111.883154
 30
0.0
 11
266.939999
 21
92.435422
 31
0.0
 70
    32
  3
STANDARD
 13
259.692632
 23
109.983154
 33
0.0
 14
275.624752
 24
111.883154
 34
0.0
 50
90.0
  0
DIMENSION
  5
952
  8
2
 62
     2
  2
*D59
 10
284.959713
 20
112.883154
 30
0.0
 11
278.959713
 21
107.883154
 31
0.0
 70
    32
  3
STANDARD
 13
256.979724
 23
102.883154
 33
0.0
 14
262.359039
 24
112.883154
 34
0.0
 50
90.0
  0
DIMENSION
  5
953
  8
2
 62
     2
  2
*D60
 10
259.159039
 20
81.275968
 30
0.0
 11
250.109039
 21
84.775968
 31
0.0
 70
    32
  3
STANDARD
 13
241.059039
 23
109.983154
 33
0.0
 14
259.159039
 24
109.983154
 34
0.0
  0
TEXT
  5
954
  8
2
 62
     2
 10
252.859039
 20
241.406181
 30
0.0
 40
5.0
  1
－
 72
     5
 11
256.859039
 21
241.406181
 31
0.0
  0
DIMENSION
  5
955
  8
2
 62
     2
  2
*D61
 10
244.859039
 20
240.406181
 30
0.0
 11
260.359039
 21
243.906181
 31
0.0
 70
    32
  3
STANDARD
 13
242.859039
 23
240.406181
 33
0.0
 14
244.859039
 24
198.206181
 34
0.0
  0
TEXT
  5
956
  8
2
 62
     2
 10
221.859039
 20
241.406181
 30
0.0
 40
5.0
  1
＋
 72
     5
 11
225.859039
 21
241.406181
 31
0.0
  0
DIMENSION
  5
957
  8
2
 62
     2
  2
*D62
 10
242.859039
 20
240.406181
 30
0.0
 11
229.359039
 21
243.906181
 31
0.0
 70
    32
  3
STANDARD
 13
239.859039
 23
198.206181
 33
0.0
 14
242.859039
 24
240.406181
 34
0.0
  0
TEXT
  5
958
  8
2
 62
     2
 10
220.538276
 20
259.166876
 30
0.0
 40
5.0
  1
（調整範囲５ｍｍ）
 72
     5
 11
264.538276
 21
259.166876
 31
0.0
  0
CIRCLE
  5
959
  8
2
 62
     2
 10
325.032492
 20
257.575667
 30
0.0
 40
5.0
  0
CIRCLE
  5
95A
  8
2
 62
     2
 10
339.843614
 20
257.575667
 30
0.0
 40
5.0
  0
TEXT
  5
95B
  8
2
 62
     2
 10
321.032492
 20
255.075667
 30
0.0
 40
5.0
  1
1
 72
     5
 11
325.032492
 21
255.075667
 31
0.0
  0
TEXT
  5
95C
  8
2
 62
     2
 10
203.531058
 20
255.075667
 30
0.0
 40
5.0
  1
1
 72
     5
 11
207.531058
 21
255.075667
 31
0.0
  0
TEXT
  5
95D
  8
2
 62
     2
 10
207.031058
 20
255.075667
 30
0.0
 40
5.0
  1
２
 72
     5
 11
211.031058
 21
255.075667
 31
0.0
  0
TEXT
  5
95E
  8
2
 62
     2
 10
324.532492
 20
255.075667
 30
0.0
 40
5.0
  1
３
 72
     5
 11
328.532492
 21
255.075667
 31
0.0
  0
TEXT
  5
95F
  8
2
 62
     2
 10
339.343614
 20
255.075667
 30
0.0
 40
5.0
  1
４
 72
     5
 11
343.343614
 21
255.075667
 31
0.0
  0
LINE
  5
960
  8
3
 62
     3
 10
-380.0
 20
276.0
 30
0.0
 11
-380.0
 21
-276.0
 31
0.0
  0
LINE
  5
961
  8
3
 62
     3
 10
400.0
 20
276.0
 30
0.0
 11
400.0
 21
-276.0
 31
0.0
  0
LINE
  5
962
  8
3
 62
     3
 10
-380.0
 20
276.0
 30
0.0
 11
400.0
 21
276.0
 31
0.0
  0
LINE
  5
963
  8
3
 62
     3
 10
-380.0
 20
-276.0
 30
0.0
 11
400.0
 21
-276.0
 31
0.0
  0
LINE
  5
964
  8
3
 10
-380.0
 20
-216.0
 30
0.0
 11
400.0
 21
-216.0
 31
0.0
  0
LINE
  5
965
  8
3
 62
     2
 10
20.0
 20
-225.999897
 30
0.0
 11
216.001054
 21
-225.999729
 31
0.0
  0
LINE
  5
966
  8
3
 62
     3
 10
-380.6
 20
276.6
 30
0.0
 11
400.6
 21
276.6
 31
0.0
  0
LINE
  5
967
  8
3
 62
     3
 10
400.6
 20
276.6
 30
0.0
 11
400.6
 21
-276.6
 31
0.0
  0
LINE
  5
968
  8
3
 62
     3
 10
400.6
 20
-276.6
 30
0.0
 11
-380.6
 21
-276.6
 31
0.0
  0
LINE
  5
969
  8
3
 62
     3
 10
-380.6
 20
-276.6
 30
0.0
 11
-380.6
 21
276.6
 31
0.0
  0
LINE
  5
96A
  8
3
 62
     2
 10
216.001054
 20
-225.999729
 30
0.0
 11
216.001054
 21
-216.0
 31
0.0
  0
LINE
  5
96B
  8
3
 62
     2
 10
180.0
 20
-259.999729
 30
0.0
 11
216.001054
 21
-259.999729
 31
0.0
  0
LINE
  5
96C
  8
3
 62
     2
 10
216.001054
 20
-259.999729
 30
0.0
 11
216.001054
 21
-250.0
 31
0.0
  0
LINE
  5
96D
  8
3
 10
-40.0
 20
-202.0
 30
0.0
 11
400.0
 21
-202.0
 31
0.0
  0
LINE
  5
96E
  8
3
 10
180.0
 20
-132.0
 30
0.0
 11
180.0
 21
-216.0
 31
0.0
  0
LINE
  5
96F
  8
3
 10
380.0
 20
-132.0
 30
0.0
 11
380.0
 21
-216.0
 31
0.0
  0
LINE
  5
970
  8
3
 10
20.0
 20
-216.0
 30
0.0
 11
20.0
 21
-276.0
 31
0.0
  0
TEXT
  5
971
  8
3
 62
     3
 10
44.0
 20
-271.0
 30
0.0
 40
16.0
  1
（株）川口技研
 72
     5
 11
152.8
 21
-271.0
 31
0.0
  0
TEXT
  5
972
  8
3
 62
     2
 10
183.600527
 20
-224.59988
 30
0.0
 40
7.2
  1
図面名称
 72
     5
 11
210.960527
 21
-224.59988
 31
0.0
  0
TEXT
  5
973
  8
3
 62
     2
 10
183.600527
 20
-258.599849
 30
0.0
 40
7.2
  1
図面番号
 72
     5
 11
210.960527
 21
-258.599849
 31
0.0
  0
TEXT
  5
974
  8
3
 62
     2
 10
32.266667
 20
-224.599983
 30
0.0
 40
7.2
  1
図　　法
 72
     5
 11
59.626667
 21
-224.599983
 31
0.0
  0
TEXT
  5
975
  8
3
 62
     2
 10
85.6
 20
-224.599949
 30
0.0
 40
7.2
  1
単　　位
 72
     5
 11
112.96
 21
-224.599949
 31
0.0
  0
TEXT
  5
976
  8
3
 62
     2
 10
138.933333
 20
-224.599914
 30
0.0
 40
7.2
  1
尺　　度
 72
     5
 11
166.293333
 21
-224.599914
 31
0.0
  0
TEXT
  5
977
  8
3
 62
     2
 10
182.8
 20
-212.6
 30
0.0
 40
7.2
  1
品番
 72
     5
 11
195.76
 21
-212.6
 31
0.0
  0
TEXT
  5
978
  8
3
 62
     2
 10
234.8
 20
-212.6
 30
0.0
 40
7.2
  1
品　　　　　名
 72
     5
 11
283.76
 21
-212.6
 31
0.0
  0
TEXT
  5
979
  8
3
 62
     2
 10
382.8
 20
-212.6
 30
0.0
 40
7.2
  1
員数
 72
     5
 11
395.76
 21
-212.6
 31
0.0
  0
TEXT
  5
97A
  8
3
 62
     2
 10
92.0
 20
-241.999914
 30
0.0
 40
8.0
  1
ｍｍ
 72
     5
 11
106.4
 21
-241.999914
 31
0.0
  0
LINE
  5
97B
  8
3
 10
-40.0
 20
-188.0
 30
0.0
 11
400.0
 21
-188.0
 31
0.0
  0
LINE
  5
97C
  8
3
 10
-40.0
 20
-174.0
 30
0.0
 11
400.0
 21
-174.0
 31
0.0
  0
LINE
  5
97D
  8
3
 10
-40.0
 20
-160.0
 30
0.0
 11
400.0
 21
-160.0
 31
0.0
  0
LINE
  5
97E
  8
3
 10
-40.0
 20
-146.0
 30
0.0
 11
400.0
 21
-146.0
 31
0.0
  0
LINE
  5
97F
  8
3
 10
180.0
 20
-132.0
 30
0.0
 11
400.0
 21
-132.0
 31
0.0
  0
TEXT
  5
980
  8
3
 62
     2
 10
186.0
 20
-199.0
 30
0.0
 40
8.0
  1
１
 72
     5
 11
192.4
 21
-199.0
 31
0.0
  0
TEXT
  5
981
  8
3
 62
     2
 10
186.0
 20
-185.0
 30
0.0
 40
8.0
  1
２
 72
     5
 11
192.4
 21
-185.0
 31
0.0
  0
TEXT
  5
982
  8
3
 62
     2
 10
186.0
 20
-171.0
 30
0.0
 40
8.0
  1
３
 72
     5
 11
192.4
 21
-171.0
 31
0.0
  0
TEXT
  5
983
  8
3
 62
     2
 10
186.0
 20
-157.0
 30
0.0
 40
8.0
  1
４
 72
     5
 11
192.4
 21
-157.0
 31
0.0
  0
TEXT
  5
984
  8
3
 62
     2
 10
186.0
 20
-143.0
 30
0.0
 40
8.0
  1
５
 72
     5
 11
192.4
 21
-143.0
 31
0.0
  0
TEXT
  5
985
  8
3
 62
     2
 10
166.0
 20
-185.0
 30
0.0
 40
8.0
  1
１
 72
     5
 11
172.4
 21
-185.0
 31
0.0
  0
LINE
  5
986
  8
3
 10
180.0
 20
-132.0
 30
0.0
 11
180.0
 21
-216.0
 31
0.0
  0
LINE
  5
987
  8
3
 10
160.0
 20
-132.0
 30
0.0
 11
160.0
 21
-216.0
 31
0.0
  0
LINE
  5
988
  8
3
 10
100.0
 20
-216.0
 30
0.0
 11
100.0
 21
-132.0
 31
0.0
  0
LINE
  5
989
  8
3
 10
-20.0
 20
-216.0
 30
0.0
 11
-20.0
 21
-132.0
 31
0.0
  0
LINE
  5
98A
  8
3
 10
-40.0
 20
-132.0
 30
0.0
 11
-40.0
 21
-216.0
 31
0.0
  0
TEXT
  5
98B
  8
3
 62
     2
 10
166.0
 20
-157.0
 30
0.0
 40
8.0
  1
１
 72
     5
 11
172.4
 21
-157.0
 31
0.0
  0
TEXT
  5
98C
  8
3
 62
     2
 10
386.0
 20
-199.0
 30
0.0
 40
8.0
  1
１
 72
     5
 11
392.4
 21
-199.0
 31
0.0
  0
TEXT
  5
98D
  8
3
 62
     2
 10
386.0
 20
-171.0
 30
0.0
 40
8.0
  1
１
 72
     5
 11
392.4
 21
-171.0
 31
0.0
  0
TEXT
  5
98E
  8
3
 62
     2
 10
-34.0
 20
-199.0
 30
0.0
 40
8.0
  1
６
 72
     5
 11
-27.6
 21
-199.0
 31
0.0
  0
TEXT
  5
98F
  8
3
 62
     2
 10
386.0
 20
-157.0
 30
0.0
 40
8.0
  1
２
 72
     5
 11
392.4
 21
-157.0
 31
0.0
  0
TEXT
  5
990
  8
3
 62
     2
 10
141.333333
 20
-241.999914
 30
0.0
 40
8.0
  1
１／２
 72
     5
 11
163.733333
 21
-241.999914
 31
0.0
  0
TEXT
  5
991
  8
3
 62
     2
 10
34.666667
 20
-241.999914
 30
0.0
 40
8.0
  1
３角法
 72
     5
 11
57.066667
 21
-241.999914
 31
0.0
  0
TEXT
  5
992
  8
3
 62
     2
 10
-34.0
 20
-185.0
 30
0.0
 40
8.0
  1
７
 72
     5
 11
-27.6
 21
-185.0
 31
0.0
  0
TEXT
  5
993
  8
3
 62
     2
 10
-34.0
 20
-171.0
 30
0.0
 40
8.0
  1
８
 72
     5
 11
-27.6
 21
-171.0
 31
0.0
  0
TEXT
  5
994
  8
3
 62
     2
 10
-34.0
 20
-157.0
 30
0.0
 40
8.0
  1
９
 72
     5
 11
-27.6
 21
-157.0
 31
0.0
  0
TEXT
  5
995
  8
3
 62
     2
 10
-38.0
 20
-143.0
 30
0.0
 40
8.0
  1
１０
 72
     5
 11
-23.6
 21
-143.0
 31
0.0
  0
LINE
  5
996
  8
3
 10
180.0
 20
-276.0
 30
0.0
 11
180.0
 21
-216.0
 31
0.0
  0
LINE
  5
997
  8
3
 10
320.0
 20
-216.0
 30
0.0
 11
320.0
 21
-132.0
 31
0.0
  0
LINE
  5
998
  8
3
 10
200.0
 20
-216.0
 30
0.0
 11
200.0
 21
-132.0
 31
0.0
  0
LINE
  5
999
  8
3
 10
20.0
 20
-250.0
 30
0.0
 11
180.0
 21
-250.0
 31
0.0
  0
LINE
  5
99A
  8
3
 10
180.0
 20
-250.0
 30
0.0
 11
400.0
 21
-250.0
 31
0.0
  0
TEXT
  5
99B
  8
3
 62
     2
 10
-37.2
 20
-212.6
 30
0.0
 40
7.2
  1
品番
 72
     5
 11
-24.24
 21
-212.6
 31
0.0
  0
TEXT
  5
99C
  8
3
 62
     2
 10
14.8
 20
-212.6
 30
0.0
 40
7.2
  1
品　　　　　名
 72
     5
 11
63.76
 21
-212.6
 31
0.0
  0
TEXT
  5
99D
  8
3
 62
     2
 10
162.8
 20
-212.6
 30
0.0
 40
7.2
  1
員数
 72
     5
 11
175.76
 21
-212.6
 31
0.0
  0
LINE
  5
99E
  8
3
 10
73.333333
 20
-250.0
 30
0.0
 11
73.333333
 21
-216.0
 31
0.0
  0
LINE
  5
99F
  8
3
 10
126.666667
 20
-250.0
 30
0.0
 11
126.666667
 21
-216.0
 31
0.0
  0
TEXT
  5
9A0
  8
3
 62
     2
 10
339.2
 20
-212.6
 30
0.0
 40
7.2
  1
寸　法
 72
     5
 11
359.36
 21
-212.6
 31
0.0
  0
TEXT
  5
9A1
  8
3
 62
     2
 10
119.2
 20
-212.6
 30
0.0
 40
7.2
  1
寸　法
 72
     5
 11
139.36
 21
-212.6
 31
0.0
  0
TEXT
  5
9A2
  8
3
 62
     2
 10
205.301895
 20
-170.974701
 30
0.0
 40
6.4
  1
ハンドル止メネジ
 72
     5
 11
255.221896
 21
-170.974701
 31
0.0
  0
TEXT
  5
9A3
  8
3
 62
     2
 10
205.301895
 20
-156.974701
 30
0.0
 40
6.4
  1
丸座取付ネジ
 72
     5
 11
242.421896
 21
-156.974701
 31
0.0
  0
TEXT
  5
9A4
  8
3
 62
     2
 10
-114.698105
 20
-198.974701
 30
0.0
 40
6.4
  1
サラ木ネジ３．５×２２
 41
0.7
 72
     5
 11
-66.314104
 21
-198.974701
 31
0.0
  0
TEXT
  5
9A5
  8
3
 62
     2
 10
325.301895
 20
-156.974701
 30
0.0
 40
6.4
  1
バインド　Ｍ４×２５
 41
0.8
 72
     5
 11
375.477896
 21
-156.974701
 31
0.0
  0
LINE
  5
9A6
  8
3
 10
-40.0
 20
-132.0
 30
0.0
 11
400.0
 21
-132.0
 31
0.0
  0
TEXT
  5
9A7
  8
3
 62
     2
 10
205.301895
 20
-198.974701
 30
0.0
 40
6.4
  1
レバ－ハンドル　Ｎｏ．６５Ａ
 72
     5
 11
293.621896
 21
-198.974701
 31
0.0
  0
TEXT
  5
9A8
  8
3
 62
     2
 10
325.301895
 20
-170.974701
 30
0.0
 40
6.4
  1
Ｓ．Ｓ．Ｍ６×１０
 41
0.8
 72
     5
 11
370.357896
 21
-170.974701
 31
0.0
  0
LINE
  5
9A9
  8
3
 10
-260.0
 20
-202.0
 30
0.0
 11
180.0
 21
-202.0
 31
0.0
  0
LINE
  5
9AA
  8
3
 10
-260.0
 20
-188.0
 30
0.0
 11
180.0
 21
-188.0
 31
0.0
  0
LINE
  5
9AB
  8
3
 10
-260.0
 20
-174.0
 30
0.0
 11
180.0
 21
-174.0
 31
0.0
  0
TEXT
  5
9AC
  8
3
 62
     2
 10
-54.0
 20
-171.0
 30
0.0
 40
8.0
  1
１
 72
     5
 11
-47.6
 21
-171.0
 31
0.0
  0
TEXT
  5
9AD
  8
3
 62
     2
 10
-54.0
 20
-185.0
 30
0.0
 40
8.0
  1
１
 72
     5
 11
-47.6
 21
-185.0
 31
0.0
  0
TEXT
  5
9AE
  8
3
 62
     2
 10
-257.2
 20
-212.6
 30
0.0
 40
7.2
  1
品番
 72
     5
 11
-244.24
 21
-212.6
 31
0.0
  0
TEXT
  5
9AF
  8
3
 62
     2
 10
-205.2
 20
-212.6
 30
0.0
 40
7.2
  1
品　　　　　名
 72
     5
 11
-156.24
 21
-212.6
 31
0.0
  0
TEXT
  5
9B0
  8
3
 62
     2
 10
-57.2
 20
-212.6
 30
0.0
 40
7.2
  1
員数
 72
     5
 11
-44.24
 21
-212.6
 31
0.0
  0
TEXT
  5
9B1
  8
3
 62
     2
 10
-100.8
 20
-212.6
 30
0.0
 40
7.2
  1
寸　法
 72
     5
 11
-80.64
 21
-212.6
 31
0.0
  0
TEXT
  5
9B2
  8
3
 62
     2
 10
-114.698105
 20
-156.974701
 30
0.0
 40
6.4
  1
サラ木ネジ３．５×２２
 41
0.7
 72
     5
 11
-66.314104
 21
-156.974701
 31
0.0
  0
LINE
  5
9B3
  8
3
 10
-260.0
 20
-146.0
 30
0.0
 11
-260.0
 21
-216.0
 31
0.0
  0
LINE
  5
9B4
  8
3
 10
-240.0
 20
-216.0
 30
0.0
 11
-240.0
 21
-146.0
 31
0.0
  0
LINE
  5
9B5
  8
3
 10
-120.0
 20
-216.0
 30
0.0
 11
-120.0
 21
-146.0
 31
0.0
  0
LINE
  5
9B6
  8
3
 10
-60.0
 20
-146.0
 30
0.0
 11
-60.0
 21
-216.0
 31
0.0
  0
LINE
  5
9B7
  8
3
 10
-260.0
 20
-160.0
 30
0.0
 11
180.0
 21
-160.0
 31
0.0
  0
TEXT
  5
9B8
  8
3
 62
     2
 10
-258.0
 20
-199.0
 30
0.0
 40
8.0
  1
１１
 72
     5
 11
-243.6
 21
-199.0
 31
0.0
  0
TEXT
  5
9B9
  8
3
 62
     2
 10
-258.0
 20
-185.0
 30
0.0
 40
8.0
  1
１２
 72
     5
 11
-243.6
 21
-185.0
 31
0.0
  0
TEXT
  5
9BA
  8
3
 62
     2
 10
-258.0
 20
-171.0
 30
0.0
 40
8.0
  1
１３
 72
     5
 11
-243.6
 21
-171.0
 31
0.0
  0
TEXT
  5
9BB
  8
3
 62
     2
 10
-14.698105
 20
-156.974701
 30
0.0
 40
6.4
  1
ＬＶＳ－３－５１　ケ－スロック
 72
     5
 11
80.021897
 21
-156.974701
 31
0.0
  0
TEXT
  5
9BC
  8
3
 62
     2
 10
-14.698105
 20
-142.974701
 30
0.0
 40
6.4
  1
フロントプレ－ト
 72
     5
 11
35.221896
 21
-142.974701
 31
0.0
  0
TEXT
  5
9BD
  8
3
 62
     2
 10
-234.698105
 20
-198.974701
 30
0.0
 40
6.4
  1
錠取付木ネジ
 72
     5
 11
-197.578104
 21
-198.974701
 31
0.0
  0
TEXT
  5
9BE
  8
3
 62
     2
 10
-234.698105
 20
-156.974701
 30
0.0
 40
6.4
  1
ストライク取付木ネジ
 72
     5
 11
-171.978104
 21
-156.974701
 31
0.0
  0
TEXT
  5
9BF
  8
3
 62
     2
 10
386.0
 20
-185.0
 30
0.0
 40
8.0
  1
１
 72
     5
 11
392.4
 21
-185.0
 31
0.0
  0
TEXT
  5
9C0
  8
3
 62
     2
 10
386.0
 20
-143.0
 30
0.0
 40
8.0
  1
１
 72
     5
 11
392.4
 21
-143.0
 31
0.0
  0
TEXT
  5
9C1
  8
3
 62
     2
 10
166.0
 20
-143.0
 30
0.0
 40
8.0
  1
１
 72
     5
 11
172.4
 21
-143.0
 31
0.0
  0
TEXT
  5
9C2
  8
3
 62
     2
 10
-54.0
 20
-199.0
 30
0.0
 40
8.0
  1
２
 72
     5
 11
-47.6
 21
-199.0
 31
0.0
  0
TEXT
  5
9C3
  8
3
 62
     2
 10
-54.0
 20
-157.0
 30
0.0
 40
8.0
  1
２
 72
     5
 11
-47.6
 21
-157.0
 31
0.0
  0
TEXT
  5
9C4
  8
3
 62
     2
 10
-234.698105
 20
-184.974701
 30
0.0
 40
6.4
  1
調整ストライク　Ｓ-２５
 72
     5
 11
-162.378104
 21
-184.974701
 31
0.0
  0
LINE
  5
9C5
  8
3
 10
-260.0
 20
-146.0
 30
0.0
 11
180.0
 21
-146.0
 31
0.0
  0
TEXT
  5
9C6
  8
3
 62
     2
 10
-258.0
 20
-157.0
 30
0.0
 40
8.0
  1
１４
 72
     5
 11
-243.6
 21
-157.0
 31
0.0
  0
TEXT
  5
9C7
  8
3
 62
     2
 10
-14.698105
 20
-198.974701
 30
0.0
 40
6.4
  1
キ－
 72
     5
 11
-3.178105
 21
-198.974701
 31
0.0
  0
TEXT
  5
9C8
  8
3
 62
     2
 10
166.0
 20
-199.0
 30
0.0
 40
8.0
  1
３
 72
     5
 11
172.4
 21
-199.0
 31
0.0
  0
TEXT
  5
9C9
  8
3
 62
     2
 10
-234.698105
 20
-170.974701
 30
0.0
 40
6.4
  1
受箱
 72
     5
 11
-223.178105
 21
-170.974701
 31
0.0
  0
TEXT
  5
9CA
  8
3
 62
     2
 10
205.301895
 20
-184.974701
 30
0.0
 40
6.4
  1
丸座
 72
     5
 11
216.821895
 21
-184.974701
 31
0.0
  0
TEXT
  5
9CB
  8
3
 62
     3
 10
248.842911
 20
-269.090942
 30
0.0
 40
12.0
  1
ＤＺ－１９８５－００
 72
     5
 11
366.442911
 21
-269.090942
 31
0.0
  0
TEXT
  5
9CC
  8
3
 10
236.79686
 20
-237.638
 30
0.0
 40
9.0
  1
ＬＶＳ－６５Ａ－Ｆ５Ｄ　外観図
 41
0.9
 72
     5
 11
356.67686
 21
-237.638
 31
0.0
  0
TEXT
  5
9CD
  8
3
 62
     2
 10
104.0
 20
-170.5
 30
0.0
 40
6.0
  1
サラ　Ｄ６、Ｍ４×２５
 41
0.8
 72
     5
 11
155.84
 21
-170.5
 31
0.0
  0
TEXT
  5
9CE
  8
3
 62
     2
 10
166.0
 20
-171.0
 30
0.0
 40
8.0
  1
２
 72
     5
 11
172.4
 21
-171.0
 31
0.0
  0
TEXT
  5
9CF
  8
3
 62
     2
 10
205.301895
 20
-142.974701
 30
0.0
 40
6.4
  1
Ｄ座　ＧＦシリンダー座
 72
     5
 11
274.421896
 21
-142.974701
 31
0.0
  0
TEXT
  5
9D0
  8
3
 62
     2
 10
-14.698105
 20
-184.974701
 30
0.0
 40
6.4
  1
サムタ－ン座
 72
     5
 11
22.421896
 21
-184.974701
 31
0.0
  0
TEXT
  5
9D1
  8
3
 62
     2
 10
-14.698105
 20
-170.974701
 30
0.0
 40
6.4
  1
サムターン座取付ネジ
 72
     5
 11
48.021896
 21
-170.974701
 31
0.0
  0
ENDSEC
  0
EOF
