  0
SECTION
  2
HEADER
  9
$ACADVER
  1
AC1015
  9
$ACADMAINTVER
 70
     6
  9
$DWGCODEPAGE
  3
ANSI_932
  9
$INSBASE
 10
0.0
 20
0.0
 30
0.0
  9
$EXTMIN
 10
-420.0
 20
-297.0
 30
1.000000E+20
  9
$EXTMAX
 10
420.0
 20
297.0
 30
-1.000000E+20
  9
$LIMMIN
 10
-420.0
 20
-297.0
  9
$LIMMAX
 10
420.0
 20
297.0
  9
$ORTHOMODE
 70
     0
  9
$REGENMODE
 70
     1
  9
$FILLMODE
 70
     1
  9
$QTEXTMODE
 70
     0
  9
$MIRRTEXT
 70
     1
  9
$LTSCALE
 40
1.0
  9
$ATTMODE
 70
     1
  9
$TEXTSIZE
 40
0.2
  9
$TRACEWID
 40
0.05
  9
$TEXTSTYLE
  7
STANDARD
  9
$CLAYER
  8
0
  9
$CELTYPE
  6
CONTINUOUS
  9
$CECOLOR
 62
   256
  9
$CELTSCALE
 40
1.0
  9
$DISPSILH
 70
     0
  9
$DIMSCALE
 40
2.0
  9
$DIMASZ
 40
2.0
  9
$DIMEXO
 40
0.5
  9
$DIMDLI
 40
0.38
  9
$DIMRND
 40
0.0
  9
$DIMDLE
 40
0.0
  9
$DIMEXE
 40
2.0
  9
$DIMTP
 40
0.0
  9
$DIMTM
 40
0.0
  9
$DIMTXT
 40
2.5
  9
$DIMCEN
 40
0.09
  9
$DIMTSZ
 40
0.0
  9
$DIMTOL
 70
     0
  9
$DIMLIM
 70
     0
  9
$DIMTIH
 70
     0
  9
$DIMTOH
 70
     0
  9
$DIMSE1
 70
     0
  9
$DIMSE2
 70
     0
  9
$DIMTAD
 70
     1
  9
$DIMZIN
 70
     0
  9
$DIMBLK
  1

  9
$DIMASO
 70
     1
  9
$DIMSHO
 70
     1
  9
$DIMPOST
  1

  9
$DIMAPOST
  1

  9
$DIMALT
 70
     0
  9
$DIMALTD
 70
     2
  9
$DIMALTF
 40
25.4
  9
$DIMLFAC
 40
1.0
  9
$DIMTOFL
 70
     0
  9
$DIMTVP
 40
0.0
  9
$DIMTIX
 70
     0
  9
$DIMSOXD
 70
     0
  9
$DIMSAH
 70
     0
  9
$DIMBLK1
  1

  9
$DIMBLK2
  1

  9
$DIMSTYLE
  2
Standard
  9
$DIMCLRD
 70
     0
  9
$DIMCLRE
 70
     0
  9
$DIMCLRT
 70
     0
  9
$DIMTFAC
 40
1.0
  9
$DIMGAP
 40
0.5
  9
$DIMJUST
 70
     0
  9
$DIMSD1
 70
     0
  9
$DIMSD2
 70
     0
  9
$DIMTOLJ
 70
     1
  9
$DIMTZIN
 70
     0
  9
$DIMALTZ
 70
     0
  9
$DIMALTTZ
 70
     0
  9
$DIMUPT
 70
     0
  9
$DIMDEC
 70
     2
  9
$DIMTDEC
 70
     4
  9
$DIMALTU
 70
     2
  9
$DIMALTTD
 70
     2
  9
$DIMTXSTY
  7
STANDARD
  9
$DIMAUNIT
 70
     0
  9
$DIMADEC
 70
     2
  9
$DIMALTRND
 40
0.0
  9
$DIMAZIN
 70
     0
  9
$DIMDSEP
 70
     0
  9
$DIMATFIT
 70
     3
  9
$DIMFRAC
 70
     0
  9
$DIMLDRBLK
  1

  9
$DIMLUNIT
 70
     2
  9
$DIMLWD
 70
     0
  9
$DIMLWE
 70
     0
  9
$DIMTMOVE
 70
     0
  9
$LUNITS
 70
     2
  9
$LUPREC
 70
     4
  9
$SKETCHINC
 40
0.1
  9
$FILLETRAD
 40
0.0
  9
$AUNITS
 70
     0
  9
$AUPREC
 70
     0
  9
$MENU
  1
acad
  9
$ELEVATION
 40
0.0
  9
$PELEVATION
 40
0.0
  9
$THICKNESS
 40
0.0
  9
$LIMCHECK
 70
     0
  9
$CHAMFERA
 40
0.0
  9
$CHAMFERB
 40
0.0
  9
$CHAMFERC
 40
0.0
  9
$CHAMFERD
 40
0.0
  9
$SKPOLY
 70
     0
  9
$TDCREATE
 40
2456434.000000000
  9
$TDUCREATE
 40
0.000000000
  9
$TDUPDATE
 40
0.000000000
  9
$TDUUPDATE
 40
2447892.625000000
  9
$TDINDWG
 40
0.0000000000
  9
$TDUSRTIMER
 40
0.0000000000
  9
$USRTIMER
 70
     1
  9
$ANGBASE
 50
0.0
  9
$ANGDIR
 70
     0
  9
$PDMODE
 70
     0
  9
$PDSIZE
 40
0.0
  9
$PLINEWID
 40
0.0
  9
$SPLFRAME
 70
     0
  9
$SPLINETYPE
 70
     6
  9
$SPLINESEGS
 70
     8
  9
$HANDSEED
  5
4F5
  9
$SURFTAB1
 70
     6
  9
$SURFTAB2
 70
     6
  9
$SURFTYPE
 70
     6
  9
$SURFU
 70
     6
  9
$SURFV
 70
     6
  9
$UCSBASE
  2

  9
$UCSNAME
  2

  9
$UCSORG
 10
0.0
 20
0.0
 30
0.0
  9
$UCSXDIR
 10
1.0
 20
0.0
 30
0.0
  9
$UCSYDIR
 10
0.0
 20
1.0
 30
0.0
  9
$UCSORTHOREF
  2

  9
$UCSORTHOVIEW
 70
     0
  9
$UCSORGTOP
 10
0.0
 20
0.0
 30
0.0
  9
$UCSORGBOTTOM
 10
0.0
 20
0.0
 30
0.0
  9
$UCSORGLEFT
 10
0.0
 20
0.0
 30
0.0
  9
$UCSORGRIGHT
 10
0.0
 20
0.0
 30
0.0
  9
$UCSORGFRONT
 10
0.0
 20
0.0
 30
0.0
  9
$UCSORGBACK
 10
0.0
 20
0.0
 30
0.0
  9
$PUCSBASE
  2

  9
$PUCSNAME
  2

  9
$PUCSORG
 10
0.0
 20
0.0
 30
0.0
  9
$PUCSXDIR
 10
1.0
 20
0.0
 30
0.0
  9
$PUCSYDIR
 10
0.0
 20
1.0
 30
0.0
  9
$PUCSORTHOREF
  2

  9
$PUCSORTHOVIEW
 70
     0
  9
$PUCSORGTOP
 10
0.0
 20
0.0
 30
0.0
  9
$PUCSORGBOTTOM
 10
0.0
 20
0.0
 30
0.0
  9
$PUCSORGLEFT
 10
0.0
 20
0.0
 30
0.0
  9
$PUCSORGRIGHT
 10
0.0
 20
0.0
 30
0.0
  9
$PUCSORGFRONT
 10
0.0
 20
0.0
 30
0.0
  9
$PUCSORGBACK
 10
0.0
 20
0.0
 30
0.0
  9
$USERI1
 70
     0
  9
$USERI2
 70
     0
  9
$USERI3
 70
     0
  9
$USERI4
 70
     0
  9
$USERI5
 70
     0
  9
$USERR1
 40
0.0
  9
$USERR2
 40
0.0
  9
$USERR3
 40
0.0
  9
$USERR4
 40
0.0
  9
$USERR5
 40
0.0
  9
$WORLDVIEW
 70
     1
  9
$SHADEDGE
 70
     3
  9
$SHADEDIF
 70
    70
  9
$TILEMODE
 70
     1
  9
$MAXACTVP
 70
    16
  9
$PINSBASE
 10
0.0
 20
0.0
 30
0.0
  9
$PLIMCHECK
 70
     0
  9
$PEXTMIN
 10
1.000000E+20
 20
1.000000E+20
 30
1.000000E+20
  9
$PEXTMAX
 10
-1.000000E+20
 20
-1.000000E+20
 30
-1.000000E+20
  9
$PLIMMIN
 10
0.0
 20
0.0
  9
$PLIMMAX
 10
12.0
 20
9.0
  9
$UNITMODE
 70
     0
  9
$VISRETAIN
 70
     0
  9
$PLINEGEN
 70
     1
  9
$PSLTSCALE
 70
     0
  9
$TREEDEPTH
 70
  3020
  9
$CMLSTYLE
  2
Standard
  9
$CMLJUST
 70
     0
  9
$CMLSCALE
 40
1.0
  9
$PROXYGRAPHICS
 70
     0
  9
$MEASUREMENT
 70
     0
  9
$CELWEIGHT
370
     0
  9
$ENDCAPS
280
     0
  9
$JOINSTYLE
280
     0
  9
$LWDISPLAY
290
     0
  9
$INSUNITS
 70
     0
  9
$HYPERLINKBASE
  1

  9
$STYLESHEET
  1

  9
$XEDIT
290
     1
  9
$CEPSNTYPE
380
     0
  9
$PSTYLEMODE
290
     1
  9
$FINGERPRINTGUID
  2

  9
$VERSIONGUID
  2

  9
$EXTNAMES
290
     1
  9
$PSVPSCALE
 40
0.0
  0
ENDSEC
  0
SECTION
  2
CLASSES
  0
CLASS
  1
LWPOLYLINE
  2
AcDbPolyline
  3
AutoCAD 2000
 90
        0
280
     0
281
     1
  0
CLASS
  1
IMAGE
  2
AcDbRasterImage
  3
ISM
 90
      127
280
     0
281
     1
  0
CLASS
  1
OLE2FRAME
  2
AcDbOle2Frame
  3
AutoCAD 2000
 90
        0
280
     0
281
     1
  0
CLASS
  1
HATCH
  2
AcDbHatch
  3
AutoCAD 2000
 90
        0
280
     0
281
     1
  0
CLASS
  1
DICTIONARYVAR
  2
AcDbDictionaryVar
  3
AutoCAD 2000
 90
        0
280
     0
281
     0
  0
CLASS
  1
RASTERVARIABLES
  2
AcDbRasterVariables
  3
ISM
 90
        0
280
     0
281
     0
  0
CLASS
  1
IMAGEDEF
  2
AcDbRasterImageDef
  3
ISM
 90
        0
280
     0
281
     0
  0
CLASS
  1
IMAGEDEF_REACTOR
  2
AcDbRasterImageDefReactor
  3
ISM
 90
        1
280
     0
281
     0
  0
CLASS
  1
IDBUFFER
  2
AcDbIdBuffer
  3
AutoCAD 2000
 90
        0
280
     0
281
     0
  0
CLASS
  1
SPATIAL_FILTER
  2
AcDbSpatialFilter
  3
AutoCAD 2000
 90
        0
280
     0
281
     0
  0
CLASS
  1
XRECORD
  2
AcDbXrecord
  3
AutoCAD 2000
 90
        0
280
     0
281
     0
  0
CLASS
  1
SORTENTSTABLE
  2
AcDbSortentsTable
  3
AutoCAD 2000
 90
        0
280
     0
281
     0
  0
CLASS
  1
LAYER_INDEX
  2
AcDbLayerIndex
  3
AutoCAD 2000
 90
        0
280
     0
281
     0
  0
CLASS
  1
SPATIAL_INDEX
  2
AcDbSpatialIndex
  3
AutoCAD 2000
 90
        0
280
     0
281
     0
  0
CLASS
  1
OBJECT_PTR
  2
CAseDLPNTableRecord
  3
"ASE-LPNTableRecord"
 90
        1
280
     0
281
     0
  0
CLASS
  1
LAYOUT
  2
AcDbLayout
  3
AutoCAD 2000
 90
        0
280
     0
281
     0
  0
CLASS
  1
PLOTSETTINGS
  2
AcDbPlotSettings
  3
AutoCAD 2000
 90
        0
280
     0
281
     0
  0
CLASS
  1
ACDBDICTIONARYWDFLT
  2
AcDbDictionaryWithDefault
  3
AutoCAD 2000
 90
        0
280
     0
281
     0
  0
CLASS
  1
ACDBPLACEHOLDER
  2
AcDbPlaceHolder
  3
AutoCAD 2000
 90
        0
280
     0
281
     0
  0
CLASS
  1
VBA_PROJECT
  2
AcDbVbaProject
  3
acadvba
 90
        0
280
     0
281
     0
  0
CLASS
  1
WIPEOUT
  2
AcDbWipeout
  3
WipeOut|AutoCAD Express Tool|expresstools@autodesk.com
 90
      127
280
     0
281
     1
  0
CLASS
  1
WIPEOUTVARIABLES
  2
AcDbWipeoutVariables
  3
WipeOut|AutoCAD Express Tool|expresstools@autodesk.com
 90
        0
280
     0
281
     0
  0
CLASS
  1
RTEXT
  2
RText
  3
RText|AutoCAD Express Tool|expresstools@autodesk.com
 90
        0
280
     0
281
     1
  0
CLASS
  1
ARCALIGNEDTEXT
  2
AcDbArcAlignedText
  3
ATEXT|AutoCAD Express Tool|expresstools@autodesk.com
 90
        0
280
     0
281
     1
  0
ENDSEC
  0
SECTION
  2
TABLES
  0
TABLE
  2
VPORT
  5
6
100
AcDbSymbolTable
 70
     1
  0
VPORT
  5
1F
100
AcDbSymbolTableRecord
100
AcDbViewportTableRecord
  2
*ACTIVE
 70
     0
 10
0.0
 20
0.0
 11
1.0
 21
1.0
 12
0.0
 22
0.0
 13
0.0
 23
0.0
 14
1.0
 24
1.0
 15
0.0
 25
0.0
 16
0.0
 26
0.0
 36
1.0
 17
0.0
 27
0.0
 37
0.0
 40
594.0
 41
1.414141
 42
50.0
 43
0.0
 44
0.0
 50
0.0
 51
0.0
 71
     0
 72
   500
 73
     1
 74
     1
 75
     0
 76
     0
 77
     0
 78
     0
281
     0
 65
     0
110
0.0
120
0.0
130
0.0
111
1.0
121
0.0
131
0.0
112
0.0
122
1.0
132
0.0
345
0
346
0
 79
     0
146
0.0
  0
ENDTAB
  0
TABLE
  2
LTYPE
  5
3
100
AcDbSymbolTable
 70
     9
  0
LTYPE
  5
C
100
AcDbSymbolTableRecord
100
AcDbLinetypeTableRecord
  2
ByBlock
 70
    64
  3

 72
    65
 73
     0
 40
0.0
  0
LTYPE
  5
D
100
AcDbSymbolTableRecord
100
AcDbLinetypeTableRecord
  2
ByLayer
 70
    64
  3

 72
    65
 73
     0
 40
0.0
  0
LTYPE
  5
E
100
AcDbSymbolTableRecord
100
AcDbLinetypeTableRecord
  2
CONTINUOUS
 70
     0
  3
Solid line
 72
    65
 73
     0
 40
0.0
  0
LTYPE
  5
F
100
AcDbSymbolTableRecord
100
AcDbLinetypeTableRecord
  2
DASHED
 70
     0
  3
__ __ __ __ __ __ __ __ __ __ __ __ __ __ __
 72
    65
 73
     2
 40
2.0
 49
1.2
 74
     0
 49
-0.8
 74
     0
  0
LTYPE
  5
10
100
AcDbSymbolTableRecord
100
AcDbLinetypeTableRecord
  2
CENTER
 70
     0
  3
____ _ ____ _ ____ _ ____ _ ____ _ ____ _ ____
 72
    65
 73
     4
 40
12.0
 49
9.0
 74
     0
 49
-1.0
 74
     0
 49
1.0
 74
     0
 49
-1.0
 74
     0
  0
LTYPE
  5
11
100
AcDbSymbolTableRecord
100
AcDbLinetypeTableRecord
  2
HIDDEN
 70
     0
  3
_ _ _ _ _ _ _ _ _ _ _ _ _ _ _ _ _ _ _ _ _ _ _
 72
    65
 73
     2
 40
3.2
 49
1.3
 74
     0
 49
-1.9
 74
     0
  0
LTYPE
  5
12
100
AcDbSymbolTableRecord
100
AcDbLinetypeTableRecord
  2
PHANTOM
 70
     0
  3
_____ _ _ _____ _ _ _____ _ _ _____ _ _ _____
 72
    65
 73
     6
 40
12.5
 49
9.0
 74
     0
 49
-1.0
 74
     0
 49
0.5
 74
     0
 49
-0.5
 74
     0
 49
0.5
 74
     0
 49
-1.0
 74
     0
  0
LTYPE
  5
13
100
AcDbSymbolTableRecord
100
AcDbLinetypeTableRecord
  2
DOT
 70
     0
  3
...............................................
 72
    65
 73
     2
 40
1.0
 49
0.5
 74
     0
 49
-0.5
 74
     0
  0
LTYPE
  5
14
100
AcDbSymbolTableRecord
100
AcDbLinetypeTableRecord
  2
DASHDOT
 70
     0
  3
__ . __ . __ . __ . __ . __ . __ . __ . __ . __
 72
    65
 73
     4
 40
8.0
 49
5.0
 74
     0
 49
-1.0
 74
     0
 49
1.0
 74
     0
 49
-1.0
 74
     0
  0
ENDTAB
  0
TABLE
  2
LAYER
  5
1
100
AcDbSymbolTable
 70
    10
  0
LAYER
  5
15
100
AcDbSymbolTableRecord
100
AcDbLayerTableRecord
  2
0
 70
     0
 62
     8
  6
CONTINUOUS
290
     1
370
    -3
390
0
  0
LAYER
  5
16
100
AcDbSymbolTableRecord
100
AcDbLayerTableRecord
  2
1
 70
     0
 62
     2
  6
CONTINUOUS
290
     1
370
    -3
390
0
  0
LAYER
  5
17
100
AcDbSymbolTableRecord
100
AcDbLayerTableRecord
  2
2
 70
     0
 62
     3
  6
CONTINUOUS
290
     1
370
    -3
390
0
  0
LAYER
  5
18
100
AcDbSymbolTableRecord
100
AcDbLayerTableRecord
  2
3
 70
     0
 62
     4
  6
CONTINUOUS
290
     1
370
    -3
390
0
  0
LAYER
  5
19
100
AcDbSymbolTableRecord
100
AcDbLayerTableRecord
  2
4
 70
     0
 62
     1
  6
CONTINUOUS
290
     1
370
    -3
390
0
  0
LAYER
  5
1A
100
AcDbSymbolTableRecord
100
AcDbLayerTableRecord
  2
5
 70
     0
 62
     6
  6
CONTINUOUS
290
     1
370
    -3
390
0
  0
LAYER
  5
1B
100
AcDbSymbolTableRecord
100
AcDbLayerTableRecord
  2
7
 70
     0
 62
    40
  6
CONTINUOUS
290
     1
370
    -3
390
0
  0
LAYER
  5
1C
100
AcDbSymbolTableRecord
100
AcDbLayerTableRecord
  2
9
 70
     0
 62
   141
  6
CONTINUOUS
290
     1
370
    -3
390
0
  0
LAYER
  5
1D
100
AcDbSymbolTableRecord
100
AcDbLayerTableRecord
  2
13
 70
     0
 62
     4
  6
CONTINUOUS
290
     1
370
    -3
390
0
  0
LAYER
  5
1E
100
AcDbSymbolTableRecord
100
AcDbLayerTableRecord
  2
55
 70
     0
 62
     6
  6
CONTINUOUS
290
     1
370
    -3
390
0
  0
ENDTAB
  0
TABLE
  2
STYLE
  5
2
100
AcDbSymbolTable
 70
     1
  0
STYLE
  5
21
100
AcDbSymbolTableRecord
100
AcDbTextStyleTableRecord
  2
STANDARD
 70
    64
 40
0.0
 41
1.0
 50
0.0
 71
     0
 42
1.0
  3
txt
  4
BIGFONT
  0
ENDTAB
  0
TABLE
  2
VIEW
  5
4
100
AcDbSymbolTable
 70
     0
  0
ENDTAB
  0
TABLE
  2
UCS
  5
5
100
AcDbSymbolTable
 70
     0
  0
ENDTAB
  0
TABLE
  2
APPID
  5
7
100
AcDbSymbolTable
 70
     1
  0
APPID
  5
20
100
AcDbSymbolTableRecord
100
AcDbRegAppTableRecord
  2
ACAD
 70
     0
  0
ENDTAB
  0
TABLE
  2
DIMSTYLE
  5
8
100
AcDbSymbolTable
 70
     1
100
AcDbDimStyleTable
 71
     0
  0
DIMSTYLE
105
4B
100
AcDbSymbolTableRecord
100
AcDbDimStyleTableRecord
  2
Standard
 70
     0
  3

  4

 40
2.0
 41
2.0
 42
0.5
 43
0.38
 44
2.0
 45
0.0
 46
0.0
 47
0.0
 48
0.0
 71
     0
 72
     0
 73
     0
 74
     0
 75
     0
 76
     0
 77
     1
 78
     0
 79
     0
140
2.5
141
0.09
142
0.0
143
25.4
144
1.0
145
0.0
146
1.0
147
0.5
148
0.0
170
     0
171
     2
172
     0
173
     0
174
     0
175
     0
176
     0
177
     0
178
     0
179
     0
271
     2
272
     4
273
     2
274
     2
275
     0
276
     0
277
     2
278
    46
279
     0
280
     0
281
     0
282
     0
283
     1
284
     0
285
     0
286
     0
288
     0
289
     3
340
21
341
0
342
0
343
0
344
0
371
    -2
372
    -2
  0
ENDTAB
  0
TABLE
  2
BLOCK_RECORD
  5
46
100
AcDbSymbolTable
 70
    34
  0
BLOCK_RECORD
  5
44
100
AcDbSymbolTableRecord
100
AcDbBlockTableRecord
  2
*Model_Space
340
0
  0
BLOCK_RECORD
  5
45
100
AcDbSymbolTableRecord
100
AcDbBlockTableRecord
  2
*Paper_Space
340
0
  0
BLOCK_RECORD
  5
22
100
AcDbSymbolTableRecord
100
AcDbBlockTableRecord
  2
*D0
340
0
  0
BLOCK_RECORD
  5
23
100
AcDbSymbolTableRecord
100
AcDbBlockTableRecord
  2
*D1
340
0
  0
BLOCK_RECORD
  5
24
100
AcDbSymbolTableRecord
100
AcDbBlockTableRecord
  2
*D2
340
0
  0
BLOCK_RECORD
  5
25
100
AcDbSymbolTableRecord
100
AcDbBlockTableRecord
  2
*D3
340
0
  0
BLOCK_RECORD
  5
26
100
AcDbSymbolTableRecord
100
AcDbBlockTableRecord
  2
*D4
340
0
  0
BLOCK_RECORD
  5
27
100
AcDbSymbolTableRecord
100
AcDbBlockTableRecord
  2
*D5
340
0
  0
BLOCK_RECORD
  5
28
100
AcDbSymbolTableRecord
100
AcDbBlockTableRecord
  2
*D6
340
0
  0
BLOCK_RECORD
  5
29
100
AcDbSymbolTableRecord
100
AcDbBlockTableRecord
  2
*D7
340
0
  0
BLOCK_RECORD
  5
2A
100
AcDbSymbolTableRecord
100
AcDbBlockTableRecord
  2
*D8
340
0
  0
BLOCK_RECORD
  5
2B
100
AcDbSymbolTableRecord
100
AcDbBlockTableRecord
  2
*D9
340
0
  0
BLOCK_RECORD
  5
2C
100
AcDbSymbolTableRecord
100
AcDbBlockTableRecord
  2
*D10
340
0
  0
BLOCK_RECORD
  5
2D
100
AcDbSymbolTableRecord
100
AcDbBlockTableRecord
  2
*D11
340
0
  0
BLOCK_RECORD
  5
2E
100
AcDbSymbolTableRecord
100
AcDbBlockTableRecord
  2
*D12
340
0
  0
BLOCK_RECORD
  5
2F
100
AcDbSymbolTableRecord
100
AcDbBlockTableRecord
  2
*D13
340
0
  0
BLOCK_RECORD
  5
30
100
AcDbSymbolTableRecord
100
AcDbBlockTableRecord
  2
*D14
340
0
  0
BLOCK_RECORD
  5
31
100
AcDbSymbolTableRecord
100
AcDbBlockTableRecord
  2
*D15
340
0
  0
BLOCK_RECORD
  5
32
100
AcDbSymbolTableRecord
100
AcDbBlockTableRecord
  2
*D16
340
0
  0
BLOCK_RECORD
  5
33
100
AcDbSymbolTableRecord
100
AcDbBlockTableRecord
  2
*D17
340
0
  0
BLOCK_RECORD
  5
34
100
AcDbSymbolTableRecord
100
AcDbBlockTableRecord
  2
*D18
340
0
  0
BLOCK_RECORD
  5
35
100
AcDbSymbolTableRecord
100
AcDbBlockTableRecord
  2
*D19
340
0
  0
BLOCK_RECORD
  5
36
100
AcDbSymbolTableRecord
100
AcDbBlockTableRecord
  2
*D20
340
0
  0
BLOCK_RECORD
  5
37
100
AcDbSymbolTableRecord
100
AcDbBlockTableRecord
  2
*D21
340
0
  0
BLOCK_RECORD
  5
38
100
AcDbSymbolTableRecord
100
AcDbBlockTableRecord
  2
*D22
340
0
  0
BLOCK_RECORD
  5
39
100
AcDbSymbolTableRecord
100
AcDbBlockTableRecord
  2
*D23
340
0
  0
BLOCK_RECORD
  5
3A
100
AcDbSymbolTableRecord
100
AcDbBlockTableRecord
  2
*D24
340
0
  0
BLOCK_RECORD
  5
3B
100
AcDbSymbolTableRecord
100
AcDbBlockTableRecord
  2
*D25
340
0
  0
BLOCK_RECORD
  5
3C
100
AcDbSymbolTableRecord
100
AcDbBlockTableRecord
  2
*D26
340
0
  0
BLOCK_RECORD
  5
3D
100
AcDbSymbolTableRecord
100
AcDbBlockTableRecord
  2
*D27
340
0
  0
BLOCK_RECORD
  5
3E
100
AcDbSymbolTableRecord
100
AcDbBlockTableRecord
  2
*D28
340
0
  0
BLOCK_RECORD
  5
3F
100
AcDbSymbolTableRecord
100
AcDbBlockTableRecord
  2
*D29
340
0
  0
BLOCK_RECORD
  5
40
100
AcDbSymbolTableRecord
100
AcDbBlockTableRecord
  2
*D30
340
0
  0
BLOCK_RECORD
  5
41
100
AcDbSymbolTableRecord
100
AcDbBlockTableRecord
  2
*D31
340
0
  0
BLOCK_RECORD
  5
42
100
AcDbSymbolTableRecord
100
AcDbBlockTableRecord
  2
*D32
340
0
  0
BLOCK_RECORD
  5
43
100
AcDbSymbolTableRecord
100
AcDbBlockTableRecord
  2
*D33
340
0
  0
ENDTAB
  0
ENDSEC
  0
SECTION
  2
BLOCKS
  0
BLOCK
  5
47
100
AcDbEntity
  8
0
390
0
100
AcDbBlockBegin
  2
*Model_Space
 70
     0
 10
0.0
 20
0.0
 30
0.0
  3
*Model_Space
  1

  0
ENDBLK
  5
48
100
AcDbEntity
  8
0
390
0
100
AcDbBlockEnd
  0
BLOCK
  5
49
100
AcDbEntity
 67
     1
  8
0
390
0
100
AcDbBlockBegin
  2
*Paper_Space
 70
     0
 10
0.0
 20
0.0
 30
0.0
  3
*Paper_Space
  1

  0
ENDBLK
  5
4A
100
AcDbEntity
 67
     1
  8
0
390
0
100
AcDbBlockEnd
  0
BLOCK
  5
3A4
100
AcDbEntity
  8
2
100
AcDbBlockBegin
  2
*D0
 70
     1
 10
0.0
 20
0.0
 30
0.0
  3
*D0
  1

  0
TEXT
  5
3A5
100
AcDbEntity
  8
2
370
    18
100
AcDbText
 10
330.121765
 20
44.434832
 30
0.0
 40
5.0
  1
１２１
 50
90.0
 72
     5
 11
330.121765
 21
58.434832
 31
0.0
100
AcDbText
  0
LINE
  5
3A6
100
AcDbEntity
  8
2
370
    25
100
AcDbLine
 10
304.690331
 20
-8.565168
 30
0.0
 11
333.121765
 21
-8.565168
 31
0.0
  0
LINE
  5
3A7
100
AcDbEntity
  8
2
370
    25
100
AcDbLine
 10
331.121765
 20
-8.565168
 30
0.0
 11
332.157041
 21
-4.701465
 31
0.0
  0
LINE
  5
3A8
100
AcDbEntity
  8
2
370
    25
100
AcDbLine
 10
331.121765
 20
-8.565168
 30
0.0
 11
330.086489
 21
-4.701465
 31
0.0
  0
LINE
  5
3A9
100
AcDbEntity
  8
2
370
    25
100
AcDbLine
 10
331.121765
 20
-8.565168
 30
0.0
 11
331.121765
 21
112.434832
 31
0.0
  0
LINE
  5
3AA
100
AcDbEntity
  8
2
370
    25
100
AcDbLine
 10
331.121765
 20
112.434832
 30
0.0
 11
330.086489
 21
108.571128
 31
0.0
  0
LINE
  5
3AB
100
AcDbEntity
  8
2
370
    25
100
AcDbLine
 10
331.121765
 20
112.434832
 30
0.0
 11
332.157041
 21
108.571128
 31
0.0
  0
LINE
  5
3AC
100
AcDbEntity
  8
2
370
    25
100
AcDbLine
 10
304.690331
 20
112.434832
 30
0.0
 11
333.121765
 21
112.434832
 31
0.0
  0
ENDBLK
  5
3AD
100
AcDbEntity
  8
2
100
AcDbBlockEnd
  0
BLOCK
  5
3AE
100
AcDbEntity
  8
2
100
AcDbBlockBegin
  2
*D1
 70
     1
 10
0.0
 20
0.0
 30
0.0
  3
*D1
  1

  0
TEXT
  5
3AF
100
AcDbEntity
  8
2
370
    18
100
AcDbText
 10
340.671204
 20
44.434832
 30
0.0
 40
5.0
  1
１４３
 50
90.0
 72
     5
 11
340.671204
 21
58.434832
 31
0.0
100
AcDbText
  0
LINE
  5
3B0
100
AcDbEntity
  8
2
370
    25
100
AcDbLine
 10
316.556217
 20
-19.565168
 30
0.0
 11
343.671204
 21
-19.565168
 31
0.0
  0
LINE
  5
3B1
100
AcDbEntity
  8
2
370
    25
100
AcDbLine
 10
341.671204
 20
-19.565168
 30
0.0
 11
342.70648
 21
-15.701465
 31
0.0
  0
LINE
  5
3B2
100
AcDbEntity
  8
2
370
    25
100
AcDbLine
 10
341.671204
 20
-19.565168
 30
0.0
 11
340.635927
 21
-15.701465
 31
0.0
  0
LINE
  5
3B3
100
AcDbEntity
  8
2
370
    25
100
AcDbLine
 10
341.671204
 20
-19.565168
 30
0.0
 11
341.671204
 21
123.434832
 31
0.0
  0
LINE
  5
3B4
100
AcDbEntity
  8
2
370
    25
100
AcDbLine
 10
341.671204
 20
123.434832
 30
0.0
 11
340.635927
 21
119.571128
 31
0.0
  0
LINE
  5
3B5
100
AcDbEntity
  8
2
370
    25
100
AcDbLine
 10
341.671204
 20
123.434832
 30
0.0
 11
342.70648
 21
119.571128
 31
0.0
  0
LINE
  5
3B6
100
AcDbEntity
  8
2
370
    25
100
AcDbLine
 10
316.556217
 20
123.434832
 30
0.0
 11
343.671204
 21
123.434832
 31
0.0
  0
ENDBLK
  5
3B7
100
AcDbEntity
  8
2
100
AcDbBlockEnd
  0
BLOCK
  5
3B8
100
AcDbEntity
  8
2
100
AcDbBlockBegin
  2
*D2
 70
     1
 10
0.0
 20
0.0
 30
0.0
  3
*D2
  1

  0
TEXT
  5
3B9
100
AcDbEntity
  8
2
370
    18
100
AcDbText
 10
291.556217
 20
145.563065
 30
0.0
 40
5.0
  1
４１
 72
     5
 11
300.556217
 21
145.563065
 31
0.0
100
AcDbText
  0
LINE
  5
3BA
100
AcDbEntity
  8
2
370
    25
100
AcDbLine
 10
276.056217
 20
122.934832
 30
0.0
 11
276.056217
 21
146.563065
 31
0.0
  0
LINE
  5
3BB
100
AcDbEntity
  8
2
370
    25
100
AcDbLine
 10
276.056217
 20
144.563065
 30
0.0
 11
279.91992
 21
143.527788
 31
0.0
  0
LINE
  5
3BC
100
AcDbEntity
  8
2
370
    25
100
AcDbLine
 10
276.056217
 20
144.563065
 30
0.0
 11
279.91992
 21
145.598341
 31
0.0
  0
LINE
  5
3BD
100
AcDbEntity
  8
2
370
    25
100
AcDbLine
 10
276.056217
 20
144.563065
 30
0.0
 11
317.056217
 21
144.563065
 31
0.0
  0
LINE
  5
3BE
100
AcDbEntity
  8
2
370
    25
100
AcDbLine
 10
317.056217
 20
144.563065
 30
0.0
 11
313.192514
 21
145.598341
 31
0.0
  0
LINE
  5
3BF
100
AcDbEntity
  8
2
370
    25
100
AcDbLine
 10
317.056217
 20
144.563065
 30
0.0
 11
313.192514
 21
143.527788
 31
0.0
  0
LINE
  5
3C0
100
AcDbEntity
  8
2
370
    25
100
AcDbLine
 10
317.056217
 20
122.934832
 30
0.0
 11
317.056217
 21
146.563065
 31
0.0
  0
ENDBLK
  5
3C1
100
AcDbEntity
  8
2
100
AcDbBlockEnd
  0
BLOCK
  5
3C2
100
AcDbEntity
  8
2
100
AcDbBlockBegin
  2
*D3
 70
     1
 10
0.0
 20
0.0
 30
0.0
  3
*D3
  1

  0
TEXT
  5
3C3
100
AcDbEntity
  8
2
370
    18
100
AcDbText
 10
55.120136
 20
145.563065
 30
0.0
 40
5.0
  1
４２．６
 72
     5
 11
74.120136
 21
145.563065
 31
0.0
100
AcDbText
  0
LINE
  5
3C4
100
AcDbEntity
  8
2
370
    25
100
AcDbLine
 10
43.820136
 20
121.934832
 30
0.0
 11
43.820136
 21
146.563065
 31
0.0
  0
LINE
  5
3C5
100
AcDbEntity
  8
2
370
    25
100
AcDbLine
 10
43.820136
 20
144.563065
 30
0.0
 11
47.68384
 21
143.527788
 31
0.0
  0
LINE
  5
3C6
100
AcDbEntity
  8
2
370
    25
100
AcDbLine
 10
43.820136
 20
144.563065
 30
0.0
 11
47.68384
 21
145.598341
 31
0.0
  0
LINE
  5
3C7
100
AcDbEntity
  8
2
370
    25
100
AcDbLine
 10
43.820136
 20
144.563065
 30
0.0
 11
86.420136
 21
144.563065
 31
0.0
  0
LINE
  5
3C8
100
AcDbEntity
  8
2
370
    25
100
AcDbLine
 10
86.420136
 20
144.563065
 30
0.0
 11
82.556433
 21
145.598341
 31
0.0
  0
LINE
  5
3C9
100
AcDbEntity
  8
2
370
    25
100
AcDbLine
 10
86.420136
 20
144.563065
 30
0.0
 11
82.556433
 21
143.527788
 31
0.0
  0
LINE
  5
3CA
100
AcDbEntity
  8
2
370
    25
100
AcDbLine
 10
86.420136
 20
121.934832
 30
0.0
 11
86.420136
 21
146.563065
 31
0.0
  0
ENDBLK
  5
3CB
100
AcDbEntity
  8
2
100
AcDbBlockEnd
  0
BLOCK
  5
3CC
100
AcDbEntity
  8
2
100
AcDbBlockBegin
  2
*D4
 70
     1
 10
0.0
 20
0.0
 30
0.0
  3
*D4
  1

  0
TEXT
  5
3CD
100
AcDbEntity
  8
2
370
    18
100
AcDbText
 10
28.716431
 20
44.434832
 30
0.0
 40
5.0
  1
１４３
 50
90.0
 72
     5
 11
28.716431
 21
58.434832
 31
0.0
100
AcDbText
  0
LINE
  5
3CE
100
AcDbEntity
  8
2
370
    25
100
AcDbLine
 10
45.320136
 20
-19.565168
 30
0.0
 11
27.716431
 21
-19.565168
 31
0.0
  0
LINE
  5
3CF
100
AcDbEntity
  8
2
370
    25
100
AcDbLine
 10
29.716431
 20
-19.565168
 30
0.0
 11
30.751707
 21
-15.701465
 31
0.0
  0
LINE
  5
3D0
100
AcDbEntity
  8
2
370
    25
100
AcDbLine
 10
29.716431
 20
-19.565168
 30
0.0
 11
28.681154
 21
-15.701465
 31
0.0
  0
LINE
  5
3D1
100
AcDbEntity
  8
2
370
    25
100
AcDbLine
 10
29.716431
 20
-19.565168
 30
0.0
 11
29.716431
 21
123.434832
 31
0.0
  0
LINE
  5
3D2
100
AcDbEntity
  8
2
370
    25
100
AcDbLine
 10
29.716431
 20
123.434832
 30
0.0
 11
28.681154
 21
119.571128
 31
0.0
  0
LINE
  5
3D3
100
AcDbEntity
  8
2
370
    25
100
AcDbLine
 10
29.716431
 20
123.434832
 30
0.0
 11
30.751707
 21
119.571128
 31
0.0
  0
LINE
  5
3D4
100
AcDbEntity
  8
2
370
    25
100
AcDbLine
 10
45.320136
 20
123.434832
 30
0.0
 11
27.716431
 21
123.434832
 31
0.0
  0
ENDBLK
  5
3D5
100
AcDbEntity
  8
2
100
AcDbBlockEnd
  0
BLOCK
  5
3D6
100
AcDbEntity
  8
2
100
AcDbBlockBegin
  2
*D5
 70
     1
 10
0.0
 20
0.0
 30
0.0
  3
*D5
  1

  0
TEXT
  5
3D7
100
AcDbEntity
  8
2
370
    18
100
AcDbText
 10
118.970215
 20
64.434832
 30
0.0
 40
5.0
  1
３５
 50
90.0
 72
     5
 11
118.970215
 21
73.434832
 31
0.0
100
AcDbText
  0
LINE
  5
3D8
100
AcDbEntity
  8
2
370
    25
100
AcDbLine
 10
129.692158
 20
51.934832
 30
0.0
 11
117.970215
 21
51.934832
 31
0.0
  0
LINE
  5
3D9
100
AcDbEntity
  8
2
370
    25
100
AcDbLine
 10
119.970215
 20
51.934832
 30
0.0
 11
121.005491
 21
55.798535
 31
0.0
  0
LINE
  5
3DA
100
AcDbEntity
  8
2
370
    25
100
AcDbLine
 10
119.970215
 20
51.934832
 30
0.0
 11
118.934939
 21
55.798535
 31
0.0
  0
LINE
  5
3DB
100
AcDbEntity
  8
2
370
    25
100
AcDbLine
 10
119.970215
 20
51.934832
 30
0.0
 11
119.970215
 21
86.934832
 31
0.0
  0
LINE
  5
3DC
100
AcDbEntity
  8
2
370
    25
100
AcDbLine
 10
119.970215
 20
86.934832
 30
0.0
 11
118.934939
 21
83.071128
 31
0.0
  0
LINE
  5
3DD
100
AcDbEntity
  8
2
370
    25
100
AcDbLine
 10
119.970215
 20
86.934832
 30
0.0
 11
121.005491
 21
83.071128
 31
0.0
  0
LINE
  5
3DE
100
AcDbEntity
  8
2
370
    25
100
AcDbLine
 10
171.338177
 20
86.934832
 30
0.0
 11
117.970215
 21
86.934832
 31
0.0
  0
ENDBLK
  5
3DF
100
AcDbEntity
  8
2
100
AcDbBlockEnd
  0
BLOCK
  5
3E0
100
AcDbEntity
  8
2
100
AcDbBlockBegin
  2
*D6
 70
     1
 10
0.0
 20
0.0
 30
0.0
  3
*D6
  1

  0
TEXT
  5
3E1
100
AcDbEntity
  8
2
370
    18
100
AcDbText
 10
180.338177
 20
20.99527
 30
0.0
 40
5.0
  1
１５
 72
     5
 11
189.338177
 21
20.99527
 31
0.0
100
AcDbText
  0
LINE
  5
3E2
100
AcDbEntity
  8
2
370
    25
100
AcDbLine
 10
177.838177
 20
45.434832
 30
0.0
 11
177.838177
 21
17.99527
 31
0.0
  0
LINE
  5
3E3
100
AcDbEntity
  8
2
370
    25
100
AcDbLine
 10
177.838177
 20
19.99527
 30
0.0
 11
181.70188
 21
18.959994
 31
0.0
  0
LINE
  5
3E4
100
AcDbEntity
  8
2
370
    25
100
AcDbLine
 10
177.838177
 20
19.99527
 30
0.0
 11
181.70188
 21
21.030546
 31
0.0
  0
LINE
  5
3E5
100
AcDbEntity
  8
2
370
    25
100
AcDbLine
 10
177.838177
 20
19.99527
 30
0.0
 11
192.838177
 21
19.99527
 31
0.0
  0
LINE
  5
3E6
100
AcDbEntity
  8
2
370
    25
100
AcDbLine
 10
192.838177
 20
19.99527
 30
0.0
 11
188.974473
 21
21.030546
 31
0.0
  0
LINE
  5
3E7
100
AcDbEntity
  8
2
370
    25
100
AcDbLine
 10
192.838177
 20
19.99527
 30
0.0
 11
188.974473
 21
18.959994
 31
0.0
  0
LINE
  5
3E8
100
AcDbEntity
  8
2
370
    25
100
AcDbLine
 10
192.838177
 20
20.408615
 30
0.0
 11
192.838177
 21
17.99527
 31
0.0
  0
ENDBLK
  5
3E9
100
AcDbEntity
  8
2
100
AcDbBlockEnd
  0
BLOCK
  5
3EA
100
AcDbEntity
  8
2
100
AcDbBlockBegin
  2
*D7
 70
     1
 10
0.0
 20
0.0
 30
0.0
  3
*D7
  1

  0
TEXT
  5
3EB
100
AcDbEntity
  8
2
370
    18
100
AcDbText
 10
202.856628
 20
230.289021
 30
0.0
 40
5.0
  1
２９．５
 50
90.0
 72
     5
 11
202.856628
 21
249.289021
 31
0.0
100
AcDbText
  0
LINE
  5
3EC
100
AcDbEntity
  8
2
370
    25
100
AcDbLine
 10
196.838177
 20
196.789021
 30
0.0
 11
205.856628
 21
196.789021
 31
0.0
  0
LINE
  5
3ED
100
AcDbEntity
  8
2
370
    25
100
AcDbLine
 10
203.856628
 20
196.789021
 30
0.0
 11
202.821352
 21
192.925317
 31
0.0
  0
LINE
  5
3EE
100
AcDbEntity
  8
2
370
    25
100
AcDbLine
 10
203.856628
 20
196.789021
 30
0.0
 11
204.891905
 21
192.925317
 31
0.0
  0
LINE
  5
3EF
100
AcDbEntity
  8
2
370
    25
100
AcDbLine
 10
203.856628
 20
186.789021
 30
0.0
 11
203.856628
 21
252.289021
 31
0.0
  0
LINE
  5
3F0
100
AcDbEntity
  8
2
370
    25
100
AcDbLine
 10
203.856628
 20
226.289021
 30
0.0
 11
204.891905
 21
230.152724
 31
0.0
  0
LINE
  5
3F1
100
AcDbEntity
  8
2
370
    25
100
AcDbLine
 10
203.856628
 20
226.289021
 30
0.0
 11
202.821352
 21
230.152724
 31
0.0
  0
LINE
  5
3F2
100
AcDbEntity
  8
2
370
    25
100
AcDbLine
 10
196.838177
 20
226.289021
 30
0.0
 11
205.856628
 21
226.289021
 31
0.0
  0
ENDBLK
  5
3F3
100
AcDbEntity
  8
2
100
AcDbBlockEnd
  0
BLOCK
  5
3F4
100
AcDbEntity
  8
2
100
AcDbBlockBegin
  2
*D8
 70
     1
 10
0.0
 20
0.0
 30
0.0
  3
*D8
  1

  0
TEXT
  5
3F5
100
AcDbEntity
  8
2
370
    18
100
AcDbText
 10
166.019287
 20
145.932343
 30
0.0
 40
5.0
  1
６３．５
 72
     5
 11
185.019287
 21
145.932343
 31
0.0
100
AcDbText
  0
LINE
  5
3F6
100
AcDbEntity
  8
2
370
    25
100
AcDbLine
 10
132.338177
 20
106.481208
 30
0.0
 11
132.338177
 21
146.563065
 31
0.0
  0
LINE
  5
3F7
100
AcDbEntity
  8
2
370
    25
100
AcDbLine
 10
132.338177
 20
144.563065
 30
0.0
 11
136.20188
 21
143.527788
 31
0.0
  0
LINE
  5
3F8
100
AcDbEntity
  8
2
370
    25
100
AcDbLine
 10
132.338177
 20
144.563065
 30
0.0
 11
136.20188
 21
145.598341
 31
0.0
  0
LINE
  5
3F9
100
AcDbEntity
  8
2
370
    25
100
AcDbLine
 10
132.338177
 20
144.563065
 30
0.0
 11
195.838177
 21
144.563065
 31
0.0
  0
LINE
  5
3FA
100
AcDbEntity
  8
2
370
    25
100
AcDbLine
 10
195.838177
 20
144.563065
 30
0.0
 11
191.974473
 21
145.598341
 31
0.0
  0
LINE
  5
3FB
100
AcDbEntity
  8
2
370
    25
100
AcDbLine
 10
195.838177
 20
144.563065
 30
0.0
 11
191.974473
 21
143.527788
 31
0.0
  0
LINE
  5
3FC
100
AcDbEntity
  8
2
370
    25
100
AcDbLine
 10
195.838177
 20
124.434832
 30
0.0
 11
195.838177
 21
146.563065
 31
0.0
  0
ENDBLK
  5
3FD
100
AcDbEntity
  8
2
100
AcDbBlockEnd
  0
BLOCK
  5
3FE
100
AcDbEntity
  8
2
100
AcDbBlockBegin
  2
*D9
 70
     1
 10
0.0
 20
0.0
 30
0.0
  3
*D9
  1

  0
LINE
  5
3FF
100
AcDbEntity
  8
2
370
    25
100
AcDbLine
 10
195.838177
 20
124.434832
 30
0.0
 11
195.838177
 21
146.563065
 31
0.0
  0
LINE
  5
400
100
AcDbEntity
  8
2
370
    25
100
AcDbLine
 10
195.838177
 20
144.563065
 30
0.0
 11
199.70188
 21
143.527788
 31
0.0
  0
LINE
  5
401
100
AcDbEntity
  8
2
370
    25
100
AcDbLine
 10
195.838177
 20
144.563065
 30
0.0
 11
199.70188
 21
145.598341
 31
0.0
  0
LINE
  5
402
100
AcDbEntity
  8
2
370
    25
100
AcDbLine
 10
195.838177
 20
144.563065
 30
0.0
 11
225.838177
 21
144.563065
 31
0.0
  0
LINE
  5
403
100
AcDbEntity
  8
2
370
    25
100
AcDbLine
 10
225.838177
 20
144.563065
 30
0.0
 11
221.974473
 21
145.598341
 31
0.0
  0
LINE
  5
404
100
AcDbEntity
  8
2
370
    25
100
AcDbLine
 10
225.838177
 20
144.563065
 30
0.0
 11
221.974473
 21
143.527788
 31
0.0
  0
LINE
  5
405
100
AcDbEntity
  8
2
370
    25
100
AcDbLine
 10
225.838177
 20
124.434832
 30
0.0
 11
225.838177
 21
146.563065
 31
0.0
  0
ENDBLK
  5
406
100
AcDbEntity
  8
2
100
AcDbBlockEnd
  0
BLOCK
  5
407
100
AcDbEntity
  8
2
100
AcDbBlockBegin
  2
*D10
 70
     1
 10
0.0
 20
0.0
 30
0.0
  3
*D10
  1

  0
TEXT
  5
408
100
AcDbEntity
  8
2
370
    18
100
AcDbText
 10
231.638177
 20
145.563065
 30
0.0
 40
5.0
  1
１．８
 72
     5
 11
245.638177
 21
145.563065
 31
0.0
100
AcDbText
  0
LINE
  5
409
100
AcDbEntity
  8
2
370
    25
100
AcDbLine
 10
225.838177
 20
124.434832
 30
0.0
 11
225.838177
 21
146.563065
 31
0.0
  0
LINE
  5
40A
100
AcDbEntity
  8
2
370
    25
100
AcDbLine
 10
225.838177
 20
144.563065
 30
0.0
 11
221.974473
 21
145.598341
 31
0.0
  0
LINE
  5
40B
100
AcDbEntity
  8
2
370
    25
100
AcDbLine
 10
225.838177
 20
144.563065
 30
0.0
 11
221.974473
 21
143.527788
 31
0.0
  0
LINE
  5
40C
100
AcDbEntity
  8
2
370
    25
100
AcDbLine
 10
215.838177
 20
144.563065
 30
0.0
 11
248.638177
 21
144.563065
 31
0.0
  0
LINE
  5
40D
100
AcDbEntity
  8
2
370
    25
100
AcDbLine
 10
227.638177
 20
144.563065
 30
0.0
 11
231.50188
 21
143.527788
 31
0.0
  0
LINE
  5
40E
100
AcDbEntity
  8
2
370
    25
100
AcDbLine
 10
227.638177
 20
144.563065
 30
0.0
 11
231.50188
 21
145.598341
 31
0.0
  0
LINE
  5
40F
100
AcDbEntity
  8
2
370
    25
100
AcDbLine
 10
227.638177
 20
123.544287
 30
0.0
 11
227.638177
 21
146.563065
 31
0.0
  0
ENDBLK
  5
410
100
AcDbEntity
  8
2
100
AcDbBlockEnd
  0
BLOCK
  5
411
100
AcDbEntity
  8
2
100
AcDbBlockBegin
  2
*D11
 70
     1
 10
0.0
 20
0.0
 30
0.0
  3
*D11
  1

  0
TEXT
  5
412
100
AcDbEntity
  8
2
370
    18
100
AcDbText
 10
229.838177
 20
-35.360874
 30
0.0
 40
5.0
  1
１３
 72
     5
 11
238.838177
 21
-35.360874
 31
0.0
100
AcDbText
  0
LINE
  5
413
100
AcDbEntity
  8
2
370
    25
100
AcDbLine
 10
212.838177
 20
3.566003
 30
0.0
 11
212.838177
 21
-38.360874
 31
0.0
  0
LINE
  5
414
100
AcDbEntity
  8
2
370
    25
100
AcDbLine
 10
212.838177
 20
-36.360874
 30
0.0
 11
208.974473
 21
-35.325598
 31
0.0
  0
LINE
  5
415
100
AcDbEntity
  8
2
370
    25
100
AcDbLine
 10
212.838177
 20
-36.360874
 30
0.0
 11
208.974473
 21
-37.39615
 31
0.0
  0
LINE
  5
416
100
AcDbEntity
  8
2
370
    25
100
AcDbLine
 10
202.838177
 20
-36.360874
 30
0.0
 11
241.838177
 21
-36.360874
 31
0.0
  0
LINE
  5
417
100
AcDbEntity
  8
2
370
    25
100
AcDbLine
 10
225.838177
 20
-36.360874
 30
0.0
 11
229.70188
 21
-37.39615
 31
0.0
  0
LINE
  5
418
100
AcDbEntity
  8
2
370
    25
100
AcDbLine
 10
225.838177
 20
-36.360874
 30
0.0
 11
229.70188
 21
-35.325598
 31
0.0
  0
LINE
  5
419
100
AcDbEntity
  8
2
370
    25
100
AcDbLine
 10
225.838177
 20
-20.565168
 30
0.0
 11
225.838177
 21
-38.360874
 31
0.0
  0
ENDBLK
  5
41A
100
AcDbEntity
  8
2
100
AcDbBlockEnd
  0
BLOCK
  5
41B
100
AcDbEntity
  8
2
100
AcDbBlockBegin
  2
*D12
 70
     1
 10
0.0
 20
0.0
 30
0.0
  3
*D12
  1

  0
TEXT
  5
41C
100
AcDbEntity
  8
2
370
    18
100
AcDbText
 10
171.838177
 20
-35.360874
 30
0.0
 40
5.0
  1
１０．５
 72
     5
 11
190.838177
 21
-35.360874
 31
0.0
100
AcDbText
  0
LINE
  5
41D
100
AcDbEntity
  8
2
370
    25
100
AcDbLine
 10
195.838177
 20
-20.565168
 30
0.0
 11
195.838177
 21
-38.360874
 31
0.0
  0
LINE
  5
41E
100
AcDbEntity
  8
2
370
    25
100
AcDbLine
 10
195.838177
 20
-36.360874
 30
0.0
 11
191.974473
 21
-35.325598
 31
0.0
  0
LINE
  5
41F
100
AcDbEntity
  8
2
370
    25
100
AcDbLine
 10
195.838177
 20
-36.360874
 30
0.0
 11
191.974473
 21
-37.39615
 31
0.0
  0
LINE
  5
420
100
AcDbEntity
  8
2
370
    25
100
AcDbLine
 10
169.838177
 20
-36.360874
 30
0.0
 11
216.338177
 21
-36.360874
 31
0.0
  0
LINE
  5
421
100
AcDbEntity
  8
2
370
    25
100
AcDbLine
 10
206.338177
 20
-36.360874
 30
0.0
 11
210.20188
 21
-37.39615
 31
0.0
  0
LINE
  5
422
100
AcDbEntity
  8
2
370
    25
100
AcDbLine
 10
206.338177
 20
-36.360874
 30
0.0
 11
210.20188
 21
-35.325598
 31
0.0
  0
LINE
  5
423
100
AcDbEntity
  8
2
370
    25
100
AcDbLine
 10
206.338177
 20
-14.5404
 30
0.0
 11
206.338177
 21
-38.360874
 31
0.0
  0
ENDBLK
  5
424
100
AcDbEntity
  8
2
100
AcDbBlockEnd
  0
BLOCK
  5
425
100
AcDbEntity
  8
2
100
AcDbBlockBegin
  2
*D13
 70
     1
 10
0.0
 20
0.0
 30
0.0
  3
*D13
  1

  0
TEXT
  5
426
100
AcDbEntity
  8
2
370
    18
100
AcDbText
 10
141.338177
 20
-106.739677
 30
0.0
 40
5.0
  1
φ２８
 72
     5
 11
155.338177
 21
-106.739677
 31
0.0
100
AcDbText
  0
LINE
  5
427
100
AcDbEntity
  8
2
370
    25
100
AcDbLine
 10
134.838177
 20
-107.739677
 30
0.0
 11
138.70188
 21
-108.774954
 31
0.0
  0
LINE
  5
428
100
AcDbEntity
  8
2
370
    25
100
AcDbLine
 10
134.838177
 20
-107.739677
 30
0.0
 11
138.70188
 21
-106.704401
 31
0.0
  0
LINE
  5
429
100
AcDbEntity
  8
2
370
    25
100
AcDbLine
 10
134.838177
 20
-107.739677
 30
0.0
 11
162.838177
 21
-107.739677
 31
0.0
  0
LINE
  5
42A
100
AcDbEntity
  8
2
370
    25
100
AcDbLine
 10
162.838177
 20
-107.739677
 30
0.0
 11
158.974473
 21
-106.704401
 31
0.0
  0
LINE
  5
42B
100
AcDbEntity
  8
2
370
    25
100
AcDbLine
 10
162.838177
 20
-107.739677
 30
0.0
 11
158.974473
 21
-108.774954
 31
0.0
  0
ENDBLK
  5
42C
100
AcDbEntity
  8
2
100
AcDbBlockEnd
  0
BLOCK
  5
42D
100
AcDbEntity
  8
2
100
AcDbBlockBegin
  2
*D14
 70
     1
 10
0.0
 20
0.0
 30
0.0
  3
*D14
  1

  0
TEXT
  5
42E
100
AcDbEntity
  8
2
370
    18
100
AcDbText
 10
172.838177
 20
0.795303
 30
0.0
 40
5.0
  1
３０
 72
     5
 11
181.838177
 21
0.795303
 31
0.0
100
AcDbText
  0
LINE
  5
42F
100
AcDbEntity
  8
2
370
    25
100
AcDbLine
 10
162.838177
 20
-0.204697
 30
0.0
 11
166.70188
 21
-1.239973
 31
0.0
  0
LINE
  5
430
100
AcDbEntity
  8
2
370
    25
100
AcDbLine
 10
162.838177
 20
-0.204697
 30
0.0
 11
166.70188
 21
0.83058
 31
0.0
  0
LINE
  5
431
100
AcDbEntity
  8
2
370
    25
100
AcDbLine
 10
162.838177
 20
-0.204697
 30
0.0
 11
192.838177
 21
-0.204697
 31
0.0
  0
LINE
  5
432
100
AcDbEntity
  8
2
370
    25
100
AcDbLine
 10
192.838177
 20
-0.204697
 30
0.0
 11
188.974473
 21
0.83058
 31
0.0
  0
LINE
  5
433
100
AcDbEntity
  8
2
370
    25
100
AcDbLine
 10
192.838177
 20
-0.204697
 30
0.0
 11
188.974473
 21
-1.239973
 31
0.0
  0
ENDBLK
  5
434
100
AcDbEntity
  8
2
100
AcDbBlockEnd
  0
BLOCK
  5
435
100
AcDbEntity
  8
2
100
AcDbBlockBegin
  2
*D15
 70
     1
 10
0.0
 20
0.0
 30
0.0
  3
*D15
  1

  0
TEXT
  5
436
100
AcDbEntity
  8
2
370
    18
100
AcDbText
 10
109.963303
 20
-65.565168
 30
0.0
 40
5.0
  1
２２０
 50
90.0
 72
     5
 11
109.963303
 21
-51.565168
 31
0.0
100
AcDbText
  0
LINE
  5
437
100
AcDbEntity
  8
2
370
    25
100
AcDbLine
 10
140.838177
 20
-168.065168
 30
0.0
 11
108.963303
 21
-168.065168
 31
0.0
  0
LINE
  5
438
100
AcDbEntity
  8
2
370
    25
100
AcDbLine
 10
110.963303
 20
-168.065168
 30
0.0
 11
111.998579
 21
-164.201465
 31
0.0
  0
LINE
  5
439
100
AcDbEntity
  8
2
370
    25
100
AcDbLine
 10
110.963303
 20
-168.065168
 30
0.0
 11
109.928026
 21
-164.201465
 31
0.0
  0
LINE
  5
43A
100
AcDbEntity
  8
2
370
    25
100
AcDbLine
 10
110.963303
 20
-168.065168
 30
0.0
 11
110.963303
 21
51.934832
 31
0.0
  0
LINE
  5
43B
100
AcDbEntity
  8
2
370
    25
100
AcDbLine
 10
110.963303
 20
51.934832
 30
0.0
 11
109.928026
 21
48.071128
 31
0.0
  0
LINE
  5
43C
100
AcDbEntity
  8
2
370
    25
100
AcDbLine
 10
110.963303
 20
51.934832
 30
0.0
 11
111.998579
 21
48.071128
 31
0.0
  0
LINE
  5
43D
100
AcDbEntity
  8
2
370
    25
100
AcDbLine
 10
129.692158
 20
51.934832
 30
0.0
 11
108.963303
 21
51.934832
 31
0.0
  0
ENDBLK
  5
43E
100
AcDbEntity
  8
2
100
AcDbBlockEnd
  0
BLOCK
  5
43F
100
AcDbEntity
  8
2
100
AcDbBlockBegin
  2
*D16
 70
     1
 10
0.0
 20
0.0
 30
0.0
  3
*D16
  1

  0
TEXT
  5
440
100
AcDbEntity
  8
2
370
    18
100
AcDbText
 10
109.963303
 20
80.934832
 30
0.0
 40
5.0
  1
６８
 50
90.0
 72
     5
 11
109.963303
 21
89.934832
 31
0.0
100
AcDbText
  0
LINE
  5
441
100
AcDbEntity
  8
2
370
    25
100
AcDbLine
 10
129.692158
 20
51.934832
 30
0.0
 11
108.963303
 21
51.934832
 31
0.0
  0
LINE
  5
442
100
AcDbEntity
  8
2
370
    25
100
AcDbLine
 10
110.963303
 20
51.934832
 30
0.0
 11
111.998579
 21
55.798535
 31
0.0
  0
LINE
  5
443
100
AcDbEntity
  8
2
370
    25
100
AcDbLine
 10
110.963303
 20
51.934832
 30
0.0
 11
109.928026
 21
55.798535
 31
0.0
  0
LINE
  5
444
100
AcDbEntity
  8
2
370
    25
100
AcDbLine
 10
110.963303
 20
51.934832
 30
0.0
 11
110.963303
 21
119.934832
 31
0.0
  0
LINE
  5
445
100
AcDbEntity
  8
2
370
    25
100
AcDbLine
 10
110.963303
 20
119.934832
 30
0.0
 11
109.928026
 21
116.071128
 31
0.0
  0
LINE
  5
446
100
AcDbEntity
  8
2
370
    25
100
AcDbLine
 10
110.963303
 20
119.934832
 30
0.0
 11
111.998579
 21
116.071128
 31
0.0
  0
LINE
  5
447
100
AcDbEntity
  8
2
370
    25
100
AcDbLine
 10
191.838177
 20
119.934832
 30
0.0
 11
108.963303
 21
119.934832
 31
0.0
  0
ENDBLK
  5
448
100
AcDbEntity
  8
2
100
AcDbBlockEnd
  0
BLOCK
  5
449
100
AcDbEntity
  8
2
100
AcDbBlockBegin
  2
*D17
 70
     1
 10
0.0
 20
0.0
 30
0.0
  3
*D17
  1

  0
TEXT
  5
44A
100
AcDbEntity
  8
2
370
    18
100
AcDbText
 10
-107.720978
 20
-65.565168
 30
0.0
 40
5.0
  1
２２０
 50
90.0
 72
     5
 11
-107.720978
 21
-51.565168
 31
0.0
100
AcDbText
  0
LINE
  5
44B
100
AcDbEntity
  8
2
370
    25
100
AcDbLine
 10
-129.161823
 20
-168.065168
 30
0.0
 11
-104.720978
 21
-168.065168
 31
0.0
  0
LINE
  5
44C
100
AcDbEntity
  8
2
370
    25
100
AcDbLine
 10
-106.720978
 20
-168.065168
 30
0.0
 11
-105.685702
 21
-164.201465
 31
0.0
  0
LINE
  5
44D
100
AcDbEntity
  8
2
370
    25
100
AcDbLine
 10
-106.720978
 20
-168.065168
 30
0.0
 11
-107.756254
 21
-164.201465
 31
0.0
  0
LINE
  5
44E
100
AcDbEntity
  8
2
370
    25
100
AcDbLine
 10
-106.720978
 20
-168.065168
 30
0.0
 11
-106.720978
 21
51.934832
 31
0.0
  0
LINE
  5
44F
100
AcDbEntity
  8
2
370
    25
100
AcDbLine
 10
-106.720978
 20
51.934832
 30
0.0
 11
-107.756254
 21
48.071128
 31
0.0
  0
LINE
  5
450
100
AcDbEntity
  8
2
370
    25
100
AcDbLine
 10
-106.720978
 20
51.934832
 30
0.0
 11
-105.685702
 21
48.071128
 31
0.0
  0
LINE
  5
451
100
AcDbEntity
  8
2
370
    25
100
AcDbLine
 10
-117.920104
 20
51.934832
 30
0.0
 11
-104.720978
 21
51.934832
 31
0.0
  0
ENDBLK
  5
452
100
AcDbEntity
  8
2
100
AcDbBlockEnd
  0
BLOCK
  5
453
100
AcDbEntity
  8
2
100
AcDbBlockBegin
  2
*D18
 70
     1
 10
0.0
 20
0.0
 30
0.0
  3
*D18
  1

  0
TEXT
  5
454
100
AcDbEntity
  8
2
370
    18
100
AcDbText
 10
-107.720978
 20
80.934832
 30
0.0
 40
5.0
  1
６８
 50
90.0
 72
     5
 11
-107.720978
 21
89.934832
 31
0.0
100
AcDbText
  0
LINE
  5
455
100
AcDbEntity
  8
2
370
    25
100
AcDbLine
 10
-117.920104
 20
51.934832
 30
0.0
 11
-104.720978
 21
51.934832
 31
0.0
  0
LINE
  5
456
100
AcDbEntity
  8
2
370
    25
100
AcDbLine
 10
-106.720978
 20
51.934832
 30
0.0
 11
-105.685702
 21
55.798535
 31
0.0
  0
LINE
  5
457
100
AcDbEntity
  8
2
370
    25
100
AcDbLine
 10
-106.720978
 20
51.934832
 30
0.0
 11
-107.756254
 21
55.798535
 31
0.0
  0
LINE
  5
458
100
AcDbEntity
  8
2
370
    25
100
AcDbLine
 10
-106.720978
 20
51.934832
 30
0.0
 11
-106.720978
 21
119.934832
 31
0.0
  0
LINE
  5
459
100
AcDbEntity
  8
2
370
    25
100
AcDbLine
 10
-106.720978
 20
119.934832
 30
0.0
 11
-107.756254
 21
116.071128
 31
0.0
  0
LINE
  5
45A
100
AcDbEntity
  8
2
370
    25
100
AcDbLine
 10
-106.720978
 20
119.934832
 30
0.0
 11
-105.685702
 21
116.071128
 31
0.0
  0
LINE
  5
45B
100
AcDbEntity
  8
2
370
    25
100
AcDbLine
 10
-180.161823
 20
119.934832
 30
0.0
 11
-104.720978
 21
119.934832
 31
0.0
  0
ENDBLK
  5
45C
100
AcDbEntity
  8
2
100
AcDbBlockEnd
  0
BLOCK
  5
45D
100
AcDbEntity
  8
2
100
AcDbBlockBegin
  2
*D19
 70
     1
 10
0.0
 20
0.0
 30
0.0
  3
*D19
  1

  0
TEXT
  5
45E
100
AcDbEntity
  8
2
370
    18
100
AcDbText
 10
-144.661823
 20
-106.739677
 30
0.0
 40
5.0
  1
φ２８
 72
     5
 11
-130.661823
 21
-106.739677
 31
0.0
100
AcDbText
  0
LINE
  5
45F
100
AcDbEntity
  8
2
370
    25
100
AcDbLine
 10
-151.161823
 20
-107.739677
 30
0.0
 11
-147.29812
 21
-108.774954
 31
0.0
  0
LINE
  5
460
100
AcDbEntity
  8
2
370
    25
100
AcDbLine
 10
-151.161823
 20
-107.739677
 30
0.0
 11
-147.29812
 21
-106.704401
 31
0.0
  0
LINE
  5
461
100
AcDbEntity
  8
2
370
    25
100
AcDbLine
 10
-151.161823
 20
-107.739677
 30
0.0
 11
-123.161823
 21
-107.739677
 31
0.0
  0
LINE
  5
462
100
AcDbEntity
  8
2
370
    25
100
AcDbLine
 10
-123.161823
 20
-107.739677
 30
0.0
 11
-127.025527
 21
-106.704401
 31
0.0
  0
LINE
  5
463
100
AcDbEntity
  8
2
370
    25
100
AcDbLine
 10
-123.161823
 20
-107.739677
 30
0.0
 11
-127.025527
 21
-108.774954
 31
0.0
  0
ENDBLK
  5
464
100
AcDbEntity
  8
2
100
AcDbBlockEnd
  0
BLOCK
  5
465
100
AcDbEntity
  8
2
100
AcDbBlockBegin
  2
*D20
 70
     1
 10
0.0
 20
0.0
 30
0.0
  3
*D20
  1

  0
TEXT
  5
466
100
AcDbEntity
  8
2
370
    18
100
AcDbText
 10
-63.443783
 20
145.563065
 30
0.0
 40
5.0
  1
４２．６
 72
     5
 11
-44.443783
 21
145.563065
 31
0.0
100
AcDbText
  0
LINE
  5
467
100
AcDbEntity
  8
2
370
    25
100
AcDbLine
 10
-74.743783
 20
121.934832
 30
0.0
 11
-74.743783
 21
146.563065
 31
0.0
  0
LINE
  5
468
100
AcDbEntity
  8
2
370
    25
100
AcDbLine
 10
-74.743783
 20
144.563065
 30
0.0
 11
-70.88008
 21
143.527788
 31
0.0
  0
LINE
  5
469
100
AcDbEntity
  8
2
370
    25
100
AcDbLine
 10
-74.743783
 20
144.563065
 30
0.0
 11
-70.88008
 21
145.598341
 31
0.0
  0
LINE
  5
46A
100
AcDbEntity
  8
2
370
    25
100
AcDbLine
 10
-74.743783
 20
144.563065
 30
0.0
 11
-32.143783
 21
144.563065
 31
0.0
  0
LINE
  5
46B
100
AcDbEntity
  8
2
370
    25
100
AcDbLine
 10
-32.143783
 20
144.563065
 30
0.0
 11
-36.007486
 21
145.598341
 31
0.0
  0
LINE
  5
46C
100
AcDbEntity
  8
2
370
    25
100
AcDbLine
 10
-32.143783
 20
144.563065
 30
0.0
 11
-36.007486
 21
143.527788
 31
0.0
  0
LINE
  5
46D
100
AcDbEntity
  8
2
370
    25
100
AcDbLine
 10
-32.143783
 20
121.934832
 30
0.0
 11
-32.143783
 21
146.563065
 31
0.0
  0
ENDBLK
  5
46E
100
AcDbEntity
  8
2
100
AcDbBlockEnd
  0
BLOCK
  5
46F
100
AcDbEntity
  8
2
100
AcDbBlockBegin
  2
*D21
 70
     1
 10
0.0
 20
0.0
 30
0.0
  3
*D21
  1

  0
TEXT
  5
470
100
AcDbEntity
  8
2
370
    18
100
AcDbText
 10
-18.382965
 20
44.434832
 30
0.0
 40
5.0
  1
１４３
 50
90.0
 72
     5
 11
-18.382965
 21
58.434832
 31
0.0
100
AcDbText
  0
LINE
  5
471
100
AcDbEntity
  8
2
370
    25
100
AcDbLine
 10
-33.643783
 20
-19.565168
 30
0.0
 11
-15.382965
 21
-19.565168
 31
0.0
  0
LINE
  5
472
100
AcDbEntity
  8
2
370
    25
100
AcDbLine
 10
-17.382965
 20
-19.565168
 30
0.0
 11
-16.347689
 21
-15.701465
 31
0.0
  0
LINE
  5
473
100
AcDbEntity
  8
2
370
    25
100
AcDbLine
 10
-17.382965
 20
-19.565168
 30
0.0
 11
-18.418241
 21
-15.701465
 31
0.0
  0
LINE
  5
474
100
AcDbEntity
  8
2
370
    25
100
AcDbLine
 10
-17.382965
 20
-19.565168
 30
0.0
 11
-17.382965
 21
123.434832
 31
0.0
  0
LINE
  5
475
100
AcDbEntity
  8
2
370
    25
100
AcDbLine
 10
-17.382965
 20
123.434832
 30
0.0
 11
-18.418241
 21
119.571128
 31
0.0
  0
LINE
  5
476
100
AcDbEntity
  8
2
370
    25
100
AcDbLine
 10
-17.382965
 20
123.434832
 30
0.0
 11
-16.347689
 21
119.571128
 31
0.0
  0
LINE
  5
477
100
AcDbEntity
  8
2
370
    25
100
AcDbLine
 10
-33.643783
 20
123.434832
 30
0.0
 11
-15.382965
 21
123.434832
 31
0.0
  0
ENDBLK
  5
478
100
AcDbEntity
  8
2
100
AcDbBlockEnd
  0
BLOCK
  5
479
100
AcDbEntity
  8
2
100
AcDbBlockBegin
  2
*D22
 70
     1
 10
0.0
 20
0.0
 30
0.0
  3
*D22
  1

  0
TEXT
  5
47A
100
AcDbEntity
  8
2
370
    18
100
AcDbText
 10
-162.411823
 20
145.563065
 30
0.0
 40
5.0
  1
６３．５
 72
     5
 11
-143.411823
 21
145.563065
 31
0.0
100
AcDbText
  0
LINE
  5
47B
100
AcDbEntity
  8
2
370
    25
100
AcDbLine
 10
-184.161823
 20
124.434832
 30
0.0
 11
-184.161823
 21
146.563065
 31
0.0
  0
LINE
  5
47C
100
AcDbEntity
  8
2
370
    25
100
AcDbLine
 10
-184.161823
 20
144.563065
 30
0.0
 11
-180.29812
 21
143.527788
 31
0.0
  0
LINE
  5
47D
100
AcDbEntity
  8
2
370
    25
100
AcDbLine
 10
-184.161823
 20
144.563065
 30
0.0
 11
-180.29812
 21
145.598341
 31
0.0
  0
LINE
  5
47E
100
AcDbEntity
  8
2
370
    25
100
AcDbLine
 10
-184.161823
 20
144.563065
 30
0.0
 11
-120.661823
 21
144.563065
 31
0.0
  0
LINE
  5
47F
100
AcDbEntity
  8
2
370
    25
100
AcDbLine
 10
-120.661823
 20
144.563065
 30
0.0
 11
-124.525527
 21
145.598341
 31
0.0
  0
LINE
  5
480
100
AcDbEntity
  8
2
370
    25
100
AcDbLine
 10
-120.661823
 20
144.563065
 30
0.0
 11
-124.525527
 21
143.527788
 31
0.0
  0
LINE
  5
481
100
AcDbEntity
  8
2
370
    25
100
AcDbLine
 10
-120.661823
 20
106.481208
 30
0.0
 11
-120.661823
 21
146.563065
 31
0.0
  0
ENDBLK
  5
482
100
AcDbEntity
  8
2
100
AcDbBlockEnd
  0
BLOCK
  5
483
100
AcDbEntity
  8
2
100
AcDbBlockBegin
  2
*D23
 70
     1
 10
0.0
 20
0.0
 30
0.0
  3
*D23
  1

  0
TEXT
  5
484
100
AcDbEntity
  8
2
370
    18
100
AcDbText
 10
-244.769272
 20
145.807037
 30
0.0
 40
5.0
  1
６３．５
 72
     5
 11
-225.769272
 21
145.807037
 31
0.0
100
AcDbText
  0
LINE
  5
485
100
AcDbEntity
  8
2
370
    25
100
AcDbLine
 10
-277.661823
 20
106.481208
 30
0.0
 11
-277.661823
 21
146.563065
 31
0.0
  0
LINE
  5
486
100
AcDbEntity
  8
2
370
    25
100
AcDbLine
 10
-277.661823
 20
144.563065
 30
0.0
 11
-273.79812
 21
143.527788
 31
0.0
  0
LINE
  5
487
100
AcDbEntity
  8
2
370
    25
100
AcDbLine
 10
-277.661823
 20
144.563065
 30
0.0
 11
-273.79812
 21
145.598341
 31
0.0
  0
LINE
  5
488
100
AcDbEntity
  8
2
370
    25
100
AcDbLine
 10
-277.661823
 20
144.563065
 30
0.0
 11
-214.161823
 21
144.563065
 31
0.0
  0
LINE
  5
489
100
AcDbEntity
  8
2
370
    25
100
AcDbLine
 10
-214.161823
 20
144.563065
 30
0.0
 11
-218.025527
 21
145.598341
 31
0.0
  0
LINE
  5
48A
100
AcDbEntity
  8
2
370
    25
100
AcDbLine
 10
-214.161823
 20
144.563065
 30
0.0
 11
-218.025527
 21
143.527788
 31
0.0
  0
LINE
  5
48B
100
AcDbEntity
  8
2
370
    25
100
AcDbLine
 10
-214.161823
 20
124.434832
 30
0.0
 11
-214.161823
 21
146.563065
 31
0.0
  0
ENDBLK
  5
48C
100
AcDbEntity
  8
2
100
AcDbBlockEnd
  0
BLOCK
  5
48D
100
AcDbEntity
  8
2
100
AcDbBlockBegin
  2
*D24
 70
     1
 10
0.0
 20
0.0
 30
0.0
  3
*D24
  1

  0
TEXT
  5
48E
100
AcDbEntity
  8
2
370
    18
100
AcDbText
 10
-177.161823
 20
131.925713
 30
0.0
 40
5.0
  1
３
 72
     5
 11
-173.161823
 21
131.925713
 31
0.0
100
AcDbText
  0
LINE
  5
48F
100
AcDbEntity
  8
2
370
    25
100
AcDbLine
 10
-184.161823
 20
124.434832
 30
0.0
 11
-184.161823
 21
132.925713
 31
0.0
  0
LINE
  5
490
100
AcDbEntity
  8
2
370
    25
100
AcDbLine
 10
-184.161823
 20
130.925713
 30
0.0
 11
-188.025527
 21
131.960989
 31
0.0
  0
LINE
  5
491
100
AcDbEntity
  8
2
370
    25
100
AcDbLine
 10
-184.161823
 20
130.925713
 30
0.0
 11
-188.025527
 21
129.890436
 31
0.0
  0
LINE
  5
492
100
AcDbEntity
  8
2
370
    25
100
AcDbLine
 10
-194.161823
 20
130.925713
 30
0.0
 11
-170.161823
 21
130.925713
 31
0.0
  0
LINE
  5
493
100
AcDbEntity
  8
2
370
    25
100
AcDbLine
 10
-181.161823
 20
130.925713
 30
0.0
 11
-177.29812
 21
129.890436
 31
0.0
  0
LINE
  5
494
100
AcDbEntity
  8
2
370
    25
100
AcDbLine
 10
-181.161823
 20
130.925713
 30
0.0
 11
-177.29812
 21
131.960989
 31
0.0
  0
LINE
  5
495
100
AcDbEntity
  8
2
370
    25
100
AcDbLine
 10
-181.161823
 20
123.256034
 30
0.0
 11
-181.161823
 21
132.925713
 31
0.0
  0
ENDBLK
  5
496
100
AcDbEntity
  8
2
100
AcDbBlockEnd
  0
BLOCK
  5
497
100
AcDbEntity
  8
2
100
AcDbBlockBegin
  2
*D25
 70
     1
 10
0.0
 20
0.0
 30
0.0
  3
*D25
  1

  0
TEXT
  5
498
100
AcDbEntity
  8
2
370
    18
100
AcDbText
 10
-171.161823
 20
20.99527
 30
0.0
 40
5.0
  1
３０
 72
     5
 11
-162.161823
 21
20.99527
 31
0.0
100
AcDbText
  0
LINE
  5
499
100
AcDbEntity
  8
2
370
    25
100
AcDbLine
 10
-181.161823
 20
18.835197
 30
0.0
 11
-181.161823
 21
21.99527
 31
0.0
  0
LINE
  5
49A
100
AcDbEntity
  8
2
370
    25
100
AcDbLine
 10
-181.161823
 20
19.99527
 30
0.0
 11
-177.29812
 21
18.959994
 31
0.0
  0
LINE
  5
49B
100
AcDbEntity
  8
2
370
    25
100
AcDbLine
 10
-181.161823
 20
19.99527
 30
0.0
 11
-177.29812
 21
21.030546
 31
0.0
  0
LINE
  5
49C
100
AcDbEntity
  8
2
370
    25
100
AcDbLine
 10
-181.161823
 20
19.99527
 30
0.0
 11
-151.161823
 21
19.99527
 31
0.0
  0
LINE
  5
49D
100
AcDbEntity
  8
2
370
    25
100
AcDbLine
 10
-151.161823
 20
19.99527
 30
0.0
 11
-155.025527
 21
21.030546
 31
0.0
  0
LINE
  5
49E
100
AcDbEntity
  8
2
370
    25
100
AcDbLine
 10
-151.161823
 20
19.99527
 30
0.0
 11
-155.025527
 21
18.959994
 31
0.0
  0
LINE
  5
49F
100
AcDbEntity
  8
2
370
    25
100
AcDbLine
 10
-151.161823
 20
18.835197
 30
0.0
 11
-151.161823
 21
21.99527
 31
0.0
  0
ENDBLK
  5
4A0
100
AcDbEntity
  8
2
100
AcDbBlockEnd
  0
BLOCK
  5
4A1
100
AcDbEntity
  8
2
100
AcDbBlockBegin
  2
*D26
 70
     1
 10
0.0
 20
0.0
 30
0.0
  3
*D26
  1

  0
TEXT
  5
4A2
100
AcDbEntity
  8
2
370
    18
100
AcDbText
 10
-369.678528
 20
44.434832
 30
0.0
 40
5.0
  1
１２１
 50
90.0
 72
     5
 11
-369.678528
 21
58.434832
 31
0.0
100
AcDbText
  0
LINE
  5
4A3
100
AcDbEntity
  8
2
370
    25
100
AcDbLine
 10
-341.379864
 20
-8.565168
 30
0.0
 11
-370.678528
 21
-8.565168
 31
0.0
  0
LINE
  5
4A4
100
AcDbEntity
  8
2
370
    25
100
AcDbLine
 10
-368.678528
 20
-8.565168
 30
0.0
 11
-367.643252
 21
-4.701465
 31
0.0
  0
LINE
  5
4A5
100
AcDbEntity
  8
2
370
    25
100
AcDbLine
 10
-368.678528
 20
-8.565168
 30
0.0
 11
-369.713804
 21
-4.701465
 31
0.0
  0
LINE
  5
4A6
100
AcDbEntity
  8
2
370
    25
100
AcDbLine
 10
-368.678528
 20
-8.565168
 30
0.0
 11
-368.678528
 21
112.434832
 31
0.0
  0
LINE
  5
4A7
100
AcDbEntity
  8
2
370
    25
100
AcDbLine
 10
-368.678528
 20
112.434832
 30
0.0
 11
-369.713804
 21
108.571128
 31
0.0
  0
LINE
  5
4A8
100
AcDbEntity
  8
2
370
    25
100
AcDbLine
 10
-368.678528
 20
112.434832
 30
0.0
 11
-367.643252
 21
108.571128
 31
0.0
  0
LINE
  5
4A9
100
AcDbEntity
  8
2
370
    25
100
AcDbLine
 10
-341.379864
 20
112.434832
 30
0.0
 11
-370.678528
 21
112.434832
 31
0.0
  0
ENDBLK
  5
4AA
100
AcDbEntity
  8
2
100
AcDbBlockEnd
  0
BLOCK
  5
4AB
100
AcDbEntity
  8
2
100
AcDbBlockBegin
  2
*D27
 70
     1
 10
0.0
 20
0.0
 30
0.0
  3
*D27
  1

  0
TEXT
  5
4AC
100
AcDbEntity
  8
2
370
    18
100
AcDbText
 10
-285.502625
 20
66.934832
 30
0.0
 40
5.0
  1
３５
 50
90.0
 72
     5
 11
-285.502625
 21
75.934832
 31
0.0
100
AcDbText
  0
LINE
  5
4AD
100
AcDbEntity
  8
2
370
    25
100
AcDbLine
 10
-279.537338
 20
51.934832
 30
0.0
 11
-287.002625
 21
51.934832
 31
0.0
  0
LINE
  5
4AE
100
AcDbEntity
  8
2
370
    25
100
AcDbLine
 10
-285.002625
 20
51.934832
 30
0.0
 11
-283.967348
 21
55.798535
 31
0.0
  0
LINE
  5
4AF
100
AcDbEntity
  8
2
370
    25
100
AcDbLine
 10
-285.002625
 20
51.934832
 30
0.0
 11
-286.037901
 21
55.798535
 31
0.0
  0
LINE
  5
4B0
100
AcDbEntity
  8
2
370
    25
100
AcDbLine
 10
-285.002625
 20
51.934832
 30
0.0
 11
-285.002625
 21
86.934832
 31
0.0
  0
LINE
  5
4B1
100
AcDbEntity
  8
2
370
    25
100
AcDbLine
 10
-285.002625
 20
86.934832
 30
0.0
 11
-286.037901
 21
83.071128
 31
0.0
  0
LINE
  5
4B2
100
AcDbEntity
  8
2
370
    25
100
AcDbLine
 10
-285.002625
 20
86.934832
 30
0.0
 11
-283.967348
 21
83.071128
 31
0.0
  0
LINE
  5
4B3
100
AcDbEntity
  8
2
370
    25
100
AcDbLine
 10
-238.661823
 20
86.934832
 30
0.0
 11
-287.002625
 21
86.934832
 31
0.0
  0
ENDBLK
  5
4B4
100
AcDbEntity
  8
2
100
AcDbBlockEnd
  0
BLOCK
  5
4B5
100
AcDbEntity
  8
2
100
AcDbBlockBegin
  2
*D28
 70
     1
 10
0.0
 20
0.0
 30
0.0
  3
*D28
  1

  0
TEXT
  5
4B6
100
AcDbEntity
  8
2
370
    18
100
AcDbText
 10
-229.661826
 20
20.99527
 30
0.0
 40
5.0
  1
１５
 72
     5
 11
-220.661826
 21
20.99527
 31
0.0
100
AcDbText
  0
LINE
  5
4B7
100
AcDbEntity
  8
2
370
    25
100
AcDbLine
 10
-232.161823
 20
45.434832
 30
0.0
 11
-232.161823
 21
17.99527
 31
0.0
  0
LINE
  5
4B8
100
AcDbEntity
  8
2
370
    25
100
AcDbLine
 10
-232.161823
 20
19.99527
 30
0.0
 11
-228.29812
 21
18.959994
 31
0.0
  0
LINE
  5
4B9
100
AcDbEntity
  8
2
370
    25
100
AcDbLine
 10
-232.161823
 20
19.99527
 30
0.0
 11
-228.29812
 21
21.030546
 31
0.0
  0
LINE
  5
4BA
100
AcDbEntity
  8
2
370
    25
100
AcDbLine
 10
-232.161823
 20
19.99527
 30
0.0
 11
-217.161829
 21
19.99527
 31
0.0
  0
LINE
  5
4BB
100
AcDbEntity
  8
2
370
    25
100
AcDbLine
 10
-217.161829
 20
19.99527
 30
0.0
 11
-221.025533
 21
21.030546
 31
0.0
  0
LINE
  5
4BC
100
AcDbEntity
  8
2
370
    25
100
AcDbLine
 10
-217.161829
 20
19.99527
 30
0.0
 11
-221.025533
 21
18.959994
 31
0.0
  0
LINE
  5
4BD
100
AcDbEntity
  8
2
370
    25
100
AcDbLine
 10
-217.161829
 20
22.409435
 30
0.0
 11
-217.161829
 21
17.99527
 31
0.0
  0
ENDBLK
  5
4BE
100
AcDbEntity
  8
2
100
AcDbBlockEnd
  0
BLOCK
  5
4BF
100
AcDbEntity
  8
2
100
AcDbBlockBegin
  2
*D29
 70
     1
 10
0.0
 20
0.0
 30
0.0
  3
*D29
  1

  0
LINE
  5
4C0
100
AcDbEntity
  8
2
370
    25
100
AcDbLine
 10
-214.161823
 20
124.434832
 30
0.0
 11
-214.161823
 21
146.563065
 31
0.0
  0
LINE
  5
4C1
100
AcDbEntity
  8
2
370
    25
100
AcDbLine
 10
-214.161823
 20
144.563065
 30
0.0
 11
-210.29812
 21
143.527788
 31
0.0
  0
LINE
  5
4C2
100
AcDbEntity
  8
2
370
    25
100
AcDbLine
 10
-214.161823
 20
144.563065
 30
0.0
 11
-210.29812
 21
145.598341
 31
0.0
  0
LINE
  5
4C3
100
AcDbEntity
  8
2
370
    25
100
AcDbLine
 10
-214.161823
 20
144.563065
 30
0.0
 11
-184.161823
 21
144.563065
 31
0.0
  0
LINE
  5
4C4
100
AcDbEntity
  8
2
370
    25
100
AcDbLine
 10
-184.161823
 20
144.563065
 30
0.0
 11
-188.025527
 21
145.598341
 31
0.0
  0
LINE
  5
4C5
100
AcDbEntity
  8
2
370
    25
100
AcDbLine
 10
-184.161823
 20
144.563065
 30
0.0
 11
-188.025527
 21
143.527788
 31
0.0
  0
LINE
  5
4C6
100
AcDbEntity
  8
2
370
    25
100
AcDbLine
 10
-184.161823
 20
124.434832
 30
0.0
 11
-184.161823
 21
146.563065
 31
0.0
  0
ENDBLK
  5
4C7
100
AcDbEntity
  8
2
100
AcDbBlockEnd
  0
BLOCK
  5
4C8
100
AcDbEntity
  8
2
100
AcDbBlockBegin
  2
*D30
 70
     1
 10
0.0
 20
0.0
 30
0.0
  3
*D30
  1

  0
TEXT
  5
4C9
100
AcDbEntity
  8
2
370
    18
100
AcDbText
 10
-180.161823
 20
-35.360874
 30
0.0
 40
5.0
  1
１０．５
 72
     5
 11
-161.161823
 21
-35.360874
 31
0.0
100
AcDbText
  0
LINE
  5
4CA
100
AcDbEntity
  8
2
370
    25
100
AcDbLine
 10
-194.66182
 20
-14.5404
 30
0.0
 11
-194.66182
 21
-38.360874
 31
0.0
  0
LINE
  5
4CB
100
AcDbEntity
  8
2
370
    25
100
AcDbLine
 10
-194.66182
 20
-36.360874
 30
0.0
 11
-198.525523
 21
-35.325598
 31
0.0
  0
LINE
  5
4CC
100
AcDbEntity
  8
2
370
    25
100
AcDbLine
 10
-194.66182
 20
-36.360874
 30
0.0
 11
-198.525523
 21
-37.39615
 31
0.0
  0
LINE
  5
4CD
100
AcDbEntity
  8
2
370
    25
100
AcDbLine
 10
-204.66182
 20
-36.360874
 30
0.0
 11
-158.161823
 21
-36.360874
 31
0.0
  0
LINE
  5
4CE
100
AcDbEntity
  8
2
370
    25
100
AcDbLine
 10
-184.161823
 20
-36.360874
 30
0.0
 11
-180.29812
 21
-37.39615
 31
0.0
  0
LINE
  5
4CF
100
AcDbEntity
  8
2
370
    25
100
AcDbLine
 10
-184.161823
 20
-36.360874
 30
0.0
 11
-180.29812
 21
-35.325598
 31
0.0
  0
LINE
  5
4D0
100
AcDbEntity
  8
2
370
    25
100
AcDbLine
 10
-184.161823
 20
-20.565168
 30
0.0
 11
-184.161823
 21
-38.360874
 31
0.0
  0
ENDBLK
  5
4D1
100
AcDbEntity
  8
2
100
AcDbBlockEnd
  0
BLOCK
  5
4D2
100
AcDbEntity
  8
2
100
AcDbBlockBegin
  2
*D31
 70
     1
 10
0.0
 20
0.0
 30
0.0
  3
*D31
  1

  0
TEXT
  5
4D3
100
AcDbEntity
  8
2
370
    18
100
AcDbText
 10
-238.161823
 20
-35.360874
 30
0.0
 40
5.0
  1
１０．５
 72
     5
 11
-219.161823
 21
-35.360874
 31
0.0
100
AcDbText
  0
LINE
  5
4D4
100
AcDbEntity
  8
2
370
    25
100
AcDbLine
 10
-214.161823
 20
-20.565168
 30
0.0
 11
-214.161823
 21
-38.360874
 31
0.0
  0
LINE
  5
4D5
100
AcDbEntity
  8
2
370
    25
100
AcDbLine
 10
-214.161823
 20
-36.360874
 30
0.0
 11
-218.025527
 21
-35.325598
 31
0.0
  0
LINE
  5
4D6
100
AcDbEntity
  8
2
370
    25
100
AcDbLine
 10
-214.161823
 20
-36.360874
 30
0.0
 11
-218.025527
 21
-37.39615
 31
0.0
  0
LINE
  5
4D7
100
AcDbEntity
  8
2
370
    25
100
AcDbLine
 10
-240.161823
 20
-36.360874
 30
0.0
 11
-193.661823
 21
-36.360874
 31
0.0
  0
LINE
  5
4D8
100
AcDbEntity
  8
2
370
    25
100
AcDbLine
 10
-203.661823
 20
-36.360874
 30
0.0
 11
-199.79812
 21
-37.39615
 31
0.0
  0
LINE
  5
4D9
100
AcDbEntity
  8
2
370
    25
100
AcDbLine
 10
-203.661823
 20
-36.360874
 30
0.0
 11
-199.79812
 21
-35.325598
 31
0.0
  0
LINE
  5
4DA
100
AcDbEntity
  8
2
370
    25
100
AcDbLine
 10
-203.661823
 20
-14.5404
 30
0.0
 11
-203.661823
 21
-38.360874
 31
0.0
  0
ENDBLK
  5
4DB
100
AcDbEntity
  8
2
100
AcDbBlockEnd
  0
BLOCK
  5
4DC
100
AcDbEntity
  8
2
100
AcDbBlockBegin
  2
*D32
 70
     1
 10
0.0
 20
0.0
 30
0.0
  3
*D32
  1

  0
TEXT
  5
4DD
100
AcDbEntity
  8
2
370
    18
100
AcDbText
 10
-226.161823
 20
131.925713
 30
0.0
 40
5.0
  1
３
 72
     5
 11
-222.161823
 21
131.925713
 31
0.0
100
AcDbText
  0
LINE
  5
4DE
100
AcDbEntity
  8
2
370
    25
100
AcDbLine
 10
-217.161823
 20
123.256034
 30
0.0
 11
-217.161823
 21
132.925713
 31
0.0
  0
LINE
  5
4DF
100
AcDbEntity
  8
2
370
    25
100
AcDbLine
 10
-217.161823
 20
130.925713
 30
0.0
 11
-221.025527
 21
131.960989
 31
0.0
  0
LINE
  5
4E0
100
AcDbEntity
  8
2
370
    25
100
AcDbLine
 10
-217.161823
 20
130.925713
 30
0.0
 11
-221.025527
 21
129.890436
 31
0.0
  0
LINE
  5
4E1
100
AcDbEntity
  8
2
370
    25
100
AcDbLine
 10
-228.161823
 20
130.925713
 30
0.0
 11
-204.161823
 21
130.925713
 31
0.0
  0
LINE
  5
4E2
100
AcDbEntity
  8
2
370
    25
100
AcDbLine
 10
-214.161823
 20
130.925713
 30
0.0
 11
-210.29812
 21
129.890436
 31
0.0
  0
LINE
  5
4E3
100
AcDbEntity
  8
2
370
    25
100
AcDbLine
 10
-214.161823
 20
130.925713
 30
0.0
 11
-210.29812
 21
131.960989
 31
0.0
  0
LINE
  5
4E4
100
AcDbEntity
  8
2
370
    25
100
AcDbLine
 10
-214.161823
 20
124.434832
 30
0.0
 11
-214.161823
 21
132.925713
 31
0.0
  0
ENDBLK
  5
4E5
100
AcDbEntity
  8
2
100
AcDbBlockEnd
  0
BLOCK
  5
4E6
100
AcDbEntity
  8
2
100
AcDbBlockBegin
  2
*D33
 70
     1
 10
0.0
 20
0.0
 30
0.0
  3
*D33
  1

  0
TEXT
  5
4E7
100
AcDbEntity
  8
2
370
    18
100
AcDbText
 10
-207.478561
 20
230.289021
 30
0.0
 40
5.0
  1
２９．５
 50
90.0
 72
     5
 11
-207.478561
 21
249.289021
 31
0.0
100
AcDbText
  0
LINE
  5
4E8
100
AcDbEntity
  8
2
370
    25
100
AcDbLine
 10
-213.161823
 20
196.789021
 30
0.0
 11
-204.478561
 21
196.789021
 31
0.0
  0
LINE
  5
4E9
100
AcDbEntity
  8
2
370
    25
100
AcDbLine
 10
-206.478561
 20
196.789021
 30
0.0
 11
-207.513838
 21
192.925317
 31
0.0
  0
LINE
  5
4EA
100
AcDbEntity
  8
2
370
    25
100
AcDbLine
 10
-206.478561
 20
196.789021
 30
0.0
 11
-205.443285
 21
192.925317
 31
0.0
  0
LINE
  5
4EB
100
AcDbEntity
  8
2
370
    25
100
AcDbLine
 10
-206.478561
 20
186.789021
 30
0.0
 11
-206.478561
 21
252.289021
 31
0.0
  0
LINE
  5
4EC
100
AcDbEntity
  8
2
370
    25
100
AcDbLine
 10
-206.478561
 20
226.289021
 30
0.0
 11
-205.443285
 21
230.152724
 31
0.0
  0
LINE
  5
4ED
100
AcDbEntity
  8
2
370
    25
100
AcDbLine
 10
-206.478561
 20
226.289021
 30
0.0
 11
-207.513838
 21
230.152724
 31
0.0
  0
LINE
  5
4EE
100
AcDbEntity
  8
2
370
    25
100
AcDbLine
 10
-213.161823
 20
226.289021
 30
0.0
 11
-204.478561
 21
226.289021
 31
0.0
  0
ENDBLK
  5
4EF
100
AcDbEntity
  8
2
100
AcDbBlockEnd
  0
ENDSEC
  0
SECTION
  2
ENTITIES
  0
LINE
  5
4C
100
AcDbEntity
  8
1
370
    18
  6
CENTER
100
AcDbLine
 10
233.937767
 20
51.934832
 30
0.0
 11
130.692158
 21
51.934832
 31
0.0
  0
LINE
  5
4D
100
AcDbEntity
  8
1
370
    25
100
AcDbLine
 10
195.838177
 20
123.434832
 30
0.0
 11
195.838177
 21
-19.565168
 31
0.0
  0
LINE
  5
4E
100
AcDbEntity
  8
1
370
    18
  6
CENTER
100
AcDbLine
 10
230.247765
 20
112.434832
 30
0.0
 11
190.658073
 21
112.434832
 31
0.0
  0
LINE
  5
4F
100
AcDbEntity
  8
1
370
    25
100
AcDbLine
 10
195.838177
 20
-19.565168
 30
0.0
 11
193.751021
 21
-19.382566
 31
0.0
  0
ARC
  5
50
100
AcDbEntity
  8
1
370
    25
100
AcDbCircle
 10
193.838177
 20
-18.386371
 30
0.0
 40
1.0
100
AcDbArc
 50
180.0
 51
265.0
  0
LINE
  5
51
100
AcDbEntity
  8
1
370
    25
100
AcDbLine
 10
195.838177
 20
123.434832
 30
0.0
 11
193.751021
 21
123.252229
 31
0.0
  0
ARC
  5
52
100
AcDbEntity
  8
1
370
    25
100
AcDbCircle
 10
193.838177
 20
122.256034
 30
0.0
 40
1.0
100
AcDbArc
 50
95.0
 51
180.0
  0
LINE
  5
53
100
AcDbEntity
  8
1
370
    25
100
AcDbLine
 10
195.838177
 20
118.434827
 30
0.0
 11
205.864345
 21
117.909378
 31
0.0
  0
ARC
  5
54
100
AcDbEntity
  8
1
370
    25
100
AcDbCircle
 10
205.838177
 20
117.410063
 30
0.0
 40
0.5
100
AcDbArc
 50
0.0
 51
87.0
  0
LINE
  5
55
100
AcDbEntity
  8
1
370
    25
100
AcDbLine
 10
195.838177
 20
-14.565164
 30
0.0
 11
205.864345
 21
-14.039714
 31
0.0
  0
ARC
  5
56
100
AcDbEntity
  8
1
370
    25
100
AcDbCircle
 10
205.838177
 20
-13.5404
 30
0.0
 40
0.5
100
AcDbArc
 50
273.0
 51
360.0
  0
LINE
  5
57
100
AcDbEntity
  8
1
370
    25
100
AcDbLine
 10
213.838177
 20
108.57789
 30
0.0
 11
213.838177
 21
116.291773
 31
0.0
  0
LINE
  5
58
100
AcDbEntity
  8
1
370
    25
100
AcDbLine
 10
206.338177
 20
108.184832
 30
0.0
 11
213.838177
 21
108.57789
 31
0.0
  0
LINE
  5
59
100
AcDbEntity
  8
1
370
    25
100
AcDbLine
 10
206.338177
 20
116.684832
 30
0.0
 11
213.838177
 21
116.291773
 31
0.0
  0
LINE
  5
5A
100
AcDbEntity
  8
1
370
    25
100
AcDbLine
 10
206.338177
 20
-4.315168
 30
0.0
 11
213.838177
 21
-4.708227
 31
0.0
  0
LINE
  5
5B
100
AcDbEntity
  8
1
370
    25
100
AcDbLine
 10
206.338177
 20
-12.815168
 30
0.0
 11
213.838177
 21
-12.42211
 31
0.0
  0
LINE
  5
5C
100
AcDbEntity
  8
1
370
    25
100
AcDbLine
 10
195.838177
 20
100.934832
 30
0.0
 11
206.338177
 21
100.016201
 31
0.0
  0
LINE
  5
5D
100
AcDbEntity
  8
1
370
    25
100
AcDbLine
 10
195.838177
 20
92.934832
 30
0.0
 11
206.338177
 21
93.853463
 31
0.0
  0
LINE
  5
5E
100
AcDbEntity
  8
1
370
    25
100
AcDbLine
 10
195.838177
 20
2.934832
 30
0.0
 11
206.338177
 21
3.853463
 31
0.0
  0
LINE
  5
5F
100
AcDbEntity
  8
1
370
    25
100
AcDbLine
 10
195.838177
 20
10.934832
 30
0.0
 11
206.338177
 21
10.016201
 31
0.0
  0
LINE
  5
60
100
AcDbEntity
  8
1
370
    25
100
AcDbLine
 10
83.920136
 20
123.434832
 30
0.0
 11
46.320136
 21
123.434832
 31
0.0
  0
LINE
  5
61
100
AcDbEntity
  8
1
370
    18
  6
CENTER
100
AcDbLine
 10
91.661461
 20
51.934832
 30
0.0
 11
39.554222
 21
51.934832
 31
0.0
  0
LINE
  5
62
100
AcDbEntity
  8
1
370
    25
100
AcDbLine
 10
43.820136
 20
-17.065168
 30
0.0
 11
43.820136
 21
120.934832
 31
0.0
  0
LINE
  5
63
100
AcDbEntity
  8
1
370
    25
100
AcDbLine
 10
86.420136
 20
-17.065168
 30
0.0
 11
86.420136
 21
120.934832
 31
0.0
  0
ARC
  5
64
100
AcDbEntity
  8
1
370
    25
100
AcDbCircle
 10
46.320136
 20
120.934832
 30
0.0
 40
2.5
100
AcDbArc
 50
90.0
 51
180.0
  0
ARC
  5
65
100
AcDbEntity
  8
1
370
    25
100
AcDbCircle
 10
46.320136
 20
-17.065168
 30
0.0
 40
2.5
100
AcDbArc
 50
180.0
 51
270.0
  0
ARC
  5
66
100
AcDbEntity
  8
1
370
    25
100
AcDbCircle
 10
83.920136
 20
-17.065168
 30
0.0
 40
2.5
100
AcDbArc
 50
270.0
 51
0.0
  0
ARC
  5
67
100
AcDbEntity
  8
1
370
    25
100
AcDbCircle
 10
83.920136
 20
120.934832
 30
0.0
 40
2.5
100
AcDbArc
 50
0.0
 51
90.0
  0
LINE
  5
68
100
AcDbEntity
  8
1
370
    25
100
AcDbLine
 10
83.420136
 20
43.467456
 30
0.0
 11
83.420136
 21
117.030776
 31
0.0
  0
ARC
  5
69
100
AcDbEntity
  8
1
370
    25
100
AcDbCircle
 10
80.620136
 20
117.030776
 30
0.0
 40
2.8
100
AcDbArc
 50
0.0
 51
87.01349
  0
ARC
  5
6A
100
AcDbEntity
  8
1
370
    25
100
AcDbCircle
 10
65.120136
 20
-180.065168
 30
0.0
 40
300.3
100
AcDbArc
 50
87.01349
 51
92.98651
  0
ARC
  5
6B
100
AcDbEntity
  8
1
370
    25
100
AcDbCircle
 10
49.620136
 20
117.030776
 30
0.0
 40
2.8
100
AcDbArc
 50
92.98651
 51
180.0
  0
LINE
  5
6C
100
AcDbEntity
  8
1
370
    25
100
AcDbLine
 10
46.820136
 20
117.030776
 30
0.0
 11
46.820136
 21
43.467456
 31
0.0
  0
ARC
  5
6D
100
AcDbEntity
  8
1
370
    25
100
AcDbCircle
 10
49.120136
 20
43.467456
 30
0.0
 40
2.3
100
AcDbArc
 50
180.0
 51
245.098938
  0
ARC
  5
6E
100
AcDbEntity
  8
1
370
    25
100
AcDbCircle
 10
81.120136
 20
43.467456
 30
0.0
 40
2.3
100
AcDbArc
 50
294.901062
 51
360.0
  0
LINE
  5
6F
100
AcDbEntity
  8
1
370
    25
100
AcDbLine
 10
206.338177
 20
225.701733
 30
0.0
 11
206.338177
 21
197.376308
 31
0.0
  0
LINE
  5
70
100
AcDbEntity
  8
1
370
    25
100
AcDbLine
 10
192.838177
 20
231.660223
 30
0.0
 11
192.838177
 21
191.417818
 31
0.0
  0
LINE
  5
71
100
AcDbEntity
  8
1
370
    25
100
AcDbLine
 10
195.838177
 20
232.839021
 30
0.0
 11
195.838177
 21
190.239021
 31
0.0
  0
ARC
  5
72
100
AcDbEntity
  8
1
370
    25
100
AcDbCircle
 10
193.838177
 20
191.417818
 30
0.0
 40
1.0
100
AcDbArc
 50
180.0
 51
265.0
  0
LINE
  5
73
100
AcDbEntity
  8
1
370
    25
100
AcDbLine
 10
195.838177
 20
190.239021
 30
0.0
 11
193.751021
 21
190.421623
 31
0.0
  0
LINE
  5
74
100
AcDbEntity
  8
1
370
    25
100
AcDbLine
 10
195.838177
 20
196.789021
 30
0.0
 11
205.864345
 21
197.31447
 31
0.0
  0
ARC
  5
75
100
AcDbEntity
  8
1
370
    25
100
AcDbCircle
 10
205.838177
 20
197.813785
 30
0.0
 40
0.5
100
AcDbArc
 50
273.0
 51
360.0
  0
LINE
  5
76
100
AcDbEntity
  8
1
370
    25
100
AcDbLine
 10
195.838177
 20
226.289021
 30
0.0
 11
205.864345
 21
225.763571
 31
0.0
  0
ARC
  5
77
100
AcDbEntity
  8
1
370
    25
100
AcDbCircle
 10
205.838177
 20
225.264257
 30
0.0
 40
0.5
100
AcDbArc
 50
360.0
 51
87.0
  0
LINE
  5
78
100
AcDbEntity
  8
1
370
    25
100
AcDbLine
 10
206.338177
 20
215.789021
 30
0.0
 11
213.838177
 21
215.395962
 31
0.0
  0
LINE
  5
79
100
AcDbEntity
  8
1
370
    25
100
AcDbLine
 10
213.838177
 20
215.395962
 30
0.0
 11
213.838177
 21
207.682079
 31
0.0
  0
LINE
  5
7A
100
AcDbEntity
  8
1
370
    25
100
AcDbLine
 10
206.338177
 20
207.289021
 30
0.0
 11
213.838177
 21
207.682079
 31
0.0
  0
ARC
  5
7B
100
AcDbEntity
  8
1
370
    25
100
AcDbCircle
 10
193.838177
 20
231.660223
 30
0.0
 40
1.0
100
AcDbArc
 50
95.0
 51
180.0
  0
LINE
  5
7C
100
AcDbEntity
  8
1
370
    25
100
AcDbLine
 10
195.838177
 20
232.839021
 30
0.0
 11
193.751021
 21
232.656418
 31
0.0
  0
LINE
  5
7D
100
AcDbEntity
  8
1
370
    25
100
AcDbLine
 10
195.838177
 20
196.789021
 30
0.0
 11
205.84254
 21
196.876327
 31
0.0
  0
ARC
  5
7E
100
AcDbEntity
  8
1
370
    25
100
AcDbCircle
 10
205.838177
 20
197.376308
 30
0.0
 40
0.5
100
AcDbArc
 50
270.5
 51
360.0
  0
LINE
  5
7F
100
AcDbEntity
  8
1
370
    25
100
AcDbLine
 10
195.838177
 20
226.289021
 30
0.0
 11
205.84254
 21
226.201714
 31
0.0
  0
ARC
  5
80
100
AcDbEntity
  8
1
370
    25
100
AcDbCircle
 10
205.838177
 20
225.701733
 30
0.0
 40
0.5
100
AcDbArc
 50
0.0
 51
89.5
  0
ARC
  5
81
100
AcDbEntity
  8
1
370
    25
100
AcDbCircle
 10
65.120136
 20
77.934832
 30
0.0
 40
40.3
100
AcDbArc
 50
290.328036
 51
294.901062
  0
ARC
  5
82
100
AcDbEntity
  8
1
370
    25
100
AcDbCircle
 10
65.120136
 20
77.934832
 30
0.0
 40
40.3
100
AcDbArc
 50
245.098938
 51
249.671964
  0
LINE
  5
83
100
AcDbEntity
  8
1
370
    25
100
AcDbLine
 10
83.920136
 20
-19.565168
 30
0.0
 11
79.120136
 21
-19.565168
 31
0.0
  0
LINE
  5
84
100
AcDbEntity
  8
1
370
    25
100
AcDbLine
 10
51.120136
 20
-19.565168
 30
0.0
 11
46.320136
 21
-19.565168
 31
0.0
  0
LINE
  5
85
100
AcDbEntity
  8
1
370
    18
  6
CENTER
100
AcDbLine
 10
210.838177
 20
126.071332
 30
0.0
 11
210.838177
 21
-25.928088
 31
0.0
  0
LINE
  5
86
100
AcDbEntity
  8
1
370
    18
  6
CENTER
100
AcDbLine
 10
210.838177
 20
185.070325
 30
0.0
 11
210.838177
 21
235.423749
 31
0.0
  0
LINE
  5
87
100
AcDbEntity
  8
1
370
    25
100
AcDbLine
 10
192.838177
 20
122.256034
 30
0.0
 11
192.838177
 21
-18.386371
 31
0.0
  0
LINE
  5
88
100
AcDbEntity
  8
1
370
    18
  6
CENTER
100
AcDbLine
 10
215.275753
 20
-8.565168
 30
0.0
 11
191.559647
 21
-8.565168
 31
0.0
  0
LINE
  5
89
100
AcDbEntity
  8
1
370
    25
100
AcDbLine
 10
206.338177
 20
-13.5404
 30
0.0
 11
206.338177
 21
117.410063
 31
0.0
  0
LINE
  5
8A
100
AcDbEntity
  8
1
370
    25
100
AcDbLine
 10
213.838177
 20
-4.708227
 30
0.0
 11
213.838177
 21
-12.42211
 31
0.0
  0
LINE
  5
8B
100
AcDbEntity
  8
1
370
    18
  6
CENTER
100
AcDbLine
 10
-278.537338
 20
51.934832
 30
0.0
 11
-118.920104
 21
51.934832
 31
0.0
  0
LINE
  5
8C
100
AcDbEntity
  8
1
370
    25
100
AcDbLine
 10
-181.161823
 20
122.256034
 30
0.0
 11
-181.161823
 21
1.017422
 31
0.0
  0
LINE
  5
8D
100
AcDbEntity
  8
1
370
    25
100
AcDbLine
 10
-184.161823
 20
123.434832
 30
0.0
 11
-184.161823
 21
-19.565168
 31
0.0
  0
LINE
  5
8E
100
AcDbEntity
  8
1
370
    18
  6
CENTER
100
AcDbLine
 10
-218.571411
 20
112.434832
 30
0.0
 11
-178.98172
 21
112.434832
 31
0.0
  0
LINE
  5
8F
100
AcDbEntity
  8
1
370
    25
100
AcDbLine
 10
-194.661823
 20
117.410063
 30
0.0
 11
-194.661823
 21
0.58293
 31
0.0
  0
LINE
  5
90
100
AcDbEntity
  8
1
370
    25
100
AcDbLine
 10
-184.161823
 20
-19.565168
 30
0.0
 11
-182.074668
 21
-19.382566
 31
0.0
  0
ARC
  5
91
100
AcDbEntity
  8
1
370
    25
100
AcDbCircle
 10
-182.161823
 20
-18.386371
 30
0.0
 40
1.0
100
AcDbArc
 50
275.0
 51
360.0
  0
LINE
  5
92
100
AcDbEntity
  8
1
370
    25
100
AcDbLine
 10
-184.161823
 20
123.434832
 30
0.0
 11
-182.074668
 21
123.252229
 31
0.0
  0
ARC
  5
93
100
AcDbEntity
  8
1
370
    25
100
AcDbCircle
 10
-182.161823
 20
122.256034
 30
0.0
 40
1.0
100
AcDbArc
 50
360.0
 51
85.0
  0
LINE
  5
94
100
AcDbEntity
  8
1
370
    25
100
AcDbLine
 10
-184.161823
 20
118.434827
 30
0.0
 11
-194.187991
 21
117.909378
 31
0.0
  0
ARC
  5
95
100
AcDbEntity
  8
1
370
    25
100
AcDbCircle
 10
-194.161823
 20
117.410063
 30
0.0
 40
0.5
100
AcDbArc
 50
93.0
 51
180.0
  0
LINE
  5
96
100
AcDbEntity
  8
1
370
    25
100
AcDbLine
 10
-184.161823
 20
-14.565164
 30
0.0
 11
-194.187991
 21
-14.039714
 31
0.0
  0
ARC
  5
97
100
AcDbEntity
  8
1
370
    25
100
AcDbCircle
 10
-194.161823
 20
-13.5404
 30
0.0
 40
0.5
100
AcDbArc
 50
180.0
 51
267.0
  0
LINE
  5
98
100
AcDbEntity
  8
1
370
    25
100
AcDbLine
 10
-202.161823
 20
108.57789
 30
0.0
 11
-202.161823
 21
116.291773
 31
0.0
  0
LINE
  5
99
100
AcDbEntity
  8
1
370
    25
100
AcDbLine
 10
-194.661823
 20
108.184832
 30
0.0
 11
-202.161823
 21
108.57789
 31
0.0
  0
LINE
  5
9A
100
AcDbEntity
  8
1
370
    25
100
AcDbLine
 10
-194.661823
 20
116.684832
 30
0.0
 11
-202.161823
 21
116.291773
 31
0.0
  0
LINE
  5
9B
100
AcDbEntity
  8
1
370
    25
100
AcDbLine
 10
-194.661823
 20
-4.315168
 30
0.0
 11
-202.161823
 21
-4.708227
 31
0.0
  0
LINE
  5
9C
100
AcDbEntity
  8
1
370
    25
100
AcDbLine
 10
-194.661823
 20
-12.815168
 30
0.0
 11
-202.161823
 21
-12.42211
 31
0.0
  0
LINE
  5
9D
100
AcDbEntity
  8
1
370
    25
100
AcDbLine
 10
-184.161823
 20
100.934832
 30
0.0
 11
-194.661823
 21
100.016201
 31
0.0
  0
LINE
  5
9E
100
AcDbEntity
  8
1
370
    25
100
AcDbLine
 10
-184.161823
 20
92.934832
 30
0.0
 11
-194.661823
 21
93.853463
 31
0.0
  0
LINE
  5
9F
100
AcDbEntity
  8
1
370
    25
100
AcDbLine
 10
-184.161823
 20
2.934832
 30
0.0
 11
-194.661823
 21
3.853463
 31
0.0
  0
LINE
  5
A0
100
AcDbEntity
  8
1
370
    25
100
AcDbLine
 10
-184.161823
 20
10.934832
 30
0.0
 11
-194.661823
 21
10.016201
 31
0.0
  0
LINE
  5
A1
100
AcDbEntity
  8
1
370
    25
100
AcDbLine
 10
-72.243783
 20
123.434832
 30
0.0
 11
-34.643783
 21
123.434832
 31
0.0
  0
LINE
  5
A2
100
AcDbEntity
  8
1
370
    18
  6
CENTER
100
AcDbLine
 10
-79.985107
 20
51.934832
 30
0.0
 11
-27.877869
 21
51.934832
 31
0.0
  0
LINE
  5
A3
100
AcDbEntity
  8
1
370
    25
100
AcDbLine
 10
-32.143783
 20
-17.065168
 30
0.0
 11
-32.143783
 21
120.934832
 31
0.0
  0
LINE
  5
A4
100
AcDbEntity
  8
1
370
    25
100
AcDbLine
 10
-74.743783
 20
-17.065168
 30
0.0
 11
-74.743783
 21
120.934832
 31
0.0
  0
ARC
  5
A5
100
AcDbEntity
  8
1
370
    25
100
AcDbCircle
 10
-34.643783
 20
120.934832
 30
0.0
 40
2.5
100
AcDbArc
 50
0.0
 51
90.0
  0
ARC
  5
A6
100
AcDbEntity
  8
1
370
    25
100
AcDbCircle
 10
-34.643783
 20
-17.065168
 30
0.0
 40
2.5
100
AcDbArc
 50
270.0
 51
360.0
  0
ARC
  5
A7
100
AcDbEntity
  8
1
370
    25
100
AcDbCircle
 10
-72.243783
 20
-17.065168
 30
0.0
 40
2.5
100
AcDbArc
 50
180.0
 51
270.0
  0
ARC
  5
A8
100
AcDbEntity
  8
1
370
    25
100
AcDbCircle
 10
-72.243783
 20
120.934832
 30
0.0
 40
2.5
100
AcDbArc
 50
90.0
 51
180.0
  0
LINE
  5
A9
100
AcDbEntity
  8
1
370
    25
100
AcDbLine
 10
-71.743783
 20
43.467456
 30
0.0
 11
-71.743783
 21
117.030776
 31
0.0
  0
ARC
  5
AA
100
AcDbEntity
  8
1
370
    25
100
AcDbCircle
 10
-68.943783
 20
117.030776
 30
0.0
 40
2.8
100
AcDbArc
 50
92.98651
 51
180.0
  0
ARC
  5
AB
100
AcDbEntity
  8
1
370
    25
100
AcDbCircle
 10
-53.443783
 20
-180.065168
 30
0.0
 40
300.3
100
AcDbArc
 50
87.01349
 51
92.98651
  0
ARC
  5
AC
100
AcDbEntity
  8
1
370
    25
100
AcDbCircle
 10
-37.943783
 20
117.030776
 30
0.0
 40
2.8
100
AcDbArc
 50
0.0
 51
87.01349
  0
LINE
  5
AD
100
AcDbEntity
  8
1
370
    25
100
AcDbLine
 10
-35.143783
 20
117.030776
 30
0.0
 11
-35.143783
 21
43.467456
 31
0.0
  0
ARC
  5
AE
100
AcDbEntity
  8
1
370
    25
100
AcDbCircle
 10
-37.443783
 20
43.467456
 30
0.0
 40
2.3
100
AcDbArc
 50
294.901062
 51
360.0
  0
ARC
  5
AF
100
AcDbEntity
  8
1
370
    25
100
AcDbCircle
 10
-69.443783
 20
43.467456
 30
0.0
 40
2.3
100
AcDbArc
 50
180.0
 51
245.098938
  0
LINE
  5
B0
100
AcDbEntity
  8
1
370
    25
100
AcDbLine
 10
-194.661823
 20
225.701733
 30
0.0
 11
-194.661823
 21
197.376308
 31
0.0
  0
LINE
  5
B1
100
AcDbEntity
  8
1
370
    25
100
AcDbLine
 10
-181.161823
 20
231.660223
 30
0.0
 11
-181.161823
 21
191.417818
 31
0.0
  0
LINE
  5
B2
100
AcDbEntity
  8
1
370
    25
100
AcDbLine
 10
-184.161823
 20
232.839021
 30
0.0
 11
-184.161823
 21
190.239021
 31
0.0
  0
ARC
  5
B3
100
AcDbEntity
  8
1
370
    25
100
AcDbCircle
 10
-182.161823
 20
191.417818
 30
0.0
 40
1.0
100
AcDbArc
 50
275.0
 51
360.0
  0
LINE
  5
B4
100
AcDbEntity
  8
1
370
    25
100
AcDbLine
 10
-184.161823
 20
190.239021
 30
0.0
 11
-182.074668
 21
190.421623
 31
0.0
  0
LINE
  5
B5
100
AcDbEntity
  8
1
370
    25
100
AcDbLine
 10
-184.161823
 20
196.789021
 30
0.0
 11
-194.187991
 21
197.31447
 31
0.0
  0
ARC
  5
B6
100
AcDbEntity
  8
1
370
    25
100
AcDbCircle
 10
-194.161823
 20
197.813785
 30
0.0
 40
0.5
100
AcDbArc
 50
180.0
 51
267.0
  0
LINE
  5
B7
100
AcDbEntity
  8
1
370
    25
100
AcDbLine
 10
-184.161823
 20
226.289021
 30
0.0
 11
-194.187991
 21
225.763571
 31
0.0
  0
ARC
  5
B8
100
AcDbEntity
  8
1
370
    25
100
AcDbCircle
 10
-194.161823
 20
225.264257
 30
0.0
 40
0.5
100
AcDbArc
 50
93.0
 51
180.0
  0
LINE
  5
B9
100
AcDbEntity
  8
1
370
    25
100
AcDbLine
 10
-194.661823
 20
215.789021
 30
0.0
 11
-202.161823
 21
215.395962
 31
0.0
  0
LINE
  5
BA
100
AcDbEntity
  8
1
370
    25
100
AcDbLine
 10
-202.161823
 20
215.395962
 30
0.0
 11
-202.161823
 21
207.682079
 31
0.0
  0
LINE
  5
BB
100
AcDbEntity
  8
1
370
    25
100
AcDbLine
 10
-194.661823
 20
207.289021
 30
0.0
 11
-202.161823
 21
207.682079
 31
0.0
  0
ARC
  5
BC
100
AcDbEntity
  8
1
370
    25
100
AcDbCircle
 10
-182.161823
 20
231.660223
 30
0.0
 40
1.0
100
AcDbArc
 50
0.0
 51
85.0
  0
LINE
  5
BD
100
AcDbEntity
  8
1
370
    25
100
AcDbLine
 10
-184.161823
 20
232.839021
 30
0.0
 11
-182.074668
 21
232.656418
 31
0.0
  0
LINE
  5
BE
100
AcDbEntity
  8
1
370
    25
100
AcDbLine
 10
-184.161823
 20
196.789021
 30
0.0
 11
-194.166187
 21
196.876327
 31
0.0
  0
ARC
  5
BF
100
AcDbEntity
  8
1
370
    25
100
AcDbCircle
 10
-194.161823
 20
197.376308
 30
0.0
 40
0.5
100
AcDbArc
 50
180.0
 51
269.5
  0
LINE
  5
C0
100
AcDbEntity
  8
1
370
    25
100
AcDbLine
 10
-184.161823
 20
226.289021
 30
0.0
 11
-194.166187
 21
226.201714
 31
0.0
  0
ARC
  5
C1
100
AcDbEntity
  8
1
370
    25
100
AcDbCircle
 10
-194.161823
 20
225.701733
 30
0.0
 40
0.5
100
AcDbArc
 50
90.5
 51
180.0
  0
ARC
  5
C2
100
AcDbEntity
  8
1
370
    25
100
AcDbCircle
 10
-53.443783
 20
77.934832
 30
0.0
 40
40.3
100
AcDbArc
 50
245.098938
 51
249.671964
  0
ARC
  5
C3
100
AcDbEntity
  8
1
370
    25
100
AcDbCircle
 10
-53.443783
 20
77.934832
 30
0.0
 40
40.3
100
AcDbArc
 50
290.328036
 51
294.901062
  0
LINE
  5
C4
100
AcDbEntity
  8
1
370
    25
100
AcDbLine
 10
-72.243783
 20
-19.565168
 30
0.0
 11
-67.443783
 21
-19.565168
 31
0.0
  0
LINE
  5
C5
100
AcDbEntity
  8
1
370
    25
100
AcDbLine
 10
-39.443783
 20
-19.565168
 30
0.0
 11
-34.643783
 21
-19.565168
 31
0.0
  0
LINE
  5
C6
100
AcDbEntity
  8
1
370
    18
  6
CENTER
100
AcDbLine
 10
-199.161823
 20
126.071332
 30
0.0
 11
-199.161823
 21
-25.928088
 31
0.0
  0
LINE
  5
C7
100
AcDbEntity
  8
1
370
    18
  6
CENTER
100
AcDbLine
 10
-199.161823
 20
185.070325
 30
0.0
 11
-199.161823
 21
235.423749
 31
0.0
  0
LINE
  5
C8
100
AcDbEntity
  8
1
370
    18
  6
CENTER
100
AcDbLine
 10
-203.5994
 20
-8.565168
 30
0.0
 11
-179.883293
 21
-8.565168
 31
0.0
  0
LINE
  5
C9
100
AcDbEntity
  8
1
370
    25
100
AcDbLine
 10
-181.161823
 20
1.017422
 30
0.0
 11
-181.161823
 21
-18.386371
 31
0.0
  0
LINE
  5
CA
100
AcDbEntity
  8
1
370
    25
100
AcDbLine
 10
-184.161823
 20
-19.565168
 30
0.0
 11
-182.074668
 21
-19.382566
 31
0.0
  0
ARC
  5
CB
100
AcDbEntity
  8
1
370
    25
100
AcDbCircle
 10
-182.161823
 20
-18.386371
 30
0.0
 40
1.0
100
AcDbArc
 50
275.0
 51
360.0
  0
LINE
  5
CC
100
AcDbEntity
  8
1
370
    25
100
AcDbLine
 10
-184.161823
 20
-14.565164
 30
0.0
 11
-194.187991
 21
-14.039714
 31
0.0
  0
ARC
  5
CD
100
AcDbEntity
  8
1
370
    25
100
AcDbCircle
 10
-194.161823
 20
-13.5404
 30
0.0
 40
0.5
100
AcDbArc
 50
180.0
 51
267.0
  0
LINE
  5
CE
100
AcDbEntity
  8
1
370
    25
100
AcDbLine
 10
-194.661823
 20
-4.315168
 30
0.0
 11
-202.161823
 21
-4.708227
 31
0.0
  0
LINE
  5
CF
100
AcDbEntity
  8
1
370
    25
100
AcDbLine
 10
-194.661823
 20
-12.815168
 30
0.0
 11
-202.161823
 21
-12.42211
 31
0.0
  0
LINE
  5
D0
100
AcDbEntity
  8
1
370
    25
100
AcDbLine
 10
-194.66182
 20
0.582931
 30
0.0
 11
-194.661817
 21
-13.5404
 31
0.0
  0
LINE
  5
D1
100
AcDbEntity
  8
1
370
    25
100
AcDbLine
 10
-202.161823
 20
-4.708227
 30
0.0
 11
-202.161823
 21
-12.42211
 31
0.0
  0
LINE
  5
D2
100
AcDbEntity
  8
1
370
    25
100
AcDbLine
 10
162.838177
 20
41.140511
 30
0.0
 11
162.838177
 21
-161.065168
 31
0.0
  0
LINE
  5
D3
100
AcDbEntity
  8
1
370
    25
100
AcDbLine
 10
134.838177
 20
100.924628
 30
0.0
 11
134.838177
 21
-161.065168
 31
0.0
  0
LINE
  5
D4
100
AcDbEntity
  8
1
370
    25
100
AcDbLine
 10
155.838177
 20
-168.065168
 30
0.0
 11
141.838177
 21
-168.065168
 31
0.0
  0
ARC
  5
D5
100
AcDbEntity
  8
1
370
    25
100
AcDbCircle
 10
155.838177
 20
-161.065168
 30
0.0
 40
7.0
100
AcDbArc
 50
270.0
 51
360.0
  0
ARC
  5
D6
100
AcDbEntity
  8
1
370
    25
100
AcDbCircle
 10
141.838177
 20
-161.065168
 30
0.0
 40
7.0
100
AcDbArc
 50
180.0
 51
270.0
  0
LINE
  5
D7
100
AcDbEntity
  8
1
370
    25
100
AcDbLine
 10
79.120136
 20
100.181068
 30
0.0
 11
79.120136
 21
-161.065168
 31
0.0
  0
LINE
  5
D8
100
AcDbEntity
  8
1
370
    25
100
AcDbLine
 10
51.120136
 20
100.181068
 30
0.0
 11
51.120136
 21
-161.065168
 31
0.0
  0
LINE
  5
D9
100
AcDbEntity
  8
1
370
    25
100
AcDbLine
 10
72.120136
 20
-168.065168
 30
0.0
 11
58.120136
 21
-168.065168
 31
0.0
  0
ARC
  5
DA
100
AcDbEntity
  8
1
370
    25
100
AcDbCircle
 10
72.120136
 20
-161.065168
 30
0.0
 40
7.0
100
AcDbArc
 50
270.0
 51
360.0
  0
ARC
  5
DB
100
AcDbEntity
  8
1
370
    25
100
AcDbCircle
 10
58.120136
 20
-161.065168
 30
0.0
 40
7.0
100
AcDbArc
 50
180.0
 51
270.0
  0
LINE
  5
DC
100
AcDbEntity
  8
1
370
    18
  6
CENTER
100
AcDbLine
 10
65.120136
 20
127.182556
 30
0.0
 11
65.120136
 21
-172.432673
 31
0.0
  0
LINE
  5
DD
100
AcDbEntity
  8
1
370
    18
  6
CENTER
100
AcDbLine
 10
148.838177
 20
-172.432673
 30
0.0
 11
148.838177
 21
-110.796036
 31
0.0
  0
LINE
  5
DE
100
AcDbEntity
  8
1
370
    18
  6
CENTER
100
AcDbLine
 10
148.838177
 20
-100.607864
 30
0.0
 11
148.838177
 21
115.346512
 31
0.0
  0
CIRCLE
  5
DF
100
AcDbEntity
  8
1
370
    50
  6
DASHED
100
AcDbCircle
 10
148.838177
 20
211.539021
 30
0.0
 40
14.0
  0
LINE
  5
E0
100
AcDbEntity
  8
1
370
    25
100
AcDbLine
 10
-151.161823
 20
41.140511
 30
0.0
 11
-151.161823
 21
-161.065168
 31
0.0
  0
LINE
  5
E1
100
AcDbEntity
  8
1
370
    25
100
AcDbLine
 10
-123.161823
 20
100.924628
 30
0.0
 11
-123.161823
 21
-161.065168
 31
0.0
  0
LINE
  5
E2
100
AcDbEntity
  8
1
370
    25
100
AcDbLine
 10
-144.161823
 20
-168.065168
 30
0.0
 11
-130.161823
 21
-168.065168
 31
0.0
  0
ARC
  5
E3
100
AcDbEntity
  8
1
370
    25
100
AcDbCircle
 10
-144.161823
 20
-161.065168
 30
0.0
 40
7.0
100
AcDbArc
 50
180.0
 51
270.0
  0
ARC
  5
E4
100
AcDbEntity
  8
1
370
    25
100
AcDbCircle
 10
-130.161823
 20
-161.065168
 30
0.0
 40
7.0
100
AcDbArc
 50
270.0
 51
360.0
  0
LINE
  5
E5
100
AcDbEntity
  8
1
370
    25
100
AcDbLine
 10
-67.443783
 20
100.181068
 30
0.0
 11
-67.443783
 21
-161.065168
 31
0.0
  0
LINE
  5
E6
100
AcDbEntity
  8
1
370
    25
100
AcDbLine
 10
-39.443783
 20
100.181068
 30
0.0
 11
-39.443783
 21
-161.065168
 31
0.0
  0
LINE
  5
E7
100
AcDbEntity
  8
1
370
    25
100
AcDbLine
 10
-60.443783
 20
-168.065168
 30
0.0
 11
-46.443783
 21
-168.065168
 31
0.0
  0
ARC
  5
E8
100
AcDbEntity
  8
1
370
    25
100
AcDbCircle
 10
-60.443783
 20
-161.065168
 30
0.0
 40
7.0
100
AcDbArc
 50
180.0
 51
270.0
  0
ARC
  5
E9
100
AcDbEntity
  8
1
370
    25
100
AcDbCircle
 10
-46.443783
 20
-161.065168
 30
0.0
 40
7.0
100
AcDbArc
 50
270.0
 51
360.0
  0
LINE
  5
EA
100
AcDbEntity
  8
1
370
    18
  6
CENTER
100
AcDbLine
 10
-53.443783
 20
127.182556
 30
0.0
 11
-53.443783
 21
-172.432673
 31
0.0
  0
LINE
  5
EB
100
AcDbEntity
  8
1
370
    25
100
AcDbLine
 10
-247.161823
 20
41.140511
 30
0.0
 11
-247.161823
 21
-161.065168
 31
0.0
  0
LINE
  5
EC
100
AcDbEntity
  8
1
370
    25
100
AcDbLine
 10
-275.161823
 20
100.924628
 30
0.0
 11
-275.161823
 21
-161.065168
 31
0.0
  0
LINE
  5
ED
100
AcDbEntity
  8
1
370
    25
100
AcDbLine
 10
-254.161823
 20
-168.065168
 30
0.0
 11
-268.161823
 21
-168.065168
 31
0.0
  0
ARC
  5
EE
100
AcDbEntity
  8
1
370
    25
100
AcDbCircle
 10
-254.161823
 20
-161.065168
 30
0.0
 40
7.0
100
AcDbArc
 50
270.0
 51
360.0
  0
ARC
  5
EF
100
AcDbEntity
  8
1
370
    25
100
AcDbCircle
 10
-268.161823
 20
-161.065168
 30
0.0
 40
7.0
100
AcDbArc
 50
180.0
 51
270.0
  0
LINE
  5
F0
100
AcDbEntity
  8
1
370
    18
  6
CENTER
100
AcDbLine
 10
-261.161823
 20
115.346512
 30
0.0
 11
-261.161823
 21
-172.432673
 31
0.0
  0
LINE
  5
F1
100
AcDbEntity
  8
1
370
    25
100
AcDbLine
 10
-320.879864
 20
100.181068
 30
0.0
 11
-320.879864
 21
-161.065168
 31
0.0
  0
LINE
  5
F2
100
AcDbEntity
  8
1
370
    25
100
AcDbLine
 10
-348.879864
 20
100.181068
 30
0.0
 11
-348.879864
 21
-161.065168
 31
0.0
  0
LINE
  5
F3
100
AcDbEntity
  8
1
370
    25
100
AcDbLine
 10
-327.879864
 20
-168.065168
 30
0.0
 11
-341.879864
 21
-168.065168
 31
0.0
  0
ARC
  5
F4
100
AcDbEntity
  8
1
370
    25
100
AcDbCircle
 10
-327.879864
 20
-161.065168
 30
0.0
 40
7.0
100
AcDbArc
 50
270.0
 51
360.0
  0
ARC
  5
F5
100
AcDbEntity
  8
1
370
    25
100
AcDbCircle
 10
-341.879864
 20
-161.065168
 30
0.0
 40
7.0
100
AcDbArc
 50
180.0
 51
270.0
  0
LINE
  5
F6
100
AcDbEntity
  8
1
370
    18
  6
CENTER
100
AcDbLine
 10
-334.879864
 20
127.182556
 30
0.0
 11
-334.879864
 21
-172.432673
 31
0.0
  0
LINE
  5
F7
100
AcDbEntity
  8
1
370
    18
  6
CENTER
100
AcDbLine
 10
-137.161823
 20
-172.432673
 30
0.0
 11
-137.161823
 21
-110.796036
 31
0.0
  0
LINE
  5
F8
100
AcDbEntity
  8
1
370
    18
  6
CENTER
100
AcDbLine
 10
-137.161823
 20
-100.607864
 30
0.0
 11
-137.161823
 21
115.346512
 31
0.0
  0
CIRCLE
  5
F9
100
AcDbEntity
  8
1
370
    50
  6
DASHED
100
AcDbCircle
 10
-261.161823
 20
211.539021
 30
0.0
 40
14.0
  0
CIRCLE
  5
FA
100
AcDbEntity
  8
1
370
    50
  6
DASHED
100
AcDbCircle
 10
-137.161823
 20
211.539021
 30
0.0
 40
14.0
  0
LINE
  5
FB
100
AcDbEntity
  8
1
370
    25
100
AcDbLine
 10
317.056217
 20
-18.065168
 30
0.0
 11
317.056217
 21
121.934832
 31
0.0
  0
LINE
  5
FC
100
AcDbEntity
  8
1
370
    25
100
AcDbLine
 10
276.056217
 20
-18.065168
 30
0.0
 11
276.056217
 21
121.934832
 31
0.0
  0
LINE
  5
FD
100
AcDbEntity
  8
1
370
    25
100
AcDbLine
 10
315.556217
 20
123.434832
 30
0.0
 11
277.556217
 21
123.434832
 31
0.0
  0
LINE
  5
FE
100
AcDbEntity
  8
1
370
    25
100
AcDbLine
 10
315.556217
 20
-19.565168
 30
0.0
 11
277.556217
 21
-19.565168
 31
0.0
  0
LINE
  5
FF
100
AcDbEntity
  8
1
370
    18
  6
CENTER
100
AcDbLine
 10
320.556217
 20
51.934832
 30
0.0
 11
272.556217
 21
51.934832
 31
0.0
  0
LINE
  5
100
100
AcDbEntity
  8
1
370
    18
  6
CENTER
100
AcDbLine
 10
296.556217
 20
-24.15625
 30
0.0
 11
296.556217
 21
127.509758
 31
0.0
  0
ARC
  5
101
100
AcDbEntity
  8
1
370
    25
100
AcDbCircle
 10
277.556217
 20
121.934832
 30
0.0
 40
1.5
100
AcDbArc
 50
90.0
 51
180.0
  0
ARC
  5
102
100
AcDbEntity
  8
1
370
    25
100
AcDbCircle
 10
315.556217
 20
121.934832
 30
0.0
 40
1.5
100
AcDbArc
 50
0.0
 51
90.0
  0
ARC
  5
103
100
AcDbEntity
  8
1
370
    25
100
AcDbCircle
 10
277.556217
 20
-18.065168
 30
0.0
 40
1.5
100
AcDbArc
 50
180.0
 51
270.0
  0
ARC
  5
104
100
AcDbEntity
  8
1
370
    25
100
AcDbCircle
 10
315.556217
 20
-18.065168
 30
0.0
 40
1.5
100
AcDbArc
 50
270.0
 51
360.0
  0
LINE
  5
105
100
AcDbEntity
  8
1
370
    18
  6
CENTER
100
AcDbLine
 10
303.690331
 20
112.434832
 30
0.0
 11
289.422104
 21
112.434832
 31
0.0
  0
LINE
  5
106
100
AcDbEntity
  8
1
370
    18
  6
CENTER
100
AcDbLine
 10
303.690331
 20
-8.565168
 30
0.0
 11
289.422104
 21
-8.565168
 31
0.0
  0
CIRCLE
  5
107
100
AcDbEntity
  8
1
370
    25
100
AcDbCircle
 10
296.556217
 20
-8.565168
 30
0.0
 40
4.15
  0
CIRCLE
  5
108
100
AcDbEntity
  8
1
370
    25
100
AcDbCircle
 10
296.556217
 20
-8.565168
 30
0.0
 40
4.15
  0
CIRCLE
  5
109
100
AcDbEntity
  8
1
370
    25
100
AcDbCircle
 10
296.556217
 20
112.434832
 30
0.0
 40
4.15
  0
LINE
  5
10A
100
AcDbEntity
  8
1
370
    25
100
AcDbLine
 10
308.556217
 20
106.934832
 30
0.0
 11
284.556217
 21
106.934832
 31
0.0
  0
LINE
  5
10B
100
AcDbEntity
  8
1
370
    25
100
AcDbLine
 10
308.556217
 20
-3.065168
 30
0.0
 11
284.556217
 21
-3.065168
 31
0.0
  0
LINE
  5
10C
100
AcDbEntity
  8
1
370
    25
100
AcDbLine
 10
309.556217
 20
-2.065168
 30
0.0
 11
309.556217
 21
105.934832
 31
0.0
  0
LINE
  5
10D
100
AcDbEntity
  8
1
370
    25
100
AcDbLine
 10
283.556217
 20
-2.065168
 30
0.0
 11
283.556217
 21
105.934832
 31
0.0
  0
LINE
  5
10E
100
AcDbEntity
  8
1
370
    25
100
AcDbLine
 10
308.86453
 20
5.580347
 30
0.0
 11
308.86453
 21
98.289317
 31
0.0
  0
LINE
  5
10F
100
AcDbEntity
  8
1
370
    25
100
AcDbLine
 10
284.247905
 20
5.580347
 30
0.0
 11
284.247905
 21
98.289317
 31
0.0
  0
LINE
  5
110
100
AcDbEntity
  8
1
370
    25
100
AcDbLine
 10
305.86453
 20
101.289317
 30
0.0
 11
287.247905
 21
101.289317
 31
0.0
  0
LINE
  5
111
100
AcDbEntity
  8
1
370
    25
100
AcDbLine
 10
305.86453
 20
2.580347
 30
0.0
 11
287.247905
 21
2.580347
 31
0.0
  0
ARC
  5
112
100
AcDbEntity
  8
1
370
    25
100
AcDbCircle
 10
305.86453
 20
5.580347
 30
0.0
 40
3.0
100
AcDbArc
 50
270.0
 51
360.0
  0
ARC
  5
113
100
AcDbEntity
  8
1
370
    25
100
AcDbCircle
 10
287.247905
 20
5.580347
 30
0.0
 40
3.0
100
AcDbArc
 50
180.0
 51
270.0
  0
ARC
  5
114
100
AcDbEntity
  8
1
370
    25
100
AcDbCircle
 10
287.247905
 20
98.289317
 30
0.0
 40
3.0
100
AcDbArc
 50
90.0
 51
180.0
  0
ARC
  5
115
100
AcDbEntity
  8
1
370
    25
100
AcDbCircle
 10
305.86453
 20
98.289317
 30
0.0
 40
3.0
100
AcDbArc
 50
0.0
 51
90.0
  0
ARC
  5
116
100
AcDbEntity
  8
1
370
    25
100
AcDbCircle
 10
308.556217
 20
105.934832
 30
0.0
 40
1.0
100
AcDbArc
 50
0.0
 51
90.0
  0
ARC
  5
117
100
AcDbEntity
  8
1
370
    25
100
AcDbCircle
 10
284.556217
 20
105.934832
 30
0.0
 40
1.0
100
AcDbArc
 50
90.0
 51
180.0
  0
ARC
  5
118
100
AcDbEntity
  8
1
370
    25
100
AcDbCircle
 10
284.556217
 20
-2.065168
 30
0.0
 40
1.0
100
AcDbArc
 50
180.0
 51
270.0
  0
ARC
  5
119
100
AcDbEntity
  8
1
370
    25
100
AcDbCircle
 10
308.556217
 20
-2.065168
 30
0.0
 40
1.0
100
AcDbArc
 50
270.0
 51
360.0
  0
LINE
  5
11A
100
AcDbEntity
  8
1
370
    25
100
AcDbLine
 10
308.954376
 20
4.587231
 30
0.0
 11
309.498077
 21
-1.422523
 31
0.0
  0
LINE
  5
11B
100
AcDbEntity
  8
1
370
    25
100
AcDbLine
 10
306.03148
 20
2.230187
 30
0.0
 11
308.353215
 21
-2.639394
 31
0.0
  0
LINE
  5
11C
100
AcDbEntity
  8
1
370
    25
100
AcDbLine
 10
287.080955
 20
2.230187
 30
0.0
 11
284.75922
 21
-2.639394
 31
0.0
  0
LINE
  5
11D
100
AcDbEntity
  8
1
370
    25
100
AcDbLine
 10
284.158058
 20
4.587231
 30
0.0
 11
283.614357
 21
-1.422523
 31
0.0
  0
LINE
  5
11E
100
AcDbEntity
  8
1
370
    25
100
AcDbLine
 10
287.080955
 20
101.639476
 30
0.0
 11
284.75922
 21
106.509057
 31
0.0
  0
LINE
  5
11F
100
AcDbEntity
  8
1
370
    25
100
AcDbLine
 10
284.158058
 20
99.282432
 30
0.0
 11
283.614357
 21
105.292186
 31
0.0
  0
LINE
  5
120
100
AcDbEntity
  8
1
370
    25
100
AcDbLine
 10
306.03148
 20
101.639476
 30
0.0
 11
308.353215
 21
106.509057
 31
0.0
  0
LINE
  5
121
100
AcDbEntity
  8
1
370
    25
100
AcDbLine
 10
308.954376
 20
99.282432
 30
0.0
 11
309.498077
 21
105.292186
 31
0.0
  0
LINE
  5
122
100
AcDbEntity
  8
1
370
    18
  6
CENTER
100
AcDbLine
 10
229.529352
 20
51.934832
 30
0.0
 11
210.308496
 21
51.934832
 31
0.0
  0
LINE
  5
123
100
AcDbEntity
  8
1
370
    25
100
AcDbLine
 10
227.638177
 20
122.544287
 30
0.0
 11
227.638177
 21
-18.674624
 31
0.0
  0
LINE
  5
124
100
AcDbEntity
  8
1
370
    25
100
AcDbLine
 10
212.838177
 20
99.30366
 30
0.0
 11
212.838177
 21
4.566003
 31
0.0
  0
LINE
  5
125
100
AcDbEntity
  8
1
370
    18
  6
DASHED
100
AcDbLine
 10
214.338177
 20
99.30366
 30
0.0
 11
214.338177
 21
4.566003
 31
0.0
  0
LINE
  5
126
100
AcDbEntity
  8
1
370
    25
100
AcDbLine
 10
225.838177
 20
123.434832
 30
0.0
 11
226.907901
 21
123.341243
 31
0.0
  0
LINE
  5
127
100
AcDbEntity
  8
1
370
    18
  6
CENTER
100
AcDbLine
 10
229.529352
 20
112.434832
 30
0.0
 11
212.196574
 21
112.434832
 31
0.0
  0
ARC
  5
128
100
AcDbEntity
  8
1
370
    25
100
AcDbCircle
 10
226.838177
 20
122.544287
 30
0.0
 40
0.8
100
AcDbArc
 50
360.0
 51
85.0
  0
LINE
  5
129
100
AcDbEntity
  8
1
370
    18
  6
DASHED
100
AcDbLine
 10
227.028908
 20
106.676212
 30
0.0
 11
216.165983
 21
102.065174
 31
0.0
  0
ARC
  5
12A
100
AcDbEntity
  8
1
370
    18
  6
DASHED
100
AcDbCircle
 10
226.638177
 20
107.596717
 30
0.0
 40
1.0
100
AcDbArc
 50
293.0
 51
360.0
  0
ARC
  5
12B
100
AcDbEntity
  8
1
370
    18
  6
DASHED
100
AcDbCircle
 10
217.338177
 20
99.30366
 30
0.0
 40
3.0
100
AcDbArc
 50
113.0
 51
180.0
  0
LINE
  5
12C
100
AcDbEntity
  8
1
370
    25
100
AcDbLine
 10
219.83818
 20
105.25347
 30
0.0
 11
215.579887
 21
103.445932
 31
0.0
  0
ARC
  5
12D
100
AcDbEntity
  8
1
370
    25
100
AcDbCircle
 10
217.338177
 20
99.30366
 30
0.0
 40
4.5
100
AcDbArc
 50
113.0
 51
180.0
  0
LINE
  5
12E
100
AcDbEntity
  8
1
370
    25
100
AcDbLine
 10
225.838177
 20
-19.565168
 30
0.0
 11
226.907901
 21
-19.47158
 31
0.0
  0
LINE
  5
12F
100
AcDbEntity
  8
1
370
    18
  6
CENTER
100
AcDbLine
 10
229.529352
 20
-8.565168
 30
0.0
 11
213.486857
 21
-8.565168
 31
0.0
  0
ARC
  5
130
100
AcDbEntity
  8
1
370
    25
100
AcDbCircle
 10
226.838177
 20
-18.674624
 30
0.0
 40
0.8
100
AcDbArc
 50
275.0
 51
0.0
  0
ARC
  5
131
100
AcDbEntity
  8
1
370
    50
  6
DASHED
100
AcDbCircle
 10
226.638177
 20
-3.727054
 30
0.0
 40
1.0
100
AcDbArc
 50
0.0
 51
67.0
  0
ARC
  5
132
100
AcDbEntity
  8
1
370
    18
  6
DASHED
100
AcDbCircle
 10
217.338177
 20
4.566003
 30
0.0
 40
3.0
100
AcDbArc
 50
180.0
 51
247.0
  0
LINE
  5
133
100
AcDbEntity
  8
1
370
    25
100
AcDbLine
 10
219.83818
 20
-1.383807
 30
0.0
 11
215.579887
 21
0.423732
 31
0.0
  0
ARC
  5
134
100
AcDbEntity
  8
1
370
    25
100
AcDbCircle
 10
217.338177
 20
4.566003
 30
0.0
 40
4.5
100
AcDbArc
 50
180.0
 51
247.0
  0
LINE
  5
135
100
AcDbEntity
  8
1
370
    25
100
AcDbLine
 10
220.312012
 20
-14.090001
 30
0.0
 11
224.890513
 21
-14.32995
 31
0.0
  0
ARC
  5
136
100
AcDbEntity
  8
1
370
    25
100
AcDbCircle
 10
220.33818
 20
-13.590686
 30
0.0
 40
0.5
100
AcDbArc
 50
180.0
 51
267.0
  0
LINE
  5
137
100
AcDbEntity
  8
1
370
    25
100
AcDbLine
 10
219.83818
 20
104.934832
 30
0.0
 11
219.83818
 21
117.460349
 31
0.0
  0
ARC
  5
138
100
AcDbEntity
  8
1
370
    25
100
AcDbCircle
 10
224.838177
 20
-15.328579
 30
0.0
 40
1.0
100
AcDbArc
 50
0.0
 51
87.0
  0
LINE
  5
139
100
AcDbEntity
  8
1
370
    25
100
AcDbLine
 10
220.312012
 20
117.959664
 30
0.0
 11
224.890513
 21
118.199613
 31
0.0
  0
ARC
  5
13A
100
AcDbEntity
  8
1
370
    25
100
AcDbCircle
 10
220.33818
 20
117.460349
 30
0.0
 40
0.5
100
AcDbArc
 50
93.0
 51
180.0
  0
ARC
  5
13B
100
AcDbEntity
  8
1
370
    25
100
AcDbCircle
 10
224.838177
 20
119.198243
 30
0.0
 40
1.0
100
AcDbArc
 50
273.0
 51
360.0
  0
LINE
  5
13C
100
AcDbEntity
  8
1
370
    25
100
AcDbLine
 10
219.83818
 20
2.134832
 30
0.0
 11
225.838177
 21
2.134832
 31
0.0
  0
LINE
  5
13D
100
AcDbEntity
  8
1
370
    25
100
AcDbLine
 10
219.83818
 20
101.734832
 30
0.0
 11
219.83818
 21
116.960349
 31
0.0
  0
LINE
  5
13E
100
AcDbEntity
  8
1
370
    25
100
AcDbLine
 10
219.83818
 20
101.734832
 30
0.0
 11
225.838177
 21
101.734832
 31
0.0
  0
LINE
  5
13F
100
AcDbEntity
  8
1
370
    18
  6
DASHED
100
AcDbLine
 10
227.028908
 20
-2.806549
 30
0.0
 11
216.165983
 21
1.804489
 31
0.0
  0
LINE
  5
140
100
AcDbEntity
  8
1
370
    25
100
AcDbLine
 10
219.83818
 20
2.134832
 30
0.0
 11
219.83818
 21
-13.590686
 31
0.0
  0
LINE
  5
141
100
AcDbEntity
  8
1
370
    25
100
AcDbLine
 10
225.838177
 20
123.434832
 30
0.0
 11
225.838177
 21
-19.565168
 31
0.0
  0
ARC
  5
142
100
AcDbEntity
  8
1
370
    25
100
AcDbCircle
 10
-602.361823
 20
211.539021
 30
0.0
 40
830.0
100
AcDbArc
 50
358.643501
 51
1.356499
  0
LINE
  5
143
100
AcDbEntity
  8
1
370
    25
100
AcDbLine
 10
226.675519
 20
191.112279
 30
0.0
 11
225.838177
 21
191.039021
 31
0.0
  0
LINE
  5
144
100
AcDbEntity
  8
1
370
    25
100
AcDbLine
 10
226.675519
 20
231.965763
 30
0.0
 11
225.838177
 21
232.039021
 31
0.0
  0
ARC
  5
145
100
AcDbEntity
  8
1
370
    25
100
AcDbCircle
 10
226.605795
 20
231.168807
 30
0.0
 40
0.8
100
AcDbArc
 50
1.356499
 51
85.0
  0
ARC
  5
146
100
AcDbEntity
  8
1
370
    25
100
AcDbCircle
 10
226.605795
 20
191.909234
 30
0.0
 40
0.8
100
AcDbArc
 50
275.0
 51
358.643501
  0
LINE
  5
147
100
AcDbEntity
  8
1
370
    25
100
AcDbLine
 10
225.838177
 20
232.039021
 30
0.0
 11
225.838177
 21
191.039021
 31
0.0
  0
LINE
  5
148
100
AcDbEntity
  8
1
370
    50
  6
DASHED
100
AcDbLine
 10
214.338177
 20
221.000439
 30
0.0
 11
214.338177
 21
202.077602
 31
0.0
  0
LINE
  5
149
100
AcDbEntity
  8
1
370
    50
  6
DASHED
100
AcDbLine
 10
226.573164
 20
224.488541
 30
0.0
 11
217.181169
 21
223.996328
 31
0.0
  0
LINE
  5
14A
100
AcDbEntity
  8
1
370
    50
  6
DASHED
100
AcDbLine
 10
226.573164
 20
198.5895
 30
0.0
 11
217.181169
 21
199.081713
 31
0.0
  0
ARC
  5
14B
100
AcDbEntity
  8
1
370
    50
  6
DASHED
100
AcDbCircle
 10
217.338177
 20
221.000439
 30
0.0
 40
3.0
100
AcDbArc
 50
93.0
 51
180.0
  0
ARC
  5
14C
100
AcDbEntity
  8
1
370
    50
  6
DASHED
100
AcDbCircle
 10
217.338177
 20
202.077602
 30
0.0
 40
3.0
100
AcDbArc
 50
180.0
 51
267.0
  0
ARC
  5
14D
100
AcDbEntity
  8
1
370
    50
  6
DASHED
100
AcDbCircle
 10
226.520828
 20
225.487171
 30
0.0
 40
1.0
100
AcDbArc
 50
273.0
 51
0.964063
  0
ARC
  5
14E
100
AcDbEntity
  8
1
370
    50
  6
DASHED
100
AcDbCircle
 10
226.520828
 20
197.59087
 30
0.0
 40
1.0
100
AcDbArc
 50
359.035937
 51
87.0
  0
LINE
  5
14F
100
AcDbEntity
  8
1
370
    25
100
AcDbLine
 10
219.838177
 20
197.853467
 30
0.0
 11
219.838177
 21
225.224574
 31
0.0
  0
LINE
  5
150
100
AcDbEntity
  8
1
370
    25
100
AcDbLine
 10
224.890513
 20
225.989356
 30
0.0
 11
217.102665
 21
225.581212
 31
0.0
  0
LINE
  5
151
100
AcDbEntity
  8
1
370
    25
100
AcDbLine
 10
224.890513
 20
225.989356
 30
0.0
 11
217.102665
 21
225.581212
 31
0.0
  0
ARC
  5
152
100
AcDbEntity
  8
1
370
    25
100
AcDbCircle
 10
224.838177
 20
226.987985
 30
0.0
 40
1.0
100
AcDbArc
 50
273.0
 51
360.0
  0
ARC
  5
153
100
AcDbEntity
  8
1
370
    25
100
AcDbCircle
 10
217.338177
 20
221.087379
 30
0.0
 40
4.5
100
AcDbArc
 50
93.0
 51
180.0
  0
ARC
  5
154
100
AcDbEntity
  8
1
370
    25
100
AcDbCircle
 10
224.838177
 20
196.090056
 30
0.0
 40
1.0
100
AcDbArc
 50
0.0
 51
87.0
  0
LINE
  5
155
100
AcDbEntity
  8
1
370
    25
100
AcDbLine
 10
224.890513
 20
197.088686
 30
0.0
 11
217.102665
 21
197.496829
 31
0.0
  0
ARC
  5
156
100
AcDbEntity
  8
1
370
    25
100
AcDbCircle
 10
217.338177
 20
201.990662
 30
0.0
 40
4.5
100
AcDbArc
 50
180.0
 51
267.0
  0
LINE
  5
157
100
AcDbEntity
  8
1
370
    25
100
AcDbLine
 10
224.890513
 20
197.588686
 30
0.0
 11
219.838177
 21
197.853467
 31
0.0
  0
ARC
  5
158
100
AcDbEntity
  8
1
370
    25
100
AcDbCircle
 10
224.838177
 20
196.590056
 30
0.0
 40
1.0
100
AcDbArc
 50
0.0
 51
87.0
  0
LINE
  5
159
100
AcDbEntity
  8
1
370
    25
100
AcDbLine
 10
224.890513
 20
225.489356
 30
0.0
 11
219.838177
 21
225.224574
 31
0.0
  0
ARC
  5
15A
100
AcDbEntity
  8
1
370
    25
100
AcDbCircle
 10
224.838177
 20
226.487985
 30
0.0
 40
1.0
100
AcDbArc
 50
273.0
 51
360.0
  0
LINE
  5
15B
100
AcDbEntity
  8
1
370
    25
100
AcDbLine
 10
212.838177
 20
201.990662
 30
0.0
 11
212.838177
 21
207.629671
 31
0.0
  0
LINE
  5
15C
100
AcDbEntity
  8
1
370
    25
100
AcDbLine
 10
212.838177
 20
215.44837
 30
0.0
 11
212.838177
 21
221.000439
 31
0.0
  0
LINE
  5
15D
100
AcDbEntity
  8
1
370
    25
100
AcDbLine
 10
-217.161823
 20
122.256034
 30
0.0
 11
-217.161829
 21
0.432044
 31
0.0
  0
LINE
  5
15E
100
AcDbEntity
  8
1
370
    25
100
AcDbLine
 10
-214.161823
 20
123.434832
 30
0.0
 11
-214.161823
 21
-19.565168
 31
0.0
  0
LINE
  5
15F
100
AcDbEntity
  8
1
370
    25
100
AcDbLine
 10
-203.661823
 20
117.410063
 30
0.0
 11
-203.661823
 21
-13.5404
 31
0.0
  0
LINE
  5
160
100
AcDbEntity
  8
1
370
    25
100
AcDbLine
 10
-214.161823
 20
-19.565168
 30
0.0
 11
-216.248979
 21
-19.382566
 31
0.0
  0
ARC
  5
161
100
AcDbEntity
  8
1
370
    25
100
AcDbCircle
 10
-216.161823
 20
-18.386371
 30
0.0
 40
1.0
100
AcDbArc
 50
180.0
 51
265.0
  0
LINE
  5
162
100
AcDbEntity
  8
1
370
    25
100
AcDbLine
 10
-214.161823
 20
123.434832
 30
0.0
 11
-216.248979
 21
123.252229
 31
0.0
  0
ARC
  5
163
100
AcDbEntity
  8
1
370
    25
100
AcDbCircle
 10
-216.161823
 20
122.256034
 30
0.0
 40
1.0
100
AcDbArc
 50
95.0
 51
180.0
  0
LINE
  5
164
100
AcDbEntity
  8
1
370
    25
100
AcDbLine
 10
-214.161823
 20
118.434827
 30
0.0
 11
-204.135655
 21
117.909378
 31
0.0
  0
ARC
  5
165
100
AcDbEntity
  8
1
370
    25
100
AcDbCircle
 10
-204.161823
 20
117.410063
 30
0.0
 40
0.5
100
AcDbArc
 50
0.0
 51
87.0
  0
LINE
  5
166
100
AcDbEntity
  8
1
370
    25
100
AcDbLine
 10
-214.161823
 20
-14.565164
 30
0.0
 11
-204.135655
 21
-14.039714
 31
0.0
  0
ARC
  5
167
100
AcDbEntity
  8
1
370
    25
100
AcDbCircle
 10
-204.161823
 20
-13.5404
 30
0.0
 40
0.5
100
AcDbArc
 50
273.0
 51
360.0
  0
LINE
  5
168
100
AcDbEntity
  8
1
370
    25
100
AcDbLine
 10
-214.161823
 20
100.934832
 30
0.0
 11
-203.661823
 21
100.016201
 31
0.0
  0
LINE
  5
169
100
AcDbEntity
  8
1
370
    25
100
AcDbLine
 10
-214.161823
 20
92.934832
 30
0.0
 11
-203.661823
 21
93.853463
 31
0.0
  0
LINE
  5
16A
100
AcDbEntity
  8
1
370
    25
100
AcDbLine
 10
-214.161823
 20
2.934832
 30
0.0
 11
-203.661823
 21
3.853463
 31
0.0
  0
LINE
  5
16B
100
AcDbEntity
  8
1
370
    25
100
AcDbLine
 10
-214.161823
 20
10.934832
 30
0.0
 11
-203.661823
 21
10.016201
 31
0.0
  0
LINE
  5
16C
100
AcDbEntity
  8
1
370
    25
100
AcDbLine
 10
-203.661823
 20
225.701733
 30
0.0
 11
-203.661823
 21
197.376308
 31
0.0
  0
LINE
  5
16D
100
AcDbEntity
  8
1
370
    25
100
AcDbLine
 10
-217.161823
 20
231.660223
 30
0.0
 11
-217.161823
 21
191.417818
 31
0.0
  0
LINE
  5
16E
100
AcDbEntity
  8
1
370
    25
100
AcDbLine
 10
-214.161823
 20
232.839021
 30
0.0
 11
-214.161823
 21
190.239021
 31
0.0
  0
ARC
  5
16F
100
AcDbEntity
  8
1
370
    25
100
AcDbCircle
 10
-216.161823
 20
191.417818
 30
0.0
 40
1.0
100
AcDbArc
 50
180.0
 51
265.0
  0
LINE
  5
170
100
AcDbEntity
  8
1
370
    25
100
AcDbLine
 10
-214.161823
 20
190.239021
 30
0.0
 11
-216.248979
 21
190.421623
 31
0.0
  0
LINE
  5
171
100
AcDbEntity
  8
1
370
    25
100
AcDbLine
 10
-214.161823
 20
196.789021
 30
0.0
 11
-204.135655
 21
197.31447
 31
0.0
  0
ARC
  5
172
100
AcDbEntity
  8
1
370
    25
100
AcDbCircle
 10
-204.161823
 20
197.813785
 30
0.0
 40
0.5
100
AcDbArc
 50
273.0
 51
360.0
  0
LINE
  5
173
100
AcDbEntity
  8
1
370
    25
100
AcDbLine
 10
-214.161823
 20
226.289021
 30
0.0
 11
-204.135655
 21
225.763571
 31
0.0
  0
ARC
  5
174
100
AcDbEntity
  8
1
370
    25
100
AcDbCircle
 10
-204.161823
 20
225.264257
 30
0.0
 40
0.5
100
AcDbArc
 50
360.0
 51
87.0
  0
ARC
  5
175
100
AcDbEntity
  8
1
370
    25
100
AcDbCircle
 10
-216.161823
 20
231.660223
 30
0.0
 40
1.0
100
AcDbArc
 50
95.0
 51
180.0
  0
LINE
  5
176
100
AcDbEntity
  8
1
370
    25
100
AcDbLine
 10
-214.161823
 20
232.839021
 30
0.0
 11
-216.248979
 21
232.656418
 31
0.0
  0
LINE
  5
177
100
AcDbEntity
  8
1
370
    25
100
AcDbLine
 10
-214.161823
 20
196.789021
 30
0.0
 11
-204.15746
 21
196.876327
 31
0.0
  0
ARC
  5
178
100
AcDbEntity
  8
1
370
    25
100
AcDbCircle
 10
-204.161823
 20
197.376308
 30
0.0
 40
0.5
100
AcDbArc
 50
270.5
 51
360.0
  0
LINE
  5
179
100
AcDbEntity
  8
1
370
    25
100
AcDbLine
 10
-214.161823
 20
226.289021
 30
0.0
 11
-204.15746
 21
226.201714
 31
0.0
  0
ARC
  5
17A
100
AcDbEntity
  8
1
370
    25
100
AcDbCircle
 10
-204.161823
 20
225.701733
 30
0.0
 40
0.5
100
AcDbArc
 50
0.0
 51
89.5
  0
LINE
  5
17B
100
AcDbEntity
  8
1
370
    18
  6
CENTER
100
AcDbLine
 10
-201.98645
 20
-8.565168
 30
0.0
 11
-218.440353
 21
-8.565168
 31
0.0
  0
LINE
  5
17C
100
AcDbEntity
  8
1
370
    25
100
AcDbLine
 10
-217.161823
 20
0.432046
 30
0.0
 11
-217.161823
 21
-18.386371
 31
0.0
  0
LINE
  5
17D
100
AcDbEntity
  8
1
370
    25
100
AcDbLine
 10
-214.161823
 20
-19.565168
 30
0.0
 11
-216.248979
 21
-19.382566
 31
0.0
  0
ARC
  5
17E
100
AcDbEntity
  8
1
370
    25
100
AcDbCircle
 10
-216.161823
 20
-18.386371
 30
0.0
 40
1.0
100
AcDbArc
 50
180.0
 51
265.0
  0
LINE
  5
17F
100
AcDbEntity
  8
1
370
    25
100
AcDbLine
 10
-214.161823
 20
-14.565164
 30
0.0
 11
-204.135655
 21
-14.039714
 31
0.0
  0
ARC
  5
180
100
AcDbEntity
  8
1
370
    25
100
AcDbCircle
 10
-204.161823
 20
-13.5404
 30
0.0
 40
0.5
100
AcDbArc
 50
273.0
 51
360.0
  0
LINE
  5
181
100
AcDbEntity
  8
1
370
    25
100
AcDbLine
 10
-316.079864
 20
123.434832
 30
0.0
 11
-353.679864
 21
123.434832
 31
0.0
  0
LINE
  5
182
100
AcDbEntity
  8
1
370
    18
  6
CENTER
100
AcDbLine
 10
-308.338539
 20
51.934832
 30
0.0
 11
-360.445778
 21
51.934832
 31
0.0
  0
LINE
  5
183
100
AcDbEntity
  8
1
370
    25
100
AcDbLine
 10
-356.179864
 20
-17.065168
 30
0.0
 11
-356.179864
 21
120.934832
 31
0.0
  0
LINE
  5
184
100
AcDbEntity
  8
1
370
    25
100
AcDbLine
 10
-313.579864
 20
-17.065168
 30
0.0
 11
-313.579864
 21
120.934832
 31
0.0
  0
ARC
  5
185
100
AcDbEntity
  8
1
370
    25
100
AcDbCircle
 10
-353.679864
 20
120.934832
 30
0.0
 40
2.5
100
AcDbArc
 50
90.0
 51
180.0
  0
ARC
  5
186
100
AcDbEntity
  8
1
370
    25
100
AcDbCircle
 10
-353.679864
 20
-17.065168
 30
0.0
 40
2.5
100
AcDbArc
 50
180.0
 51
270.0
  0
ARC
  5
187
100
AcDbEntity
  8
1
370
    25
100
AcDbCircle
 10
-316.079864
 20
-17.065168
 30
0.0
 40
2.5
100
AcDbArc
 50
270.0
 51
0.0
  0
ARC
  5
188
100
AcDbEntity
  8
1
370
    25
100
AcDbCircle
 10
-316.079864
 20
120.934832
 30
0.0
 40
2.5
100
AcDbArc
 50
0.0
 51
90.0
  0
LINE
  5
189
100
AcDbEntity
  8
1
370
    25
100
AcDbLine
 10
-316.579864
 20
43.467456
 30
0.0
 11
-316.579864
 21
117.030776
 31
0.0
  0
ARC
  5
18A
100
AcDbEntity
  8
1
370
    25
100
AcDbCircle
 10
-319.379864
 20
117.030776
 30
0.0
 40
2.8
100
AcDbArc
 50
0.0
 51
87.01349
  0
ARC
  5
18B
100
AcDbEntity
  8
1
370
    25
100
AcDbCircle
 10
-334.879864
 20
-180.065168
 30
0.0
 40
300.3
100
AcDbArc
 50
87.01349
 51
92.98651
  0
ARC
  5
18C
100
AcDbEntity
  8
1
370
    25
100
AcDbCircle
 10
-350.379864
 20
117.030776
 30
0.0
 40
2.8
100
AcDbArc
 50
92.98651
 51
180.0
  0
LINE
  5
18D
100
AcDbEntity
  8
1
370
    25
100
AcDbLine
 10
-353.179864
 20
117.030776
 30
0.0
 11
-353.179864
 21
43.467456
 31
0.0
  0
ARC
  5
18E
100
AcDbEntity
  8
1
370
    25
100
AcDbCircle
 10
-350.879864
 20
43.467456
 30
0.0
 40
2.3
100
AcDbArc
 50
180.0
 51
245.098938
  0
ARC
  5
18F
100
AcDbEntity
  8
1
370
    25
100
AcDbCircle
 10
-318.879864
 20
43.467456
 30
0.0
 40
2.3
100
AcDbArc
 50
294.901062
 51
360.0
  0
ARC
  5
190
100
AcDbEntity
  8
1
370
    25
100
AcDbCircle
 10
-334.879864
 20
77.934832
 30
0.0
 40
40.3
100
AcDbArc
 50
290.328036
 51
294.901062
  0
ARC
  5
191
100
AcDbEntity
  8
1
370
    25
100
AcDbCircle
 10
-334.879864
 20
77.934832
 30
0.0
 40
40.3
100
AcDbArc
 50
245.098938
 51
249.671964
  0
LINE
  5
192
100
AcDbEntity
  8
1
370
    25
100
AcDbLine
 10
-316.079864
 20
-19.565168
 30
0.0
 11
-320.879864
 21
-19.565168
 31
0.0
  0
LINE
  5
193
100
AcDbEntity
  8
1
370
    25
100
AcDbLine
 10
-348.879864
 20
-19.565168
 30
0.0
 11
-353.679864
 21
-19.565168
 31
0.0
  0
LINE
  5
194
100
AcDbEntity
  8
1
370
    25
100
AcDbLine
 10
219.83818
 20
110.434832
 30
0.0
 11
213.838177
 21
110.434832
 31
0.0
  0
LINE
  5
195
100
AcDbEntity
  8
1
370
    25
100
AcDbLine
 10
219.83818
 20
114.434832
 30
0.0
 11
213.838177
 21
114.434832
 31
0.0
  0
LINE
  5
196
100
AcDbEntity
  8
1
370
    18
100
AcDbLine
 10
219.83818
 20
110.662332
 30
0.0
 11
213.838177
 21
110.662332
 31
0.0
  0
LINE
  5
197
100
AcDbEntity
  8
1
370
    18
100
AcDbLine
 10
219.83818
 20
114.207332
 30
0.0
 11
213.838177
 21
114.207332
 31
0.0
  0
LINE
  5
198
100
AcDbEntity
  8
1
370
    25
100
AcDbLine
 10
219.838177
 20
209.539021
 30
0.0
 11
213.838177
 21
209.539021
 31
0.0
  0
LINE
  5
199
100
AcDbEntity
  8
1
370
    25
100
AcDbLine
 10
219.838177
 20
213.539021
 30
0.0
 11
213.838177
 21
213.539021
 31
0.0
  0
LINE
  5
19A
100
AcDbEntity
  8
1
370
    18
100
AcDbLine
 10
219.838177
 20
209.766521
 30
0.0
 11
213.838177
 21
209.766521
 31
0.0
  0
LINE
  5
19B
100
AcDbEntity
  8
1
370
    18
100
AcDbLine
 10
219.838177
 20
213.311521
 30
0.0
 11
213.838177
 21
213.311521
 31
0.0
  0
LINE
  5
19C
100
AcDbEntity
  8
1
370
    25
100
AcDbLine
 10
296.556217
 20
114.534832
 30
0.0
 11
296.056217
 21
114.534832
 31
0.0
  0
ARC
  5
19D
100
AcDbEntity
  8
1
370
    25
100
AcDbCircle
 10
294.456217
 20
114.534832
 30
0.0
 40
1.6
100
AcDbArc
 50
270.0
 51
360.0
  0
LINE
  5
19E
100
AcDbEntity
  8
1
370
    25
100
AcDbLine
 10
294.456217
 20
112.934832
 30
0.0
 11
294.456217
 21
112.434832
 31
0.0
  0
LINE
  5
19F
100
AcDbEntity
  8
1
370
    25
100
AcDbLine
 10
296.556217
 20
110.334832
 30
0.0
 11
296.056217
 21
110.334832
 31
0.0
  0
ARC
  5
1A0
100
AcDbEntity
  8
1
370
    25
100
AcDbCircle
 10
294.456217
 20
110.334832
 30
0.0
 40
1.6
100
AcDbArc
 50
0.0
 51
90.0
  0
LINE
  5
1A1
100
AcDbEntity
  8
1
370
    25
100
AcDbLine
 10
294.456217
 20
111.934832
 30
0.0
 11
294.456217
 21
112.434832
 31
0.0
  0
LINE
  5
1A2
100
AcDbEntity
  8
1
370
    25
100
AcDbLine
 10
296.556217
 20
114.534832
 30
0.0
 11
297.056217
 21
114.534832
 31
0.0
  0
ARC
  5
1A3
100
AcDbEntity
  8
1
370
    25
100
AcDbCircle
 10
298.656217
 20
114.534832
 30
0.0
 40
1.6
100
AcDbArc
 50
180.0
 51
270.0
  0
LINE
  5
1A4
100
AcDbEntity
  8
1
370
    25
100
AcDbLine
 10
298.656217
 20
112.934832
 30
0.0
 11
298.656217
 21
112.434832
 31
0.0
  0
LINE
  5
1A5
100
AcDbEntity
  8
1
370
    25
100
AcDbLine
 10
296.556217
 20
110.334832
 30
0.0
 11
297.056217
 21
110.334832
 31
0.0
  0
ARC
  5
1A6
100
AcDbEntity
  8
1
370
    25
100
AcDbCircle
 10
298.656217
 20
110.334832
 30
0.0
 40
1.6
100
AcDbArc
 50
90.0
 51
180.0
  0
LINE
  5
1A7
100
AcDbEntity
  8
1
370
    25
100
AcDbLine
 10
298.656217
 20
111.934832
 30
0.0
 11
298.656217
 21
112.434832
 31
0.0
  0
CIRCLE
  5
1A8
100
AcDbEntity
  8
1
370
    25
100
AcDbCircle
 10
296.556217
 20
112.434832
 30
0.0
 40
4.0
  0
LINE
  5
1A9
100
AcDbEntity
  8
1
370
    18
  6
CENTER
100
AcDbLine
 10
302.056217
 20
112.434832
 30
0.0
 11
291.056217
 21
112.434832
 31
0.0
  0
LINE
  5
1AA
100
AcDbEntity
  8
1
370
    18
  6
CENTER
100
AcDbLine
 10
296.556217
 20
106.934832
 30
0.0
 11
296.556217
 21
117.934832
 31
0.0
  0
LINE
  5
1AB
100
AcDbEntity
  8
1
370
    25
100
AcDbLine
 10
296.556217
 20
-6.465168
 30
0.0
 11
296.056217
 21
-6.465168
 31
0.0
  0
ARC
  5
1AC
100
AcDbEntity
  8
1
370
    25
100
AcDbCircle
 10
294.456217
 20
-6.465168
 30
0.0
 40
1.6
100
AcDbArc
 50
270.0
 51
360.0
  0
LINE
  5
1AD
100
AcDbEntity
  8
1
370
    25
100
AcDbLine
 10
294.456217
 20
-8.065168
 30
0.0
 11
294.456217
 21
-8.565168
 31
0.0
  0
LINE
  5
1AE
100
AcDbEntity
  8
1
370
    25
100
AcDbLine
 10
296.556217
 20
-10.665168
 30
0.0
 11
296.056217
 21
-10.665168
 31
0.0
  0
ARC
  5
1AF
100
AcDbEntity
  8
1
370
    25
100
AcDbCircle
 10
294.456217
 20
-10.665168
 30
0.0
 40
1.6
100
AcDbArc
 50
0.0
 51
90.0
  0
LINE
  5
1B0
100
AcDbEntity
  8
1
370
    25
100
AcDbLine
 10
294.456217
 20
-9.065168
 30
0.0
 11
294.456217
 21
-8.565168
 31
0.0
  0
LINE
  5
1B1
100
AcDbEntity
  8
1
370
    25
100
AcDbLine
 10
296.556217
 20
-6.465168
 30
0.0
 11
297.056217
 21
-6.465168
 31
0.0
  0
ARC
  5
1B2
100
AcDbEntity
  8
1
370
    25
100
AcDbCircle
 10
298.656217
 20
-6.465168
 30
0.0
 40
1.6
100
AcDbArc
 50
180.0
 51
270.0
  0
LINE
  5
1B3
100
AcDbEntity
  8
1
370
    25
100
AcDbLine
 10
298.656217
 20
-8.065168
 30
0.0
 11
298.656217
 21
-8.565168
 31
0.0
  0
LINE
  5
1B4
100
AcDbEntity
  8
1
370
    25
100
AcDbLine
 10
296.556217
 20
-10.665168
 30
0.0
 11
297.056217
 21
-10.665168
 31
0.0
  0
ARC
  5
1B5
100
AcDbEntity
  8
1
370
    25
100
AcDbCircle
 10
298.656217
 20
-10.665168
 30
0.0
 40
1.6
100
AcDbArc
 50
90.0
 51
180.0
  0
LINE
  5
1B6
100
AcDbEntity
  8
1
370
    25
100
AcDbLine
 10
298.656217
 20
-9.065168
 30
0.0
 11
298.656217
 21
-8.565168
 31
0.0
  0
CIRCLE
  5
1B7
100
AcDbEntity
  8
1
370
    25
100
AcDbCircle
 10
296.556217
 20
-8.565168
 30
0.0
 40
4.0
  0
LINE
  5
1B8
100
AcDbEntity
  8
1
370
    18
  6
CENTER
100
AcDbLine
 10
302.056217
 20
-8.565168
 30
0.0
 11
291.056217
 21
-8.565168
 31
0.0
  0
LINE
  5
1B9
100
AcDbEntity
  8
1
370
    18
  6
CENTER
100
AcDbLine
 10
296.556217
 20
-14.065168
 30
0.0
 11
296.556217
 21
-3.065168
 31
0.0
  0
LINE
  5
1BA
100
AcDbEntity
  8
1
370
    25
100
AcDbLine
 10
177.838177
 20
54.034832
 30
0.0
 11
178.338177
 21
54.034832
 31
0.0
  0
ARC
  5
1BB
100
AcDbEntity
  8
1
370
    25
100
AcDbCircle
 10
179.938177
 20
54.034832
 30
0.0
 40
1.6
100
AcDbArc
 50
180.0
 51
270.0
  0
LINE
  5
1BC
100
AcDbEntity
  8
1
370
    25
100
AcDbLine
 10
179.938177
 20
52.434832
 30
0.0
 11
179.938177
 21
51.934832
 31
0.0
  0
LINE
  5
1BD
100
AcDbEntity
  8
1
370
    25
100
AcDbLine
 10
177.838177
 20
49.834832
 30
0.0
 11
178.338177
 21
49.834832
 31
0.0
  0
ARC
  5
1BE
100
AcDbEntity
  8
1
370
    25
100
AcDbCircle
 10
179.938177
 20
49.834832
 30
0.0
 40
1.6
100
AcDbArc
 50
90.0
 51
180.0
  0
LINE
  5
1BF
100
AcDbEntity
  8
1
370
    25
100
AcDbLine
 10
179.938177
 20
51.434832
 30
0.0
 11
179.938177
 21
51.934832
 31
0.0
  0
LINE
  5
1C0
100
AcDbEntity
  8
1
370
    25
100
AcDbLine
 10
177.838177
 20
54.034832
 30
0.0
 11
177.338177
 21
54.034832
 31
0.0
  0
ARC
  5
1C1
100
AcDbEntity
  8
1
370
    25
100
AcDbCircle
 10
175.738177
 20
54.034832
 30
0.0
 40
1.6
100
AcDbArc
 50
270.0
 51
360.0
  0
LINE
  5
1C2
100
AcDbEntity
  8
1
370
    25
100
AcDbLine
 10
175.738177
 20
52.434832
 30
0.0
 11
175.738177
 21
51.934832
 31
0.0
  0
LINE
  5
1C3
100
AcDbEntity
  8
1
370
    25
100
AcDbLine
 10
177.838177
 20
49.834832
 30
0.0
 11
177.338177
 21
49.834832
 31
0.0
  0
ARC
  5
1C4
100
AcDbEntity
  8
1
370
    25
100
AcDbCircle
 10
175.738177
 20
49.834832
 30
0.0
 40
1.6
100
AcDbArc
 50
0.0
 51
90.0
  0
LINE
  5
1C5
100
AcDbEntity
  8
1
370
    25
100
AcDbLine
 10
175.738177
 20
51.434832
 30
0.0
 11
175.738177
 21
51.934832
 31
0.0
  0
CIRCLE
  5
1C6
100
AcDbEntity
  8
1
370
    25
100
AcDbCircle
 10
177.838177
 20
51.934832
 30
0.0
 40
4.0
  0
LINE
  5
1C7
100
AcDbEntity
  8
1
370
    18
  6
CENTER
100
AcDbLine
 10
172.338177
 20
51.934832
 30
0.0
 11
183.338177
 21
51.934832
 31
0.0
  0
LINE
  5
1C8
100
AcDbEntity
  8
1
370
    18
  6
CENTER
100
AcDbLine
 10
177.838177
 20
46.434832
 30
0.0
 11
177.838177
 21
57.434832
 31
0.0
  0
LINE
  5
1C9
100
AcDbEntity
  8
1
370
    25
100
AcDbLine
 10
177.838177
 20
89.034832
 30
0.0
 11
178.338177
 21
89.034832
 31
0.0
  0
ARC
  5
1CA
100
AcDbEntity
  8
1
370
    25
100
AcDbCircle
 10
179.938177
 20
89.034832
 30
0.0
 40
1.6
100
AcDbArc
 50
180.0
 51
270.0
  0
LINE
  5
1CB
100
AcDbEntity
  8
1
370
    25
100
AcDbLine
 10
179.938177
 20
87.434832
 30
0.0
 11
179.938177
 21
86.934832
 31
0.0
  0
LINE
  5
1CC
100
AcDbEntity
  8
1
370
    25
100
AcDbLine
 10
177.838177
 20
84.834832
 30
0.0
 11
178.338177
 21
84.834832
 31
0.0
  0
ARC
  5
1CD
100
AcDbEntity
  8
1
370
    25
100
AcDbCircle
 10
179.938177
 20
84.834832
 30
0.0
 40
1.6
100
AcDbArc
 50
90.0
 51
180.0
  0
LINE
  5
1CE
100
AcDbEntity
  8
1
370
    25
100
AcDbLine
 10
179.938177
 20
86.434832
 30
0.0
 11
179.938177
 21
86.934832
 31
0.0
  0
LINE
  5
1CF
100
AcDbEntity
  8
1
370
    25
100
AcDbLine
 10
177.838177
 20
89.034832
 30
0.0
 11
177.338177
 21
89.034832
 31
0.0
  0
ARC
  5
1D0
100
AcDbEntity
  8
1
370
    25
100
AcDbCircle
 10
175.738177
 20
89.034832
 30
0.0
 40
1.6
100
AcDbArc
 50
270.0
 51
360.0
  0
LINE
  5
1D1
100
AcDbEntity
  8
1
370
    25
100
AcDbLine
 10
175.738177
 20
87.434832
 30
0.0
 11
175.738177
 21
86.934832
 31
0.0
  0
LINE
  5
1D2
100
AcDbEntity
  8
1
370
    25
100
AcDbLine
 10
177.838177
 20
84.834832
 30
0.0
 11
177.338177
 21
84.834832
 31
0.0
  0
ARC
  5
1D3
100
AcDbEntity
  8
1
370
    25
100
AcDbCircle
 10
175.738177
 20
84.834832
 30
0.0
 40
1.6
100
AcDbArc
 50
0.0
 51
90.0
  0
LINE
  5
1D4
100
AcDbEntity
  8
1
370
    25
100
AcDbLine
 10
175.738177
 20
86.434832
 30
0.0
 11
175.738177
 21
86.934832
 31
0.0
  0
CIRCLE
  5
1D5
100
AcDbEntity
  8
1
370
    25
100
AcDbCircle
 10
177.838177
 20
86.934832
 30
0.0
 40
4.0
  0
LINE
  5
1D6
100
AcDbEntity
  8
1
370
    18
  6
CENTER
100
AcDbLine
 10
172.338177
 20
86.934832
 30
0.0
 11
183.338177
 21
86.934832
 31
0.0
  0
LINE
  5
1D7
100
AcDbEntity
  8
1
370
    18
  6
CENTER
100
AcDbLine
 10
177.838177
 20
81.434832
 30
0.0
 11
177.838177
 21
92.434832
 31
0.0
  0
LINE
  5
1D8
100
AcDbEntity
  8
1
370
    25
100
AcDbLine
 10
219.83818
 20
-10.565168
 30
0.0
 11
213.838177
 21
-10.565168
 31
0.0
  0
LINE
  5
1D9
100
AcDbEntity
  8
1
370
    25
100
AcDbLine
 10
219.83818
 20
-6.565168
 30
0.0
 11
213.838177
 21
-6.565168
 31
0.0
  0
LINE
  5
1DA
100
AcDbEntity
  8
1
370
    18
100
AcDbLine
 10
219.83818
 20
-10.337668
 30
0.0
 11
213.838177
 21
-10.337668
 31
0.0
  0
LINE
  5
1DB
100
AcDbEntity
  8
1
370
    18
100
AcDbLine
 10
219.83818
 20
-6.792668
 30
0.0
 11
213.838177
 21
-6.792668
 31
0.0
  0
LINE
  5
1DC
100
AcDbEntity
  8
1
370
    25
100
AcDbLine
 10
-232.161823
 20
54.034832
 30
0.0
 11
-231.661823
 21
54.034832
 31
0.0
  0
ARC
  5
1DD
100
AcDbEntity
  8
1
370
    25
100
AcDbCircle
 10
-230.061823
 20
54.034832
 30
0.0
 40
1.6
100
AcDbArc
 50
180.0
 51
270.0
  0
LINE
  5
1DE
100
AcDbEntity
  8
1
370
    25
100
AcDbLine
 10
-230.061823
 20
52.434832
 30
0.0
 11
-230.061823
 21
51.934832
 31
0.0
  0
LINE
  5
1DF
100
AcDbEntity
  8
1
370
    25
100
AcDbLine
 10
-232.161823
 20
49.834832
 30
0.0
 11
-231.661823
 21
49.834832
 31
0.0
  0
ARC
  5
1E0
100
AcDbEntity
  8
1
370
    25
100
AcDbCircle
 10
-230.061823
 20
49.834832
 30
0.0
 40
1.6
100
AcDbArc
 50
90.0
 51
180.0
  0
LINE
  5
1E1
100
AcDbEntity
  8
1
370
    25
100
AcDbLine
 10
-230.061823
 20
51.434832
 30
0.0
 11
-230.061823
 21
51.934832
 31
0.0
  0
LINE
  5
1E2
100
AcDbEntity
  8
1
370
    25
100
AcDbLine
 10
-232.161823
 20
54.034832
 30
0.0
 11
-232.661823
 21
54.034832
 31
0.0
  0
ARC
  5
1E3
100
AcDbEntity
  8
1
370
    25
100
AcDbCircle
 10
-234.261823
 20
54.034832
 30
0.0
 40
1.6
100
AcDbArc
 50
270.0
 51
360.0
  0
LINE
  5
1E4
100
AcDbEntity
  8
1
370
    25
100
AcDbLine
 10
-234.261823
 20
52.434832
 30
0.0
 11
-234.261823
 21
51.934832
 31
0.0
  0
LINE
  5
1E5
100
AcDbEntity
  8
1
370
    25
100
AcDbLine
 10
-232.161823
 20
49.834832
 30
0.0
 11
-232.661823
 21
49.834832
 31
0.0
  0
ARC
  5
1E6
100
AcDbEntity
  8
1
370
    25
100
AcDbCircle
 10
-234.261823
 20
49.834832
 30
0.0
 40
1.6
100
AcDbArc
 50
0.0
 51
90.0
  0
LINE
  5
1E7
100
AcDbEntity
  8
1
370
    25
100
AcDbLine
 10
-234.261823
 20
51.434832
 30
0.0
 11
-234.261823
 21
51.934832
 31
0.0
  0
CIRCLE
  5
1E8
100
AcDbEntity
  8
1
370
    25
100
AcDbCircle
 10
-232.161823
 20
51.934832
 30
0.0
 40
4.0
  0
LINE
  5
1E9
100
AcDbEntity
  8
1
370
    18
  6
CENTER
100
AcDbLine
 10
-237.661823
 20
51.934832
 30
0.0
 11
-226.661823
 21
51.934832
 31
0.0
  0
LINE
  5
1EA
100
AcDbEntity
  8
1
370
    18
  6
CENTER
100
AcDbLine
 10
-232.161823
 20
46.434832
 30
0.0
 11
-232.161823
 21
57.434832
 31
0.0
  0
LINE
  5
1EB
100
AcDbEntity
  8
1
370
    25
100
AcDbLine
 10
-232.161823
 20
89.034832
 30
0.0
 11
-231.661823
 21
89.034832
 31
0.0
  0
ARC
  5
1EC
100
AcDbEntity
  8
1
370
    25
100
AcDbCircle
 10
-230.061823
 20
89.034832
 30
0.0
 40
1.6
100
AcDbArc
 50
180.0
 51
270.0
  0
LINE
  5
1ED
100
AcDbEntity
  8
1
370
    25
100
AcDbLine
 10
-230.061823
 20
87.434832
 30
0.0
 11
-230.061823
 21
86.934832
 31
0.0
  0
LINE
  5
1EE
100
AcDbEntity
  8
1
370
    25
100
AcDbLine
 10
-232.161823
 20
84.834832
 30
0.0
 11
-231.661823
 21
84.834832
 31
0.0
  0
ARC
  5
1EF
100
AcDbEntity
  8
1
370
    25
100
AcDbCircle
 10
-230.061823
 20
84.834832
 30
0.0
 40
1.6
100
AcDbArc
 50
90.0
 51
180.0
  0
LINE
  5
1F0
100
AcDbEntity
  8
1
370
    25
100
AcDbLine
 10
-230.061823
 20
86.434832
 30
0.0
 11
-230.061823
 21
86.934832
 31
0.0
  0
LINE
  5
1F1
100
AcDbEntity
  8
1
370
    25
100
AcDbLine
 10
-232.161823
 20
89.034832
 30
0.0
 11
-232.661823
 21
89.034832
 31
0.0
  0
ARC
  5
1F2
100
AcDbEntity
  8
1
370
    25
100
AcDbCircle
 10
-234.261823
 20
89.034832
 30
0.0
 40
1.6
100
AcDbArc
 50
270.0
 51
360.0
  0
LINE
  5
1F3
100
AcDbEntity
  8
1
370
    25
100
AcDbLine
 10
-234.261823
 20
87.434832
 30
0.0
 11
-234.261823
 21
86.934832
 31
0.0
  0
LINE
  5
1F4
100
AcDbEntity
  8
1
370
    25
100
AcDbLine
 10
-232.161823
 20
84.834832
 30
0.0
 11
-232.661823
 21
84.834832
 31
0.0
  0
ARC
  5
1F5
100
AcDbEntity
  8
1
370
    25
100
AcDbCircle
 10
-234.261823
 20
84.834832
 30
0.0
 40
1.6
100
AcDbArc
 50
0.0
 51
90.0
  0
LINE
  5
1F6
100
AcDbEntity
  8
1
370
    25
100
AcDbLine
 10
-234.261823
 20
86.434832
 30
0.0
 11
-234.261823
 21
86.934832
 31
0.0
  0
CIRCLE
  5
1F7
100
AcDbEntity
  8
1
370
    25
100
AcDbCircle
 10
-232.161823
 20
86.934832
 30
0.0
 40
4.0
  0
LINE
  5
1F8
100
AcDbEntity
  8
1
370
    18
  6
CENTER
100
AcDbLine
 10
-237.661823
 20
86.934832
 30
0.0
 11
-226.661823
 21
86.934832
 31
0.0
  0
LINE
  5
1F9
100
AcDbEntity
  8
1
370
    18
  6
CENTER
100
AcDbLine
 10
-232.161823
 20
81.434832
 30
0.0
 11
-232.161823
 21
92.434832
 31
0.0
  0
LINE
  5
1FA
100
AcDbEntity
  8
1
370
    50
  6
DOT
100
AcDbLine
 10
-334.879864
 20
-6.465168
 30
0.0
 11
-334.379864
 21
-6.465168
 31
0.0
  0
ARC
  5
1FB
100
AcDbEntity
  8
1
370
    50
  6
DOT
100
AcDbCircle
 10
-332.779864
 20
-6.465168
 30
0.0
 40
1.6
100
AcDbArc
 50
180.0
 51
270.0
  0
LINE
  5
1FC
100
AcDbEntity
  8
1
370
    50
  6
DOT
100
AcDbLine
 10
-332.779864
 20
-8.065168
 30
0.0
 11
-332.779864
 21
-8.565168
 31
0.0
  0
LINE
  5
1FD
100
AcDbEntity
  8
1
370
    50
  6
DOT
100
AcDbLine
 10
-334.879864
 20
-10.665168
 30
0.0
 11
-334.379864
 21
-10.665168
 31
0.0
  0
ARC
  5
1FE
100
AcDbEntity
  8
1
370
    50
  6
DOT
100
AcDbCircle
 10
-332.779864
 20
-10.665168
 30
0.0
 40
1.6
100
AcDbArc
 50
90.0
 51
180.0
  0
LINE
  5
1FF
100
AcDbEntity
  8
1
370
    50
  6
DOT
100
AcDbLine
 10
-332.779864
 20
-9.065168
 30
0.0
 11
-332.779864
 21
-8.565168
 31
0.0
  0
LINE
  5
200
100
AcDbEntity
  8
1
370
    50
  6
DOT
100
AcDbLine
 10
-334.879864
 20
-6.465168
 30
0.0
 11
-335.379864
 21
-6.465168
 31
0.0
  0
ARC
  5
201
100
AcDbEntity
  8
1
370
    50
  6
DOT
100
AcDbCircle
 10
-336.979864
 20
-6.465168
 30
0.0
 40
1.6
100
AcDbArc
 50
270.0
 51
360.0
  0
LINE
  5
202
100
AcDbEntity
  8
1
370
    50
  6
DOT
100
AcDbLine
 10
-336.979864
 20
-8.065168
 30
0.0
 11
-336.979864
 21
-8.565168
 31
0.0
  0
LINE
  5
203
100
AcDbEntity
  8
1
370
    50
  6
DOT
100
AcDbLine
 10
-334.879864
 20
-10.665168
 30
0.0
 11
-335.379864
 21
-10.665168
 31
0.0
  0
ARC
  5
204
100
AcDbEntity
  8
1
370
    50
  6
DOT
100
AcDbCircle
 10
-336.979864
 20
-10.665168
 30
0.0
 40
1.6
100
AcDbArc
 50
0.0
 51
90.0
  0
LINE
  5
205
100
AcDbEntity
  8
1
370
    50
  6
DOT
100
AcDbLine
 10
-336.979864
 20
-9.065168
 30
0.0
 11
-336.979864
 21
-8.565168
 31
0.0
  0
CIRCLE
  5
206
100
AcDbEntity
  8
1
370
    50
  6
DOT
100
AcDbCircle
 10
-334.879864
 20
-8.565168
 30
0.0
 40
4.0
  0
LINE
  5
207
100
AcDbEntity
  8
1
370
    50
  6
DOT
100
AcDbLine
 10
-340.379864
 20
-8.565168
 30
0.0
 11
-329.379864
 21
-8.565168
 31
0.0
  0
LINE
  5
208
100
AcDbEntity
  8
1
370
    50
  6
DOT
100
AcDbLine
 10
-334.879864
 20
-14.065168
 30
0.0
 11
-334.879864
 21
-3.065168
 31
0.0
  0
LINE
  5
209
100
AcDbEntity
  8
1
370
    50
  6
DOT
100
AcDbLine
 10
-334.879864
 20
114.534832
 30
0.0
 11
-334.379864
 21
114.534832
 31
0.0
  0
ARC
  5
20A
100
AcDbEntity
  8
1
370
    50
  6
DOT
100
AcDbCircle
 10
-332.779864
 20
114.534832
 30
0.0
 40
1.6
100
AcDbArc
 50
180.0
 51
270.0
  0
LINE
  5
20B
100
AcDbEntity
  8
1
370
    50
  6
DOT
100
AcDbLine
 10
-332.779864
 20
112.934832
 30
0.0
 11
-332.779864
 21
112.434832
 31
0.0
  0
LINE
  5
20C
100
AcDbEntity
  8
1
370
    50
  6
DOT
100
AcDbLine
 10
-334.879864
 20
110.334832
 30
0.0
 11
-334.379864
 21
110.334832
 31
0.0
  0
ARC
  5
20D
100
AcDbEntity
  8
1
370
    50
  6
DOT
100
AcDbCircle
 10
-332.779864
 20
110.334832
 30
0.0
 40
1.6
100
AcDbArc
 50
90.0
 51
180.0
  0
LINE
  5
20E
100
AcDbEntity
  8
1
370
    50
  6
DOT
100
AcDbLine
 10
-332.779864
 20
111.934832
 30
0.0
 11
-332.779864
 21
112.434832
 31
0.0
  0
LINE
  5
20F
100
AcDbEntity
  8
1
370
    50
  6
DOT
100
AcDbLine
 10
-334.879864
 20
114.534832
 30
0.0
 11
-335.379864
 21
114.534832
 31
0.0
  0
ARC
  5
210
100
AcDbEntity
  8
1
370
    50
  6
DOT
100
AcDbCircle
 10
-336.979864
 20
114.534832
 30
0.0
 40
1.6
100
AcDbArc
 50
270.0
 51
360.0
  0
LINE
  5
211
100
AcDbEntity
  8
1
370
    50
  6
DOT
100
AcDbLine
 10
-336.979864
 20
112.934832
 30
0.0
 11
-336.979864
 21
112.434832
 31
0.0
  0
LINE
  5
212
100
AcDbEntity
  8
1
370
    50
  6
DOT
100
AcDbLine
 10
-334.879864
 20
110.334832
 30
0.0
 11
-335.379864
 21
110.334832
 31
0.0
  0
ARC
  5
213
100
AcDbEntity
  8
1
370
    50
  6
DOT
100
AcDbCircle
 10
-336.979864
 20
110.334832
 30
0.0
 40
1.6
100
AcDbArc
 50
0.0
 51
90.0
  0
LINE
  5
214
100
AcDbEntity
  8
1
370
    50
  6
DOT
100
AcDbLine
 10
-336.979864
 20
111.934832
 30
0.0
 11
-336.979864
 21
112.434832
 31
0.0
  0
CIRCLE
  5
215
100
AcDbEntity
  8
1
370
    50
  6
DOT
100
AcDbCircle
 10
-334.879864
 20
112.434832
 30
0.0
 40
4.0
  0
LINE
  5
216
100
AcDbEntity
  8
1
370
    50
  6
DOT
100
AcDbLine
 10
-340.379864
 20
112.434832
 30
0.0
 11
-329.379864
 21
112.434832
 31
0.0
  0
LINE
  5
217
100
AcDbEntity
  8
1
370
    50
  6
DOT
100
AcDbLine
 10
-334.879864
 20
106.934832
 30
0.0
 11
-334.879864
 21
117.934832
 31
0.0
  0
LINE
  5
218
100
AcDbEntity
  8
1
370
    25
100
AcDbLine
 10
-203.661823
 20
110.434832
 30
0.0
 11
-202.161823
 21
110.434832
 31
0.0
  0
LINE
  5
219
100
AcDbEntity
  8
1
370
    25
100
AcDbLine
 10
-203.661823
 20
114.434832
 30
0.0
 11
-202.161823
 21
114.434832
 31
0.0
  0
LINE
  5
21A
100
AcDbEntity
  8
1
370
    18
100
AcDbLine
 10
-203.661823
 20
110.662332
 30
0.0
 11
-202.161823
 21
110.662332
 31
0.0
  0
LINE
  5
21B
100
AcDbEntity
  8
1
370
    18
100
AcDbLine
 10
-203.661823
 20
114.207332
 30
0.0
 11
-202.161823
 21
114.207332
 31
0.0
  0
LINE
  5
21C
100
AcDbEntity
  8
1
370
    25
100
AcDbLine
 10
-203.661823
 20
209.539021
 30
0.0
 11
-202.161823
 21
209.539021
 31
0.0
  0
LINE
  5
21D
100
AcDbEntity
  8
1
370
    25
100
AcDbLine
 10
-203.661823
 20
213.539021
 30
0.0
 11
-202.161823
 21
213.539021
 31
0.0
  0
LINE
  5
21E
100
AcDbEntity
  8
1
370
    18
100
AcDbLine
 10
-203.661823
 20
209.766521
 30
0.0
 11
-202.161823
 21
209.766521
 31
0.0
  0
LINE
  5
21F
100
AcDbEntity
  8
1
370
    18
100
AcDbLine
 10
-203.661823
 20
213.311521
 30
0.0
 11
-202.161823
 21
213.311521
 31
0.0
  0
LINE
  5
220
100
AcDbEntity
  8
1
370
    25
100
AcDbLine
 10
-203.661823
 20
-10.565168
 30
0.0
 11
-202.161823
 21
-10.565168
 31
0.0
  0
LINE
  5
221
100
AcDbEntity
  8
1
370
    25
100
AcDbLine
 10
-203.661823
 20
-6.565168
 30
0.0
 11
-202.161823
 21
-6.565168
 31
0.0
  0
LINE
  5
222
100
AcDbEntity
  8
1
370
    18
100
AcDbLine
 10
-203.661823
 20
-10.337668
 30
0.0
 11
-202.161823
 21
-10.337668
 31
0.0
  0
LINE
  5
223
100
AcDbEntity
  8
1
370
    18
100
AcDbLine
 10
-203.661823
 20
-6.792668
 30
0.0
 11
-202.161823
 21
-6.792668
 31
0.0
  0
LINE
  5
224
100
AcDbEntity
  8
1
370
    25
100
AcDbLine
 10
192.838177
 20
37.987384
 30
0.0
 11
157.733648
 21
41.677018
 31
0.0
  0
LINE
  5
225
100
AcDbEntity
  8
1
370
    25
100
AcDbLine
 10
156.838177
 20
95.334553
 30
0.0
 11
156.838177
 21
42.67154
 31
0.0
  0
LINE
  5
226
100
AcDbEntity
  8
1
370
    25
100
AcDbLine
 10
192.838177
 20
119.864561
 30
0.0
 11
162.838177
 21
115.648336
 31
0.0
  0
ARC
  5
227
100
AcDbEntity
  8
1
370
    25
100
AcDbCircle
 10
179.538949
 20
-3.183832
 30
0.0
 40
120.0
100
AcDbArc
 50
98.0
 51
112.360451
  0
LINE
  5
228
100
AcDbEntity
  8
1
370
    25
100
AcDbLine
 10
132.338177
 20
105.481208
 30
0.0
 11
132.338177
 21
102.059681
 31
0.0
  0
LINE
  5
229
100
AcDbEntity
  8
1
370
    25
100
AcDbLine
 10
133.251021
 20
101.063486
 30
0.0
 11
153.1868
 21
99.319332
 31
0.0
  0
ARC
  5
22A
100
AcDbEntity
  8
1
370
    25
100
AcDbCircle
 10
152.838177
 20
95.334553
 30
0.0
 40
4.0
100
AcDbArc
 50
360.0
 51
85.0
  0
ARC
  5
22B
100
AcDbEntity
  8
1
370
    25
100
AcDbCircle
 10
134.838177
 20
105.481208
 30
0.0
 40
2.5
100
AcDbArc
 50
112.360451
 51
180.0
  0
ARC
  5
22C
100
AcDbEntity
  8
1
370
    25
100
AcDbCircle
 10
133.338177
 20
102.059681
 30
0.0
 40
1.0
100
AcDbArc
 50
180.0
 51
265.0
  0
ARC
  5
22D
100
AcDbEntity
  8
1
370
    25
100
AcDbCircle
 10
157.838177
 20
42.67154
 30
0.0
 40
1.0
100
AcDbArc
 50
180.0
 51
264.0
  0
LINE
  5
22E
100
AcDbEntity
  8
1
370
    25
100
AcDbLine
 10
192.838177
 20
42.266242
 30
0.0
 11
157.733648
 21
45.955876
 31
0.0
  0
ARC
  5
22F
100
AcDbEntity
  8
1
370
    25
100
AcDbCircle
 10
157.838177
 20
46.950398
 30
0.0
 40
1.0
100
AcDbArc
 50
180.0
 51
264.0
  0
LINE
  5
230
100
AcDbEntity
  8
1
370
    25
100
AcDbLine
 10
47.120136
 20
117.030776
 30
0.0
 11
47.120136
 21
43.467456
 31
0.0
  0
LINE
  5
231
100
AcDbEntity
  8
1
370
    25
100
AcDbLine
 10
83.120136
 20
117.030776
 30
0.0
 11
83.120136
 21
43.467456
 31
0.0
  0
ARC
  5
232
100
AcDbEntity
  8
1
370
    25
100
AcDbCircle
 10
65.120136
 20
-180.065168
 30
0.0
 40
300.0
100
AcDbArc
 50
87.01349
 51
92.98651
  0
ARC
  5
233
100
AcDbEntity
  8
1
370
    25
100
AcDbCircle
 10
80.620136
 20
117.030776
 30
0.0
 40
2.5
100
AcDbArc
 50
0.0
 51
87.01349
  0
ARC
  5
234
100
AcDbEntity
  8
1
370
    25
100
AcDbCircle
 10
49.620136
 20
117.030776
 30
0.0
 40
2.5
100
AcDbArc
 50
92.98651
 51
180.0
  0
LINE
  5
235
100
AcDbEntity
  8
1
370
    25
100
AcDbLine
 10
48.342881
 20
98.999878
 30
0.0
 11
48.342881
 21
47.204651
 31
0.0
  0
LINE
  5
236
100
AcDbEntity
  8
1
370
    25
100
AcDbLine
 10
81.897391
 20
98.999878
 30
0.0
 11
81.897391
 21
47.204651
 31
0.0
  0
ELLIPSE
  5
237
100
AcDbEntity
  8
1
370
    25
100
AcDbEllipse
 10
65.120136
 20
98.999878
 30
0.0
 11
16.777255
 21
0.0
 31
0.0
210
0.0
220
0.0
230
1.0
 40
0.127761
 41
0.0
 42
3.1415929999999999
  0
ELLIPSE
  5
238
100
AcDbEntity
  8
1
370
    25
100
AcDbEllipse
 10
65.120136
 20
112.822472
 30
0.0
 11
16.5
 21
0.0
 31
0.0
210
0.0
220
0.0
230
1.0
 40
0.344189
 41
3.1415929999999999
 42
0.0
  0
LINE
  5
239
100
AcDbEntity
  8
1
370
    25
100
AcDbLine
 10
81.620136
 20
112.822472
 30
0.0
 11
82.645113
 21
117.313148
 31
0.0
  0
LINE
  5
23A
100
AcDbEntity
  8
1
370
    25
100
AcDbLine
 10
48.620136
 20
112.822472
 30
0.0
 11
47.59516
 21
117.313148
 31
0.0
  0
LINE
  5
23B
100
AcDbEntity
  8
1
370
    25
100
AcDbLine
 10
81.897391
 20
98.999878
 30
0.0
 11
79.120136
 21
98.999878
 31
0.0
  0
LINE
  5
23C
100
AcDbEntity
  8
1
370
    25
100
AcDbLine
 10
48.342881
 20
98.999878
 30
0.0
 11
51.120136
 21
98.999878
 31
0.0
  0
LINE
  5
23D
100
AcDbEntity
  8
1
370
    25
100
AcDbLine
 10
81.897391
 20
45.902207
 30
0.0
 11
82.859452
 21
43.000068
 31
0.0
  0
LINE
  5
23E
100
AcDbEntity
  8
1
370
    25
100
AcDbLine
 10
48.342881
 20
45.902207
 30
0.0
 11
47.380821
 21
43.000068
 31
0.0
  0
ARC
  5
23F
100
AcDbEntity
  8
1
370
    25
100
AcDbCircle
 10
79.897391
 20
47.204651
 30
0.0
 40
2.0
100
AcDbArc
 50
292.884525
 51
360.0
  0
ARC
  5
240
100
AcDbEntity
  8
1
370
    25
100
AcDbCircle
 10
50.342881
 20
47.204651
 30
0.0
 40
2.0
100
AcDbArc
 50
180.0
 51
247.115475
  0
ARC
  5
241
100
AcDbEntity
  8
1
370
    25
100
AcDbCircle
 10
49.120136
 20
43.467456
 30
0.0
 40
2.0
100
AcDbArc
 50
180.0
 51
245.098938
  0
ARC
  5
242
100
AcDbEntity
  8
1
370
    25
100
AcDbCircle
 10
81.120136
 20
43.467456
 30
0.0
 40
2.0
100
AcDbArc
 50
294.901062
 51
360.0
  0
LINE
  5
243
100
AcDbEntity
  8
1
370
    18
  6
CENTER
100
AcDbLine
 10
148.838177
 20
229.580059
 30
0.0
 11
148.838177
 21
193.273676
 31
0.0
  0
ARC
  5
244
100
AcDbEntity
  8
1
370
    25
100
AcDbCircle
 10
148.838177
 20
211.539021
 30
0.0
 40
16.5
100
AcDbArc
 50
91.918683
 51
268.081317
  0
LINE
  5
245
100
AcDbEntity
  8
1
370
    25
100
AcDbLine
 10
148.285739
 20
228.02977
 30
0.0
 11
192.838177
 21
229.522271
 31
0.0
  0
LINE
  5
246
100
AcDbEntity
  8
1
370
    25
100
AcDbLine
 10
148.285739
 20
195.048271
 30
0.0
 11
192.838177
 21
193.55577
 31
0.0
  0
LINE
  5
247
100
AcDbEntity
  8
1
370
    18
  6
CENTER
100
AcDbLine
 10
232.637718
 20
211.539021
 30
0.0
 11
128.157022
 21
211.539021
 31
0.0
  0
ARC
  5
248
100
AcDbEntity
  8
1
370
    25
100
AcDbCircle
 10
65.120136
 20
82.213689
 30
0.0
 40
40.0
100
AcDbArc
 50
290.487315
 51
292.884525
  0
ARC
  5
249
100
AcDbEntity
  8
1
370
    25
100
AcDbCircle
 10
65.120136
 20
82.213689
 30
0.0
 40
40.0
100
AcDbArc
 50
247.115475
 51
249.512685
  0
ARC
  5
24A
100
AcDbEntity
  8
1
370
    25
100
AcDbCircle
 10
65.120136
 20
77.934832
 30
0.0
 40
40.0
100
AcDbArc
 50
290.487315
 51
294.901062
  0
ARC
  5
24B
100
AcDbEntity
  8
1
370
    25
100
AcDbCircle
 10
65.120136
 20
77.934832
 30
0.0
 40
40.0
100
AcDbArc
 50
245.098938
 51
249.512685
  0
LINE
  5
24C
100
AcDbEntity
  8
1
370
    25
100
AcDbLine
 10
-217.161823
 20
37.987384
 30
0.0
 11
-252.266352
 21
41.677018
 31
0.0
  0
LINE
  5
24D
100
AcDbEntity
  8
1
370
    25
100
AcDbLine
 10
-253.161823
 20
95.334553
 30
0.0
 11
-253.161823
 21
42.67154
 31
0.0
  0
LINE
  5
24E
100
AcDbEntity
  8
1
370
    25
100
AcDbLine
 10
-217.161823
 20
119.864561
 30
0.0
 11
-247.161823
 21
115.648336
 31
0.0
  0
ARC
  5
24F
100
AcDbEntity
  8
1
370
    25
100
AcDbCircle
 10
-230.461051
 20
-3.183832
 30
0.0
 40
120.0
100
AcDbArc
 50
98.0
 51
112.360451
  0
LINE
  5
250
100
AcDbEntity
  8
1
370
    25
100
AcDbLine
 10
-277.661823
 20
105.481208
 30
0.0
 11
-277.661823
 21
102.059681
 31
0.0
  0
LINE
  5
251
100
AcDbEntity
  8
1
370
    25
100
AcDbLine
 10
-276.748979
 20
101.063486
 30
0.0
 11
-256.8132
 21
99.319332
 31
0.0
  0
ARC
  5
252
100
AcDbEntity
  8
1
370
    25
100
AcDbCircle
 10
-257.161823
 20
95.334553
 30
0.0
 40
4.0
100
AcDbArc
 50
360.0
 51
85.0
  0
ARC
  5
253
100
AcDbEntity
  8
1
370
    25
100
AcDbCircle
 10
-275.161823
 20
105.481208
 30
0.0
 40
2.5
100
AcDbArc
 50
112.360451
 51
180.0
  0
ARC
  5
254
100
AcDbEntity
  8
1
370
    25
100
AcDbCircle
 10
-276.661823
 20
102.059681
 30
0.0
 40
1.0
100
AcDbArc
 50
180.0
 51
265.0
  0
ARC
  5
255
100
AcDbEntity
  8
1
370
    25
100
AcDbCircle
 10
-252.161823
 20
42.67154
 30
0.0
 40
1.0
100
AcDbArc
 50
180.0
 51
264.0
  0
LINE
  5
256
100
AcDbEntity
  8
1
370
    25
100
AcDbLine
 10
-217.161823
 20
42.266242
 30
0.0
 11
-252.266352
 21
45.955876
 31
0.0
  0
ARC
  5
257
100
AcDbEntity
  8
1
370
    25
100
AcDbCircle
 10
-252.161823
 20
46.950398
 30
0.0
 40
1.0
100
AcDbArc
 50
180.0
 51
264.0
  0
LINE
  5
258
100
AcDbEntity
  8
1
370
    25
100
AcDbLine
 10
-181.161823
 20
37.987384
 30
0.0
 11
-146.057295
 21
41.677018
 31
0.0
  0
LINE
  5
259
100
AcDbEntity
  8
1
370
    25
100
AcDbLine
 10
-145.161823
 20
95.334553
 30
0.0
 11
-145.161823
 21
42.67154
 31
0.0
  0
LINE
  5
25A
100
AcDbEntity
  8
1
370
    25
100
AcDbLine
 10
-181.161823
 20
119.864561
 30
0.0
 11
-151.161823
 21
115.648336
 31
0.0
  0
ARC
  5
25B
100
AcDbEntity
  8
1
370
    25
100
AcDbCircle
 10
-167.862595
 20
-3.183832
 30
0.0
 40
120.0
100
AcDbArc
 50
67.639549
 51
82.0
  0
LINE
  5
25C
100
AcDbEntity
  8
1
370
    25
100
AcDbLine
 10
-120.661823
 20
105.481208
 30
0.0
 11
-120.661823
 21
102.059681
 31
0.0
  0
LINE
  5
25D
100
AcDbEntity
  8
1
370
    25
100
AcDbLine
 10
-121.574668
 20
101.063486
 30
0.0
 11
-141.510446
 21
99.319332
 31
0.0
  0
ARC
  5
25E
100
AcDbEntity
  8
1
370
    25
100
AcDbCircle
 10
-141.161823
 20
95.334553
 30
0.0
 40
4.0
100
AcDbArc
 50
95.0
 51
180.0
  0
ARC
  5
25F
100
AcDbEntity
  8
1
370
    25
100
AcDbCircle
 10
-123.161823
 20
105.481208
 30
0.0
 40
2.5
100
AcDbArc
 50
0.0
 51
67.639549
  0
ARC
  5
260
100
AcDbEntity
  8
1
370
    25
100
AcDbCircle
 10
-121.661823
 20
102.059681
 30
0.0
 40
1.0
100
AcDbArc
 50
275.0
 51
360.0
  0
ARC
  5
261
100
AcDbEntity
  8
1
370
    25
100
AcDbCircle
 10
-146.161823
 20
42.67154
 30
0.0
 40
1.0
100
AcDbArc
 50
276.0
 51
360.0
  0
LINE
  5
262
100
AcDbEntity
  8
1
370
    25
100
AcDbLine
 10
-181.161823
 20
42.266242
 30
0.0
 11
-146.057295
 21
45.955876
 31
0.0
  0
ARC
  5
263
100
AcDbEntity
  8
1
370
    25
100
AcDbCircle
 10
-146.161823
 20
46.950398
 30
0.0
 40
1.0
100
AcDbArc
 50
276.0
 51
360.0
  0
LINE
  5
264
100
AcDbEntity
  8
1
370
    25
100
AcDbLine
 10
-35.443783
 20
117.030776
 30
0.0
 11
-35.443783
 21
43.467456
 31
0.0
  0
LINE
  5
265
100
AcDbEntity
  8
1
370
    25
100
AcDbLine
 10
-71.443783
 20
117.030776
 30
0.0
 11
-71.443783
 21
43.467456
 31
0.0
  0
ARC
  5
266
100
AcDbEntity
  8
1
370
    25
100
AcDbCircle
 10
-53.443783
 20
-180.065168
 30
0.0
 40
300.0
100
AcDbArc
 50
87.01349
 51
92.98651
  0
ARC
  5
267
100
AcDbEntity
  8
1
370
    25
100
AcDbCircle
 10
-68.943783
 20
117.030776
 30
0.0
 40
2.5
100
AcDbArc
 50
92.98651
 51
180.0
  0
ARC
  5
268
100
AcDbEntity
  8
1
370
    25
100
AcDbCircle
 10
-37.943783
 20
117.030776
 30
0.0
 40
2.5
100
AcDbArc
 50
0.0
 51
87.01349
  0
LINE
  5
269
100
AcDbEntity
  8
1
370
    25
100
AcDbLine
 10
-36.666528
 20
98.999878
 30
0.0
 11
-36.666528
 21
47.204651
 31
0.0
  0
LINE
  5
26A
100
AcDbEntity
  8
1
370
    25
100
AcDbLine
 10
-70.221038
 20
98.999878
 30
0.0
 11
-70.221038
 21
47.204651
 31
0.0
  0
ELLIPSE
  5
26B
100
AcDbEntity
  8
1
370
    25
100
AcDbEllipse
 10
-53.443783
 20
98.999878
 30
0.0
 11
-16.777255
 21
0.0
 31
0.0
210
0.0
220
0.0
230
1.0
 40
0.127761
 41
3.1415929999999999
 42
0.0
  0
ELLIPSE
  5
26C
100
AcDbEntity
  8
1
370
    25
100
AcDbEllipse
 10
-53.443783
 20
112.822472
 30
0.0
 11
-16.5
 21
0.0
 31
0.0
210
0.0
220
0.0
230
1.0
 40
0.344189
 41
0.0
 42
3.1415929999999999
  0
LINE
  5
26D
100
AcDbEntity
  8
1
370
    25
100
AcDbLine
 10
-69.943783
 20
112.822472
 30
0.0
 11
-70.968759
 21
117.313148
 31
0.0
  0
LINE
  5
26E
100
AcDbEntity
  8
1
370
    25
100
AcDbLine
 10
-36.943783
 20
112.822472
 30
0.0
 11
-35.918806
 21
117.313148
 31
0.0
  0
LINE
  5
26F
100
AcDbEntity
  8
1
370
    25
100
AcDbLine
 10
-70.221038
 20
98.999878
 30
0.0
 11
-67.443783
 21
98.999878
 31
0.0
  0
LINE
  5
270
100
AcDbEntity
  8
1
370
    25
100
AcDbLine
 10
-36.666528
 20
98.999878
 30
0.0
 11
-39.443783
 21
98.999878
 31
0.0
  0
LINE
  5
271
100
AcDbEntity
  8
1
370
    25
100
AcDbLine
 10
-70.221038
 20
45.902207
 30
0.0
 11
-71.183098
 21
43.000068
 31
0.0
  0
LINE
  5
272
100
AcDbEntity
  8
1
370
    25
100
AcDbLine
 10
-36.666528
 20
45.902207
 30
0.0
 11
-35.704467
 21
43.000068
 31
0.0
  0
ARC
  5
273
100
AcDbEntity
  8
1
370
    25
100
AcDbCircle
 10
-68.221038
 20
47.204651
 30
0.0
 40
2.0
100
AcDbArc
 50
180.0
 51
247.115475
  0
ARC
  5
274
100
AcDbEntity
  8
1
370
    25
100
AcDbCircle
 10
-38.666528
 20
47.204651
 30
0.0
 40
2.0
100
AcDbArc
 50
292.884525
 51
360.0
  0
ARC
  5
275
100
AcDbEntity
  8
1
370
    25
100
AcDbCircle
 10
-37.443783
 20
43.467456
 30
0.0
 40
2.0
100
AcDbArc
 50
294.901062
 51
360.0
  0
ARC
  5
276
100
AcDbEntity
  8
1
370
    25
100
AcDbCircle
 10
-69.443783
 20
43.467456
 30
0.0
 40
2.0
100
AcDbArc
 50
180.0
 51
245.098938
  0
LINE
  5
277
100
AcDbEntity
  8
1
370
    18
  6
CENTER
100
AcDbLine
 10
-137.161823
 20
229.580059
 30
0.0
 11
-137.161823
 21
193.273676
 31
0.0
  0
ARC
  5
278
100
AcDbEntity
  8
1
370
    25
100
AcDbCircle
 10
-137.161823
 20
211.539021
 30
0.0
 40
16.5
100
AcDbArc
 50
271.918683
 51
88.081317
  0
LINE
  5
279
100
AcDbEntity
  8
1
370
    25
100
AcDbLine
 10
-136.609385
 20
228.02977
 30
0.0
 11
-181.161823
 21
229.522271
 31
0.0
  0
LINE
  5
27A
100
AcDbEntity
  8
1
370
    25
100
AcDbLine
 10
-136.609385
 20
195.048271
 30
0.0
 11
-181.161823
 21
193.55577
 31
0.0
  0
LINE
  5
27B
100
AcDbEntity
  8
1
370
    18
  6
CENTER
100
AcDbLine
 10
-281.842978
 20
211.539021
 30
0.0
 11
-116.480668
 21
211.539021
 31
0.0
  0
LINE
  5
27C
100
AcDbEntity
  8
1
370
    18
  6
CENTER
100
AcDbLine
 10
-261.161823
 20
229.580059
 30
0.0
 11
-261.161823
 21
193.273676
 31
0.0
  0
ARC
  5
27D
100
AcDbEntity
  8
1
370
    25
100
AcDbCircle
 10
-261.161823
 20
211.539021
 30
0.0
 40
16.5
100
AcDbArc
 50
91.918683
 51
268.081317
  0
LINE
  5
27E
100
AcDbEntity
  8
1
370
    25
100
AcDbLine
 10
-261.714261
 20
228.02977
 30
0.0
 11
-217.161823
 21
229.522271
 31
0.0
  0
LINE
  5
27F
100
AcDbEntity
  8
1
370
    25
100
AcDbLine
 10
-261.714261
 20
195.048271
 30
0.0
 11
-217.161823
 21
193.55577
 31
0.0
  0
ARC
  5
280
100
AcDbEntity
  8
1
370
    25
100
AcDbCircle
 10
-53.443783
 20
82.213689
 30
0.0
 40
40.0
100
AcDbArc
 50
247.115475
 51
249.512685
  0
ARC
  5
281
100
AcDbEntity
  8
1
370
    25
100
AcDbCircle
 10
-53.443783
 20
82.213689
 30
0.0
 40
40.0
100
AcDbArc
 50
290.487315
 51
292.884525
  0
ARC
  5
282
100
AcDbEntity
  8
1
370
    25
100
AcDbCircle
 10
-53.443783
 20
77.934832
 30
0.0
 40
40.0
100
AcDbArc
 50
245.098938
 51
249.512685
  0
ARC
  5
283
100
AcDbEntity
  8
1
370
    25
100
AcDbCircle
 10
-53.443783
 20
77.934832
 30
0.0
 40
40.0
100
AcDbArc
 50
290.487315
 51
294.901062
  0
LINE
  5
284
100
AcDbEntity
  8
1
370
    25
100
AcDbLine
 10
-352.879864
 20
117.030776
 30
0.0
 11
-352.879864
 21
43.467456
 31
0.0
  0
LINE
  5
285
100
AcDbEntity
  8
1
370
    25
100
AcDbLine
 10
-316.879864
 20
117.030776
 30
0.0
 11
-316.879864
 21
43.467456
 31
0.0
  0
ARC
  5
286
100
AcDbEntity
  8
1
370
    25
100
AcDbCircle
 10
-334.879864
 20
-180.065168
 30
0.0
 40
300.0
100
AcDbArc
 50
87.01349
 51
92.98651
  0
ARC
  5
287
100
AcDbEntity
  8
1
370
    25
100
AcDbCircle
 10
-319.379864
 20
117.030776
 30
0.0
 40
2.5
100
AcDbArc
 50
0.0
 51
87.01349
  0
ARC
  5
288
100
AcDbEntity
  8
1
370
    25
100
AcDbCircle
 10
-350.379864
 20
117.030776
 30
0.0
 40
2.5
100
AcDbArc
 50
92.98651
 51
180.0
  0
LINE
  5
289
100
AcDbEntity
  8
1
370
    25
100
AcDbLine
 10
-351.657119
 20
98.999878
 30
0.0
 11
-351.657119
 21
47.204651
 31
0.0
  0
LINE
  5
28A
100
AcDbEntity
  8
1
370
    25
100
AcDbLine
 10
-318.102609
 20
98.999878
 30
0.0
 11
-318.102609
 21
47.204651
 31
0.0
  0
ELLIPSE
  5
28B
100
AcDbEntity
  8
1
370
    25
100
AcDbEllipse
 10
-334.879864
 20
98.999878
 30
0.0
 11
16.777255
 21
0.0
 31
0.0
210
0.0
220
0.0
230
1.0
 40
0.127761
 41
0.0
 42
3.1415929999999999
  0
ELLIPSE
  5
28C
100
AcDbEntity
  8
1
370
    25
100
AcDbEllipse
 10
-334.879864
 20
112.822472
 30
0.0
 11
16.5
 21
0.0
 31
0.0
210
0.0
220
0.0
230
1.0
 40
0.344189
 41
3.1415929999999999
 42
0.0
  0
LINE
  5
28D
100
AcDbEntity
  8
1
370
    25
100
AcDbLine
 10
-318.379864
 20
112.822472
 30
0.0
 11
-317.354887
 21
117.313148
 31
0.0
  0
LINE
  5
28E
100
AcDbEntity
  8
1
370
    25
100
AcDbLine
 10
-351.379864
 20
112.822472
 30
0.0
 11
-352.40484
 21
117.313148
 31
0.0
  0
LINE
  5
28F
100
AcDbEntity
  8
1
370
    25
100
AcDbLine
 10
-318.102609
 20
98.999878
 30
0.0
 11
-320.879864
 21
98.999878
 31
0.0
  0
LINE
  5
290
100
AcDbEntity
  8
1
370
    25
100
AcDbLine
 10
-351.657119
 20
98.999878
 30
0.0
 11
-348.879864
 21
98.999878
 31
0.0
  0
LINE
  5
291
100
AcDbEntity
  8
1
370
    25
100
AcDbLine
 10
-318.102609
 20
45.902207
 30
0.0
 11
-317.140548
 21
43.000068
 31
0.0
  0
LINE
  5
292
100
AcDbEntity
  8
1
370
    25
100
AcDbLine
 10
-351.657119
 20
45.902207
 30
0.0
 11
-352.619179
 21
43.000068
 31
0.0
  0
ARC
  5
293
100
AcDbEntity
  8
1
370
    25
100
AcDbCircle
 10
-320.102609
 20
47.204651
 30
0.0
 40
2.0
100
AcDbArc
 50
292.884525
 51
360.0
  0
ARC
  5
294
100
AcDbEntity
  8
1
370
    25
100
AcDbCircle
 10
-349.657119
 20
47.204651
 30
0.0
 40
2.0
100
AcDbArc
 50
180.0
 51
247.115475
  0
ARC
  5
295
100
AcDbEntity
  8
1
370
    25
100
AcDbCircle
 10
-350.879864
 20
43.467456
 30
0.0
 40
2.0
100
AcDbArc
 50
180.0
 51
245.098938
  0
ARC
  5
296
100
AcDbEntity
  8
1
370
    25
100
AcDbCircle
 10
-318.879864
 20
43.467456
 30
0.0
 40
2.0
100
AcDbArc
 50
294.901062
 51
360.0
  0
ARC
  5
297
100
AcDbEntity
  8
1
370
    25
100
AcDbCircle
 10
-334.879864
 20
82.213689
 30
0.0
 40
40.0
100
AcDbArc
 50
290.487315
 51
292.884525
  0
ARC
  5
298
100
AcDbEntity
  8
1
370
    25
100
AcDbCircle
 10
-334.879864
 20
82.213689
 30
0.0
 40
40.0
100
AcDbArc
 50
247.115475
 51
249.512685
  0
ARC
  5
299
100
AcDbEntity
  8
1
370
    25
100
AcDbCircle
 10
-334.879864
 20
77.934832
 30
0.0
 40
40.0
100
AcDbArc
 50
290.487315
 51
294.901062
  0
ARC
  5
29A
100
AcDbEntity
  8
1
370
    25
100
AcDbCircle
 10
-334.879864
 20
77.934832
 30
0.0
 40
40.0
100
AcDbArc
 50
245.098938
 51
249.512685
  0
POINT
  5
29B
100
AcDbEntity
  8
1
370
    50
100
AcDbPoint
 10
192.838177
 20
119.934832
 30
0.0
  0
DIMENSION
  5
29C
100
AcDbEntity
  8
2
370
    25
100
AcDbDimension
  2
*D0
 10
331.121765
 20
112.434832
 30
0.0
 11
322.621765
 21
49.434832
 31
0.0
 71
     0
 72
     0
 41
0.0
 42
0.0
  3
Standard
100
AcDbAlignedDimension
 13
303.690331
 23
-8.565168
 33
0.0
 14
303.690331
 24
112.434832
 34
0.0
 50
90.0
100
AcDbRotatedDimension
  0
DIMENSION
  5
29D
100
AcDbEntity
  8
2
370
    25
100
AcDbDimension
  2
*D1
 10
341.671204
 20
123.434832
 30
0.0
 11
333.171204
 21
49.434832
 31
0.0
 71
     0
 72
     0
 41
0.0
 42
0.0
  3
Standard
100
AcDbAlignedDimension
 13
315.556217
 23
-19.565168
 33
0.0
 14
315.556217
 24
123.434832
 34
0.0
 50
90.0
100
AcDbRotatedDimension
  0
DIMENSION
  5
29E
100
AcDbEntity
  8
2
370
    25
100
AcDbDimension
  2
*D2
 10
317.056217
 20
144.563065
 30
0.0
 11
296.556217
 21
148.063065
 31
0.0
 71
     0
 72
     0
 41
0.0
 42
0.0
  3
Standard
100
AcDbAlignedDimension
 13
276.056217
 23
121.934832
 33
0.0
 14
317.056217
 24
121.934832
 34
0.0
100
AcDbRotatedDimension
  0
DIMENSION
  5
29F
100
AcDbEntity
  8
2
370
    25
100
AcDbDimension
  2
*D3
 10
86.420136
 20
144.563065
 30
0.0
 11
65.120136
 21
148.063065
 31
0.0
 71
     0
 72
     0
 41
0.0
 42
0.0
  3
Standard
100
AcDbAlignedDimension
 13
43.820136
 23
120.934832
 33
0.0
 14
86.420136
 24
120.934832
 34
0.0
100
AcDbRotatedDimension
  0
DIMENSION
  5
2A0
100
AcDbEntity
  8
2
370
    25
100
AcDbDimension
  2
*D4
 10
29.716431
 20
123.434832
 30
0.0
 11
21.216431
 21
49.434832
 31
0.0
 71
     0
 72
     0
 41
0.0
 42
0.0
  3
Standard
100
AcDbAlignedDimension
 13
46.320136
 23
-19.565168
 33
0.0
 14
46.320136
 24
123.434832
 34
0.0
 50
90.0
100
AcDbRotatedDimension
  0
DIMENSION
  5
2A1
100
AcDbEntity
  8
2
370
    25
100
AcDbDimension
  2
*D5
 10
119.970215
 20
86.934832
 30
0.0
 11
113.970215
 21
69.434832
 31
0.0
 71
     0
 72
     0
 41
0.0
 42
0.0
  3
Standard
100
AcDbAlignedDimension
 13
130.692158
 23
51.934832
 33
0.0
 14
172.338177
 24
86.934832
 34
0.0
 50
90.0
100
AcDbRotatedDimension
  0
DIMENSION
  5
2A2
100
AcDbEntity
  8
2
370
    25
100
AcDbDimension
  2
*D6
 10
192.838177
 20
19.99527
 30
0.0
 11
185.338177
 21
23.49527
 31
0.0
 71
     0
 72
     0
 41
0.0
 42
0.0
  3
Standard
100
AcDbAlignedDimension
 13
177.838177
 23
46.434832
 33
0.0
 14
192.838177
 24
21.408615
 34
0.0
100
AcDbRotatedDimension
  0
DIMENSION
  5
2A3
100
AcDbEntity
  8
2
370
    25
100
AcDbDimension
  2
*D7
 10
203.856628
 20
226.289021
 30
0.0
 11
192.856628
 21
235.289021
 31
0.0
 71
     0
 72
     0
 41
0.0
 42
0.0
  3
Standard
100
AcDbAlignedDimension
 13
195.838177
 23
196.789021
 33
0.0
 14
195.838177
 24
226.289021
 34
0.0
 50
90.0
100
AcDbRotatedDimension
  0
DIMENSION
  5
2A4
100
AcDbEntity
  8
2
370
    25
100
AcDbDimension
  2
*D8
 10
195.838177
 20
144.563065
 30
0.0
 11
176.019287
 21
148.432343
 31
0.0
 71
     0
 72
     0
 41
0.0
 42
0.0
  3
Standard
100
AcDbAlignedDimension
 13
132.338177
 23
105.481208
 33
0.0
 14
195.838177
 24
123.434832
 34
0.0
100
AcDbRotatedDimension
  0
TEXT
  5
2A5
100
AcDbEntity
  8
2
370
    18
100
AcDbText
 10
198.338177
 20
145.563065
 30
0.0
 40
5.0
  1
３０～４０
 72
     5
 11
222.338177
 21
145.563065
 31
0.0
100
AcDbText
  0
DIMENSION
  5
2A6
100
AcDbEntity
  8
2
370
    25
100
AcDbDimension
  2
*D9
 10
225.838177
 20
144.563065
 30
0.0
 11
210.838177
 21
146.563065
 31
0.0
 71
     0
 72
     0
 41
0.0
 42
0.0
  3
Standard
100
AcDbAlignedDimension
 13
195.838177
 23
123.434832
 33
0.0
 14
225.838177
 24
123.434832
 34
0.0
100
AcDbRotatedDimension
  0
DIMENSION
  5
2A7
100
AcDbEntity
  8
2
370
    25
100
AcDbDimension
  2
*D10
 10
227.638177
 20
144.563065
 30
0.0
 11
239.138177
 21
148.063065
 31
0.0
 71
     0
 72
     0
 41
0.0
 42
0.0
  3
Standard
100
AcDbAlignedDimension
 13
225.838177
 23
123.434832
 33
0.0
 14
227.638177
 24
122.544287
 34
0.0
100
AcDbRotatedDimension
  0
DIMENSION
  5
2A8
100
AcDbEntity
  8
2
370
    25
100
AcDbDimension
  2
*D11
 10
225.838177
 20
-36.360874
 30
0.0
 11
234.838177
 21
-32.860874
 31
0.0
 71
     0
 72
     0
 41
0.0
 42
0.0
  3
Standard
100
AcDbAlignedDimension
 13
212.838177
 23
4.566003
 33
0.0
 14
225.838177
 24
-19.565168
 34
0.0
100
AcDbRotatedDimension
  0
DIMENSION
  5
2A9
100
AcDbEntity
  8
2
370
    25
100
AcDbDimension
  2
*D12
 10
206.338177
 20
-36.360874
 30
0.0
 11
181.838177
 21
-32.860874
 31
0.0
 71
     0
 72
     0
 41
0.0
 42
0.0
  3
Standard
100
AcDbAlignedDimension
 13
195.838177
 23
-19.565168
 33
0.0
 14
206.338177
 24
-13.5404
 34
0.0
100
AcDbRotatedDimension
  0
DIMENSION
  5
2AA
100
AcDbEntity
  8
2
370
    25
100
AcDbDimension
  2
*D13
 10
162.838177
 20
-107.739677
 30
0.0
 11
148.838177
 21
-104.239677
 31
0.0
 71
     0
 72
     0
 41
0.0
 42
0.0
  3
Standard
100
AcDbAlignedDimension
 13
134.838177
 23
-107.739677
 33
0.0
 14
162.838177
 24
-107.739677
 34
0.0
100
AcDbRotatedDimension
  0
CIRCLE
  5
2AB
100
AcDbEntity
  8
2
370
    18
100
AcDbCircle
 10
47.174353
 20
164.740191
 30
0.0
 40
7.5
  0
CIRCLE
  5
2AC
100
AcDbEntity
  8
2
370
    18
100
AcDbCircle
 10
282.174353
 20
164.740191
 30
0.0
 40
7.5
  0
CIRCLE
  5
2AD
100
AcDbEntity
  8
2
370
    18
100
AcDbCircle
 10
312.174353
 20
164.740191
 30
0.0
 40
7.5
  0
CIRCLE
  5
2AE
100
AcDbEntity
  8
2
370
    18
100
AcDbCircle
 10
151.502001
 20
164.740191
 30
0.0
 40
7.5
  0
CIRCLE
  5
2AF
100
AcDbEntity
  8
2
370
    18
100
AcDbCircle
 10
131.502001
 20
164.740191
 30
0.0
 40
7.5
  0
TEXT
  5
2B0
100
AcDbEntity
  8
2
370
    18
100
AcDbText
 10
127.752001
 20
160.990191
 30
0.0
 40
7.5
  1
３
 72
     5
 11
133.752001
 21
160.990191
 31
0.0
100
AcDbText
  0
TEXT
  5
2B1
100
AcDbEntity
  8
2
370
    18
100
AcDbText
 10
147.752001
 20
160.990191
 30
0.0
 40
7.5
  1
４
 72
     5
 11
153.752001
 21
160.990191
 31
0.0
100
AcDbText
  0
LWPOLYLINE
  5
2B2
100
AcDbEntity
  8
2
370
    18
100
AcDbPolyline
 90
        2
 70
     0
 10
155.595383
 20
110.843048
 10
134.562788
 20
157.893178
  0
LINE
  5
2B6
100
AcDbEntity
  8
2
370
    25
100
AcDbLine
 10
155.831002
 20
110.315965
 30
0.0
 11
156.743937
 21
110.72407
 31
0.0
  0
LINE
  5
2B7
100
AcDbEntity
  8
2
370
    25
100
AcDbLine
 10
156.743937
 20
110.72407
 30
0.0
 11
155.124144
 21
111.897215
 31
0.0
  0
LINE
  5
2B8
100
AcDbEntity
  8
2
370
    25
100
AcDbLine
 10
155.124144
 20
111.897215
 30
0.0
 11
154.918067
 21
109.90786
 31
0.0
  0
LINE
  5
2B9
100
AcDbEntity
  8
2
370
    25
100
AcDbLine
 10
154.918067
 20
109.90786
 30
0.0
 11
155.831002
 21
110.315965
 31
0.0
  0
LWPOLYLINE
  5
2BA
100
AcDbEntity
  8
2
370
    18
100
AcDbPolyline
 90
        2
 70
     0
 10
53.908081
 20
122.357521
 10
48.351187
 20
157.333096
  0
LINE
  5
2BE
100
AcDbEntity
  8
2
370
    25
100
AcDbLine
 10
53.998674
 20
121.787323
 30
0.0
 11
54.986286
 21
121.944234
 31
0.0
  0
LINE
  5
2BF
100
AcDbEntity
  8
2
370
    25
100
AcDbLine
 10
54.986286
 20
121.944234
 30
0.0
 11
53.726896
 21
123.497918
 31
0.0
  0
LINE
  5
2C0
100
AcDbEntity
  8
2
370
    25
100
AcDbLine
 10
53.726896
 20
123.497918
 30
0.0
 11
53.011061
 21
121.630411
 31
0.0
  0
LINE
  5
2C1
100
AcDbEntity
  8
2
370
    25
100
AcDbLine
 10
53.011061
 20
121.630411
 30
0.0
 11
53.998674
 21
121.787323
 31
0.0
  0
LWPOLYLINE
  5
2C2
100
AcDbEntity
  8
2
370
    18
100
AcDbPolyline
 90
        2
 70
     0
 10
288.976929
 20
119.494209
 10
283.28942
 20
157.323546
  0
LINE
  5
2C6
100
AcDbEntity
  8
2
370
    25
100
AcDbLine
 10
289.062767
 20
118.923276
 30
0.0
 11
290.051653
 21
119.071951
 31
0.0
  0
LINE
  5
2C7
100
AcDbEntity
  8
2
370
    25
100
AcDbLine
 10
290.051653
 20
119.071951
 30
0.0
 11
288.805253
 21
120.636077
 31
0.0
  0
LINE
  5
2C8
100
AcDbEntity
  8
2
370
    25
100
AcDbLine
 10
288.805253
 20
120.636077
 30
0.0
 11
288.073881
 21
118.7746
 31
0.0
  0
LINE
  5
2C9
100
AcDbEntity
  8
2
370
    25
100
AcDbLine
 10
288.073881
 20
118.7746
 30
0.0
 11
289.062767
 21
118.923276
 31
0.0
  0
LWPOLYLINE
  5
2CA
100
AcDbEntity
  8
2
370
    18
100
AcDbPolyline
 90
        2
 70
     0
 10
298.42572
 20
114.913139
 10
310.179449
 20
157.510367
  0
LINE
  5
2CE
100
AcDbEntity
  8
2
370
    25
100
AcDbLine
 10
298.272152
 20
114.356587
 30
0.0
 11
299.236129
 21
114.0906
 31
0.0
  0
LINE
  5
2CF
100
AcDbEntity
  8
2
370
    25
100
AcDbLine
 10
299.236129
 20
114.0906
 30
0.0
 11
298.732856
 21
116.026244
 31
0.0
  0
LINE
  5
2D0
100
AcDbEntity
  8
2
370
    25
100
AcDbLine
 10
298.732856
 20
116.026244
 30
0.0
 11
297.308176
 21
114.622574
 31
0.0
  0
LINE
  5
2D1
100
AcDbEntity
  8
2
370
    25
100
AcDbLine
 10
297.308176
 20
114.622574
 30
0.0
 11
298.272152
 21
114.356587
 31
0.0
  0
TEXT
  5
2D2
100
AcDbEntity
  8
2
370
    18
100
AcDbText
 10
43.424353
 20
160.990191
 30
0.0
 40
7.5
  1
２
 72
     5
 11
49.424353
 21
160.990191
 31
0.0
100
AcDbText
  0
LWPOLYLINE
  5
2D3
100
AcDbEntity
  8
2
370
    18
100
AcDbPolyline
 90
        2
 70
     0
 10
176.517761
 20
88.543091
 10
153.841426
 20
157.614386
  0
LINE
  5
2D7
100
AcDbEntity
  8
2
370
    25
100
AcDbLine
 10
176.69785
 20
87.994546
 30
0.0
 11
177.647958
 21
88.30647
 31
0.0
  0
LINE
  5
2D8
100
AcDbEntity
  8
2
370
    25
100
AcDbLine
 10
177.647958
 20
88.30647
 30
0.0
 11
176.157583
 21
89.64018
 31
0.0
  0
LINE
  5
2D9
100
AcDbEntity
  8
2
370
    25
100
AcDbLine
 10
176.157583
 20
89.64018
 30
0.0
 11
175.747743
 21
87.682623
 31
0.0
  0
LINE
  5
2DA
100
AcDbEntity
  8
2
370
    25
100
AcDbLine
 10
175.747743
 20
87.682623
 30
0.0
 11
176.69785
 21
87.994546
 31
0.0
  0
TEXT
  5
2DB
100
AcDbEntity
  8
2
370
    18
100
AcDbText
 10
308.424353
 20
160.990191
 30
0.0
 40
7.5
  1
５
 72
     5
 11
314.424353
 21
160.990191
 31
0.0
100
AcDbText
  0
DIMENSION
  5
2DC
100
AcDbEntity
  8
2
370
    25
100
AcDbDimension
  2
*D14
 10
192.838177
 20
-0.204697
 30
0.0
 11
177.838177
 21
3.295303
 31
0.0
 71
     0
 72
     0
 41
0.0
 42
0.0
  3
Standard
100
AcDbAlignedDimension
 13
162.838177
 23
-0.204697
 33
0.0
 14
192.838177
 24
-0.204697
 34
0.0
100
AcDbRotatedDimension
  0
DIMENSION
  5
2DD
100
AcDbEntity
  8
2
370
    25
100
AcDbDimension
  2
*D15
 10
110.963303
 20
51.934832
 30
0.0
 11
102.463303
 21
-60.565168
 31
0.0
 71
     0
 72
     0
 41
0.0
 42
0.0
  3
Standard
100
AcDbAlignedDimension
 13
141.838177
 23
-168.065168
 33
0.0
 14
130.692158
 24
51.934832
 34
0.0
 50
90.0
100
AcDbRotatedDimension
  0
DIMENSION
  5
2DE
100
AcDbEntity
  8
2
370
    25
100
AcDbDimension
  2
*D16
 10
110.963303
 20
119.934832
 30
0.0
 11
104.963303
 21
85.934832
 31
0.0
 71
     0
 72
     0
 41
0.0
 42
0.0
  3
Standard
100
AcDbAlignedDimension
 13
130.692158
 23
51.934832
 33
0.0
 14
192.838177
 24
119.934832
 34
0.0
 50
90.0
100
AcDbRotatedDimension
  0
DIMENSION
  5
2DF
100
AcDbEntity
  8
2
370
    25
100
AcDbDimension
  2
*D17
 10
-106.720978
 20
51.934832
 30
0.0
 11
-115.220978
 21
-60.565168
 31
0.0
 71
     0
 72
     0
 41
0.0
 42
0.0
  3
Standard
100
AcDbAlignedDimension
 13
-130.161823
 23
-168.065168
 33
0.0
 14
-118.920104
 24
51.934832
 34
0.0
 50
90.0
100
AcDbRotatedDimension
  0
DIMENSION
  5
2E0
100
AcDbEntity
  8
2
370
    25
100
AcDbDimension
  2
*D18
 10
-106.720978
 20
119.934832
 30
0.0
 11
-112.720978
 21
85.934832
 31
0.0
 71
     0
 72
     0
 41
0.0
 42
0.0
  3
Standard
100
AcDbAlignedDimension
 13
-118.920104
 23
51.934832
 33
0.0
 14
-181.161823
 24
119.934832
 34
0.0
 50
90.0
100
AcDbRotatedDimension
  0
DIMENSION
  5
2E1
100
AcDbEntity
  8
2
370
    25
100
AcDbDimension
  2
*D19
 10
-123.161823
 20
-107.739677
 30
0.0
 11
-137.161823
 21
-104.239677
 31
0.0
 71
     0
 72
     0
 41
0.0
 42
0.0
  3
Standard
100
AcDbAlignedDimension
 13
-151.161823
 23
-107.739677
 33
0.0
 14
-123.161823
 24
-107.739677
 34
0.0
100
AcDbRotatedDimension
  0
DIMENSION
  5
2E2
100
AcDbEntity
  8
2
370
    25
100
AcDbDimension
  2
*D20
 10
-32.143783
 20
144.563065
 30
0.0
 11
-53.443783
 21
148.063065
 31
0.0
 71
     0
 72
     0
 41
0.0
 42
0.0
  3
Standard
100
AcDbAlignedDimension
 13
-74.743783
 23
120.934832
 33
0.0
 14
-32.143783
 24
120.934832
 34
0.0
100
AcDbRotatedDimension
  0
DIMENSION
  5
2E3
100
AcDbEntity
  8
2
370
    25
100
AcDbDimension
  2
*D21
 10
-17.382965
 20
123.434832
 30
0.0
 11
-25.882965
 21
49.434832
 31
0.0
 71
     0
 72
     0
 41
0.0
 42
0.0
  3
Standard
100
AcDbAlignedDimension
 13
-34.643783
 23
-19.565168
 33
0.0
 14
-34.643783
 24
123.434832
 34
0.0
 50
90.0
100
AcDbRotatedDimension
  0
DIMENSION
  5
2E4
100
AcDbEntity
  8
2
370
    25
100
AcDbDimension
  2
*D22
 10
-120.661823
 20
144.563065
 30
0.0
 11
-152.411823
 21
148.063065
 31
0.0
 71
     0
 72
     0
 41
0.0
 42
0.0
  3
Standard
100
AcDbAlignedDimension
 13
-184.161823
 23
123.434832
 33
0.0
 14
-120.661823
 24
105.481208
 34
0.0
100
AcDbRotatedDimension
  0
DIMENSION
  5
2E5
100
AcDbEntity
  8
2
370
    25
100
AcDbDimension
  2
*D23
 10
-214.161823
 20
144.563065
 30
0.0
 11
-234.769272
 21
148.307037
 31
0.0
 71
     0
 72
     0
 41
0.0
 42
0.0
  3
Standard
100
AcDbAlignedDimension
 13
-277.661823
 23
105.481208
 33
0.0
 14
-214.161823
 24
123.434832
 34
0.0
100
AcDbRotatedDimension
  0
DIMENSION
  5
2E6
100
AcDbEntity
  8
2
370
    25
100
AcDbDimension
  2
*D24
 10
-181.161823
 20
130.925713
 30
0.0
 11
-174.661823
 21
134.425713
 31
0.0
 71
     0
 72
     0
 41
0.0
 42
0.0
  3
Standard
100
AcDbAlignedDimension
 13
-184.161823
 23
123.434832
 33
0.0
 14
-181.161823
 24
122.256034
 34
0.0
100
AcDbRotatedDimension
  0
DIMENSION
  5
2E7
100
AcDbEntity
  8
2
370
    25
100
AcDbDimension
  2
*D25
 10
-151.161823
 20
19.99527
 30
0.0
 11
-166.161823
 21
23.49527
 31
0.0
 71
     0
 72
     0
 41
0.0
 42
0.0
  3
Standard
100
AcDbAlignedDimension
 13
-181.161823
 23
17.835197
 33
0.0
 14
-151.161823
 24
17.835197
 34
0.0
100
AcDbRotatedDimension
  0
DIMENSION
  5
2E8
100
AcDbEntity
  8
2
370
    25
100
AcDbDimension
  2
*D26
 10
-368.678528
 20
112.434832
 30
0.0
 11
-377.178528
 21
49.434832
 31
0.0
 71
     0
 72
     0
 41
0.0
 42
0.0
  3
Standard
100
AcDbAlignedDimension
 13
-340.379864
 23
-8.565168
 33
0.0
 14
-340.379864
 24
112.434832
 34
0.0
 50
90.0
100
AcDbRotatedDimension
  0
DIMENSION
  5
2E9
100
AcDbEntity
  8
2
370
    25
100
AcDbDimension
  2
*D27
 10
-285.002625
 20
86.934832
 30
0.0
 11
-290.502625
 21
71.934832
 31
0.0
 71
     0
 72
     0
 41
0.0
 42
0.0
  3
Standard
100
AcDbAlignedDimension
 13
-278.537338
 23
51.934832
 33
0.0
 14
-237.661823
 24
86.934832
 34
0.0
 50
90.0
100
AcDbRotatedDimension
  0
DIMENSION
  5
2EA
100
AcDbEntity
  8
2
370
    25
100
AcDbDimension
  2
*D28
 10
-217.161829
 20
19.99527
 30
0.0
 11
-224.661826
 21
23.49527
 31
0.0
 71
     0
 72
     0
 41
0.0
 42
0.0
  3
Standard
100
AcDbAlignedDimension
 13
-232.161823
 23
46.434832
 33
0.0
 14
-217.161829
 24
23.409435
 34
0.0
100
AcDbRotatedDimension
  0
TEXT
  5
2EB
100
AcDbEntity
  8
2
370
    18
100
AcDbText
 10
-211.661823
 20
145.563065
 30
0.0
 40
5.0
  1
３０～４０
 72
     5
 11
-187.661823
 21
145.563065
 31
0.0
100
AcDbText
  0
DIMENSION
  5
2EC
100
AcDbEntity
  8
2
370
    25
100
AcDbDimension
  2
*D29
 10
-184.161823
 20
144.563065
 30
0.0
 11
-199.161823
 21
146.563065
 31
0.0
 71
     0
 72
     0
 41
0.0
 42
0.0
  3
Standard
100
AcDbAlignedDimension
 13
-214.161823
 23
123.434832
 33
0.0
 14
-184.161823
 24
123.434832
 34
0.0
100
AcDbRotatedDimension
  0
DIMENSION
  5
2ED
100
AcDbEntity
  8
2
370
    25
100
AcDbDimension
  2
*D30
 10
-184.161823
 20
-36.360874
 30
0.0
 11
-170.161823
 21
-32.860874
 31
0.0
 71
     0
 72
     0
 41
0.0
 42
0.0
  3
Standard
100
AcDbAlignedDimension
 13
-194.66182
 23
-13.5404
 33
0.0
 14
-184.161823
 24
-19.565168
 34
0.0
100
AcDbRotatedDimension
  0
DIMENSION
  5
2EE
100
AcDbEntity
  8
2
370
    25
100
AcDbDimension
  2
*D31
 10
-203.661823
 20
-36.360874
 30
0.0
 11
-228.161823
 21
-32.860874
 31
0.0
 71
     0
 72
     0
 41
0.0
 42
0.0
  3
Standard
100
AcDbAlignedDimension
 13
-214.161823
 23
-19.565168
 33
0.0
 14
-203.661823
 24
-13.5404
 34
0.0
100
AcDbRotatedDimension
  0
DIMENSION
  5
2EF
100
AcDbEntity
  8
2
370
    25
100
AcDbDimension
  2
*D32
 10
-214.161823
 20
130.925713
 30
0.0
 11
-223.661823
 21
134.425713
 31
0.0
 71
     0
 72
     0
 41
0.0
 42
0.0
  3
Standard
100
AcDbAlignedDimension
 13
-217.161823
 23
122.256034
 33
0.0
 14
-214.161823
 24
123.434832
 34
0.0
100
AcDbRotatedDimension
  0
DIMENSION
  5
2F0
100
AcDbEntity
  8
2
370
    25
100
AcDbDimension
  2
*D33
 10
-206.478561
 20
226.289021
 30
0.0
 11
-217.478561
 21
235.289021
 31
0.0
 71
     0
 72
     0
 41
0.0
 42
0.0
  3
Standard
100
AcDbAlignedDimension
 13
-214.161823
 23
196.789021
 33
0.0
 14
-214.161823
 24
226.289021
 34
0.0
 50
90.0
100
AcDbRotatedDimension
  0
CIRCLE
  5
2F1
100
AcDbEntity
  8
2
370
    18
100
AcDbCircle
 10
-34.825647
 20
164.740191
 30
0.0
 40
7.5
  0
CIRCLE
  5
2F2
100
AcDbEntity
  8
2
370
    18
100
AcDbCircle
 10
-352.825647
 20
164.740191
 30
0.0
 40
7.5
  0
TEXT
  5
2F3
100
AcDbEntity
  8
2
370
    18
100
AcDbText
 10
-356.575647
 20
160.990191
 30
0.0
 40
7.5
  1
１
 72
     5
 11
-350.575647
 21
160.990191
 31
0.0
100
AcDbText
  0
CIRCLE
  5
2F4
100
AcDbEntity
  8
2
370
    18
100
AcDbCircle
 10
-129.825647
 20
164.740191
 30
0.0
 40
7.5
  0
CIRCLE
  5
2F5
100
AcDbEntity
  8
2
370
    18
100
AcDbCircle
 10
-258.497999
 20
164.740191
 30
0.0
 40
7.5
  0
LWPOLYLINE
  5
2F6
100
AcDbEntity
  8
2
370
    18
100
AcDbPolyline
 90
        2
 70
     0
 10
-343.740051
 20
122.514305
 10
-351.248005
 20
157.407999
  0
LINE
  5
2FA
100
AcDbEntity
  8
2
370
    25
100
AcDbLine
 10
-343.618604
 20
121.949873
 30
0.0
 11
-342.640979
 21
122.160225
 31
0.0
  0
LINE
  5
2FB
100
AcDbEntity
  8
2
370
    25
100
AcDbLine
 10
-342.640979
 20
122.160225
 30
0.0
 11
-343.982945
 21
123.64317
 31
0.0
  0
LINE
  5
2FC
100
AcDbEntity
  8
2
370
    25
100
AcDbLine
 10
-343.982945
 20
123.64317
 30
0.0
 11
-344.59623
 21
121.73952
 31
0.0
  0
LINE
  5
2FD
100
AcDbEntity
  8
2
370
    25
100
AcDbLine
 10
-344.59623
 20
121.73952
 30
0.0
 11
-343.618604
 21
121.949873
 31
0.0
  0
LWPOLYLINE
  5
2FE
100
AcDbEntity
  8
2
370
    18
100
AcDbPolyline
 90
        2
 70
     0
 10
-150.410156
 20
107.581482
 10
-132.366849
 20
157.683826
  0
LINE
  5
302
100
AcDbEntity
  8
2
370
    25
100
AcDbLine
 10
-150.605778
 20
107.038283
 30
0.0
 11
-149.664929
 21
106.699456
 31
0.0
  0
LINE
  5
303
100
AcDbEntity
  8
2
370
    25
100
AcDbLine
 10
-149.664929
 20
106.699456
 30
0.0
 11
-150.018913
 21
108.66788
 31
0.0
  0
LINE
  5
304
100
AcDbEntity
  8
2
370
    25
100
AcDbLine
 10
-150.018913
 20
108.66788
 30
0.0
 11
-151.546627
 21
107.37711
 31
0.0
  0
LINE
  5
305
100
AcDbEntity
  8
2
370
    25
100
AcDbLine
 10
-151.546627
 20
107.37711
 30
0.0
 11
-150.605778
 21
107.038283
 31
0.0
  0
LWPOLYLINE
  5
306
100
AcDbEntity
  8
2
370
    18
100
AcDbPolyline
 90
        2
 70
     0
 10
-43.135529
 20
122.514305
 10
-36.27384
 20
157.381336
  0
LINE
  5
30A
100
AcDbEntity
  8
2
370
    25
100
AcDbLine
 10
-43.24701
 20
121.94782
 30
0.0
 11
-42.26583
 21
121.754728
 31
0.0
  0
LINE
  5
30B
100
AcDbEntity
  8
2
370
    25
100
AcDbLine
 10
-42.26583
 20
121.754728
 30
0.0
 11
-42.912565
 21
123.647275
 31
0.0
  0
LINE
  5
30C
100
AcDbEntity
  8
2
370
    25
100
AcDbLine
 10
-42.912565
 20
123.647275
 30
0.0
 11
-44.228191
 21
122.140913
 31
0.0
  0
LINE
  5
30D
100
AcDbEntity
  8
2
370
    25
100
AcDbLine
 10
-44.228191
 20
122.140913
 30
0.0
 11
-43.24701
 21
121.94782
 31
0.0
  0
TEXT
  5
30E
100
AcDbEntity
  8
2
370
    18
100
AcDbText
 10
-38.575647
 20
160.990191
 30
0.0
 40
7.5
  1
２
 72
     5
 11
-32.575647
 21
160.990191
 31
0.0
100
AcDbText
  0
TEXT
  5
30F
100
AcDbEntity
  8
2
370
    18
100
AcDbText
 10
-133.575647
 20
160.990191
 30
0.0
 40
7.5
  1
３
 72
     5
 11
-127.575647
 21
160.990191
 31
0.0
100
AcDbText
  0
CIRCLE
  5
310
100
AcDbEntity
  8
2
370
    18
100
AcDbCircle
 10
-322.825647
 20
164.740191
 30
0.0
 40
7.5
  0
CIRCLE
  5
311
100
AcDbEntity
  8
2
370
    18
100
AcDbCircle
 10
-278.497999
 20
164.740191
 30
0.0
 40
7.5
  0
TEXT
  5
312
100
AcDbEntity
  8
2
370
    18
100
AcDbText
 10
-282.247999
 20
160.990191
 30
0.0
 40
7.5
  1
３
 72
     5
 11
-276.247999
 21
160.990191
 31
0.0
100
AcDbText
  0
LWPOLYLINE
  5
313
100
AcDbEntity
  8
2
370
    18
100
AcDbPolyline
 90
        2
 70
     0
 10
-233.482239
 20
88.543091
 10
-256.158574
 20
157.614386
  0
LINE
  5
317
100
AcDbEntity
  8
2
370
    25
100
AcDbLine
 10
-235.671042
 20
91.891097
 30
0.0
 11
-233.482239
 21
88.543091
 31
0.0
  0
LINE
  5
318
100
AcDbEntity
  8
2
370
    25
100
AcDbLine
 10
-233.482239
 20
88.543091
 30
0.0
 11
-233.703795
 21
92.53695
 31
0.0
  0
TEXT
  5
319
100
AcDbEntity
  8
2
370
    18
100
AcDbText
 10
-262.247999
 20
160.990191
 30
0.0
 40
7.5
  1
４
 72
     5
 11
-256.247999
 21
160.990191
 31
0.0
100
AcDbText
  0
TEXT
  5
31A
100
AcDbEntity
  8
2
370
    18
100
AcDbText
 10
-326.575647
 20
160.990191
 30
0.0
 40
7.5
  1
５
 72
     5
 11
-320.575647
 21
160.990191
 31
0.0
100
AcDbText
  0
LWPOLYLINE
  5
31B
100
AcDbEntity
  8
2
370
    18
100
AcDbPolyline
 90
        2
 70
     0
 10
-333.868958
 20
115.606079
 10
-324.470307
 20
157.42274
  0
LINE
  5
31F
100
AcDbEntity
  8
2
370
    25
100
AcDbLine
 10
-333.995563
 20
115.042781
 30
0.0
 11
-333.019903
 21
114.823493
 31
0.0
  0
LINE
  5
320
100
AcDbEntity
  8
2
370
    25
100
AcDbLine
 10
-333.019903
 20
114.823493
 30
0.0
 11
-333.615746
 21
116.732674
 31
0.0
  0
LINE
  5
321
100
AcDbEntity
  8
2
370
    25
100
AcDbLine
 10
-333.615746
 20
116.732674
 30
0.0
 11
-334.971224
 21
115.262069
 31
0.0
  0
LINE
  5
322
100
AcDbEntity
  8
2
370
    25
100
AcDbLine
 10
-334.971224
 20
115.262069
 30
0.0
 11
-333.995563
 21
115.042781
 31
0.0
  0
LWPOLYLINE
  5
323
100
AcDbEntity
  8
2
370
    18
100
AcDbPolyline
 90
        2
 70
     0
 10
-254.404617
 20
110.843048
 10
-275.437212
 20
157.893178
  0
LINE
  5
327
100
AcDbEntity
  8
2
370
    25
100
AcDbLine
 10
-254.168998
 20
110.315965
 30
0.0
 11
-253.256063
 21
110.72407
 31
0.0
  0
LINE
  5
328
100
AcDbEntity
  8
2
370
    25
100
AcDbLine
 10
-253.256063
 20
110.72407
 30
0.0
 11
-254.875856
 21
111.897215
 31
0.0
  0
LINE
  5
329
100
AcDbEntity
  8
2
370
    25
100
AcDbLine
 10
-254.875856
 20
111.897215
 30
0.0
 11
-255.081933
 21
109.90786
 31
0.0
  0
LINE
  5
32A
100
AcDbEntity
  8
2
370
    25
100
AcDbLine
 10
-255.081933
 20
109.90786
 30
0.0
 11
-254.168998
 21
110.315965
 31
0.0
  0
TEXT
  5
32B
100
AcDbEntity
  8
2
370
    18
100
AcDbText
 10
278.424353
 20
160.990191
 30
0.0
 40
7.5
  1
６
 72
     5
 11
284.424353
 21
160.990191
 31
0.0
100
AcDbText
  0
LINE
  5
32C
100
AcDbEntity
  8
2
370
    50
100
AcDbLine
 10
245.628395
 20
187.779846
 30
0.0
 11
245.628395
 21
236.779846
 31
0.0
  0
LINE
  5
32D
100
AcDbEntity
  8
2
370
    50
100
AcDbLine
 10
245.628395
 20
236.779846
 30
0.0
 11
389.128395
 21
236.779846
 31
0.0
  0
LINE
  5
32E
100
AcDbEntity
  8
2
370
    50
100
AcDbLine
 10
245.628395
 20
226.979846
 30
0.0
 11
389.128395
 21
226.979846
 31
0.0
  0
TEXT
  5
32F
100
AcDbEntity
  8
2
370
    18
100
AcDbText
 10
270.408395
 20
229.639846
 30
0.0
 40
4.48
  1
品　名
 72
     5
 11
282.952395
 21
229.639846
 31
0.0
100
AcDbText
  0
LINE
  5
330
100
AcDbEntity
  8
2
370
    50
100
AcDbLine
 10
245.628395
 20
217.179846
 30
0.0
 11
389.128395
 21
217.179846
 31
0.0
  0
LINE
  5
331
100
AcDbEntity
  8
2
370
    50
100
AcDbLine
 10
245.628395
 20
207.379846
 30
0.0
 11
389.128395
 21
207.379846
 31
0.0
  0
LINE
  5
332
100
AcDbEntity
  8
2
370
    50
100
AcDbLine
 10
245.628395
 20
197.579846
 30
0.0
 11
389.128395
 21
197.579846
 31
0.0
  0
LINE
  5
333
100
AcDbEntity
  8
2
370
    50
100
AcDbLine
 10
245.628395
 20
187.779846
 30
0.0
 11
389.128395
 21
187.779846
 31
0.0
  0
LINE
  5
334
100
AcDbEntity
  8
2
370
    50
100
AcDbLine
 10
308.628395
 20
187.779846
 30
0.0
 11
308.628395
 21
236.779846
 31
0.0
  0
TEXT
  5
335
100
AcDbEntity
  8
2
370
    18
100
AcDbText
 10
322.908395
 20
229.639846
 30
0.0
 40
4.48
  1
木部色
 72
     5
 11
335.452395
 21
229.639846
 31
0.0
100
AcDbText
  0
TEXT
  5
336
100
AcDbEntity
  8
2
370
    18
100
AcDbText
 10
313.388395
 20
219.839846
 30
0.0
 40
4.48
  1
ＣＯ：ココア
 72
     5
 11
339.372395
 21
219.839846
 31
0.0
100
AcDbText
  0
LINE
  5
337
100
AcDbEntity
  8
2
370
    50
100
AcDbLine
 10
350.628395
 20
187.779846
 30
0.0
 11
350.628395
 21
236.779846
 31
0.0
  0
TEXT
  5
338
100
AcDbEntity
  8
2
370
    18
100
AcDbText
 10
358.888395
 20
229.639846
 30
0.0
 40
4.48
  1
金属部仕上
 72
     5
 11
380.392395
 21
229.639846
 31
0.0
100
AcDbText
  0
TEXT
  5
339
100
AcDbEntity
  8
2
370
    18
100
AcDbText
 10
313.388395
 20
210.039846
 30
0.0
 40
4.48
  1
ＣＥ：センター
 72
     5
 11
343.852396
 21
210.039846
 31
0.0
100
AcDbText
  0
TEXT
  5
33A
100
AcDbEntity
  8
2
370
    18
100
AcDbText
 10
313.388395
 20
200.239846
 30
0.0
 40
4.48
  1
ＧＡ：ガゼル
 72
     5
 11
339.372395
 21
200.239846
 31
0.0
100
AcDbText
  0
TEXT
  5
33B
100
AcDbEntity
  8
2
370
    18
100
AcDbText
 10
313.388395
 20
190.439846
 30
0.0
 40
4.48
  1
ＦＩ：ファイン
 72
     5
 11
343.852396
 21
190.439846
 31
0.0
100
AcDbText
  0
TEXT
  5
33C
100
AcDbEntity
  8
2
370
    18
100
AcDbText
 10
356.438395
 20
219.839846
 30
0.0
 40
4.48
  1
塗装シルバー
 72
     5
 11
382.422395
 21
219.839846
 31
0.0
100
AcDbText
  0
TEXT
  5
33D
100
AcDbEntity
  8
2
370
    18
100
AcDbText
 10
356.438395
 20
210.039846
 30
0.0
 40
4.48
  1
塗装シルバー
 72
     5
 11
382.422395
 21
210.039846
 31
0.0
100
AcDbText
  0
TEXT
  5
33E
100
AcDbEntity
  8
2
370
    18
100
AcDbText
 10
356.438395
 20
200.239846
 30
0.0
 40
4.48
  1
塗装シルバー
 72
     5
 11
382.422395
 21
200.239846
 31
0.0
100
AcDbText
  0
TEXT
  5
33F
100
AcDbEntity
  8
2
370
    18
100
AcDbText
 10
356.438395
 20
190.439846
 30
0.0
 40
4.48
  1
塗装シルバー
 72
     5
 11
382.422395
 21
190.439846
 31
0.0
100
AcDbText
  0
LINE
  5
340
100
AcDbEntity
  8
2
370
    50
100
AcDbLine
 10
389.128395
 20
187.779846
 30
0.0
 11
389.128395
 21
236.779846
 31
0.0
  0
TEXT
  5
341
100
AcDbEntity
  8
2
370
    18
100
AcDbText
 10
250.388395
 20
219.839846
 30
0.0
 40
4.48
  1
ＢＨ－Ｋ１Ｇ－ＣＯ－ＭＳ
 72
     5
 11
303.252396
 21
219.839846
 31
0.0
100
AcDbText
  0
TEXT
  5
342
100
AcDbEntity
  8
2
370
    18
100
AcDbText
 10
250.388395
 20
210.039846
 30
0.0
 40
4.48
  1
ＢＨ－Ｋ１Ｇ－ＣＥ－ＭＳ
 72
     5
 11
303.252396
 21
210.039846
 31
0.0
100
AcDbText
  0
TEXT
  5
343
100
AcDbEntity
  8
2
370
    18
100
AcDbText
 10
250.388395
 20
200.239846
 30
0.0
 40
4.48
  1
ＢＨ－Ｋ１Ｇ－ＧＡ－ＭＳ
 72
     5
 11
303.252396
 21
200.239846
 31
0.0
100
AcDbText
  0
TEXT
  5
344
100
AcDbEntity
  8
2
370
    18
100
AcDbText
 10
250.388395
 20
190.439846
 30
0.0
 40
4.48
  1
ＢＨ－Ｋ１Ｇ－ＦＩ－ＭＳ
 72
     5
 11
303.252396
 21
190.439846
 31
0.0
100
AcDbText
  0
LINE
  5
345
100
AcDbEntity
  8
2
370
    50
100
AcDbLine
 10
-109.371605
 20
187.779846
 30
0.0
 11
-109.371605
 21
236.779846
 31
0.0
  0
LINE
  5
346
100
AcDbEntity
  8
2
370
    50
100
AcDbLine
 10
-109.371605
 20
236.779846
 30
0.0
 11
34.128395
 21
236.779846
 31
0.0
  0
LINE
  5
347
100
AcDbEntity
  8
2
370
    50
100
AcDbLine
 10
-109.371605
 20
226.979846
 30
0.0
 11
34.128395
 21
226.979846
 31
0.0
  0
TEXT
  5
348
100
AcDbEntity
  8
2
370
    18
100
AcDbText
 10
-84.591605
 20
229.639846
 30
0.0
 40
4.48
  1
品　名
 72
     5
 11
-72.047605
 21
229.639846
 31
0.0
100
AcDbText
  0
LINE
  5
349
100
AcDbEntity
  8
2
370
    50
100
AcDbLine
 10
-109.371605
 20
217.179846
 30
0.0
 11
34.128395
 21
217.179846
 31
0.0
  0
TEXT
  5
34A
100
AcDbEntity
  8
2
370
    18
100
AcDbText
 10
-104.611605
 20
219.839846
 30
0.0
 40
4.48
  1
ＢＨ－Ｒ１Ｇ－ＣＯ－ＭＳ
 72
     5
 11
-51.747604
 21
219.839846
 31
0.0
100
AcDbText
  0
LINE
  5
34B
100
AcDbEntity
  8
2
370
    50
100
AcDbLine
 10
-109.371605
 20
207.379846
 30
0.0
 11
34.128395
 21
207.379846
 31
0.0
  0
LINE
  5
34C
100
AcDbEntity
  8
2
370
    50
100
AcDbLine
 10
-109.371605
 20
197.579846
 30
0.0
 11
34.128395
 21
197.579846
 31
0.0
  0
LINE
  5
34D
100
AcDbEntity
  8
2
370
    50
100
AcDbLine
 10
-109.371605
 20
187.779846
 30
0.0
 11
34.128395
 21
187.779846
 31
0.0
  0
LINE
  5
34E
100
AcDbEntity
  8
2
370
    50
100
AcDbLine
 10
-46.371605
 20
187.779846
 30
0.0
 11
-46.371605
 21
236.779846
 31
0.0
  0
TEXT
  5
34F
100
AcDbEntity
  8
2
370
    18
100
AcDbText
 10
-32.091605
 20
229.639846
 30
0.0
 40
4.48
  1
木部色
 72
     5
 11
-19.547605
 21
229.639846
 31
0.0
100
AcDbText
  0
TEXT
  5
350
100
AcDbEntity
  8
2
370
    18
100
AcDbText
 10
-41.611605
 20
219.839846
 30
0.0
 40
4.48
  1
ＣＯ：ココア
 72
     5
 11
-15.627605
 21
219.839846
 31
0.0
100
AcDbText
  0
LINE
  5
351
100
AcDbEntity
  8
2
370
    50
100
AcDbLine
 10
-4.371605
 20
187.779846
 30
0.0
 11
-4.371605
 21
236.779846
 31
0.0
  0
TEXT
  5
352
100
AcDbEntity
  8
2
370
    18
100
AcDbText
 10
3.888395
 20
229.639846
 30
0.0
 40
4.48
  1
金属部仕上
 72
     5
 11
25.392395
 21
229.639846
 31
0.0
100
AcDbText
  0
TEXT
  5
353
100
AcDbEntity
  8
2
370
    18
100
AcDbText
 10
-104.611605
 20
210.039846
 30
0.0
 40
4.48
  1
ＢＨ－Ｒ１Ｇ－ＣＥ－ＭＳ
 72
     5
 11
-51.747604
 21
210.039846
 31
0.0
100
AcDbText
  0
TEXT
  5
354
100
AcDbEntity
  8
2
370
    18
100
AcDbText
 10
-104.611605
 20
200.239846
 30
0.0
 40
4.48
  1
ＢＨ－Ｒ１Ｇ－ＧＡ－ＭＳ
 72
     5
 11
-51.747604
 21
200.239846
 31
0.0
100
AcDbText
  0
TEXT
  5
355
100
AcDbEntity
  8
2
370
    18
100
AcDbText
 10
-104.611605
 20
190.439846
 30
0.0
 40
4.48
  1
ＢＨ－Ｒ１Ｇ－ＦＩ－ＭＳ
 72
     5
 11
-51.747604
 21
190.439846
 31
0.0
100
AcDbText
  0
TEXT
  5
356
100
AcDbEntity
  8
2
370
    18
100
AcDbText
 10
-41.611605
 20
210.039846
 30
0.0
 40
4.48
  1
ＣＥ：センター
 72
     5
 11
-11.147604
 21
210.039846
 31
0.0
100
AcDbText
  0
TEXT
  5
357
100
AcDbEntity
  8
2
370
    18
100
AcDbText
 10
-41.611605
 20
200.239846
 30
0.0
 40
4.48
  1
ＧＡ：ガゼル
 72
     5
 11
-15.627605
 21
200.239846
 31
0.0
100
AcDbText
  0
TEXT
  5
358
100
AcDbEntity
  8
2
370
    18
100
AcDbText
 10
-41.611605
 20
190.439846
 30
0.0
 40
4.48
  1
ＦＩ：ファイン
 72
     5
 11
-11.147604
 21
190.439846
 31
0.0
100
AcDbText
  0
TEXT
  5
359
100
AcDbEntity
  8
2
370
    18
100
AcDbText
 10
1.438395
 20
219.839846
 30
0.0
 40
4.48
  1
塗装シルバー
 72
     5
 11
27.422395
 21
219.839846
 31
0.0
100
AcDbText
  0
TEXT
  5
35A
100
AcDbEntity
  8
2
370
    18
100
AcDbText
 10
1.438395
 20
210.039846
 30
0.0
 40
4.48
  1
塗装シルバー
 72
     5
 11
27.422395
 21
210.039846
 31
0.0
100
AcDbText
  0
TEXT
  5
35B
100
AcDbEntity
  8
2
370
    18
100
AcDbText
 10
1.438395
 20
200.239846
 30
0.0
 40
4.48
  1
塗装シルバー
 72
     5
 11
27.422395
 21
200.239846
 31
0.0
100
AcDbText
  0
TEXT
  5
35C
100
AcDbEntity
  8
2
370
    18
100
AcDbText
 10
1.438395
 20
190.439846
 30
0.0
 40
4.48
  1
塗装シルバー
 72
     5
 11
27.422395
 21
190.439846
 31
0.0
100
AcDbText
  0
LINE
  5
35D
100
AcDbEntity
  8
2
370
    50
100
AcDbLine
 10
34.128395
 20
187.779846
 30
0.0
 11
34.128395
 21
236.779846
 31
0.0
  0
LINE
  5
35E
100
AcDbEntity
  8
2
370
    18
  6
PHANTOM
100
AcDbLine
 10
0.838177
 20
178.458023
 30
0.0
 11
0.838177
 21
-187.232635
 31
0.0
  0
TEXT
  5
35F
100
AcDbEntity
  8
3
370
    18
100
AcDbText
 10
204.0
 20
-128.2
 30
0.0
 40
6.4
  1
バーハンドル用引手
 72
     5
 11
260.320001
 21
-128.2
 31
0.0
100
AcDbText
  0
TEXT
  5
360
100
AcDbEntity
  8
3
370
    18
100
AcDbText
 10
204.0
 20
-198.2
 30
0.0
 40
6.4
  1
ブラケットベース　皿穴側
 72
     5
 11
279.520001
 21
-198.2
 31
0.0
100
AcDbText
  0
TEXT
  5
361
100
AcDbEntity
  8
3
370
    18
100
AcDbText
 10
204.0
 20
-184.2
 30
0.0
 40
6.4
  1
ブラケットベース　呼込足側
 72
     5
 11
285.920001
 21
-184.2
 31
0.0
100
AcDbText
  0
TEXT
  5
362
100
AcDbEntity
  8
3
370
    18
100
AcDbText
 10
204.0
 20
-170.2
 30
0.0
 40
6.4
  1
木バー付きブラケット
 72
     5
 11
266.720001
 21
-170.2
 31
0.0
100
AcDbText
  0
TEXT
  5
363
100
AcDbEntity
  8
3
370
    18
100
AcDbText
 10
204.0
 20
-156.2
 30
0.0
 40
6.4
  1
木バー付きブラケット　取付ネジ
 72
     5
 11
298.720001
 21
-156.2
 31
0.0
100
AcDbText
  0
TEXT
  5
364
100
AcDbEntity
  8
3
370
    18
100
AcDbText
 10
204.0
 20
-142.2
 30
0.0
 40
6.4
  1
ブラケットベース　取付ネジ
 72
     5
 11
285.920001
 21
-142.2
 31
0.0
100
AcDbText
  0
TEXT
  5
365
100
AcDbEntity
  8
3
370
    18
100
AcDbText
 10
386.8
 20
-142.2
 30
0.0
 40
6.4
  1
２
 72
     5
 11
391.92
 21
-142.2
 31
0.0
100
AcDbText
  0
TEXT
  5
366
100
AcDbEntity
  8
3
370
    18
100
AcDbText
 10
324.0
 20
-142.9
 30
0.0
 40
6.4
  1
十字穴付皿小ネジＭ４×３０
 41
0.6
 72
     5
 11
373.152001
 21
-142.9
 31
0.0
100
AcDbText
  0
TEXT
  5
367
100
AcDbEntity
  8
3
370
    18
100
AcDbText
 10
324.0
 20
-156.9
 30
0.0
 40
6.4
  1
十字穴付皿小ネジＭ４×３０
 41
0.6
 72
     5
 11
373.152001
 21
-156.9
 31
0.0
100
AcDbText
  0
LINE
  5
368
100
AcDbEntity
  8
3
370
    25
100
AcDbLine
 10
180.0
 20
-259.999729
 30
0.0
 11
216.001054
 21
-259.999729
 31
0.0
  0
LINE
  5
369
100
AcDbEntity
  8
3
370
    25
100
AcDbLine
 10
216.001054
 20
-259.999729
 30
0.0
 11
216.001054
 21
-250.0
 31
0.0
  0
TEXT
  5
36A
100
AcDbEntity
  8
3
370
    25
100
AcDbText
 10
183.600527
 20
-224.59988
 30
0.0
 40
7.2
  1
図面名称
 72
     5
 11
210.960527
 21
-224.59988
 31
0.0
100
AcDbText
  0
TEXT
  5
36B
100
AcDbEntity
  8
3
370
    25
100
AcDbText
 10
183.600527
 20
-258.599849
 30
0.0
 40
7.2
  1
図面番号
 72
     5
 11
210.960527
 21
-258.599849
 31
0.0
100
AcDbText
  0
TEXT
  5
36C
100
AcDbEntity
  8
3
370
    18
100
AcDbText
 10
186.8
 20
-184.6
 30
0.0
 40
6.4
  1
２
 72
     5
 11
191.92
 21
-184.6
 31
0.0
100
AcDbText
  0
TEXT
  5
36D
100
AcDbEntity
  8
3
370
    18
100
AcDbText
 10
186.8
 20
-170.6
 30
0.0
 40
6.4
  1
３
 72
     5
 11
191.92
 21
-170.6
 31
0.0
100
AcDbText
  0
TEXT
  5
36E
100
AcDbEntity
  8
3
370
    18
100
AcDbText
 10
186.8
 20
-156.6
 30
0.0
 40
6.4
  1
４
 72
     5
 11
191.92
 21
-156.6
 31
0.0
100
AcDbText
  0
TEXT
  5
36F
100
AcDbEntity
  8
3
370
    18
100
AcDbText
 10
186.8
 20
-198.6
 30
0.0
 40
6.4
  1
１
 72
     5
 11
191.92
 21
-198.6
 31
0.0
100
AcDbText
  0
TEXT
  5
370
100
AcDbEntity
  8
3
370
    18
100
AcDbText
 10
186.8
 20
-142.6
 30
0.0
 40
6.4
  1
５
 72
     5
 11
191.92
 21
-142.6
 31
0.0
100
AcDbText
  0
TEXT
  5
371
100
AcDbEntity
  8
3
370
    18
100
AcDbText
 10
186.8
 20
-128.6
 30
0.0
 40
6.4
  1
６
 72
     5
 11
191.92
 21
-128.6
 31
0.0
100
AcDbText
  0
LINE
  5
372
100
AcDbEntity
  8
3
370
   100
100
AcDbLine
 10
-380.0
 20
276.0
 30
0.0
 11
-380.0
 21
-276.0
 31
0.0
  0
LINE
  5
373
100
AcDbEntity
  8
3
370
   100
100
AcDbLine
 10
400.0
 20
276.0
 30
0.0
 11
400.0
 21
-276.0
 31
0.0
  0
LINE
  5
374
100
AcDbEntity
  8
3
370
   100
100
AcDbLine
 10
-380.0
 20
276.0
 30
0.0
 11
400.0
 21
276.0
 31
0.0
  0
LINE
  5
375
100
AcDbEntity
  8
3
370
   100
100
AcDbLine
 10
-380.0
 20
-276.0
 30
0.0
 11
400.0
 21
-276.0
 31
0.0
  0
LINE
  5
376
100
AcDbEntity
  8
3
370
    50
100
AcDbLine
 10
-380.0
 20
-216.0
 30
0.0
 11
400.0
 21
-216.0
 31
0.0
  0
LINE
  5
377
100
AcDbEntity
  8
3
370
    25
100
AcDbLine
 10
20.0
 20
-225.999897
 30
0.0
 11
216.001054
 21
-225.999729
 31
0.0
  0
LINE
  5
378
100
AcDbEntity
  8
3
370
   100
100
AcDbLine
 10
-380.6
 20
276.6
 30
0.0
 11
400.6
 21
276.6
 31
0.0
  0
LINE
  5
379
100
AcDbEntity
  8
3
370
   100
100
AcDbLine
 10
400.6
 20
276.6
 30
0.0
 11
400.6
 21
-276.6
 31
0.0
  0
LINE
  5
37A
100
AcDbEntity
  8
3
370
   100
100
AcDbLine
 10
400.6
 20
-276.6
 30
0.0
 11
-380.6
 21
-276.6
 31
0.0
  0
LINE
  5
37B
100
AcDbEntity
  8
3
370
   100
100
AcDbLine
 10
-380.6
 20
-276.6
 30
0.0
 11
-380.6
 21
276.6
 31
0.0
  0
LINE
  5
37C
100
AcDbEntity
  8
3
370
    25
100
AcDbLine
 10
216.001054
 20
-225.999729
 30
0.0
 11
216.001054
 21
-216.0
 31
0.0
  0
LINE
  5
37D
100
AcDbEntity
  8
3
370
    25
100
AcDbLine
 10
180.0
 20
-259.999729
 30
0.0
 11
216.001054
 21
-259.999729
 31
0.0
  0
LINE
  5
37E
100
AcDbEntity
  8
3
370
    25
100
AcDbLine
 10
216.001054
 20
-259.999729
 30
0.0
 11
216.001054
 21
-250.0
 31
0.0
  0
LINE
  5
37F
100
AcDbEntity
  8
3
370
    50
100
AcDbLine
 10
180.0
 20
-202.0
 30
0.0
 11
400.0
 21
-202.0
 31
0.0
  0
LINE
  5
380
100
AcDbEntity
  8
3
370
    50
100
AcDbLine
 10
180.0
 20
-118.0
 30
0.0
 11
180.0
 21
-216.0
 31
0.0
  0
LINE
  5
381
100
AcDbEntity
  8
3
370
    50
100
AcDbLine
 10
20.0
 20
-216.0
 30
0.0
 11
20.0
 21
-276.0
 31
0.0
  0
TEXT
  5
382
100
AcDbEntity
  8
3
370
   100
100
AcDbText
 10
44.0
 20
-271.0
 30
0.0
 40
16.0
  1
（株）川口技研
 72
     5
 11
152.8
 21
-271.0
 31
0.0
100
AcDbText
  0
TEXT
  5
383
100
AcDbEntity
  8
3
370
    25
100
AcDbText
 10
183.600527
 20
-224.59988
 30
0.0
 40
7.2
  1
図面名称
 72
     5
 11
210.960527
 21
-224.59988
 31
0.0
100
AcDbText
  0
TEXT
  5
384
100
AcDbEntity
  8
3
370
    25
100
AcDbText
 10
183.600527
 20
-258.599849
 30
0.0
 40
7.2
  1
図面番号
 72
     5
 11
210.960527
 21
-258.599849
 31
0.0
100
AcDbText
  0
TEXT
  5
385
100
AcDbEntity
  8
3
370
    25
100
AcDbText
 10
32.266667
 20
-224.599983
 30
0.0
 40
7.2
  1
図　　法
 72
     5
 11
59.626667
 21
-224.599983
 31
0.0
100
AcDbText
  0
TEXT
  5
386
100
AcDbEntity
  8
3
370
    25
100
AcDbText
 10
85.6
 20
-224.599949
 30
0.0
 40
7.2
  1
単　　位
 72
     5
 11
112.96
 21
-224.599949
 31
0.0
100
AcDbText
  0
TEXT
  5
387
100
AcDbEntity
  8
3
370
    25
100
AcDbText
 10
138.933333
 20
-224.599914
 30
0.0
 40
7.2
  1
尺　　度
 72
     5
 11
166.293333
 21
-224.599914
 31
0.0
100
AcDbText
  0
TEXT
  5
388
100
AcDbEntity
  8
3
370
    25
100
AcDbText
 10
182.8
 20
-212.6
 30
0.0
 40
7.2
  1
品番
 72
     5
 11
195.76
 21
-212.6
 31
0.0
100
AcDbText
  0
TEXT
  5
389
100
AcDbEntity
  8
3
370
    25
100
AcDbText
 10
234.8
 20
-212.6
 30
0.0
 40
7.2
  1
品　　　　　名
 72
     5
 11
283.76
 21
-212.6
 31
0.0
100
AcDbText
  0
TEXT
  5
38A
100
AcDbEntity
  8
3
370
    25
100
AcDbText
 10
382.8
 20
-212.6
 30
0.0
 40
7.2
  1
員数
 72
     5
 11
395.76
 21
-212.6
 31
0.0
100
AcDbText
  0
TEXT
  5
38B
100
AcDbEntity
  8
3
370
    25
100
AcDbText
 10
92.0
 20
-241.999914
 30
0.0
 40
8.0
  1
ｍｍ
 72
     5
 11
106.4
 21
-241.999914
 31
0.0
100
AcDbText
  0
TEXT
  5
38C
100
AcDbEntity
  8
3
370
    25
100
AcDbText
 10
34.666667
 20
-241.999914
 30
0.0
 40
8.0
  1
３角法
 72
     5
 11
57.066667
 21
-241.999914
 31
0.0
100
AcDbText
  0
LINE
  5
38D
100
AcDbEntity
  8
3
370
    50
100
AcDbLine
 10
180.0
 20
-276.0
 30
0.0
 11
180.0
 21
-216.0
 31
0.0
  0
LINE
  5
38E
100
AcDbEntity
  8
3
370
    50
100
AcDbLine
 10
320.0
 20
-216.0
 30
0.0
 11
320.0
 21
-118.0
 31
0.0
  0
LINE
  5
38F
100
AcDbEntity
  8
3
370
    50
100
AcDbLine
 10
200.0
 20
-216.0
 30
0.0
 11
200.0
 21
-118.0
 31
0.0
  0
LINE
  5
390
100
AcDbEntity
  8
3
370
    50
100
AcDbLine
 10
20.0
 20
-250.0
 30
0.0
 11
180.0
 21
-250.0
 31
0.0
  0
LINE
  5
391
100
AcDbEntity
  8
3
370
    50
100
AcDbLine
 10
180.0
 20
-250.0
 30
0.0
 11
400.0
 21
-250.0
 31
0.0
  0
LINE
  5
392
100
AcDbEntity
  8
3
370
    50
100
AcDbLine
 10
73.333333
 20
-250.0
 30
0.0
 11
73.333333
 21
-216.0
 31
0.0
  0
LINE
  5
393
100
AcDbEntity
  8
3
370
    50
100
AcDbLine
 10
126.666667
 20
-250.0
 30
0.0
 11
126.666667
 21
-216.0
 31
0.0
  0
TEXT
  5
394
100
AcDbEntity
  8
3
370
    25
100
AcDbText
 10
339.2
 20
-212.6
 30
0.0
 40
7.2
  1
寸　法
 72
     5
 11
359.36
 21
-212.6
 31
0.0
100
AcDbText
  0
LINE
  5
395
100
AcDbEntity
  8
3
370
    50
100
AcDbLine
 10
180.0
 20
-188.0
 30
0.0
 11
400.0
 21
-188.0
 31
0.0
  0
LINE
  5
396
100
AcDbEntity
  8
3
370
    50
100
AcDbLine
 10
180.0
 20
-174.0
 30
0.0
 11
400.0
 21
-174.0
 31
0.0
  0
LINE
  5
397
100
AcDbEntity
  8
3
370
    50
100
AcDbLine
 10
180.0
 20
-160.0
 30
0.0
 11
400.0
 21
-160.0
 31
0.0
  0
LINE
  5
398
100
AcDbEntity
  8
3
370
    50
100
AcDbLine
 10
180.0
 20
-146.0
 30
0.0
 11
400.0
 21
-146.0
 31
0.0
  0
LINE
  5
399
100
AcDbEntity
  8
3
370
    50
100
AcDbLine
 10
180.0
 20
-132.0
 30
0.0
 11
400.0
 21
-132.0
 31
0.0
  0
LINE
  5
39A
100
AcDbEntity
  8
3
370
    50
100
AcDbLine
 10
180.0
 20
-118.0
 30
0.0
 11
400.0
 21
-118.0
 31
0.0
  0
LINE
  5
39B
100
AcDbEntity
  8
3
370
    50
100
AcDbLine
 10
380.0
 20
-216.0
 30
0.0
 11
380.0
 21
-118.0
 31
0.0
  0
TEXT
  5
39C
100
AcDbEntity
  8
3
370
    18
100
AcDbText
 10
381.04
 20
-156.2
 30
0.0
 40
6.4
  1
４ｏｒ２
 41
0.7
 72
     5
 11
398.064
 21
-156.2
 31
0.0
100
AcDbText
  0
TEXT
  5
39D
100
AcDbEntity
  8
3
370
    18
100
AcDbText
 10
381.04
 20
-170.2
 30
0.0
 40
6.4
  1
２ｏｒ１
 41
0.7
 72
     5
 11
398.064
 21
-170.2
 31
0.0
100
AcDbText
  0
TEXT
  5
39E
100
AcDbEntity
  8
3
370
    18
100
AcDbText
 10
381.04
 20
-198.2
 30
0.0
 40
6.4
  1
１ｏｒ０
 41
0.7
 72
     5
 11
398.064
 21
-198.2
 31
0.0
100
AcDbText
  0
TEXT
  5
39F
100
AcDbEntity
  8
3
370
    18
100
AcDbText
 10
381.04
 20
-128.2
 30
0.0
 40
6.4
  1
１ｏｒ０
 41
0.7
 72
     5
 11
398.064
 21
-128.2
 31
0.0
100
AcDbText
  0
TEXT
  5
3A0
100
AcDbEntity
  8
3
370
   100
100
AcDbText
 10
231.500099
 20
-269.477787
 30
0.0
 40
12.0
  1
ＤＺ－１９７１－００
 72
     5
 11
349.100099
 21
-269.477787
 31
0.0
100
AcDbText
  0
TEXT
  5
3A1
100
AcDbEntity
  8
3
370
    50
100
AcDbText
 10
181.664537
 20
-241.442936
 30
0.0
 40
9.0
  1
ＢＨ－（Ｒ・Ｋ）１Ｇ－（ＣＯ・ＣＥ・ＧＡ・ＦＩ）－ＭＳ　外観図
 41
0.75
 72
     5
 11
389.564537
 21
-241.442936
 31
0.0
100
AcDbText
  0
TEXT
  5
3A2
100
AcDbEntity
  8
3
370
    25
100
AcDbText
 10
141.333333
 20
-241.999914
 30
0.0
 40
8.0
  1
１／２
 72
     5
 11
163.733333
 21
-241.999914
 31
0.0
100
AcDbText
  0
TEXT
  5
3A3
100
AcDbEntity
  8
3
370
    18
100
AcDbText
 10
386.8
 20
-184.2
 30
0.0
 40
6.4
  1
１
 72
     5
 11
391.92
 21
-184.2
 31
0.0
100
AcDbText
  0
ENDSEC
  0
SECTION
  2
OBJECTS
  0
DICTIONARY
  5
4F0
100
AcDbDictionary
280
     0
281
     1
  3
ACAD_GROUP
350
4F1
  3
ACAD_MLINESTYLE
350
4F2
  0
DICTIONARY
  5
4F1
102
{ACAD_REACTORS
330
4F0
102
}
100
AcDbDictionary
280
     0
281
     1
  0
DICTIONARY
  5
4F2
102
{ACAD_REACTORS
330
4F0
102
}
100
AcDbDictionary
280
     0
281
     1
  3
Standard
350
4F3
  0
MLINESTYLE
  5
4F3
102
{ACAD_REACTORS
330
4F2
102
}
100
AcDbMlineStyle
  2
Standard
 70
     0
  3

 62
     0
 51
90.0
 52
90.0
 71
     2
 49
0.5
 62
   256
  6
ByLayer
 49
-0.5
 62
   256
  6
ByLayer
  0
ENDSEC
  0
EOF
